  0
SECTION
  2
HEADER
  9
$ACADVER
  1
AC1027
  9
$ACADMAINTVER
 70
     8
  9
$DWGCODEPAGE
  3
ANSI_932
  9
$REQUIREDVERSIONS
160
                 0
  9
$INSBASE
 10
0.0
 20
0.0
 30
0.0
  9
$EXTMIN
 10
20.00000899999986
 20
20.0
 30
0.0
  9
$EXTMAX
 10
354.0174901641667
 20
282.9527418311884
 30
0.0
  9
$LIMMIN
 10
0.0
 20
0.0
  9
$LIMMAX
 10
420.0
 20
297.0
  9
$ORTHOMODE
 70
     0
  9
$REGENMODE
 70
     1
  9
$FILLMODE
 70
     1
  9
$QTEXTMODE
 70
     0
  9
$MIRRTEXT
 70
     1
  9
$LTSCALE
 40
0.25
  9
$ATTMODE
 70
     1
  9
$TEXTSIZE
 40
2.8
  9
$TRACEWID
 40
0.05
  9
$TEXTSTYLE
  7
Standard
  9
$CLAYER
  8
0
  9
$CELTYPE
  6
ByLayer
  9
$CECOLOR
 62
   256
  9
$CELTSCALE
 40
1.0
  9
$DISPSILH
 70
     0
  9
$DIMSCALE
 40
1.0
  9
$DIMASZ
 40
1.55291427
  9
$DIMEXO
 40
2.0
  9
$DIMDLI
 40
30.0
  9
$DIMRND
 40
0.0
  9
$DIMDLE
 40
0.0
  9
$DIMEXE
 40
2.0
  9
$DIMTP
 40
0.0
  9
$DIMTM
 40
0.0
  9
$DIMTXT
 40
2.8
  9
$DIMCEN
 40
0.09
  9
$DIMTSZ
 40
0.0
  9
$DIMTOL
 70
     0
  9
$DIMLIM
 70
     0
  9
$DIMTIH
 70
     0
  9
$DIMTOH
 70
     0
  9
$DIMSE1
 70
     0
  9
$DIMSE2
 70
     0
  9
$DIMTAD
 70
     3
  9
$DIMZIN
 70
     8
  9
$DIMBLK
  1

  9
$DIMASO
 70
     1
  9
$DIMSHO
 70
     1
  9
$DIMPOST
  1

  9
$DIMAPOST
  1

  9
$DIMALT
 70
     0
  9
$DIMALTD
 70
     2
  9
$DIMALTF
 40
25.4
  9
$DIMLFAC
 40
1.0
  9
$DIMTOFL
 70
     1
  9
$DIMTVP
 40
0.7
  9
$DIMTIX
 70
     0
  9
$DIMSOXD
 70
     0
  9
$DIMSAH
 70
     0
  9
$DIMBLK1
  1

  9
$DIMBLK2
  1

  9
$DIMSTYLE
  2
Standard
  9
$DIMCLRD
 70
     0
  9
$DIMCLRE
 70
     0
  9
$DIMCLRT
 70
     0
  9
$DIMTFAC
 40
0.5
  9
$DIMGAP
 40
0.09
  9
$DIMJUST
 70
     0
  9
$DIMSD1
 70
     0
  9
$DIMSD2
 70
     0
  9
$DIMTOLJ
 70
     1
  9
$DIMTZIN
 70
     8
  9
$DIMALTZ
 70
     0
  9
$DIMALTTZ
 70
     0
  9
$DIMUPT
 70
     1
  9
$DIMDEC
 70
     2
  9
$DIMTDEC
 70
     4
  9
$DIMALTU
 70
     2
  9
$DIMALTTD
 70
     2
  9
$DIMTXSTY
  7
Standard
  9
$DIMAUNIT
 70
     0
  9
$DIMADEC
 70
     0
  9
$DIMALTRND
 40
0.0
  9
$DIMAZIN
 70
     0
  9
$DIMDSEP
 70
    46
  9
$DIMATFIT
 70
     2
  9
$DIMFRAC
 70
     0
  9
$DIMLDRBLK
  1

  9
$DIMLUNIT
 70
     2
  9
$DIMLWD
 70
    -2
  9
$DIMLWE
 70
    -2
  9
$DIMTMOVE
 70
     2
  9
$DIMFXL
 40
1.0
  9
$DIMFXLON
 70
     0
  9
$DIMJOGANG
 40
0.7853981633974483
  9
$DIMTFILL
 70
     0
  9
$DIMTFILLCLR
 70
     0
  9
$DIMARCSYM
 70
     0
  9
$DIMLTYPE
  6

  9
$DIMLTEX1
  6

  9
$DIMLTEX2
  6

  9
$DIMTXTDIRECTION
 70
     0
  9
$LUNITS
 70
     2
  9
$LUPREC
 70
     4
  9
$SKETCHINC
 40
0.1
  9
$FILLETRAD
 40
0.5
  9
$AUNITS
 70
     0
  9
$AUPREC
 70
     0
  9
$MENU
  1
.
  9
$ELEVATION
 40
0.0
  9
$PELEVATION
 40
0.0
  9
$THICKNESS
 40
0.0
  9
$LIMCHECK
 70
     0
  9
$CHAMFERA
 40
0.0
  9
$CHAMFERB
 40
0.0
  9
$CHAMFERC
 40
0.0
  9
$CHAMFERD
 40
0.0
  9
$SKPOLY
 70
     0
  9
$TDCREATE
 40
2460053.983136574
  9
$TDUCREATE
 40
2460053.608136574
  9
$TDUPDATE
 40
2460053.608138391
  9
$TDUUPDATE
 40
2460053.233138391
  9
$TDINDWG
 40
0.0000000116
  9
$TDUSRTIMER
 40
0.0000000116
  9
$USRTIMER
 70
     1
  9
$ANGBASE
 50
0.0
  9
$ANGDIR
 70
     0
  9
$PDMODE
 70
     0
  9
$PDSIZE
 40
0.0
  9
$PLINEWID
 40
0.0
  9
$SPLFRAME
 70
     0
  9
$SPLINETYPE
 70
     6
  9
$SPLINESEGS
 70
     8
  9
$HANDSEED
  5
304
  9
$SURFTAB1
 70
     6
  9
$SURFTAB2
 70
     6
  9
$SURFTYPE
 70
     6
  9
$SURFU
 70
     6
  9
$SURFV
 70
     6
  9
$UCSBASE
  2

  9
$UCSNAME
  2

  9
$UCSORG
 10
0.0
 20
0.0
 30
0.0
  9
$UCSXDIR
 10
1.0
 20
0.0
 30
0.0
  9
$UCSYDIR
 10
0.0
 20
1.0
 30
0.0
  9
$UCSORTHOREF
  2

  9
$UCSORTHOVIEW
 70
     0
  9
$UCSORGTOP
 10
0.0
 20
0.0
 30
0.0
  9
$UCSORGBOTTOM
 10
0.0
 20
0.0
 30
0.0
  9
$UCSORGLEFT
 10
0.0
 20
0.0
 30
0.0
  9
$UCSORGRIGHT
 10
0.0
 20
0.0
 30
0.0
  9
$UCSORGFRONT
 10
0.0
 20
0.0
 30
0.0
  9
$UCSORGBACK
 10
0.0
 20
0.0
 30
0.0
  9
$PUCSBASE
  2

  9
$PUCSNAME
  2

  9
$PUCSORG
 10
0.0
 20
0.0
 30
0.0
  9
$PUCSXDIR
 10
1.0
 20
0.0
 30
0.0
  9
$PUCSYDIR
 10
0.0
 20
1.0
 30
0.0
  9
$PUCSORTHOREF
  2

  9
$PUCSORTHOVIEW
 70
     0
  9
$PUCSORGTOP
 10
0.0
 20
0.0
 30
0.0
  9
$PUCSORGBOTTOM
 10
0.0
 20
0.0
 30
0.0
  9
$PUCSORGLEFT
 10
0.0
 20
0.0
 30
0.0
  9
$PUCSORGRIGHT
 10
0.0
 20
0.0
 30
0.0
  9
$PUCSORGFRONT
 10
0.0
 20
0.0
 30
0.0
  9
$PUCSORGBACK
 10
0.0
 20
0.0
 30
0.0
  9
$USERI1
 70
     0
  9
$USERI2
 70
     0
  9
$USERI3
 70
     0
  9
$USERI4
 70
     0
  9
$USERI5
 70
     0
  9
$USERR1
 40
0.0
  9
$USERR2
 40
0.0
  9
$USERR3
 40
0.0
  9
$USERR4
 40
0.0
  9
$USERR5
 40
0.0
  9
$WORLDVIEW
 70
     1
  9
$SHADEDGE
 70
     3
  9
$SHADEDIF
 70
    70
  9
$TILEMODE
 70
     1
  9
$MAXACTVP
 70
    64
  9
$PINSBASE
 10
0.0
 20
0.0
 30
0.0
  9
$PLIMCHECK
 70
     0
  9
$PEXTMIN
 10
0.0
 20
0.0
 30
0.0
  9
$PEXTMAX
 10
420.0
 20
297.0
 30
0.0
  9
$PLIMMIN
 10
0.0
 20
0.0
  9
$PLIMMAX
 10
420.0
 20
297.0
  9
$UNITMODE
 70
     0
  9
$VISRETAIN
 70
     1
  9
$PLINEGEN
 70
     0
  9
$PSLTSCALE
 70
     1
  9
$TREEDEPTH
 70
  3020
  9
$CMLSTYLE
  2
Standard
  9
$CMLJUST
 70
     0
  9
$CMLSCALE
 40
1.0
  9
$PROXYGRAPHICS
 70
     1
  9
$MEASUREMENT
 70
     1
  9
$CELWEIGHT
370
    -1
  9
$ENDCAPS
280
     0
  9
$JOINSTYLE
280
     0
  9
$LWDISPLAY
290
     0
  9
$INSUNITS
 70
     4
  9
$HYPERLINKBASE
  1

  9
$STYLESHEET
  1

  9
$XEDIT
290
     1
  9
$CEPSNTYPE
380
     0
  9
$PSTYLEMODE
290
     1
  9
$FINGERPRINTGUID
  2
{92902991-83A4-4512-86FD-32F985BBE954}
  9
$VERSIONGUID
  2
{FAEB1C32-E019-11D5-929B-00C0DF256EC4}
  9
$EXTNAMES
290
     1
  9
$PSVPSCALE
 40
0.0
  9
$OLESTARTUP
290
     0
  9
$SORTENTS
280
   127
  9
$INDEXCTL
280
     0
  9
$HIDETEXT
280
     1
  9
$XCLIPFRAME
280
     2
  9
$HALOGAP
280
     0
  9
$OBSCOLOR
 70
   257
  9
$OBSLTYPE
280
     0
  9
$INTERSECTIONDISPLAY
280
     0
  9
$INTERSECTIONCOLOR
 70
   257
  9
$DIMASSOC
280
     1
  9
$PROJECTNAME
  1

  9
$CAMERADISPLAY
290
     0
  9
$LENSLENGTH
 40
50.0
  9
$CAMERAHEIGHT
 40
0.0
  9
$STEPSPERSEC
 40
2.0
  9
$STEPSIZE
 40
6.0
  9
$3DDWFPREC
 40
2.0
  9
$PSOLWIDTH
 40
0.25
  9
$PSOLHEIGHT
 40
4.0
  9
$LOFTANG1
 40
1.570796326794897
  9
$LOFTANG2
 40
1.570796326794897
  9
$LOFTMAG1
 40
0.0
  9
$LOFTMAG2
 40
0.0
  9
$LOFTPARAM
 70
     7
  9
$LOFTNORMALS
280
     1
  9
$LATITUDE
 40
37.795
  9
$LONGITUDE
 40
-122.394
  9
$NORTHDIRECTION
 40
0.0
  9
$TIMEZONE
 70
 -8000
  9
$LIGHTGLYPHDISPLAY
280
     1
  9
$TILEMODELIGHTSYNCH
280
     1
  9
$CMATERIAL
347
44
  9
$SOLIDHIST
280
     1
  9
$SHOWHIST
280
     1
  9
$DWFFRAME
280
     2
  9
$DGNFRAME
280
     2
  9
$REALWORLDSCALE
290
     1
  9
$INTERFERECOLOR
 62
   256
  9
$CSHADOW
280
     0
  9
$SHADOWPLANELOCATION
 40
0.0
  0
ENDSEC
  0
SECTION
  2
CLASSES
  0
CLASS
  1
ACDBDICTIONARYWDFLT
  2
AcDbDictionaryWithDefault
  3
ObjectDBX Classes
 90
        0
 91
        4
280
     0
281
     0
  0
CLASS
  1
VISUALSTYLE
  2
AcDbVisualStyle
  3
ObjectDBX Classes
 90
     4095
 91
        4
280
     0
281
     0
  0
CLASS
  1
MATERIAL
  2
AcDbMaterial
  3
ObjectDBX Classes
 90
     1153
 91
        4
280
     0
281
     0
  0
CLASS
  1
SCALE
  2
AcDbScale
  3
ObjectDBX Classes
 90
     1153
 91
        4
280
     0
281
     0
  0
CLASS
  1
SUN
  2
AcDbSun
  3
SCENEOE
 90
     1153
 91
        4
280
     0
281
     0
  0
CLASS
  1
DICTIONARYVAR
  2
AcDbDictionaryVar
  3
ObjectDBX Classes
 90
        0
 91
        4
280
     0
281
     0
  0
ENDSEC
  0
SECTION
  2
TABLES
  0
TABLE
  2
VPORT
  5
8
330
0
100
AcDbSymbolTable
 70
     1
  0
VPORT
  5
29
330
8
100
AcDbSymbolTableRecord
100
AcDbViewportTableRecord
  2
*Active
 70
     0
 10
0.0
 20
0.0
 11
1.0
 21
1.0
 12
10.42990654205607
 22
4.5
 13
0.0
 23
0.0
 14
0.5
 24
0.5
 15
0.5
 25
0.5
 16
0.0
 26
0.0
 36
1.0
 17
0.0
 27
0.0
 37
0.0
 40
9.0
 41
1.972972972850329
 42
50.0
 43
0.0
 44
0.0
 50
0.0
 51
0.0
 71
     0
 72
   100
 73
     1
 74
     3
 75
     0
 76
     0
 77
     0
 78
     0
281
     0
 65
     1
110
0.0
120
0.0
130
0.0
111
1.0
121
0.0
131
0.0
112
0.0
122
1.0
132
0.0
 79
     0
146
0.0
 60
     3
 61
     5
292
     1
282
     1
141
0.0
142
0.0
 63
   250
361
69
  0
ENDTAB
  0
TABLE
  2
LTYPE
  5
5
330
0
100
AcDbSymbolTable
 70
     9
  0
LTYPE
  5
14
330
5
100
AcDbSymbolTableRecord
100
AcDbLinetypeTableRecord
  2
ByBlock
 70
     0
  3

 72
    65
 73
     0
 40
0.0
  0
LTYPE
  5
15
330
5
100
AcDbSymbolTableRecord
100
AcDbLinetypeTableRecord
  2
ByLayer
 70
     0
  3

 72
    65
 73
     0
 40
0.0
  0
LTYPE
  5
16
330
5
100
AcDbSymbolTableRecord
100
AcDbLinetypeTableRecord
  2
Continuous
 70
     0
  3
Solid line
 72
    65
 73
     0
 40
0.0
  0
LTYPE
  5
B9
330
5
100
AcDbSymbolTableRecord
100
AcDbLinetypeTableRecord
  2
DOT
 70
     0
  3
DOT
 72
    65
 73
     2
 40
4.0
 49
6.0
 74
     0
 49
-2.0
 74
     0
  0
LTYPE
  5
BA
330
5
100
AcDbSymbolTableRecord
100
AcDbLinetypeTableRecord
  2
HIDDEN
 70
     0
  3
HIDDEN
 72
    65
 73
     2
 40
4.2
 49
8.4
 74
     0
 49
-4.2
 74
     0
  0
LTYPE
  5
BB
330
5
100
AcDbSymbolTableRecord
100
AcDbLinetypeTableRecord
  2
DASHDOT
 70
     0
  3
DASHDOT
 72
    65
 73
     4
 40
14.5
 49
30.0
 74
     0
 49
-9.0
 74
     0
 49
2.5
 74
     0
 49
-9.0
 74
     0
  0
LTYPE
  5
BC
330
5
100
AcDbSymbolTableRecord
100
AcDbLinetypeTableRecord
  2
PHANTOM
 70
     0
  3
PHANTOM
 72
    65
 73
     6
 40
12.0
 49
30.0
 74
     0
 49
-9.0
 74
     0
 49
2.5
 74
     0
 49
-5.0
 74
     0
 49
2.5
 74
     0
 49
-9.0
 74
     0
  0
LTYPE
  5
BD
330
5
100
AcDbSymbolTableRecord
100
AcDbLinetypeTableRecord
  2
ACAD_ISO14W100
 70
     0
  3
ACAD_ISO14W100
 72
    65
 73
     8
 40
1.5
 49
12.0
 74
     0
 49
-3.0
 74
     0
 49
0.5
 74
     0
 49
-3.0
 74
     0
 49
0.5
 74
     0
 49
-3.0
 74
     0
 49
0.5
 74
     0
 49
-3.0
 74
     0
  0
LTYPE
  5
BE
330
5
100
AcDbSymbolTableRecord
100
AcDbLinetypeTableRecord
  2
ACAD_ISO06W100
 70
     0
  3
ACAD_ISO06W100
 72
    65
 73
     8
 40
13.5
 49
24.0
 74
     0
 49
-3.0
 74
     0
 49
0.5
 74
     0
 49
-3.0
 74
     0
 49
0.5
 74
     0
 49
-3.0
 74
     0
 49
0.5
 74
     0
 49
-3.0
 74
     0
  0
LTYPE
  5
BF
330
5
100
AcDbSymbolTableRecord
100
AcDbLinetypeTableRecord
  2
ACAD_ISO11W100
 70
     0
  3
ACAD_ISO11W100
 72
    65
 73
     6
 40
15.5
 49
12.0
 74
     0
 49
-3.0
 74
     0
 49
12.0
 74
     0
 49
-3.0
 74
     0
 49
0.5
 74
     0
 49
-3.0
 74
     0
  0
LTYPE
  5
C0
330
5
100
AcDbSymbolTableRecord
100
AcDbLinetypeTableRecord
  2
ACAD_ISO13W100
 70
     0
  3
ACAD_ISO13W100
 72
    65
 73
     8
 40
13.0
 49
12.0
 74
     0
 49
-3.0
 74
     0
 49
12.0
 74
     0
 49
-3.0
 74
     0
 49
0.5
 74
     0
 49
-3.0
 74
     0
 49
0.5
 74
     0
 49
-3.0
 74
     0
  0
ENDTAB
  0
TABLE
  2
LAYER
  5
2
330
0
100
AcDbSymbolTable
 70
    12
  0
LAYER
  5
10
330
2
100
AcDbSymbolTableRecord
100
AcDbLayerTableRecord
  2
0
 70
     0
 62
     7
  6
Continuous
370
    -3
390
F
347
46
348
0
  0
LAYER
  5
C1
330
2
100
AcDbSymbolTableRecord
100
AcDbLayerTableRecord
  2
1
 70
     0
 62
     7
  6
Continuous
370
     9
390
F
347
46
348
0
  0
LAYER
  5
C2
330
2
100
AcDbSymbolTableRecord
100
AcDbLayerTableRecord
  2
2
 70
     0
 62
   151
  6
Continuous
370
    20
390
F
347
46
348
0
  0
LAYER
  5
C3
330
2
100
AcDbSymbolTableRecord
100
AcDbLayerTableRecord
  2
3
 70
     0
 62
     3
  6
HIDDEN
370
     9
390
F
347
46
348
0
  0
LAYER
  5
C4
330
2
100
AcDbSymbolTableRecord
100
AcDbLayerTableRecord
  2
4
 70
     0
 62
     1
  6
DASHDOT
370
     9
390
F
347
46
348
0
  0
LAYER
  5
C5
330
2
100
AcDbSymbolTableRecord
100
AcDbLayerTableRecord
  2
5
 70
     0
 62
     7
  6
Continuous
370
     9
390
F
347
46
348
0
  0
LAYER
  5
C6
330
2
100
AcDbSymbolTableRecord
100
AcDbLayerTableRecord
  2
6
 70
     0
 62
     1
  6
Continuous
370
    25
390
F
347
46
348
0
  0
LAYER
  5
C7
330
2
100
AcDbSymbolTableRecord
100
AcDbLayerTableRecord
  2
7
 70
     0
 62
     6
  6
Continuous
370
     9
390
F
347
46
348
0
  0
LAYER
  5
C8
330
2
100
AcDbSymbolTableRecord
100
AcDbLayerTableRecord
  2
8
 70
     0
 62
     3
  6
Continuous
370
    40
390
F
347
46
348
0
  0
LAYER
  5
C9
330
2
100
AcDbSymbolTableRecord
100
AcDbLayerTableRecord
  2
9
 70
     0
 62
     4
  6
Continuous
370
     9
390
F
347
46
348
0
  0
LAYER
  5
CA
330
2
100
AcDbSymbolTableRecord
100
AcDbLayerTableRecord
  2
10
 70
     0
 62
     7
  6
Continuous
370
    25
390
F
347
46
348
0
  0
LAYER
  5
CB
330
2
100
AcDbSymbolTableRecord
100
AcDbLayerTableRecord
  2
11
 70
     0
 62
     2
  6
Continuous
370
     9
390
F
347
46
348
0
  0
ENDTAB
  0
TABLE
  2
STYLE
  5
3
330
0
100
AcDbSymbolTable
 70
     3
  0
STYLE
  5
11
330
3
100
AcDbSymbolTableRecord
100
AcDbTextStyleTableRecord
  2
Standard
 70
     0
 40
0.0
 41
1.0
 50
0.0
 71
     0
 42
2.8
  3
txt
  4
bigfont
  0
STYLE
  5
6C
330
3
100
AcDbSymbolTableRecord
100
AcDbTextStyleTableRecord
  2
T_STANDARD
 70
     4
 40
10.0
 41
1.0
 50
0.0
 71
     0
 42
2.8
  3
txt
  4
bigfont
1001
ACAD
1000

1071
      256
  0
STYLE
  5
22D
330
3
100
AcDbSymbolTableRecord
100
AcDbTextStyleTableRecord
  2
ＭＳ ゴシック
 70
     0
 40
0.0
 41
1.0
 50
0.0
 71
     0
 42
2.8
  3

  4

1001
ACAD
1000
ＭＳ ゴシック
1071
      256
  0
ENDTAB
  0
TABLE
  2
VIEW
  5
6
330
0
100
AcDbSymbolTable
 70
     0
  0
ENDTAB
  0
TABLE
  2
UCS
  5
7
330
0
100
AcDbSymbolTable
 70
     0
  0
ENDTAB
  0
TABLE
  2
APPID
  5
9
330
0
100
AcDbSymbolTable
 70
     2
  0
APPID
  5
12
330
9
100
AcDbSymbolTableRecord
100
AcDbRegAppTableRecord
  2
ACAD
 70
     0
  0
APPID
  5
6B
330
9
100
AcDbSymbolTableRecord
100
AcDbRegAppTableRecord
  2
ODA
 70
     0
  0
ENDTAB
  0
TABLE
  2
DIMSTYLE
  5
A
330
0
100
AcDbSymbolTable
 70
     1
100
AcDbDimStyleTable
  0
DIMSTYLE
105
27
102
{ACAD_REACTORS
330
237
330
242
330
24C
330
28F
330
297
330
2A3
330
2AD
330
2B7
330
2C1
330
2CB
330
2D5
330
2DF
330
2E9
102
}
330
A
100
AcDbSymbolTableRecord
100
AcDbDimStyleTableRecord
  2
Standard
 70
     0
178
     0
340
11
  0
ENDTAB
  0
TABLE
  2
BLOCK_RECORD
  5
1
330
0
100
AcDbSymbolTable
 70
    31
  0
BLOCK_RECORD
  5
1F
330
1
100
AcDbSymbolTableRecord
100
AcDbBlockTableRecord
  2
*Model_Space
340
22
 70
     0
280
     1
281
     0
  0
BLOCK_RECORD
  5
1B
330
1
100
AcDbSymbolTableRecord
100
AcDbBlockTableRecord
  2
*Paper_Space
340
1E
 70
     0
280
     1
281
     0
  0
BLOCK_RECORD
  5
23
330
1
100
AcDbSymbolTableRecord
100
AcDbBlockTableRecord
  2
*Paper_Space0
340
26
 70
     0
280
     1
281
     0
  0
BLOCK_RECORD
  5
6D
330
1
100
AcDbSymbolTableRecord
100
AcDbBlockTableRecord
  2
_ORIGIN
340
0
 70
     0
280
     1
281
     0
  0
BLOCK_RECORD
  5
72
330
1
100
AcDbSymbolTableRecord
100
AcDbBlockTableRecord
  2
_DOTBLANK
340
0
 70
     0
280
     1
281
     0
  0
BLOCK_RECORD
  5
77
330
1
100
AcDbSymbolTableRecord
100
AcDbBlockTableRecord
  2
_DOT
340
0
 70
     0
280
     1
281
     0
  0
BLOCK_RECORD
  5
7C
330
1
100
AcDbSymbolTableRecord
100
AcDbBlockTableRecord
  2
_OPEN
340
0
102
{BLKREFS
331
24D
102
}
 70
     0
280
     1
281
     0
  0
BLOCK_RECORD
  5
82
330
1
100
AcDbSymbolTableRecord
100
AcDbBlockTableRecord
  2
_CLOSED
340
0
 70
     0
280
     1
281
     0
  0
BLOCK_RECORD
  5
89
330
1
100
AcDbSymbolTableRecord
100
AcDbBlockTableRecord
  2
_CLOSEDBLANK
340
0
 70
     0
280
     1
281
     0
  0
BLOCK_RECORD
  5
8F
330
1
100
AcDbSymbolTableRecord
100
AcDbBlockTableRecord
  2
_ARROWFILLED
340
0
102
{BLKREFS
331
235
331
236
331
240
331
241
331
24A
331
24B
331
28D
331
28E
331
295
331
296
331
2A1
331
2A2
331
2AB
331
2AC
331
2B5
331
2B6
331
2BF
331
2C0
331
2C9
331
2CA
331
2D3
331
2D4
331
2DD
331
2DE
331
2E7
331
2E8
102
}
 70
     0
280
     1
281
     0
  0
BLOCK_RECORD
  5
93
330
1
100
AcDbSymbolTableRecord
100
AcDbBlockTableRecord
  2
_BOXBLANK
340
0
 70
     0
280
     1
281
     0
  0
BLOCK_RECORD
  5
9B
330
1
100
AcDbSymbolTableRecord
100
AcDbBlockTableRecord
  2
_BOXFILLED
340
0
 70
     0
280
     1
281
     0
  0
BLOCK_RECORD
  5
A0
330
1
100
AcDbSymbolTableRecord
100
AcDbBlockTableRecord
  2
_INTEGRAL
340
0
 70
     0
280
     1
281
     0
  0
BLOCK_RECORD
  5
A5
330
1
100
AcDbSymbolTableRecord
100
AcDbBlockTableRecord
  2
_OBLIQUE
340
0
 70
     0
280
     1
281
     0
  0
BLOCK_RECORD
  5
A9
330
1
100
AcDbSymbolTableRecord
100
AcDbBlockTableRecord
  2
_NONE
340
0
 70
     0
280
     1
281
     0
  0
BLOCK_RECORD
  5
AC
330
1
100
AcDbSymbolTableRecord
100
AcDbBlockTableRecord
  2
MARK_OPEN
340
0
 70
     0
280
     1
281
     0
  0
BLOCK_RECORD
  5
B1
330
1
100
AcDbSymbolTableRecord
100
AcDbBlockTableRecord
  2
MARK_ORIGIN
340
0
 70
     0
280
     1
281
     0
  0
BLOCK_RECORD
  5
B5
330
1
100
AcDbSymbolTableRecord
100
AcDbBlockTableRecord
  2
MARK_DOT
340
0
 70
     0
280
     1
281
     0
  0
BLOCK_RECORD
  5
22E
330
1
100
AcDbSymbolTableRecord
100
AcDbBlockTableRecord
  2
Dim1
340
0
 70
     0
280
     1
281
     0
  0
BLOCK_RECORD
  5
239
330
1
100
AcDbSymbolTableRecord
100
AcDbBlockTableRecord
  2
Dim2
340
0
 70
     0
280
     1
281
     0
  0
BLOCK_RECORD
  5
243
330
1
100
AcDbSymbolTableRecord
100
AcDbBlockTableRecord
  2
Dim3
340
0
 70
     0
280
     1
281
     0
  0
BLOCK_RECORD
  5
288
330
1
100
AcDbSymbolTableRecord
100
AcDbBlockTableRecord
  2
Dim4
340
0
 70
     0
280
     1
281
     0
  0
BLOCK_RECORD
  5
290
330
1
100
AcDbSymbolTableRecord
100
AcDbBlockTableRecord
  2
Dim5
340
0
 70
     0
280
     1
281
     0
  0
BLOCK_RECORD
  5
29A
330
1
100
AcDbSymbolTableRecord
100
AcDbBlockTableRecord
  2
Dim6
340
0
 70
     0
280
     1
281
     0
  0
BLOCK_RECORD
  5
2A4
330
1
100
AcDbSymbolTableRecord
100
AcDbBlockTableRecord
  2
Dim7
340
0
 70
     0
280
     1
281
     0
  0
BLOCK_RECORD
  5
2AE
330
1
100
AcDbSymbolTableRecord
100
AcDbBlockTableRecord
  2
Dim8
340
0
 70
     0
280
     1
281
     0
  0
BLOCK_RECORD
  5
2B8
330
1
100
AcDbSymbolTableRecord
100
AcDbBlockTableRecord
  2
Dim9
340
0
 70
     0
280
     1
281
     0
  0
BLOCK_RECORD
  5
2C2
330
1
100
AcDbSymbolTableRecord
100
AcDbBlockTableRecord
  2
Dim10
340
0
 70
     0
280
     1
281
     0
  0
BLOCK_RECORD
  5
2CC
330
1
100
AcDbSymbolTableRecord
100
AcDbBlockTableRecord
  2
Dim11
340
0
 70
     0
280
     1
281
     0
  0
BLOCK_RECORD
  5
2D6
330
1
100
AcDbSymbolTableRecord
100
AcDbBlockTableRecord
  2
Dim12
340
0
 70
     0
280
     1
281
     0
  0
BLOCK_RECORD
  5
2E0
330
1
100
AcDbSymbolTableRecord
100
AcDbBlockTableRecord
  2
Dim13
340
0
 70
     0
280
     1
281
     0
  0
BLOCK_RECORD
  5
2F3
330
1
100
AcDbSymbolTableRecord
100
AcDbBlockTableRecord
  2
*G29
340
0
102
{BLKREFS
331
2F8
102
}
 70
     0
280
     1
281
     0
  0
BLOCK_RECORD
  5
2F9
330
1
100
AcDbSymbolTableRecord
100
AcDbBlockTableRecord
  2
*G30
340
0
102
{BLKREFS
331
2FD
102
}
 70
     0
280
     1
281
     0
  0
ENDTAB
  0
ENDSEC
  0
SECTION
  2
BLOCKS
  0
BLOCK
  5
20
330
1F
100
AcDbEntity
  8
0
100
AcDbBlockBegin
  2
*Model_Space
 70
     0
 10
0.0
 20
0.0
 30
0.0
  3
*Model_Space
  1
*Model_Space
  0
ENDBLK
  5
21
330
1F
100
AcDbEntity
  8
0
100
AcDbBlockEnd
  0
BLOCK
  5
1C
330
1B
100
AcDbEntity
 67
     1
  8
0
100
AcDbBlockBegin
  2
*Paper_Space
 70
     0
 10
0.0
 20
0.0
 30
0.0
  3
*Paper_Space
  1
*Paper_Space
  0
ENDBLK
  5
1D
330
1B
100
AcDbEntity
 67
     1
  8
0
100
AcDbBlockEnd
  0
BLOCK
  5
24
330
23
100
AcDbEntity
  8
0
100
AcDbBlockBegin
  2
*Paper_Space0
 70
     0
 10
0.0
 20
0.0
 30
0.0
  3
*Paper_Space0
  1
*Paper_Space0
  0
ENDBLK
  5
25
330
23
100
AcDbEntity
  8
0
100
AcDbBlockEnd
  0
BLOCK
  5
70
330
6D
100
AcDbEntity
  8
0
100
AcDbBlockBegin
  2
_ORIGIN
 70
     0
 10
0.0
 20
0.0
 30
0.0
  3
_ORIGIN
  1
_ORIGIN
  0
CIRCLE
  5
6E
330
6D
100
AcDbEntity
  8
0
 62
     0
100
AcDbCircle
 10
0.0
 20
0.0
 30
0.0
 40
0.5
  0
LINE
  5
6F
330
6D
100
AcDbEntity
  8
0
 62
     0
100
AcDbLine
 10
0.0
 20
0.0
 30
0.0
 11
-1.0
 21
0.0
 31
0.0
  0
ENDBLK
  5
71
330
6D
100
AcDbEntity
  8
0
100
AcDbBlockEnd
  0
BLOCK
  5
75
330
72
100
AcDbEntity
  8
0
100
AcDbBlockBegin
  2
_DOTBLANK
 70
     0
 10
0.0
 20
0.0
 30
0.0
  3
_DOTBLANK
  1
_DOTBLANK
  0
CIRCLE
  5
73
330
72
100
AcDbEntity
  8
0
 62
     0
100
AcDbCircle
 10
0.0
 20
0.0
 30
0.0
 40
0.5
  0
LINE
  5
74
330
72
100
AcDbEntity
  8
0
 62
     0
100
AcDbLine
 10
-0.5
 20
0.0
 30
0.0
 11
-1.0
 21
0.0
 31
0.0
  0
ENDBLK
  5
76
330
72
100
AcDbEntity
  8
0
100
AcDbBlockEnd
  0
BLOCK
  5
7A
330
77
100
AcDbEntity
  8
0
100
AcDbBlockBegin
  2
_DOT
 70
     0
 10
0.0
 20
0.0
 30
0.0
  3
_DOT
  1
_DOT
  0
LWPOLYLINE
  5
78
330
77
100
AcDbEntity
  8
0
 62
     0
100
AcDbPolyline
 90
        2
 70
     1
 43
0.5
 10
-0.25
 20
0.0
 42
1.0
 10
0.25
 20
0.0
 42
1.0
  0
LINE
  5
79
330
77
100
AcDbEntity
  8
0
 62
     0
100
AcDbLine
 10
-0.5
 20
0.0
 30
0.0
 11
-1.0
 21
0.0
 31
0.0
  0
ENDBLK
  5
7B
330
77
100
AcDbEntity
  8
0
100
AcDbBlockEnd
  0
BLOCK
  5
80
330
7C
100
AcDbEntity
  8
0
100
AcDbBlockBegin
  2
_OPEN
 70
     0
 10
0.0
 20
0.0
 30
0.0
  3
_OPEN
  1
_OPEN
  0
LINE
  5
7D
330
7C
100
AcDbEntity
  8
0
 62
     0
100
AcDbLine
 10
0.0
 20
0.0
 30
0.0
 11
-1.0
 21
0.1666666666666667
 31
0.0
  0
LINE
  5
7E
330
7C
100
AcDbEntity
  8
0
 62
     0
100
AcDbLine
 10
0.0
 20
0.0
 30
0.0
 11
-1.0
 21
-0.1666666666666667
 31
0.0
  0
LINE
  5
7F
330
7C
100
AcDbEntity
  8
0
 62
     0
100
AcDbLine
 10
0.0
 20
0.0
 30
0.0
 11
-1.0
 21
0.0
 31
0.0
  0
ENDBLK
  5
81
330
7C
100
AcDbEntity
  8
0
100
AcDbBlockEnd
  0
BLOCK
  5
87
330
82
100
AcDbEntity
  8
0
100
AcDbBlockBegin
  2
_CLOSED
 70
     0
 10
0.0
 20
0.0
 30
0.0
  3
_CLOSED
  1
_CLOSED
  0
LINE
  5
83
330
82
100
AcDbEntity
  8
0
 62
     0
100
AcDbLine
 10
0.0
 20
0.0
 30
0.0
 11
-1.0
 21
0.1666666666666667
 31
0.0
  0
LINE
  5
84
330
82
100
AcDbEntity
  8
0
 62
     0
100
AcDbLine
 10
0.0
 20
0.0
 30
0.0
 11
-1.0
 21
-0.1666666666666667
 31
0.0
  0
LINE
  5
85
330
82
100
AcDbEntity
  8
0
 62
     0
100
AcDbLine
 10
-1.0
 20
0.1666666666666667
 30
0.0
 11
-1.0
 21
-0.1666666666666667
 31
0.0
  0
LINE
  5
86
330
82
100
AcDbEntity
  8
0
 62
     0
100
AcDbLine
 10
0.0
 20
0.0
 30
0.0
 11
-1.0
 21
0.0
 31
0.0
  0
ENDBLK
  5
88
330
82
100
AcDbEntity
  8
0
100
AcDbBlockEnd
  0
BLOCK
  5
8D
330
89
100
AcDbEntity
  8
0
100
AcDbBlockBegin
  2
_CLOSEDBLANK
 70
     0
 10
0.0
 20
0.0
 30
0.0
  3
_CLOSEDBLANK
  1
_CLOSEDBLANK
  0
LINE
  5
8A
330
89
100
AcDbEntity
  8
0
 62
     0
100
AcDbLine
 10
0.0
 20
0.0
 30
0.0
 11
-1.0
 21
0.1666666666666667
 31
0.0
  0
LINE
  5
8B
330
89
100
AcDbEntity
  8
0
 62
     0
100
AcDbLine
 10
0.0
 20
0.0
 30
0.0
 11
-1.0
 21
-0.1666666666666667
 31
0.0
  0
LINE
  5
8C
330
89
100
AcDbEntity
  8
0
 62
     0
100
AcDbLine
 10
-1.0
 20
0.1666666666666667
 30
0.0
 11
-1.0
 21
-0.1666666666666667
 31
0.0
  0
ENDBLK
  5
8E
330
89
100
AcDbEntity
  8
0
100
AcDbBlockEnd
  0
BLOCK
  5
91
330
8F
100
AcDbEntity
  8
0
100
AcDbBlockBegin
  2
_ARROWFILLED
 70
     0
 10
0.0
 20
0.0
 30
0.0
  3
_ARROWFILLED
  1
_ARROWFILLED
  0
SOLID
  5
90
330
8F
100
AcDbEntity
  8
0
 62
     0
100
AcDbTrace
 10
0.0
 20
0.0
 30
0.0
 11
-1.0
 21
-0.1666666666666667
 31
0.0
 12
-1.0
 22
0.1666666666666667
 32
0.0
 13
0.0
 23
0.0
 33
0.0
  0
ENDBLK
  5
92
330
8F
100
AcDbEntity
  8
0
100
AcDbBlockEnd
  0
BLOCK
  5
99
330
93
100
AcDbEntity
  8
0
100
AcDbBlockBegin
  2
_BOXBLANK
 70
     0
 10
0.0
 20
0.0
 30
0.0
  3
_BOXBLANK
  1
_BOXBLANK
  0
LINE
  5
94
330
93
100
AcDbEntity
  8
0
 62
     0
100
AcDbLine
 10
-0.5
 20
-0.5
 30
0.0
 11
0.5
 21
-0.5
 31
0.0
  0
LINE
  5
95
330
93
100
AcDbEntity
  8
0
 62
     0
100
AcDbLine
 10
0.5
 20
-0.5
 30
0.0
 11
0.5
 21
0.5
 31
0.0
  0
LINE
  5
96
330
93
100
AcDbEntity
  8
0
 62
     0
100
AcDbLine
 10
0.5
 20
0.5
 30
0.0
 11
-0.5
 21
0.5
 31
0.0
  0
LINE
  5
97
330
93
100
AcDbEntity
  8
0
 62
     0
100
AcDbLine
 10
-0.5
 20
0.5
 30
0.0
 11
-0.5
 21
-0.5
 31
0.0
  0
LINE
  5
98
330
93
100
AcDbEntity
  8
0
 62
     0
100
AcDbLine
 10
-0.5
 20
0.0
 30
0.0
 11
-1.0
 21
0.0
 31
0.0
  0
ENDBLK
  5
9A
330
93
100
AcDbEntity
  8
0
100
AcDbBlockEnd
  0
BLOCK
  5
9E
330
9B
100
AcDbEntity
  8
0
100
AcDbBlockBegin
  2
_BOXFILLED
 70
     0
 10
0.0
 20
0.0
 30
0.0
  3
_BOXFILLED
  1
_BOXFILLED
  0
SOLID
  5
9C
330
9B
100
AcDbEntity
  8
0
 62
     0
100
AcDbTrace
 10
-0.5
 20
0.5
 30
0.0
 11
0.5
 21
0.5
 31
0.0
 12
-0.5
 22
-0.5
 32
0.0
 13
0.5
 23
-0.5
 33
0.0
  0
LINE
  5
9D
330
9B
100
AcDbEntity
  8
0
 62
     0
100
AcDbLine
 10
-0.5
 20
0.0
 30
0.0
 11
-1.0
 21
0.0
 31
0.0
  0
ENDBLK
  5
9F
330
9B
100
AcDbEntity
  8
0
100
AcDbBlockEnd
  0
BLOCK
  5
A3
330
A0
100
AcDbEntity
  8
0
100
AcDbBlockBegin
  2
_INTEGRAL
 70
     0
 10
0.0
 20
0.0
 30
0.0
  3
_INTEGRAL
  1
_INTEGRAL
  0
ARC
  5
A1
330
A0
100
AcDbEntity
  8
0
 62
     0
100
AcDbCircle
 10
0.444888
 20
-0.0913346
 30
0.0
 40
0.4541666
100
AcDbArc
 50
101.9999999999999
 51
167.9999999999998
  0
ARC
  5
A2
330
A0
100
AcDbEntity
  8
0
 62
     0
100
AcDbCircle
 10
-0.444888
 20
0.0913346
 30
0.0
 40
0.4541666
100
AcDbArc
 50
281.9999999999997
 51
347.9999999999997
  0
ENDBLK
  5
A4
330
A0
100
AcDbEntity
  8
0
100
AcDbBlockEnd
  0
BLOCK
  5
A7
330
A5
100
AcDbEntity
  8
0
100
AcDbBlockBegin
  2
_OBLIQUE
 70
     0
 10
0.0
 20
0.0
 30
0.0
  3
_OBLIQUE
  1
_OBLIQUE
  0
LINE
  5
A6
330
A5
100
AcDbEntity
  8
0
 62
     0
100
AcDbLine
 10
-0.5
 20
-0.5
 30
0.0
 11
0.5
 21
0.5
 31
0.0
  0
ENDBLK
  5
A8
330
A5
100
AcDbEntity
  8
0
100
AcDbBlockEnd
  0
BLOCK
  5
AA
330
A9
100
AcDbEntity
  8
0
100
AcDbBlockBegin
  2
_NONE
 70
     0
 10
0.0
 20
0.0
 30
0.0
  3
_NONE
  1
_NONE
  0
ENDBLK
  5
AB
330
A9
100
AcDbEntity
  8
0
100
AcDbBlockEnd
  0
BLOCK
  5
AF
330
AC
100
AcDbEntity
  8
0
100
AcDbBlockBegin
  2
MARK_OPEN
 70
     0
 10
0.0
 20
0.0
 30
0.0
  3
MARK_OPEN
  1
MARK_OPEN
  0
LINE
  5
AD
330
AC
100
AcDbEntity
  8
0
 62
     0
100
AcDbLine
 10
0.0
 20
0.0
 30
0.0
 11
-1.0
 21
0.1666666666666667
 31
0.0
  0
LINE
  5
AE
330
AC
100
AcDbEntity
  8
0
 62
     0
100
AcDbLine
 10
0.0
 20
0.0
 30
0.0
 11
-1.0
 21
-0.1666666666666667
 31
0.0
  0
ENDBLK
  5
B0
330
AC
100
AcDbEntity
  8
0
100
AcDbBlockEnd
  0
BLOCK
  5
B3
330
B1
100
AcDbEntity
  8
0
100
AcDbBlockBegin
  2
MARK_ORIGIN
 70
     0
 10
0.0
 20
0.0
 30
0.0
  3
MARK_ORIGIN
  1
MARK_ORIGIN
  0
CIRCLE
  5
B2
330
B1
100
AcDbEntity
  8
0
 62
     0
100
AcDbCircle
 10
0.0
 20
0.0
 30
0.0
 40
0.5
  0
ENDBLK
  5
B4
330
B1
100
AcDbEntity
  8
0
100
AcDbBlockEnd
  0
BLOCK
  5
B7
330
B5
100
AcDbEntity
  8
0
100
AcDbBlockBegin
  2
MARK_DOT
 70
     0
 10
0.0
 20
0.0
 30
0.0
  3
MARK_DOT
  1
MARK_DOT
  0
LWPOLYLINE
  5
B6
330
B5
100
AcDbEntity
  8
0
 62
     0
100
AcDbPolyline
 90
        2
 70
     1
 43
0.5
 10
-0.25
 20
0.0
 42
1.0
 10
0.25
 20
0.0
 42
1.0
  0
ENDBLK
  5
B8
330
B5
100
AcDbEntity
  8
0
100
AcDbBlockEnd
  0
BLOCK
  5
22F
330
22E
100
AcDbEntity
  8
0
100
AcDbBlockBegin
  2
Dim1
 70
     0
 10
0.0
 20
0.0
 30
0.0
  3
Dim1
  1
Dim1
  0
LINE
  5
231
330
22E
100
AcDbEntity
  8
9
  6
Continuous
 62
     4
370
     9
100
AcDbLine
 10
339.525337267959
 20
214.0982910468319
 30
0.0
 11
339.525337267959
 21
227.5087324267604
 31
0.0
  0
LINE
  5
232
330
22E
100
AcDbEntity
  8
9
  6
Continuous
 62
     4
370
     9
100
AcDbLine
 10
319.025337267959
 20
204.1982910468314
 30
0.0
 11
319.0253372679591
 21
227.5087324267604
 31
0.0
  0
LINE
  5
233
330
22E
100
AcDbEntity
  8
9
  6
Continuous
 62
     4
370
     9
100
AcDbLine
 10
344.275337267959
 20
226.0087324267604
 30
0.0
 11
319.0253372679591
 21
226.0087324267604
 31
0.0
  0
MTEXT
  5
234
330
22E
100
AcDbEntity
  8
9
  6
Continuous
 62
     4
370
     9
100
AcDbMText
 10
344.275337267959
 20
226.0087324267604
 30
0.0
 40
3.0
 41
64.28571428571429
 46
3.0
 71
     4
 72
     1
  1
(20.5)
  7
ＭＳ ゴシック
 73
     1
 44
1.0
1001
ACAD
1000
ACAD_MTEXT_DEFINED_HEIGHT_BEGIN
1070
    46
1040
3.0
1000
ACAD_MTEXT_DEFINED_HEIGHT_END
  0
INSERT
  5
235
330
22E
100
AcDbEntity
  8
9
  6
Continuous
 62
     4
370
     9
100
AcDbBlockReference
  2
_ARROWFILLED
 10
339.525337267959
 20
226.0087324267604
 30
0.0
 41
2.0
 42
2.0
 43
2.0
 50
359.9999999999997
  0
INSERT
  5
236
330
22E
100
AcDbEntity
  8
9
  6
Continuous
 62
     4
370
     9
100
AcDbBlockReference
  2
_ARROWFILLED
 10
319.0253372679591
 20
226.0087324267604
 30
0.0
 41
2.0
 42
2.0
 43
2.0
 50
179.9999999999998
  0
ENDBLK
  5
230
330
22E
100
AcDbEntity
  8
0
100
AcDbBlockEnd
  0
BLOCK
  5
23A
330
239
100
AcDbEntity
  8
0
100
AcDbBlockBegin
  2
Dim2
 70
     0
 10
0.0
 20
0.0
 30
0.0
  3
Dim2
  1
Dim2
  0
LINE
  5
23C
330
239
100
AcDbEntity
  8
9
  6
Continuous
 62
     4
370
     9
100
AcDbLine
 10
329.525337267959
 20
216.0982910468317
 30
0.0
 11
354.0174901641667
 21
216.0982910468316
 31
0.0
  0
LINE
  5
23D
330
239
100
AcDbEntity
  8
9
  6
Continuous
 62
     4
370
     9
100
AcDbLine
 10
340.525337267959
 20
213.0982910468319
 30
0.0
 11
354.0174901641667
 21
213.0982910468319
 31
0.0
  0
LINE
  5
23E
330
239
100
AcDbEntity
  8
9
  6
Continuous
 62
     4
370
     9
100
AcDbLine
 10
352.5174901641667
 20
220.0982910468316
 30
0.0
 11
352.5174901641667
 21
207.3482910468317
 31
0.0
  0
MTEXT
  5
23F
330
239
100
AcDbEntity
  8
9
  6
Continuous
 62
     4
370
     9
100
AcDbMText
 10
352.5174901641667
 20
205.0982910468317
 30
0.0
 40
3.0
 41
28.57142857142857
 46
3.0
 71
     5
 72
     1
  1
(3)
  7
ＭＳ ゴシック
 11
1.615544574432587E-15
 21
1.0
 31
0.0
 73
     1
 44
1.0
1001
ACAD
1000
ACAD_MTEXT_DEFINED_HEIGHT_BEGIN
1070
    46
1040
3.0
1000
ACAD_MTEXT_DEFINED_HEIGHT_END
  0
INSERT
  5
240
330
239
100
AcDbEntity
  8
9
  6
Continuous
 62
     4
370
     9
100
AcDbBlockReference
  2
_ARROWFILLED
 10
352.5174901641667
 20
216.0982910468316
 30
0.0
 41
2.0
 42
2.0
 43
2.0
 50
269.9999999999998
  0
INSERT
  5
241
330
239
100
AcDbEntity
  8
9
  6
Continuous
 62
     4
370
     9
100
AcDbBlockReference
  2
_ARROWFILLED
 10
352.5174901641667
 20
213.0982910468319
 30
0.0
 41
2.0
 42
2.0
 43
2.0
 50
89.99999999999959
  0
ENDBLK
  5
23B
330
239
100
AcDbEntity
  8
0
100
AcDbBlockEnd
  0
BLOCK
  5
244
330
243
100
AcDbEntity
  8
0
100
AcDbBlockBegin
  2
Dim3
 70
     0
 10
0.0
 20
0.0
 30
0.0
  3
Dim3
  1
Dim3
  0
LINE
  5
246
330
243
100
AcDbEntity
  8
9
  6
Continuous
 62
     4
370
     9
100
AcDbLine
 10
339.525337267959
 20
52.09829104683217
 30
0.0
 11
339.525337267959
 21
46.52307827089726
 31
0.0
  0
LINE
  5
247
330
243
100
AcDbEntity
  8
9
  6
Continuous
 62
     4
370
     9
100
AcDbLine
 10
338.525337267959
 20
52.09829104683217
 30
0.0
 11
338.525337267959
 21
46.52307827089726
 31
0.0
  0
LINE
  5
248
330
243
100
AcDbEntity
  8
9
  6
Continuous
 62
     4
370
     9
100
AcDbLine
 10
343.525337267959
 20
48.02307827089726
 30
0.0
 11
333.775337267959
 21
48.02307827089726
 31
0.0
  0
MTEXT
  5
249
330
243
100
AcDbEntity
  8
9
  6
Continuous
 62
     4
370
     9
100
AcDbMText
 10
333.025337267959
 20
48.02307827089726
 30
0.0
 40
3.0
 41
3.571428571428572
 46
3.0
 71
     5
 72
     1
  1
1
  7
ＭＳ ゴシック
 73
     1
 44
1.0
1001
ACAD
1000
ACAD_MTEXT_DEFINED_HEIGHT_BEGIN
1070
    46
1040
3.0
1000
ACAD_MTEXT_DEFINED_HEIGHT_END
  0
INSERT
  5
24A
330
243
100
AcDbEntity
  8
9
  6
Continuous
 62
     4
370
     9
100
AcDbBlockReference
  2
_ARROWFILLED
 10
339.525337267959
 20
48.02307827089726
 30
0.0
 41
2.0
 42
2.0
 43
2.0
 50
179.9999999999995
  0
INSERT
  5
24B
330
243
100
AcDbEntity
  8
9
  6
Continuous
 62
     4
370
     9
100
AcDbBlockReference
  2
_ARROWFILLED
 10
338.525337267959
 20
48.02307827089726
 30
0.0
 41
2.0
 42
2.0
 43
2.0
 50
359.9999999999997
  0
ENDBLK
  5
245
330
243
100
AcDbEntity
  8
0
100
AcDbBlockEnd
  0
BLOCK
  5
289
330
288
100
AcDbEntity
  8
0
100
AcDbBlockBegin
  2
Dim4
 70
     0
 10
0.0
 20
0.0
 30
0.0
  3
Dim4
  1
Dim4
  0
LINE
  5
28B
330
288
100
AcDbEntity
  8
9
  6
Continuous
 62
     4
370
     9
100
AcDbLine
 10
199.7323027471424
 20
122.6680450670837
 30
0.0
 11
96.29689494886543
 21
158.965012673684
 31
0.0
  0
MTEXT
  5
28C
330
288
100
AcDbEntity
  8
9
  6
Continuous
 62
     4
370
     9
100
AcDbMText
 10
94.17381962744581
 20
159.7100302436641
 30
0.0
 40
3.0
 41
37.85714285714285
 46
3.0
 71
     5
 72
     1
  1
∅55
  7
ＭＳ ゴシック
 11
0.9435890317418224
 21
-0.331118919991791
 31
0.0
 73
     1
 44
1.0
1001
ACAD
1000
ACAD_MTEXT_DEFINED_HEIGHT_BEGIN
1070
    46
1040
3.0
1000
ACAD_MTEXT_DEFINED_HEIGHT_END
  0
INSERT
  5
28D
330
288
100
AcDbEntity
  8
9
  6
Continuous
 62
     4
370
     9
100
AcDbBlockReference
  2
_ARROWFILLED
 10
195.9579466201751
 20
123.9925207470509
 30
0.0
 41
2.0
 42
2.0
 43
2.0
 50
160.6632965515505
  0
INSERT
  5
28E
330
288
100
AcDbEntity
  8
9
  6
Continuous
 62
     4
370
     9
100
AcDbBlockReference
  2
_ARROWFILLED
 10
144.060549874375
 20
142.2040613465996
 30
0.0
 41
2.0
 42
2.0
 43
2.0
 50
340.6632965515505
  0
ENDBLK
  5
28A
330
288
100
AcDbEntity
  8
0
100
AcDbBlockEnd
  0
BLOCK
  5
291
330
290
100
AcDbEntity
  8
0
100
AcDbBlockBegin
  2
Dim5
 70
     0
 10
0.0
 20
0.0
 30
0.0
  3
Dim5
  1
Dim5
  0
LINE
  5
293
330
290
100
AcDbEntity
  8
9
  6
Continuous
 62
     4
370
     9
100
AcDbLine
 10
202.0581824551761
 20
115.6307263585916
 30
0.0
 11
97.0863644323787
 21
172.843300413634
 31
0.0
  0
MTEXT
  5
294
330
290
100
AcDbEntity
  8
9
  6
Continuous
 62
     4
370
     9
100
AcDbMText
 10
95.11074520038389
 20
173.9200680998933
 30
0.0
 40
3.0
 41
37.85714285714285
 46
3.0
 71
     5
 72
     1
  1
∅65
  7
ＭＳ ゴシック
 11
0.8780529919972897
 21
-0.4785634161159913
 31
0.0
 73
     1
 44
1.0
1001
ACAD
1000
ACAD_MTEXT_DEFINED_HEIGHT_BEGIN
1070
    46
1040
3.0
1000
ACAD_MTEXT_DEFINED_HEIGHT_END
  0
INSERT
  5
295
330
290
100
AcDbEntity
  8
9
  6
Continuous
 62
     4
370
     9
100
AcDbBlockReference
  2
_ARROWFILLED
 10
198.5459704871869
 20
117.5449800230555
 30
0.0
 41
2.0
 42
2.0
 43
2.0
 50
151.4083815759886
  0
INSERT
  5
296
330
290
100
AcDbEntity
  8
9
  6
Continuous
 62
     4
370
     9
100
AcDbBlockReference
  2
_ARROWFILLED
 10
141.4725260073632
 20
148.6516020705952
 30
0.0
 41
2.0
 42
2.0
 43
2.0
 50
331.4083815759885
  0
ENDBLK
  5
292
330
290
100
AcDbEntity
  8
0
100
AcDbBlockEnd
  0
BLOCK
  5
29B
330
29A
100
AcDbEntity
  8
0
100
AcDbBlockBegin
  2
Dim6
 70
     0
 10
0.0
 20
0.0
 30
0.0
  3
Dim6
  1
Dim6
  0
LINE
  5
29D
330
29A
100
AcDbEntity
  8
9
  6
Continuous
 62
     4
370
     9
100
AcDbLine
 10
294.525337267959
 20
67.09829104683217
 30
0.0
 11
294.5253372679589
 21
40.51712401416353
 31
0.0
  0
LINE
  5
29E
330
29A
100
AcDbEntity
  8
9
  6
Continuous
 62
     4
370
     9
100
AcDbLine
 10
339.525337267959
 20
52.09829104683217
 30
0.0
 11
339.525337267959
 21
40.51712401416353
 31
0.0
  0
LINE
  5
29F
330
29A
100
AcDbEntity
  8
9
  6
Continuous
 62
     4
370
     9
100
AcDbLine
 10
294.5253372679589
 20
42.01712401416353
 30
0.0
 11
339.525337267959
 21
42.01712401416353
 31
0.0
  0
MTEXT
  5
2A0
330
29A
100
AcDbEntity
  8
9
  6
Continuous
 62
     4
370
     9
100
AcDbMText
 10
317.025337267959
 20
42.01712401416353
 30
0.0
 40
3.0
 41
24.28571428571428
 46
3.0
 71
     8
 72
     1
  1
45
  7
ＭＳ ゴシック
 73
     1
 44
1.0
1001
ACAD
1000
ACAD_MTEXT_DEFINED_HEIGHT_BEGIN
1070
    46
1040
3.0
1000
ACAD_MTEXT_DEFINED_HEIGHT_END
  0
INSERT
  5
2A1
330
29A
100
AcDbEntity
  8
9
  6
Continuous
 62
     4
370
     9
100
AcDbBlockReference
  2
_ARROWFILLED
 10
294.5253372679589
 20
42.01712401416353
 30
0.0
 41
2.0
 42
2.0
 43
2.0
 50
179.9999999999998
  0
INSERT
  5
2A2
330
29A
100
AcDbEntity
  8
9
  6
Continuous
 62
     4
370
     9
100
AcDbBlockReference
  2
_ARROWFILLED
 10
339.525337267959
 20
42.01712401416353
 30
0.0
 41
2.0
 42
2.0
 43
2.0
 50
359.9999999999997
  0
ENDBLK
  5
29C
330
29A
100
AcDbEntity
  8
0
100
AcDbBlockEnd
  0
BLOCK
  5
2A5
330
2A4
100
AcDbEntity
  8
0
100
AcDbBlockBegin
  2
Dim7
 70
     0
 10
0.0
 20
0.0
 30
0.0
  3
Dim7
  1
Dim7
  0
LINE
  5
2A7
330
2A4
100
AcDbEntity
  8
9
  6
Continuous
 62
     4
370
     9
100
AcDbLine
 10
140.0092482472764
 20
59.09829104683172
 30
0.0
 11
140.0092482472764
 21
40.94818840588027
 31
0.0
  0
LINE
  5
2A8
330
2A4
100
AcDbEntity
  8
9
  6
Continuous
 62
     4
370
     9
100
AcDbLine
 10
200.0092482472764
 20
59.09829104683172
 30
0.0
 11
200.0092482472764
 21
40.94818840588027
 31
0.0
  0
LINE
  5
2A9
330
2A4
100
AcDbEntity
  8
9
  6
Continuous
 62
     4
370
     9
100
AcDbLine
 10
140.0092482472764
 20
42.44818840588027
 30
0.0
 11
200.0092482472764
 21
42.44818840588027
 31
0.0
  0
MTEXT
  5
2AA
330
2A4
100
AcDbEntity
  8
9
  6
Continuous
 62
     4
370
     9
100
AcDbMText
 10
170.0092482472764
 20
42.44818840588027
 30
0.0
 40
3.0
 41
23.57142857142857
 46
3.0
 71
     8
 72
     1
  1
60
  7
ＭＳ ゴシック
 73
     1
 44
1.0
1001
ACAD
1000
ACAD_MTEXT_DEFINED_HEIGHT_BEGIN
1070
    46
1040
3.0
1000
ACAD_MTEXT_DEFINED_HEIGHT_END
  0
INSERT
  5
2AB
330
2A4
100
AcDbEntity
  8
9
  6
Continuous
 62
     4
370
     9
100
AcDbBlockReference
  2
_ARROWFILLED
 10
140.0092482472764
 20
42.44818840588027
 30
0.0
 41
2.0
 42
2.0
 43
2.0
 50
179.9999999999998
  0
INSERT
  5
2AC
330
2A4
100
AcDbEntity
  8
9
  6
Continuous
 62
     4
370
     9
100
AcDbBlockReference
  2
_ARROWFILLED
 10
200.0092482472764
 20
42.44818840588027
 30
0.0
 41
2.0
 42
2.0
 43
2.0
 50
359.9999999999997
  0
ENDBLK
  5
2A6
330
2A4
100
AcDbEntity
  8
0
100
AcDbBlockEnd
  0
BLOCK
  5
2AF
330
2AE
100
AcDbEntity
  8
0
100
AcDbBlockBegin
  2
Dim8
 70
     0
 10
0.0
 20
0.0
 30
0.0
  3
Dim8
  1
Dim8
  0
LINE
  5
2B1
330
2AE
100
AcDbEntity
  8
9
  6
Continuous
 62
     4
370
     9
100
AcDbLine
 10
120.0092482472764
 20
82.09829104683172
 30
0.0
 11
120.0092482472763
 21
32.97552235451076
 31
0.0
  0
LINE
  5
2B2
330
2AE
100
AcDbEntity
  8
9
  6
Continuous
 62
     4
370
     9
100
AcDbLine
 10
220.0092482472764
 20
82.09829104683172
 30
0.0
 11
220.0092482472763
 21
32.97552235451076
 31
0.0
  0
LINE
  5
2B3
330
2AE
100
AcDbEntity
  8
9
  6
Continuous
 62
     4
370
     9
100
AcDbLine
 10
120.0092482472763
 20
34.47552235451076
 30
0.0
 11
220.0092482472763
 21
34.47552235451076
 31
0.0
  0
MTEXT
  5
2B4
330
2AE
100
AcDbEntity
  8
9
  6
Continuous
 62
     4
370
     9
100
AcDbMText
 10
170.0092482472764
 20
34.47552235451076
 30
0.0
 40
3.0
 41
36.42857142857143
 46
3.0
 71
     8
 72
     1
  1
100
  7
ＭＳ ゴシック
 73
     1
 44
1.0
1001
ACAD
1000
ACAD_MTEXT_DEFINED_HEIGHT_BEGIN
1070
    46
1040
3.0
1000
ACAD_MTEXT_DEFINED_HEIGHT_END
  0
INSERT
  5
2B5
330
2AE
100
AcDbEntity
  8
9
  6
Continuous
 62
     4
370
     9
100
AcDbBlockReference
  2
_ARROWFILLED
 10
120.0092482472763
 20
34.47552235451076
 30
0.0
 41
2.0
 42
2.0
 43
2.0
 50
179.9999999999998
  0
INSERT
  5
2B6
330
2AE
100
AcDbEntity
  8
9
  6
Continuous
 62
     4
370
     9
100
AcDbBlockReference
  2
_ARROWFILLED
 10
220.0092482472763
 20
34.47552235451076
 30
0.0
 41
2.0
 42
2.0
 43
2.0
 50
359.9999999999997
  0
ENDBLK
  5
2B0
330
2AE
100
AcDbEntity
  8
0
100
AcDbBlockEnd
  0
BLOCK
  5
2B9
330
2B8
100
AcDbEntity
  8
0
100
AcDbBlockBegin
  2
Dim9
 70
     0
 10
0.0
 20
0.0
 30
0.0
  3
Dim9
  1
Dim9
  0
LINE
  5
2BB
330
2B8
100
AcDbEntity
  8
9
  6
Continuous
 62
     4
370
     9
100
AcDbLine
 10
105.0092482472764
 20
67.09829104683126
 30
0.0
 11
105.0092482472763
 21
24.82152356651363
 31
0.0
  0
LINE
  5
2BC
330
2B8
100
AcDbEntity
  8
9
  6
Continuous
 62
     4
370
     9
100
AcDbLine
 10
235.0092482472764
 20
67.09829104683217
 30
0.0
 11
235.0092482472763
 21
24.82152356651363
 31
0.0
  0
LINE
  5
2BD
330
2B8
100
AcDbEntity
  8
9
  6
Continuous
 62
     4
370
     9
100
AcDbLine
 10
105.0092482472763
 20
26.32152356651363
 30
0.0
 11
235.0092482472763
 21
26.32152356651363
 31
0.0
  0
MTEXT
  5
2BE
330
2B8
100
AcDbEntity
  8
9
  6
Continuous
 62
     4
370
     9
100
AcDbMText
 10
170.0092482472764
 20
26.32152356651363
 30
0.0
 40
3.0
 41
36.42857142857143
 46
3.0
 71
     8
 72
     1
  1
130
  7
ＭＳ ゴシック
 73
     1
 44
1.0
1001
ACAD
1000
ACAD_MTEXT_DEFINED_HEIGHT_BEGIN
1070
    46
1040
3.0
1000
ACAD_MTEXT_DEFINED_HEIGHT_END
  0
INSERT
  5
2BF
330
2B8
100
AcDbEntity
  8
9
  6
Continuous
 62
     4
370
     9
100
AcDbBlockReference
  2
_ARROWFILLED
 10
105.0092482472763
 20
26.32152356651363
 30
0.0
 41
2.0
 42
2.0
 43
2.0
 50
179.9999999999998
  0
INSERT
  5
2C0
330
2B8
100
AcDbEntity
  8
9
  6
Continuous
 62
     4
370
     9
100
AcDbBlockReference
  2
_ARROWFILLED
 10
235.0092482472763
 20
26.32152356651363
 30
0.0
 41
2.0
 42
2.0
 43
2.0
 50
359.9999999999997
  0
ENDBLK
  5
2BA
330
2B8
100
AcDbEntity
  8
0
100
AcDbBlockEnd
  0
BLOCK
  5
2C3
330
2C2
100
AcDbEntity
  8
0
100
AcDbBlockBegin
  2
Dim10
 70
     0
 10
0.0
 20
0.0
 30
0.0
  3
Dim10
  1
Dim10
  0
LINE
  5
2C5
330
2C2
100
AcDbEntity
  8
9
  6
Continuous
 62
     4
370
     9
100
AcDbLine
 10
221.0092482472764
 20
183.0982910468317
 30
0.0
 11
248.9703247700818
 21
183.0982910468316
 31
0.0
  0
LINE
  5
2C6
330
2C2
100
AcDbEntity
  8
9
  6
Continuous
 62
     4
370
     9
100
AcDbLine
 10
221.0092482472764
 20
83.09829104683172
 30
0.0
 11
248.9703247700818
 21
83.09829104683163
 31
0.0
  0
LINE
  5
2C7
330
2C2
100
AcDbEntity
  8
9
  6
Continuous
 62
     4
370
     9
100
AcDbLine
 10
247.4703247700818
 20
183.0982910468316
 30
0.0
 11
247.4703247700818
 21
83.09829104683163
 31
0.0
  0
MTEXT
  5
2C8
330
2C2
100
AcDbEntity
  8
9
  6
Continuous
 62
     4
370
     9
100
AcDbMText
 10
247.4703247700818
 20
133.0982910468326
 30
0.0
 40
3.0
 41
36.42857142857143
 46
3.0
 71
     8
 72
     1
  1
100
  7
ＭＳ ゴシック
 11
1.615544574432587E-15
 21
1.0
 31
0.0
 73
     1
 44
1.0
1001
ACAD
1000
ACAD_MTEXT_DEFINED_HEIGHT_BEGIN
1070
    46
1040
3.0
1000
ACAD_MTEXT_DEFINED_HEIGHT_END
  0
INSERT
  5
2C9
330
2C2
100
AcDbEntity
  8
9
  6
Continuous
 62
     4
370
     9
100
AcDbBlockReference
  2
_ARROWFILLED
 10
247.4703247700818
 20
183.0982910468316
 30
0.0
 41
2.0
 42
2.0
 43
2.0
 50
89.99999999999991
  0
INSERT
  5
2CA
330
2C2
100
AcDbEntity
  8
9
  6
Continuous
 62
     4
370
     9
100
AcDbBlockReference
  2
_ARROWFILLED
 10
247.4703247700818
 20
83.09829104683163
 30
0.0
 41
2.0
 42
2.0
 43
2.0
 50
269.9999999999998
  0
ENDBLK
  5
2C4
330
2C2
100
AcDbEntity
  8
0
100
AcDbBlockEnd
  0
BLOCK
  5
2CD
330
2CC
100
AcDbEntity
  8
0
100
AcDbBlockBegin
  2
Dim11
 70
     0
 10
0.0
 20
0.0
 30
0.0
  3
Dim11
  1
Dim11
  0
LINE
  5
2CF
330
2CC
100
AcDbEntity
  8
9
  6
Continuous
 62
     4
370
     9
100
AcDbLine
 10
236.0092482472764
 20
198.0982910468317
 30
0.0
 11
257.3095767420527
 21
198.0982910468316
 31
0.0
  0
LINE
  5
2D0
330
2CC
100
AcDbEntity
  8
9
  6
Continuous
 62
     4
370
     9
100
AcDbLine
 10
236.0092482472764
 20
68.09829104683217
 30
0.0
 11
257.3095767420527
 21
68.0982910468321
 31
0.0
  0
LINE
  5
2D1
330
2CC
100
AcDbEntity
  8
9
  6
Continuous
 62
     4
370
     9
100
AcDbLine
 10
255.8095767420527
 20
198.0982910468316
 30
0.0
 11
255.8095767420527
 21
68.0982910468321
 31
0.0
  0
MTEXT
  5
2D2
330
2CC
100
AcDbEntity
  8
9
  6
Continuous
 62
     4
370
     9
100
AcDbMText
 10
255.8095767420527
 20
133.0982910468319
 30
0.0
 40
3.0
 41
36.42857142857143
 46
3.0
 71
     8
 72
     1
  1
130
  7
ＭＳ ゴシック
 11
1.615544574432587E-15
 21
1.0
 31
0.0
 73
     1
 44
1.0
1001
ACAD
1000
ACAD_MTEXT_DEFINED_HEIGHT_BEGIN
1070
    46
1040
3.0
1000
ACAD_MTEXT_DEFINED_HEIGHT_END
  0
INSERT
  5
2D3
330
2CC
100
AcDbEntity
  8
9
  6
Continuous
 62
     4
370
     9
100
AcDbBlockReference
  2
_ARROWFILLED
 10
255.8095767420527
 20
198.0982910468316
 30
0.0
 41
2.0
 42
2.0
 43
2.0
 50
89.99999999999991
  0
INSERT
  5
2D4
330
2CC
100
AcDbEntity
  8
9
  6
Continuous
 62
     4
370
     9
100
AcDbBlockReference
  2
_ARROWFILLED
 10
255.8095767420527
 20
68.0982910468321
 30
0.0
 41
2.0
 42
2.0
 43
2.0
 50
269.9999999999998
  0
ENDBLK
  5
2CE
330
2CC
100
AcDbEntity
  8
0
100
AcDbBlockEnd
  0
BLOCK
  5
2D7
330
2D6
100
AcDbEntity
  8
0
100
AcDbBlockBegin
  2
Dim12
 70
     0
 10
0.0
 20
0.0
 30
0.0
  3
Dim12
  1
Dim12
  0
LINE
  5
2D9
330
2D6
100
AcDbEntity
  8
9
  6
Continuous
 62
     4
370
     9
100
AcDbLine
 10
201.0092482472764
 20
206.0982910468317
 30
0.0
 11
265.5519130218454
 21
206.0982910468315
 31
0.0
  0
LINE
  5
2DA
330
2D6
100
AcDbEntity
  8
9
  6
Continuous
 62
     4
370
     9
100
AcDbLine
 10
201.0092482472764
 20
60.09829104683172
 30
0.0
 11
265.5519130218454
 21
60.09829104683151
 31
0.0
  0
LINE
  5
2DB
330
2D6
100
AcDbEntity
  8
9
  6
Continuous
 62
     4
370
     9
100
AcDbLine
 10
264.0519130218454
 20
206.0982910468315
 30
0.0
 11
264.0519130218454
 21
60.09829104683151
 31
0.0
  0
MTEXT
  5
2DC
330
2D6
100
AcDbEntity
  8
9
  6
Continuous
 62
     4
370
     9
100
AcDbMText
 10
264.0519130218454
 20
133.0982910468317
 30
0.0
 40
3.0
 41
36.42857142857143
 46
3.0
 71
     8
 72
     1
  1
146
  7
ＭＳ ゴシック
 11
1.615544574432587E-15
 21
1.0
 31
0.0
 73
     1
 44
1.0
1001
ACAD
1000
ACAD_MTEXT_DEFINED_HEIGHT_BEGIN
1070
    46
1040
3.0
1000
ACAD_MTEXT_DEFINED_HEIGHT_END
  0
INSERT
  5
2DD
330
2D6
100
AcDbEntity
  8
9
  6
Continuous
 62
     4
370
     9
100
AcDbBlockReference
  2
_ARROWFILLED
 10
264.0519130218454
 20
206.0982910468315
 30
0.0
 41
2.0
 42
2.0
 43
2.0
 50
89.99999999999991
  0
INSERT
  5
2DE
330
2D6
100
AcDbEntity
  8
9
  6
Continuous
 62
     4
370
     9
100
AcDbBlockReference
  2
_ARROWFILLED
 10
264.0519130218454
 20
60.09829104683151
 30
0.0
 41
2.0
 42
2.0
 43
2.0
 50
269.9999999999998
  0
ENDBLK
  5
2D8
330
2D6
100
AcDbEntity
  8
0
100
AcDbBlockEnd
  0
BLOCK
  5
2E1
330
2E0
100
AcDbEntity
  8
0
100
AcDbBlockBegin
  2
Dim13
 70
     0
 10
0.0
 20
0.0
 30
0.0
  3
Dim13
  1
Dim13
  0
LINE
  5
2E3
330
2E0
100
AcDbEntity
  8
9
  6
Continuous
 62
     4
370
     9
100
AcDbLine
 10
216.0092482472774
 20
213.0982910468319
 30
0.0
 11
274.3544892096643
 21
213.0982910468317
 31
0.0
  0
LINE
  5
2E4
330
2E0
100
AcDbEntity
  8
9
  6
Continuous
 62
     4
370
     9
100
AcDbLine
 10
216.0092482472774
 20
53.09829104683172
 30
0.0
 11
274.3544892096643
 21
53.09829104683153
 31
0.0
  0
LINE
  5
2E5
330
2E0
100
AcDbEntity
  8
9
  6
Continuous
 62
     4
370
     9
100
AcDbLine
 10
272.8544892096643
 20
213.0982910468317
 30
0.0
 11
272.8544892096643
 21
53.09829104683153
 31
0.0
  0
MTEXT
  5
2E6
330
2E0
100
AcDbEntity
  8
9
  6
Continuous
 62
     4
370
     9
100
AcDbMText
 10
272.8544892096643
 20
133.0982910468329
 30
0.0
 40
3.0
 41
36.42857142857143
 46
3.0
 71
     8
 72
     1
  1
160
  7
ＭＳ ゴシック
 11
1.615544574432587E-15
 21
1.0
 31
0.0
 73
     1
 44
1.0
1001
ACAD
1000
ACAD_MTEXT_DEFINED_HEIGHT_BEGIN
1070
    46
1040
3.0
1000
ACAD_MTEXT_DEFINED_HEIGHT_END
  0
INSERT
  5
2E7
330
2E0
100
AcDbEntity
  8
9
  6
Continuous
 62
     4
370
     9
100
AcDbBlockReference
  2
_ARROWFILLED
 10
272.8544892096643
 20
213.0982910468317
 30
0.0
 41
2.0
 42
2.0
 43
2.0
 50
89.99999999999991
  0
INSERT
  5
2E8
330
2E0
100
AcDbEntity
  8
9
  6
Continuous
 62
     4
370
     9
100
AcDbBlockReference
  2
_ARROWFILLED
 10
272.8544892096643
 20
53.09829104683153
 30
0.0
 41
2.0
 42
2.0
 43
2.0
 50
269.9999999999998
  0
ENDBLK
  5
2E2
330
2E0
100
AcDbEntity
  8
0
100
AcDbBlockEnd
  0
BLOCK
  5
2F4
330
2F3
100
AcDbEntity
  8
0
100
AcDbBlockBegin
  2
*G29
 70
     1
 10
0.0
 20
0.0
 30
0.0
  3
*G29
  1
*G29
  0
MTEXT
  5
2F6
330
2F3
100
AcDbEntity
  8
2
  6
Continuous
 62
   151
370
     9
100
AcDbMText
 10
63.36196515394658
 20
42.7499799999996
 30
0.0
 40
1.599984
 41
6.64381619613365
 46
1.599984
 71
     4
 72
     1
  1
{\fＭＳ ゴシック;\T1.218755;2 NC}
 73
     1
 44
1.0
1001
ACAD
1000
ACAD_MTEXT_DEFINED_HEIGHT_BEGIN
1070
    46
1040
1.599984
1000
ACAD_MTEXT_DEFINED_HEIGHT_END
  0
MTEXT
  5
2F7
330
2F3
100
AcDbEntity
  8
2
  6
Continuous
 62
   151
370
     9
100
AcDbMText
 10
63.36196515394658
 20
40.08333466666627
 30
0.0
 40
1.599984
 41
4.855585200302434
 46
1.599984
 71
     4
 72
     1
  1
{\fＭＳ ゴシック;\T1.218755;3 -}
 73
     1
 44
1.0
1001
ACAD
1000
ACAD_MTEXT_DEFINED_HEIGHT_BEGIN
1070
    46
1040
1.599984
1000
ACAD_MTEXT_DEFINED_HEIGHT_END
  0
ENDBLK
  5
2F5
330
2F3
100
AcDbEntity
  8
0
100
AcDbBlockEnd
  0
BLOCK
  5
2FA
330
2F9
100
AcDbEntity
  8
0
100
AcDbBlockBegin
  2
*G30
 70
     1
 10
0.0
 20
0.0
 30
0.0
  3
*G30
  1
*G30
  0
MTEXT
  5
2FC
330
2F9
100
AcDbEntity
  8
2
  6
Continuous
 62
   151
370
     9
100
AcDbMText
 10
63.40248428928019
 20
45.81001796354541
 30
0.0
 40
1.599984
 41
4.799140689777182
 46
1.599984
 71
     4
 72
     1
  1
{\fＭＳ ゴシック;\T1.250438;1 +}
 73
     1
 44
1.0
1001
ACAD
1000
ACAD_MTEXT_DEFINED_HEIGHT_BEGIN
1070
    46
1040
1.599984
1000
ACAD_MTEXT_DEFINED_HEIGHT_END
  0
ENDBLK
  5
2FB
330
2F9
100
AcDbEntity
  8
0
100
AcDbBlockEnd
  0
ENDSEC
  0
SECTION
  2
ENTITIES
  0
LINE
  5
CC
330
1F
100
AcDbEntity
  8
7
  6
Continuous
 62
     6
370
     9
100
AcDbLine
 10
20.00000899999986
 20
35.0
 30
0.0
 11
92.00000899999986
 21
35.0
 31
0.0
  0
LINE
  5
CD
330
1F
100
AcDbEntity
  8
7
  6
Continuous
 62
     6
370
     9
100
AcDbLine
 10
20.00000899999986
 20
29.9999899999998
 30
0.0
 11
92.00000899999986
 21
29.9999899999998
 31
0.0
  0
LINE
  5
CE
330
1F
100
AcDbEntity
  8
7
  6
Continuous
 62
     6
370
     9
100
AcDbLine
 10
20.00000899999986
 20
25.0
 30
0.0
 11
92.00000899999986
 21
25.0
 31
0.0
  0
LINE
  5
CF
330
1F
100
AcDbEntity
  8
7
  6
Continuous
 62
     6
370
     9
100
AcDbLine
 10
20.00000899999986
 20
20.0
 30
0.0
 11
92.00000899999986
 21
20.0
 31
0.0
  0
LINE
  5
D0
330
1F
100
AcDbEntity
  8
7
  6
Continuous
 62
     6
370
     9
100
AcDbLine
 10
64.00000899999986
 20
35.0
 30
0.0
 11
64.00000899999986
 21
20.0
 31
0.0
  0
LINE
  5
D1
330
1F
100
AcDbEntity
  8
7
  6
Continuous
 62
     6
370
     9
100
AcDbLine
 10
64.00000899999986
 20
35.0
 30
0.0
 11
64.00000899999986
 21
20.0
 31
0.0
  0
LINE
  5
D2
330
1F
100
AcDbEntity
  8
7
  6
Continuous
 62
     6
370
     9
100
AcDbLine
 10
40.00001900000007
 20
35.0
 30
0.0
 11
40.00001900000007
 21
20.0
 31
0.0
  0
LINE
  5
D3
330
1F
100
AcDbEntity
  8
7
  6
Continuous
 62
     6
370
     9
100
AcDbLine
 10
20.00000899999986
 20
35.0
 30
0.0
 11
20.00000899999986
 21
20.0
 31
0.0
  0
LINE
  5
D4
330
1F
100
AcDbEntity
  8
7
  6
Continuous
 62
     6
370
     9
100
AcDbLine
 10
20.00000899999986
 20
35.0
 30
0.0
 11
40.00001900000007
 21
29.9999899999998
 31
0.0
  0
LINE
  5
D5
330
1F
100
AcDbEntity
  8
7
  6
Continuous
 62
     6
370
     9
100
AcDbLine
 10
92.00000899999986
 20
35.0
 30
0.0
 11
92.00000899999986
 21
20.0
 31
0.0
  0
LINE
  5
D6
330
1F
100
AcDbEntity
  8
6
  6
Continuous
 62
     1
370
    25
100
AcDbLine
 10
55.17734139697541
 20
43.16997149999997
 30
0.0
 11
55.17734139697541
 21
44.00997849999999
 31
0.0
  0
LINE
  5
D7
330
1F
100
AcDbEntity
  8
6
  6
Continuous
 62
     1
370
    25
100
AcDbLine
 10
61.26733859697561
 20
39.77497149999999
 30
0.0
 11
61.26733859697561
 21
45.7249855
 31
0.0
  0
LINE
  5
D8
330
1F
100
AcDbEntity
  8
6
  6
Continuous
 62
     1
370
    25
100
AcDbLine
 10
60.9173371969755
 20
45.7249855
 30
0.0
 11
60.9173371969755
 21
39.77497149999999
 31
0.0
  0
LINE
  5
D9
330
1F
100
AcDbEntity
  8
6
  6
Continuous
 62
     1
370
    25
100
AcDbLine
 10
60.56734489697556
 20
45.5149715
 30
0.0
 11
60.56734489697556
 21
39.98498549999977
 31
0.0
  0
LINE
  5
DA
330
1F
100
AcDbEntity
  8
6
  6
Continuous
 62
     1
370
    25
100
AcDbLine
 10
56.71733229697566
 20
45.5149715
 30
0.0
 11
56.71733229697566
 21
39.98498549999977
 31
0.0
  0
LINE
  5
DB
330
1F
100
AcDbEntity
  8
6
  6
Continuous
 62
     1
370
    25
100
AcDbLine
 10
54.96733509697515
 20
43.93996450000009
 30
0.0
 11
54.96733509697515
 21
41.55998549999981
 31
0.0
  0
LINE
  5
DC
330
1F
100
AcDbEntity
  8
6
  6
Continuous
 62
     1
370
    25
100
AcDbLine
 10
58.99233999697572
 20
43.44997499999999
 30
0.0
 11
58.99233999697572
 21
42.04998199999977
 31
0.0
  0
LINE
  5
DD
330
1F
100
AcDbEntity
  8
6
  6
Continuous
 62
     1
370
    25
100
AcDbLine
 10
59.69234209697515
 20
42.04998199999977
 30
0.0
 11
59.69234209697515
 21
43.44997499999999
 31
0.0
  0
LINE
  5
DE
330
1F
100
AcDbEntity
  8
6
  6
Continuous
 62
     1
370
    25
100
AcDbLine
 10
56.92733789697559
 20
45.7249855
 30
0.0
 11
60.35733929697562
 21
45.7249855
 31
0.0
  0
LINE
  5
DF
330
1F
100
AcDbEntity
  8
6
  6
Continuous
 62
     1
370
    25
100
AcDbLine
 10
56.7173406969755
 20
46.07498550000014
 30
0.0
 11
60.56733649697526
 21
46.07498550000014
 31
0.0
  0
LINE
  5
E0
330
1F
100
AcDbEntity
  8
6
  6
Continuous
 62
     1
370
    25
100
AcDbLine
 10
60.56734489697556
 20
46.42497150000008
 30
0.0
 11
56.71733229697566
 21
46.42497150000008
 31
0.0
  0
LINE
  5
E1
330
1F
100
AcDbEntity
  8
6
  6
Continuous
 62
     1
370
    25
100
AcDbLine
 10
58.29234629697567
 20
45.02494700000011
 30
0.0
 11
57.5923392969753
 21
45.02494700000011
 31
0.0
  0
LINE
  5
E2
330
1F
100
AcDbEntity
  8
6
  6
Continuous
 62
     1
370
    25
100
AcDbLine
 10
57.5923392969753
 20
43.97494000000029
 30
0.0
 11
58.29234629697567
 21
43.97494000000029
 31
0.0
  0
LINE
  5
E3
330
1F
100
AcDbEntity
  8
6
  6
Continuous
 62
     1
370
    25
100
AcDbLine
 10
59.69234209697515
 20
43.44997499999999
 30
0.0
 11
58.99233999697572
 21
43.44997499999999
 31
0.0
  0
ARC
  5
E4
330
1F
100
AcDbEntity
  8
6
  6
Continuous
 62
     1
370
    25
100
AcDbCircle
 10
60.56734489697556
 20
45.7249855
 30
0.0
 40
0.7000000000000028
100
AcDbArc
 50
0.0
 51
89.99999999999991
  0
ARC
  5
E5
330
1F
100
AcDbEntity
  8
6
  6
Continuous
 62
     1
370
    25
100
AcDbCircle
 10
60.35733929697562
 20
45.5149715
 30
0.0
 40
0.2100000000000009
100
AcDbArc
 50
0.0
 51
89.99999999999991
  0
ARC
  5
E6
330
1F
100
AcDbEntity
  8
6
  6
Continuous
 62
     1
370
    25
100
AcDbCircle
 10
60.56733649697526
 20
45.7249855
 30
0.0
 40
0.3500000000000014
100
AcDbArc
 50
0.0
 51
89.99999999999991
  0
LINE
  5
E7
330
1F
100
AcDbEntity
  8
6
  6
Continuous
 62
     1
370
    25
100
AcDbLine
 10
59.69234209697515
 20
45.1999400000002
 30
0.0
 11
58.99233999697572
 21
45.1999400000002
 31
0.0
  0
LINE
  5
E8
330
1F
100
AcDbEntity
  8
6
  6
Continuous
 62
     1
370
    25
100
AcDbLine
 10
58.29234629697567
 20
43.97494000000029
 30
0.0
 11
58.29234629697567
 21
45.02494700000011
 31
0.0
  0
LINE
  5
E9
330
1F
100
AcDbEntity
  8
6
  6
Continuous
 62
     1
370
    25
100
AcDbLine
 10
58.99233999697572
 20
45.1999400000002
 30
0.0
 11
58.99233999697572
 21
43.79994699999997
 31
0.0
  0
LINE
  5
EA
330
1F
100
AcDbEntity
  8
6
  6
Continuous
 62
     1
370
    25
100
AcDbLine
 10
59.69234209697515
 20
43.79994699999997
 30
0.0
 11
59.69234209697515
 21
45.1999400000002
 31
0.0
  0
LINE
  5
EB
330
1F
100
AcDbEntity
  8
6
  6
Continuous
 62
     1
370
    25
100
AcDbLine
 10
58.99233999697572
 20
43.79994699999997
 30
0.0
 11
59.69234209697515
 21
43.79994699999997
 31
0.0
  0
LINE
  5
EC
330
1F
100
AcDbEntity
  8
6
  6
Continuous
 62
     1
370
    25
100
AcDbLine
 10
55.6673371969755
 20
43.44997849999982
 30
0.0
 11
55.6673371969755
 21
44.14998549999996
 31
0.0
  0
ARC
  5
ED
330
1F
100
AcDbEntity
  8
6
  6
Continuous
 62
     1
370
    25
100
AcDbCircle
 10
55.17734139697541
 20
43.93996450000009
 30
0.0
 40
0.2100000000000009
100
AcDbArc
 50
89.99999999999991
 51
179.9999999999998
  0
LINE
  5
EE
330
1F
100
AcDbEntity
  8
6
  6
Continuous
 62
     1
370
    25
100
AcDbLine
 10
55.31733649697526
 20
44.00997849999999
 30
0.0
 11
55.31733649697526
 21
44.14998549999996
 31
0.0
  0
LINE
  5
EF
330
1F
100
AcDbEntity
  8
6
  6
Continuous
 62
     1
370
    25
100
AcDbLine
 10
55.17734139697541
 20
44.00997849999999
 30
0.0
 11
55.31733649697526
 21
44.00997849999999
 31
0.0
  0
LINE
  5
F0
330
1F
100
AcDbEntity
  8
6
  6
Continuous
 62
     1
370
    25
100
AcDbLine
 10
55.6673371969755
 20
43.44997849999982
 30
0.0
 11
56.71733229697566
 21
43.44997849999982
 31
0.0
  0
LINE
  5
F1
330
1F
100
AcDbEntity
  8
6
  6
Continuous
 62
     1
370
    25
100
AcDbLine
 10
55.17734139697541
 20
44.14998549999996
 30
0.0
 11
56.71733229697566
 21
44.14998549999996
 31
0.0
  0
ARC
  5
F2
330
1F
100
AcDbEntity
  8
6
  6
Continuous
 62
     1
370
    25
100
AcDbCircle
 10
56.92733789697559
 20
45.5149715
 30
0.0
 40
0.2100000000000009
100
AcDbArc
 50
89.99999999999991
 51
179.9999999999998
  0
ARC
  5
F3
330
1F
100
AcDbEntity
  8
6
  6
Continuous
 62
     1
370
    25
100
AcDbCircle
 10
56.7173406969755
 20
45.7249855
 30
0.0
 40
0.3500000000000014
100
AcDbArc
 50
89.99999999999991
 51
179.9999999999998
  0
ARC
  5
F4
330
1F
100
AcDbEntity
  8
6
  6
Continuous
 62
     1
370
    25
100
AcDbCircle
 10
56.71733229697566
 20
45.7249855
 30
0.0
 40
0.7000000000000028
100
AcDbArc
 50
89.99999999999991
 51
179.9999999999998
  0
LINE
  5
F5
330
1F
100
AcDbEntity
  8
6
  6
Continuous
 62
     1
370
    25
100
AcDbLine
 10
57.5923392969753
 20
44.84994000000029
 30
0.0
 11
57.24234279697521
 21
44.84994000000029
 31
0.0
  0
LINE
  5
F6
330
1F
100
AcDbEntity
  8
6
  6
Continuous
 62
     1
370
    25
100
AcDbLine
 10
57.5923392969753
 20
45.02494700000011
 30
0.0
 11
57.5923392969753
 21
44.84994000000029
 31
0.0
  0
LINE
  5
F7
330
1F
100
AcDbEntity
  8
6
  6
Continuous
 62
     1
370
    25
100
AcDbLine
 10
57.24234279697521
 20
44.84994000000029
 30
0.0
 11
57.24234279697521
 21
44.14995399999998
 31
0.0
  0
LINE
  5
F8
330
1F
100
AcDbEntity
  8
6
  6
Continuous
 62
     1
370
    25
100
AcDbLine
 10
57.5923392969753
 20
44.14995399999998
 30
0.0
 11
57.5923392969753
 21
43.97494000000029
 31
0.0
  0
LINE
  5
F9
330
1F
100
AcDbEntity
  8
6
  6
Continuous
 62
     1
370
    25
100
AcDbLine
 10
57.24234279697521
 20
44.14995399999998
 30
0.0
 11
57.5923392969753
 21
44.14995399999998
 31
0.0
  0
LINE
  5
FA
330
1F
100
AcDbEntity
  8
6
  6
Continuous
 62
     1
370
    25
100
AcDbLine
 10
56.36733999697572
 20
45.7249855
 30
0.0
 11
56.36733999697572
 21
44.14998549999996
 31
0.0
  0
LINE
  5
FB
330
1F
100
AcDbEntity
  8
6
  6
Continuous
 62
     1
370
    25
100
AcDbLine
 10
56.01733859697561
 20
45.7249855
 30
0.0
 11
56.01733859697561
 21
44.14998549999996
 31
0.0
  0
LINE
  5
FC
330
1F
100
AcDbEntity
  8
6
  6
Continuous
 62
     1
370
    25
100
AcDbLine
 10
60.35733929697562
 20
39.77497149999999
 30
0.0
 11
56.92733789697559
 21
39.77497149999999
 31
0.0
  0
LINE
  5
FD
330
1F
100
AcDbEntity
  8
6
  6
Continuous
 62
     1
370
    25
100
AcDbLine
 10
60.56733649697526
 20
39.42497150000008
 30
0.0
 11
56.7173406969755
 21
39.42497150000008
 31
0.0
  0
LINE
  5
FE
330
1F
100
AcDbEntity
  8
6
  6
Continuous
 62
     1
370
    25
100
AcDbLine
 10
60.56734489697556
 20
39.07498550000014
 30
0.0
 11
56.71733229697566
 21
39.07498550000014
 31
0.0
  0
LINE
  5
FF
330
1F
100
AcDbEntity
  8
6
  6
Continuous
 62
     1
370
    25
100
AcDbLine
 10
57.5923392969753
 20
40.47500999999966
 30
0.0
 11
58.29234629697567
 21
40.47500999999966
 31
0.0
  0
LINE
  5
100
330
1F
100
AcDbEntity
  8
6
  6
Continuous
 62
     1
370
    25
100
AcDbLine
 10
58.29234629697567
 20
41.52501699999993
 30
0.0
 11
57.5923392969753
 21
41.52501699999993
 31
0.0
  0
LINE
  5
101
330
1F
100
AcDbEntity
  8
6
  6
Continuous
 62
     1
370
    25
100
AcDbLine
 10
57.5923392969753
 20
42.22497500000009
 30
0.0
 11
58.29234629697567
 21
42.22497500000009
 31
0.0
  0
LINE
  5
102
330
1F
100
AcDbEntity
  8
6
  6
Continuous
 62
     1
370
    25
100
AcDbLine
 10
58.29234629697567
 20
43.27498199999991
 30
0.0
 11
57.5923392969753
 21
43.27498199999991
 31
0.0
  0
ARC
  5
103
330
1F
100
AcDbEntity
  8
6
  6
Continuous
 62
     1
370
    25
100
AcDbCircle
 10
60.56734489697556
 20
39.77497149999999
 30
0.0
 40
0.7000000000000028
100
AcDbArc
 50
269.9999999999998
 51
0.0
  0
ARC
  5
104
330
1F
100
AcDbEntity
  8
6
  6
Continuous
 62
     1
370
    25
100
AcDbCircle
 10
60.35733929697562
 20
39.98498549999977
 30
0.0
 40
0.2100000000000009
100
AcDbArc
 50
269.9999999999998
 51
0.0
  0
ARC
  5
105
330
1F
100
AcDbEntity
  8
6
  6
Continuous
 62
     1
370
    25
100
AcDbCircle
 10
60.56733649697526
 20
39.77497149999999
 30
0.0
 40
0.3500000000000014
100
AcDbArc
 50
269.9999999999998
 51
0.0
  0
LINE
  5
106
330
1F
100
AcDbEntity
  8
6
  6
Continuous
 62
     1
370
    25
100
AcDbLine
 10
58.99233999697572
 20
40.3000169999998
 30
0.0
 11
59.69234209697515
 21
40.3000169999998
 31
0.0
  0
LINE
  5
107
330
1F
100
AcDbEntity
  8
6
  6
Continuous
 62
     1
370
    25
100
AcDbLine
 10
59.69234209697515
 20
40.3000169999998
 30
0.0
 11
59.69234209697515
 21
41.70000999999979
 31
0.0
  0
LINE
  5
108
330
1F
100
AcDbEntity
  8
6
  6
Continuous
 62
     1
370
    25
100
AcDbLine
 10
58.99233999697572
 20
41.70000999999979
 30
0.0
 11
58.99233999697572
 21
40.3000169999998
 31
0.0
  0
LINE
  5
109
330
1F
100
AcDbEntity
  8
6
  6
Continuous
 62
     1
370
    25
100
AcDbLine
 10
58.29234629697567
 20
40.47500999999966
 30
0.0
 11
58.29234629697567
 21
41.52501699999993
 31
0.0
  0
LINE
  5
10A
330
1F
100
AcDbEntity
  8
6
  6
Continuous
 62
     1
370
    25
100
AcDbLine
 10
59.69234209697515
 20
41.70000999999979
 30
0.0
 11
58.99233999697572
 21
41.70000999999979
 31
0.0
  0
LINE
  5
10B
330
1F
100
AcDbEntity
  8
6
  6
Continuous
 62
     1
370
    25
100
AcDbLine
 10
58.99233999697572
 20
42.04998199999977
 30
0.0
 11
59.69234209697515
 21
42.04998199999977
 31
0.0
  0
LINE
  5
10C
330
1F
100
AcDbEntity
  8
6
  6
Continuous
 62
     1
370
    25
100
AcDbLine
 10
58.29234629697567
 20
42.22497500000009
 30
0.0
 11
58.29234629697567
 21
43.27498199999991
 31
0.0
  0
ARC
  5
10D
330
1F
100
AcDbEntity
  8
6
  6
Continuous
 62
     1
370
    25
100
AcDbCircle
 10
56.92733789697559
 20
39.98498549999977
 30
0.0
 40
0.2100000000000009
100
AcDbArc
 50
179.9999999999998
 51
269.9999999999998
  0
ARC
  5
10E
330
1F
100
AcDbEntity
  8
6
  6
Continuous
 62
     1
370
    25
100
AcDbCircle
 10
56.7173406969755
 20
39.77497149999999
 30
0.0
 40
0.3500000000000014
100
AcDbArc
 50
179.9999999999998
 51
269.9999999999998
  0
ARC
  5
10F
330
1F
100
AcDbEntity
  8
6
  6
Continuous
 62
     1
370
    25
100
AcDbCircle
 10
56.71733229697566
 20
39.77497149999999
 30
0.0
 40
0.7000000000000028
100
AcDbArc
 50
179.9999999999998
 51
269.9999999999998
  0
LINE
  5
110
330
1F
100
AcDbEntity
  8
6
  6
Continuous
 62
     1
370
    25
100
AcDbLine
 10
57.24234279697521
 20
40.65002400000003
 30
0.0
 11
57.5923392969753
 21
40.65002400000003
 31
0.0
  0
LINE
  5
111
330
1F
100
AcDbEntity
  8
6
  6
Continuous
 62
     1
370
    25
100
AcDbLine
 10
57.5923392969753
 20
40.65002400000003
 30
0.0
 11
57.5923392969753
 21
40.47500999999966
 31
0.0
  0
LINE
  5
112
330
1F
100
AcDbEntity
  8
6
  6
Continuous
 62
     1
370
    25
100
AcDbLine
 10
57.24234279697521
 20
41.35000999999966
 30
0.0
 11
57.24234279697521
 21
40.65002400000003
 31
0.0
  0
LINE
  5
113
330
1F
100
AcDbEntity
  8
6
  6
Continuous
 62
     1
370
    25
100
AcDbLine
 10
57.5923392969753
 20
41.52501699999993
 30
0.0
 11
57.5923392969753
 21
41.35000999999966
 31
0.0
  0
LINE
  5
114
330
1F
100
AcDbEntity
  8
6
  6
Continuous
 62
     1
370
    25
100
AcDbLine
 10
57.5923392969753
 20
41.35000999999966
 30
0.0
 11
57.24234279697521
 21
41.35000999999966
 31
0.0
  0
LINE
  5
115
330
1F
100
AcDbEntity
  8
6
  6
Continuous
 62
     1
370
    25
100
AcDbLine
 10
55.17734139697541
 20
41.48997850000001
 30
0.0
 11
55.17734139697541
 21
42.32998550000002
 31
0.0
  0
LINE
  5
116
330
1F
100
AcDbEntity
  8
6
  6
Continuous
 62
     1
370
    25
100
AcDbLine
 10
55.6673371969755
 20
41.34997150000004
 30
0.0
 11
55.6673371969755
 21
42.04997849999995
 31
0.0
  0
LINE
  5
117
330
1F
100
AcDbEntity
  8
6
  6
Continuous
 62
     1
370
    25
100
AcDbLine
 10
55.31733649697526
 20
42.32998550000002
 30
0.0
 11
55.17734139697541
 21
42.32998550000002
 31
0.0
  0
LINE
  5
118
330
1F
100
AcDbEntity
  8
6
  6
Continuous
 62
     1
370
    25
100
AcDbLine
 10
56.71733229697566
 20
42.04997849999995
 30
0.0
 11
55.6673371969755
 21
42.04997849999995
 31
0.0
  0
ARC
  5
119
330
1F
100
AcDbEntity
  8
6
  6
Continuous
 62
     1
370
    25
100
AcDbCircle
 10
55.17734139697541
 20
41.55998549999981
 30
0.0
 40
0.2100000000000009
100
AcDbArc
 50
179.9999999999998
 51
269.9999999999998
  0
LINE
  5
11A
330
1F
100
AcDbEntity
  8
6
  6
Continuous
 62
     1
370
    25
100
AcDbLine
 10
55.31733649697526
 20
41.34997150000004
 30
0.0
 11
55.31733649697526
 21
41.48997850000001
 31
0.0
  0
LINE
  5
11B
330
1F
100
AcDbEntity
  8
6
  6
Continuous
 62
     1
370
    25
100
AcDbLine
 10
55.31733649697526
 20
41.48997850000001
 30
0.0
 11
55.17734139697541
 21
41.48997850000001
 31
0.0
  0
LINE
  5
11C
330
1F
100
AcDbEntity
  8
6
  6
Continuous
 62
     1
370
    25
100
AcDbLine
 10
55.17734139697541
 20
41.34997150000004
 30
0.0
 11
56.71733229697566
 21
41.34997150000004
 31
0.0
  0
LINE
  5
11D
330
1F
100
AcDbEntity
  8
6
  6
Continuous
 62
     1
370
    25
100
AcDbLine
 10
57.24234279697521
 20
42.39998900000001
 30
0.0
 11
57.5923392969753
 21
42.39998900000001
 31
0.0
  0
LINE
  5
11E
330
1F
100
AcDbEntity
  8
6
  6
Continuous
 62
     1
370
    25
100
AcDbLine
 10
57.5923392969753
 20
42.39998900000001
 30
0.0
 11
57.5923392969753
 21
42.22497500000009
 31
0.0
  0
LINE
  5
11F
330
1F
100
AcDbEntity
  8
6
  6
Continuous
 62
     1
370
    25
100
AcDbLine
 10
56.36733999697572
 20
39.77497149999999
 30
0.0
 11
56.36733999697572
 21
41.34997150000004
 31
0.0
  0
LINE
  5
120
330
1F
100
AcDbEntity
  8
6
  6
Continuous
 62
     1
370
    25
100
AcDbLine
 10
56.01733859697561
 20
39.77497149999999
 30
0.0
 11
56.01733859697561
 21
41.34997150000004
 31
0.0
  0
LINE
  5
121
330
1F
100
AcDbEntity
  8
6
  6
Continuous
 62
     1
370
    25
100
AcDbLine
 10
55.31733649697526
 20
43.16997149999997
 30
0.0
 11
55.17734139697541
 21
43.16997149999997
 31
0.0
  0
LINE
  5
122
330
1F
100
AcDbEntity
  8
6
  6
Continuous
 62
     1
370
    25
100
AcDbLine
 10
57.5923392969753
 20
43.27498199999991
 30
0.0
 11
57.5923392969753
 21
43.09997500000009
 31
0.0
  0
LINE
  5
123
330
1F
100
AcDbEntity
  8
6
  6
Continuous
 62
     1
370
    25
100
AcDbLine
 10
57.5923392969753
 20
43.09997500000009
 30
0.0
 11
57.24234279697521
 21
43.09997500000009
 31
0.0
  0
LINE
  5
124
330
1F
100
AcDbEntity
  8
6
  6
Continuous
 62
     1
370
    25
100
AcDbLine
 10
55.31733649697526
 20
42.32998550000002
 30
0.0
 11
55.31733649697526
 21
43.16997149999997
 31
0.0
  0
LINE
  5
125
330
1F
100
AcDbEntity
  8
6
  6
Continuous
 62
     1
370
    25
100
AcDbLine
 10
57.24234279697521
 20
43.09997500000009
 30
0.0
 11
57.24234279697521
 21
42.39998900000001
 31
0.0
  0
LINE
  5
126
330
1F
100
AcDbEntity
  8
6
  6
Continuous
 62
     1
370
    25
100
AcDbLine
 10
53.56679673971939
 20
44.14998199999991
 30
0.0
 11
44.46679043971926
 21
44.14998199999991
 31
0.0
  0
LINE
  5
127
330
1F
100
AcDbEntity
  8
6
  6
Continuous
 62
     1
370
    25
100
AcDbLine
 10
51.46679393971908
 20
43.02998199999979
 30
0.0
 11
45.16679323971857
 21
43.02998199999979
 31
0.0
  0
LINE
  5
128
330
1F
100
AcDbEntity
  8
6
  6
Continuous
 62
     1
370
    25
100
AcDbLine
 10
51.46679393971908
 20
41.90998899999977
 30
0.0
 11
45.16679323971857
 21
41.90998899999977
 31
0.0
  0
LINE
  5
129
330
1F
100
AcDbEntity
  8
6
  6
Continuous
 62
     1
370
    25
100
AcDbLine
 10
51.46679393971908
 20
42.46996799999988
 30
0.0
 11
45.16679323971857
 21
42.46996799999988
 31
0.0
  0
LINE
  5
12A
330
1F
100
AcDbEntity
  8
6
  6
Continuous
 62
     1
370
    25
100
AcDbLine
 10
51.46679393971908
 20
43.589968
 30
0.0
 11
45.16679323971857
 21
43.589968
 31
0.0
  0
LINE
  5
12B
330
1F
100
AcDbEntity
  8
6
  6
Continuous
 62
     1
370
    25
100
AcDbLine
 10
53.56679673971939
 20
41.34997500000009
 30
0.0
 11
44.46679043971926
 21
41.34997500000009
 31
0.0
  0
LINE
  5
12C
330
1F
100
AcDbEntity
  8
6
  6
Continuous
 62
     1
370
    25
100
AcDbLine
 10
35.40006646154916
 20
43.83498180461265
 30
0.0
 11
20.00006646154907
 21
43.83498180461265
 31
0.0
  0
LINE
  5
12D
330
1F
100
AcDbEntity
  8
6
  6
Continuous
 62
     1
370
    25
100
AcDbLine
 10
35.40002623846431
 20
41.66498180802637
 30
0.0
 11
20.00002623846467
 21
41.6649816957854
 31
0.0
  0
LINE
  5
12E
330
1F
100
AcDbEntity
  8
6
  6
Continuous
 62
     1
370
    25
100
AcDbLine
 10
35.40002623846476
 20
40.7899750000006
 30
0.0
 11
35.40002623846476
 21
44.70997500000044
 31
0.0
  0
LINE
  5
12F
330
1F
100
AcDbEntity
  8
6
  6
Continuous
 62
     1
370
    25
100
AcDbLine
 10
44.46679043971926
 20
41.34997500000009
 30
0.0
 11
44.46679043971926
 21
44.14998199999991
 31
0.0
  0
LINE
  5
130
330
1F
100
AcDbEntity
  8
6
  6
Continuous
 62
     1
370
    25
100
AcDbLine
 10
45.16679323971857
 20
41.34997500000009
 30
0.0
 11
45.16679323971857
 21
44.14998199999991
 31
0.0
  0
LINE
  5
131
330
1F
100
AcDbEntity
  8
6
  6
Continuous
 62
     1
370
    25
100
AcDbLine
 10
53.56679673971939
 20
42.74997499999995
 30
0.0
 11
53.56679673971939
 21
46.42498199999977
 31
0.0
  0
ARC
  5
132
330
1F
100
AcDbEntity
  8
6
  6
Continuous
 62
     1
370
    25
100
AcDbCircle
 10
48.66679603971897
 20
45.72498199999973
 30
0.0
 40
0.7000000000000028
100
AcDbArc
 50
89.99999999999991
 51
179.9999999999998
  0
LINE
  5
133
330
1F
100
AcDbEntity
  8
6
  6
Continuous
 62
     1
370
    25
100
AcDbLine
 10
47.26681283971902
 20
45.54998899999987
 30
0.0
 11
47.96679323971875
 21
45.54998899999987
 31
0.0
  0
LINE
  5
134
330
1F
100
AcDbEntity
  8
6
  6
Continuous
 62
     1
370
    25
100
AcDbLine
 10
47.26681283971902
 20
45.8999960000001
 30
0.0
 11
47.26681283971902
 21
44.14998200000014
 31
0.0
  0
LINE
  5
135
330
1F
100
AcDbEntity
  8
6
  6
Continuous
 62
     1
370
    25
100
AcDbLine
 10
47.96679323971875
 20
45.72498199999973
 30
0.0
 11
47.96679323971875
 21
44.14998199999991
 31
0.0
  0
LINE
  5
136
330
1F
100
AcDbEntity
  8
6
  6
Continuous
 62
     1
370
    25
100
AcDbLine
 10
47.96679323971875
 20
45.54998899999987
 30
0.0
 11
47.96679323971875
 21
44.14998199999991
 31
0.0
  0
LINE
  5
137
330
1F
100
AcDbEntity
  8
6
  6
Continuous
 62
     1
370
    25
100
AcDbLine
 10
48.66679603971897
 20
39.0749679999999
 30
0.0
 11
53.56679673971939
 21
39.0749679999999
 31
0.0
  0
LINE
  5
138
330
1F
100
AcDbEntity
  8
6
  6
Continuous
 62
     1
370
    25
100
AcDbLine
 10
47.96679323971875
 20
39.9499609999998
 30
0.0
 11
47.26681283971902
 21
39.9499609999998
 31
0.0
  0
LINE
  5
139
330
1F
100
AcDbEntity
  8
6
  6
Continuous
 62
     1
370
    25
100
AcDbLine
 10
47.26681283971902
 20
39.5999539999998
 30
0.0
 11
47.26681283971902
 21
41.34996799999976
 31
0.0
  0
LINE
  5
13A
330
1F
100
AcDbEntity
  8
6
  6
Continuous
 62
     1
370
    25
100
AcDbLine
 10
47.96679323971875
 20
39.77496799999994
 30
0.0
 11
47.96679323971875
 21
41.34997500000009
 31
0.0
  0
LINE
  5
13B
330
1F
100
AcDbEntity
  8
6
  6
Continuous
 62
     1
370
    25
100
AcDbLine
 10
47.96679323971875
 20
41.34997500000009
 30
0.0
 11
47.96679323971875
 21
39.9499609999998
 31
0.0
  0
ARC
  5
13C
330
1F
100
AcDbEntity
  8
6
  6
Continuous
 62
     1
370
    25
100
AcDbCircle
 10
48.66679603971897
 20
39.77496799999994
 30
0.0
 40
0.7000000000000028
100
AcDbArc
 50
179.9999999999998
 51
269.9999999999998
  0
LINE
  5
13D
330
1F
100
AcDbEntity
  8
6
  6
Continuous
 62
     1
370
    25
100
AcDbLine
 10
51.46679393971908
 20
44.14998199999991
 30
0.0
 11
51.46679393971908
 21
41.34997500000009
 31
0.0
  0
LINE
  5
13E
330
1F
100
AcDbEntity
  8
6
  6
Continuous
 62
     1
370
    25
100
AcDbLine
 10
53.56679673971939
 20
42.74997499999995
 30
0.0
 11
53.56679673971939
 21
39.0749679999999
 31
0.0
  0
LINE
  5
13F
330
1F
100
AcDbEntity
  8
6
  6
Continuous
 62
     1
370
    25
100
AcDbLine
 10
52.8667904397189
 20
44.14998199999991
 30
0.0
 11
52.8667904397189
 21
41.34997500000009
 31
0.0
  0
LINE
  5
140
330
1F
100
AcDbEntity
  8
6
  6
Continuous
 62
     1
370
    25
100
AcDbLine
 10
48.66679603971897
 20
46.42498199999977
 30
0.0
 11
53.56679673971939
 21
46.42498199999977
 31
0.0
  0
LINE
  5
141
330
1F
100
AcDbEntity
  8
6
  6
Continuous
 62
     1
370
    25
100
AcDbLine
 10
47.26681283971902
 20
45.8999960000001
 30
0.0
 11
41.78248540626964
 21
45.8999960000001
 31
0.0
  0
LINE
  5
142
330
1F
100
AcDbEntity
  8
6
  6
Continuous
 62
     1
370
    25
100
AcDbLine
 10
38.30398629482033
 20
44.70997500000044
 30
0.0
 11
35.40002623846476
 21
44.70997500000044
 31
0.0
  0
ARC
  5
143
330
1F
100
AcDbEntity
  8
6
  6
Continuous
 62
     1
370
    25
100
AcDbCircle
 10
41.8174685862632
 20
44.23427236669204
 30
0.0
 40
1.66609094753062
100
AcDbArc
 50
91.20313712916261
 51
128.5407048704976
  0
ARC
  5
144
330
1F
100
AcDbEntity
  8
6
  6
Continuous
 62
     1
370
    25
100
AcDbCircle
 10
38.13788441421138
 20
49.21205309384573
 30
0.0
 40
4.505141174017005
100
AcDbArc
 50
272.1129402668354
 51
301.7409359603924
  0
LINE
  5
145
330
1F
100
AcDbEntity
  8
6
  6
Continuous
 62
     1
370
    25
100
AcDbLine
 10
40.7793765149454
 20
45.53743156529777
 30
0.0
 11
40.50794635117609
 21
45.38072128717954
 31
0.0
  0
LINE
  5
146
330
1F
100
AcDbEntity
  8
6
  6
Continuous
 62
     1
370
    25
100
AcDbLine
 10
47.26681283971902
 20
39.59995400000093
 30
0.0
 11
41.78248540626964
 21
39.59995400000093
 31
0.0
  0
LINE
  5
147
330
1F
100
AcDbEntity
  8
6
  6
Continuous
 62
     1
370
    25
100
AcDbLine
 10
38.30398629482033
 20
40.7899750000006
 30
0.0
 11
35.40002623846476
 21
40.7899750000006
 31
0.0
  0
ARC
  5
148
330
1F
100
AcDbEntity
  8
6
  6
Continuous
 62
     1
370
    25
100
AcDbCircle
 10
41.8174685862632
 20
41.265677633309
 30
0.0
 40
1.66609094753062
100
AcDbArc
 50
231.4592951295117
 51
268.7968628708368
  0
ARC
  5
149
330
1F
100
AcDbEntity
  8
6
  6
Continuous
 62
     1
370
    25
100
AcDbCircle
 10
38.13788441421138
 20
36.28789690615531
 30
0.0
 40
4.505141174017005
100
AcDbArc
 50
58.25906403960554
 51
87.88705973316422
  0
LINE
  5
14A
330
1F
100
AcDbEntity
  8
6
  6
Continuous
 62
     1
370
    25
100
AcDbLine
 10
40.7793765149454
 20
39.96251843470327
 30
0.0
 11
40.50794635117609
 21
40.1192287128215
 31
0.0
  0
POLYLINE
  5
14B
330
1F
100
AcDbEntity
  8
10
  6
Continuous
 62
     7
370
    25
100
AcDb2dPolyline
 66
     1
 10
0.0
 20
0.0
 30
0.0
  0
VERTEX
  5
14C
330
14B
100
AcDbEntity
  8
10
  6
Continuous
 62
     7
370
    25
100
AcDbVertex
100
AcDb2dVertex
 10
220.0092482472764
 20
83.09829104683172
 30
0.0
  0
VERTEX
  5
14D
330
14B
100
AcDbEntity
  8
10
  6
Continuous
 62
     7
370
    25
100
AcDbVertex
100
AcDb2dVertex
 10
220.0092482472764
 20
183.0982910468317
 30
0.0
  0
VERTEX
  5
14E
330
14B
100
AcDbEntity
  8
10
  6
Continuous
 62
     7
370
    25
100
AcDbVertex
100
AcDb2dVertex
 10
120.0092482472764
 20
183.0982910468317
 30
0.0
  0
VERTEX
  5
14F
330
14B
100
AcDbEntity
  8
10
  6
Continuous
 62
     7
370
    25
100
AcDbVertex
100
AcDb2dVertex
 10
120.0092482472764
 20
83.09829104683172
 30
0.0
  0
VERTEX
  5
150
330
14B
100
AcDbEntity
  8
10
  6
Continuous
 62
     7
370
    25
100
AcDbVertex
100
AcDb2dVertex
 10
220.0092482472764
 20
83.09829104683172
 30
0.0
  0
SEQEND
  5
151
330
14B
100
AcDbEntity
  8
10
  6
Continuous
 62
     7
370
    25
  0
LINE
  5
152
330
1F
100
AcDbEntity
  8
10
  6
Continuous
 62
     7
370
    25
100
AcDbLine
 10
235.0092482472764
 20
198.0982910468317
 30
0.0
 11
235.0092482472764
 21
68.09829104683217
 31
0.0
  0
LINE
  5
153
330
1F
100
AcDbEntity
  8
10
  6
Continuous
 62
     7
370
    25
100
AcDbLine
 10
235.0092482472764
 20
68.09829104683217
 30
0.0
 11
105.0092482472764
 21
68.09829104683126
 31
0.0
  0
LINE
  5
154
330
1F
100
AcDbEntity
  8
10
  6
Continuous
 62
     7
370
    25
100
AcDbLine
 10
235.0092482472764
 20
198.0982910468317
 30
0.0
 11
105.0092482472764
 21
198.0982910468324
 31
0.0
  0
LINE
  5
155
330
1F
100
AcDbEntity
  8
10
  6
Continuous
 62
     7
370
    25
100
AcDbLine
 10
105.0092482472764
 20
198.0982910468324
 30
0.0
 11
105.0092482472764
 21
68.09829104683126
 31
0.0
  0
LINE
  5
156
330
1F
100
AcDbEntity
  8
10
  6
Continuous
 62
     7
370
    25
100
AcDbLine
 10
332.9753372679588
 20
68.09829104683217
 30
0.0
 11
326.0753372679583
 21
68.09829104683217
 31
0.0
  0
LINE
  5
157
330
1F
100
AcDbEntity
  8
10
  6
Continuous
 62
     7
370
    25
100
AcDbLine
 10
332.9753372679588
 20
67.78162438016511
 30
0.0
 11
326.0753372679583
 21
67.78162438016511
 31
0.0
  0
ARC
  5
158
330
1F
100
AcDbEntity
  8
10
  6
Continuous
 62
     7
370
    25
100
AcDbCircle
 10
329.525337267959
 20
70.74864192402515
 30
0.0
 40
4.550350877192955
100
AcDbArc
 50
220.6956985253817
 51
319.3043014746177
  0
LINE
  5
159
330
1F
100
AcDbEntity
  8
10
  6
Continuous
 62
     7
370
    25
100
AcDbLine
 10
332.9753372679588
 20
68.09829104683217
 30
0.0
 11
332.9753372679588
 21
67.78162438016511
 31
0.0
  0
LINE
  5
15A
330
1F
100
AcDbEntity
  8
10
  6
Continuous
 62
     7
370
    25
100
AcDbLine
 10
326.0753372679583
 20
68.09829104683217
 30
0.0
 11
326.0753372679583
 21
67.78162438016511
 31
0.0
  0
LINE
  5
15B
330
1F
100
AcDbEntity
  8
10
  6
Continuous
 62
     7
370
    25
100
AcDbLine
 10
294.525337267959
 20
198.0982910468317
 30
0.0
 11
294.525337267959
 21
68.09829104683217
 31
0.0
  0
LINE
  5
15C
330
1F
100
AcDbEntity
  8
10
  6
Continuous
 62
     7
370
    25
100
AcDbLine
 10
339.525337267959
 20
213.0982910468319
 30
0.0
 11
339.525337267959
 21
53.09829104683217
 31
0.0
  0
LINE
  5
15D
330
1F
100
AcDbEntity
  8
10
  6
Continuous
 62
     7
370
    25
100
AcDbLine
 10
338.525337267959
 20
213.0982910468319
 30
0.0
 11
338.5253372679572
 21
53.09829104683217
 31
0.0
  0
LINE
  5
15E
330
1F
100
AcDbEntity
  8
10
  6
Continuous
 62
     7
370
    25
100
AcDbLine
 10
294.525337267959
 20
198.0982910468317
 30
0.0
 11
338.525337267959
 21
198.0982910468308
 31
0.0
  0
LINE
  5
15F
330
1F
100
AcDbEntity
  8
10
  6
Continuous
 62
     7
370
    25
100
AcDbLine
 10
338.525337267959
 20
197.0982910468308
 30
0.0
 11
339.525337267959
 21
197.0982910468308
 31
0.0
  0
LINE
  5
160
330
1F
100
AcDbEntity
  8
10
  6
Continuous
 62
     7
370
    25
100
AcDbLine
 10
338.525337267959
 20
213.0982910468319
 30
0.0
 11
339.525337267959
 21
213.0982910468319
 31
0.0
  0
LINE
  5
161
330
1F
100
AcDbEntity
  8
10
  6
Continuous
 62
     7
370
    25
100
AcDbLine
 10
294.525337267959
 20
68.09829104683217
 30
0.0
 11
338.5253372679572
 21
68.09829104683217
 31
0.0
  0
LINE
  5
162
330
1F
100
AcDbEntity
  8
10
  6
Continuous
 62
     7
370
    25
100
AcDbLine
 10
338.5253372679572
 20
69.09829104683217
 30
0.0
 11
339.525337267959
 21
69.09829104683172
 31
0.0
  0
LINE
  5
163
330
1F
100
AcDbEntity
  8
10
  6
Continuous
 62
     7
370
    25
100
AcDbLine
 10
338.525337267959
 20
53.09829104683217
 30
0.0
 11
339.525337267959
 21
53.09829104683217
 31
0.0
  0
LINE
  5
164
330
1F
100
AcDbEntity
  8
10
  6
Continuous
 62
     7
370
    25
100
AcDbLine
 10
220.0092482472764
 20
58.09829104683172
 30
0.0
 11
220.0092482472764
 21
68.09829104683172
 31
0.0
  0
ARC
  5
165
330
1F
100
AcDbEntity
  8
10
  6
Continuous
 62
     7
370
    25
100
AcDbCircle
 10
215.0092482472774
 20
58.09829104683172
 30
0.0
 40
5.0
100
AcDbArc
 50
269.9999999999998
 51
0.0
  0
LINE
  5
166
330
1F
100
AcDbEntity
  8
10
  6
Continuous
 62
     7
370
    25
100
AcDbLine
 10
125.0092482472764
 20
53.09829104683172
 30
0.0
 11
215.0092482472774
 21
53.09829104683308
 31
0.0
  0
LINE
  5
167
330
1F
100
AcDbEntity
  8
10
  6
Continuous
 62
     7
370
    25
100
AcDbLine
 10
120.0092482472764
 20
58.09829104683172
 30
0.0
 11
120.0092482472764
 21
68.09829104683172
 31
0.0
  0
ARC
  5
168
330
1F
100
AcDbEntity
  8
10
  6
Continuous
 62
     7
370
    25
100
AcDbCircle
 10
125.0092482472755
 20
58.09829104683172
 30
0.0
 40
4.999999999999986
100
AcDbArc
 50
179.9999999999998
 51
269.9999999999998
  0
LINE
  5
169
330
1F
100
AcDbEntity
  8
10
  6
Continuous
 62
     7
370
    25
100
AcDbLine
 10
215.0092482472764
 20
213.0982910468319
 30
0.0
 11
182.5092482472755
 21
213.0982910468319
 31
0.0
  0
ARC
  5
16A
330
1F
100
AcDbEntity
  8
10
  6
Continuous
 62
     7
370
    25
100
AcDbCircle
 10
182.5092482472755
 20
208.0982910468317
 30
0.0
 40
5.0
100
AcDbArc
 50
89.99999999999991
 51
179.9999999999998
  0
LINE
  5
16B
330
1F
100
AcDbEntity
  8
10
  6
Continuous
 62
     7
370
    25
100
AcDbLine
 10
220.0092482472764
 20
208.0982910468317
 30
0.0
 11
220.0092482472764
 21
198.0982910468317
 31
0.0
  0
LINE
  5
16C
330
1F
100
AcDbEntity
  8
10
  6
Continuous
 62
     7
370
    25
100
AcDbLine
 10
177.5092482472755
 20
208.0982910468317
 30
0.0
 11
177.5092482472755
 21
198.0982910468317
 31
0.0
  0
ARC
  5
16D
330
1F
100
AcDbEntity
  8
10
  6
Continuous
 62
     7
370
    25
100
AcDbCircle
 10
215.0092482472774
 20
208.0982910468317
 30
0.0
 40
5.0
100
AcDbArc
 50
0.0
 51
89.99999999999991
  0
LINE
  5
16E
330
1F
100
AcDbEntity
  8
10
  6
Continuous
 62
     7
370
    25
100
AcDbLine
 10
125.0092482472764
 20
213.0982910468319
 30
0.0
 11
157.5092482472764
 21
213.0982910468319
 31
0.0
  0
ARC
  5
16F
330
1F
100
AcDbEntity
  8
10
  6
Continuous
 62
     7
370
    25
100
AcDbCircle
 10
157.5092482472764
 20
208.0982910468317
 30
0.0
 40
5.0
100
AcDbArc
 50
0.0
 51
89.99999999999991
  0
LINE
  5
170
330
1F
100
AcDbEntity
  8
10
  6
Continuous
 62
     7
370
    25
100
AcDbLine
 10
120.0092482472764
 20
208.0982910468317
 30
0.0
 11
120.0092482472764
 21
198.0982910468317
 31
0.0
  0
LINE
  5
171
330
1F
100
AcDbEntity
  8
10
  6
Continuous
 62
     7
370
    25
100
AcDbLine
 10
162.5092482472764
 20
208.0982910468317
 30
0.0
 11
162.5092482472764
 21
198.0982910468317
 31
0.0
  0
ARC
  5
172
330
1F
100
AcDbEntity
  8
10
  6
Continuous
 62
     7
370
    25
100
AcDbCircle
 10
125.0092482472755
 20
208.0982910468317
 30
0.0
 40
4.999999999999986
100
AcDbArc
 50
89.99999999999991
 51
179.9999999999998
  0
LINE
  5
173
330
1F
100
AcDbEntity
  8
10
  6
Continuous
 62
     7
370
    25
100
AcDbLine
 10
319.775337267959
 20
198.5982910468317
 30
0.0
 11
319.775337267959
 21
198.0982910468317
 31
0.0
  0
LINE
  5
174
330
1F
100
AcDbEntity
  8
10
  6
Continuous
 62
     7
370
    25
100
AcDbLine
 10
319.025337267959
 20
198.5982910468317
 30
0.0
 11
319.025337267959
 21
203.1982910468314
 31
0.0
  0
LINE
  5
175
330
1F
100
AcDbEntity
  8
10
  6
Continuous
 62
     7
370
    25
100
AcDbLine
 10
322.525337267959
 20
198.5982910468317
 30
0.0
 11
322.525337267959
 21
203.1982910468314
 31
0.0
  0
LINE
  5
176
330
1F
100
AcDbEntity
  8
10
  6
Continuous
 62
     7
370
    25
100
AcDbLine
 10
333.0253372679599
 20
198.5982910468319
 30
0.0
 11
333.025337267959
 21
203.1982910468314
 31
0.0
  0
LINE
  5
177
330
1F
100
AcDbEntity
  8
10
  6
Continuous
 62
     7
370
    25
100
AcDbLine
 10
329.525337267959
 20
199.9982910468311
 30
0.0
 11
329.525337267959
 21
203.1982910468314
 31
0.0
  0
LINE
  5
178
330
1F
100
AcDbEntity
  8
10
  6
Continuous
 62
     7
370
    25
100
AcDbLine
 10
319.025337267959
 20
203.1982910468314
 30
0.0
 11
326.025337267959
 21
203.1982910468314
 31
0.0
  0
LINE
  5
179
330
1F
100
AcDbEntity
  8
10
  6
Continuous
 62
     7
370
    25
100
AcDbLine
 10
320.025337267959
 20
205.0982910468317
 30
0.0
 11
326.025337267959
 21
205.0982910468317
 31
0.0
  0
LINE
  5
17A
330
1F
100
AcDbEntity
  8
10
  6
Continuous
 62
     7
370
    25
100
AcDbLine
 10
323.525337267959
 20
216.0982910468317
 30
0.0
 11
328.525337267959
 21
216.0982910468317
 31
0.0
  0
ARC
  5
17B
330
1F
100
AcDbEntity
  8
10
  6
Continuous
 62
     7
370
    25
100
AcDbCircle
 10
323.525337267959
 20
213.0982910468319
 30
0.0
 40
3.0
100
AcDbArc
 50
89.99999999999991
 51
179.9999999999998
  0
LINE
  5
17C
330
1F
100
AcDbEntity
  8
10
  6
Continuous
 62
     7
370
    25
100
AcDbLine
 10
320.025337267959
 20
213.0982910468319
 30
0.0
 11
332.025337267959
 21
213.0982910468319
 31
0.0
  0
LINE
  5
17D
330
1F
100
AcDbEntity
  8
10
  6
Continuous
 62
     7
370
    25
100
AcDbLine
 10
320.025337267959
 20
205.0982910468317
 30
0.0
 11
320.025337267959
 21
213.0982910468319
 31
0.0
  0
LINE
  5
17E
330
1F
100
AcDbEntity
  8
10
  6
Continuous
 62
     7
370
    25
100
AcDbLine
 10
321.025337267959
 20
203.1982910468314
 30
0.0
 11
321.025337267959
 21
205.0982910468317
 31
0.0
  0
LINE
  5
17F
330
1F
100
AcDbEntity
  8
10
  6
Continuous
 62
     7
370
    25
100
AcDbLine
 10
333.025337267959
 20
203.1982910468314
 30
0.0
 11
326.025337267959
 21
203.1982910468314
 31
0.0
  0
LINE
  5
180
330
1F
100
AcDbEntity
  8
10
  6
Continuous
 62
     7
370
    25
100
AcDbLine
 10
332.025337267959
 20
205.0982910468317
 30
0.0
 11
326.025337267959
 21
205.0982910468317
 31
0.0
  0
LINE
  5
181
330
1F
100
AcDbEntity
  8
10
  6
Continuous
 62
     7
370
    25
100
AcDbLine
 10
326.025337267959
 20
205.0982910468317
 30
0.0
 11
326.025337267959
 21
213.0982910468319
 31
0.0
  0
LINE
  5
182
330
1F
100
AcDbEntity
  8
10
  6
Continuous
 62
     7
370
    25
100
AcDbLine
 10
319.025337267959
 20
198.5982910468317
 30
0.0
 11
326.2418966249543
 21
198.5982910468315
 31
0.0
  0
LINE
  5
183
330
1F
100
AcDbEntity
  8
10
  6
Continuous
 62
     7
370
    25
100
AcDbLine
 10
331.025337267959
 20
203.1982910468314
 30
0.0
 11
331.025337267959
 21
205.0982910468317
 31
0.0
  0
ARC
  5
184
330
1F
100
AcDbEntity
  8
10
  6
Continuous
 62
     7
370
    25
100
AcDbCircle
 10
328.525337267959
 20
213.0982910468319
 30
0.0
 40
3.0
100
AcDbArc
 50
0.0
 51
89.99999999999991
  0
LINE
  5
185
330
1F
100
AcDbEntity
  8
10
  6
Continuous
 62
     7
370
    25
100
AcDbLine
 10
332.025337267959
 20
205.0982910468317
 30
0.0
 11
332.025337267959
 21
213.0982910468319
 31
0.0
  0
LINE
  5
186
330
1F
100
AcDbEntity
  8
10
  6
Continuous
 62
     7
370
    25
100
AcDbLine
 10
163.7592482472764
 20
198.5982910468317
 30
0.0
 11
163.7592482472764
 21
198.0982910468324
 31
0.0
  0
LINE
  5
187
330
1F
100
AcDbEntity
  8
10
  6
Continuous
 62
     7
370
    25
100
AcDbLine
 10
163.0092482472764
 20
198.5982910468317
 30
0.0
 11
163.0092482472764
 21
203.1982910468314
 31
0.0
  0
LINE
  5
188
330
1F
100
AcDbEntity
  8
10
  6
Continuous
 62
     7
370
    25
100
AcDbLine
 10
166.5092482472764
 20
198.5982910468317
 30
0.0
 11
166.5092482472764
 21
203.1982910468314
 31
0.0
  0
LINE
  5
189
330
1F
100
AcDbEntity
  8
10
  6
Continuous
 62
     7
370
    25
100
AcDbLine
 10
177.0092482472764
 20
198.5982910468317
 30
0.0
 11
177.0092482472764
 21
203.1982910468314
 31
0.0
  0
LINE
  5
18A
330
1F
100
AcDbEntity
  8
10
  6
Continuous
 62
     7
370
    25
100
AcDbLine
 10
173.5092482472764
 20
198.5982910468317
 30
0.0
 11
173.5092482472764
 21
203.1982910468314
 31
0.0
  0
LINE
  5
18B
330
1F
100
AcDbEntity
  8
10
  6
Continuous
 62
     7
370
    25
100
AcDbLine
 10
163.0092482472764
 20
203.1982910468314
 30
0.0
 11
170.0092482472764
 21
203.1982910468314
 31
0.0
  0
LINE
  5
18C
330
1F
100
AcDbEntity
  8
10
  6
Continuous
 62
     7
370
    25
100
AcDbLine
 10
164.0092482472764
 20
205.0982910468317
 30
0.0
 11
170.0092482472764
 21
205.0982910468317
 31
0.0
  0
LINE
  5
18D
330
1F
100
AcDbEntity
  8
10
  6
Continuous
 62
     7
370
    25
100
AcDbLine
 10
167.5092482472764
 20
216.0982910468317
 30
0.0
 11
172.5092482472764
 21
216.0982910468317
 31
0.0
  0
ARC
  5
18E
330
1F
100
AcDbEntity
  8
10
  6
Continuous
 62
     7
370
    25
100
AcDbCircle
 10
167.5092482472764
 20
213.0982910468319
 30
0.0
 40
3.0
100
AcDbArc
 50
89.99999999999991
 51
179.9999999999998
  0
LINE
  5
18F
330
1F
100
AcDbEntity
  8
10
  6
Continuous
 62
     7
370
    25
100
AcDbLine
 10
164.0092482472764
 20
213.0982910468319
 30
0.0
 11
176.0092482472764
 21
213.0982910468319
 31
0.0
  0
LINE
  5
190
330
1F
100
AcDbEntity
  8
10
  6
Continuous
 62
     7
370
    25
100
AcDbLine
 10
164.0092482472764
 20
205.0982910468317
 30
0.0
 11
164.0092482472764
 21
213.0982910468319
 31
0.0
  0
LINE
  5
191
330
1F
100
AcDbEntity
  8
10
  6
Continuous
 62
     7
370
    25
100
AcDbLine
 10
165.0092482472764
 20
203.1982910468314
 30
0.0
 11
165.0092482472764
 21
205.0982910468317
 31
0.0
  0
LINE
  5
192
330
1F
100
AcDbEntity
  8
10
  6
Continuous
 62
     7
370
    25
100
AcDbLine
 10
177.0092482472764
 20
203.1982910468314
 30
0.0
 11
170.0092482472764
 21
203.1982910468314
 31
0.0
  0
LINE
  5
193
330
1F
100
AcDbEntity
  8
10
  6
Continuous
 62
     7
370
    25
100
AcDbLine
 10
176.0092482472764
 20
205.0982910468317
 30
0.0
 11
170.0092482472764
 21
205.0982910468317
 31
0.0
  0
LINE
  5
194
330
1F
100
AcDbEntity
  8
10
  6
Continuous
 62
     7
370
    25
100
AcDbLine
 10
170.0092482472764
 20
205.0982910468317
 30
0.0
 11
170.0092482472764
 21
213.0982910468319
 31
0.0
  0
LINE
  5
195
330
1F
100
AcDbEntity
  8
10
  6
Continuous
 62
     7
370
    25
100
AcDbLine
 10
163.0092482472764
 20
198.5982910468317
 30
0.0
 11
170.0092482472764
 21
198.5982910468317
 31
0.0
  0
LINE
  5
196
330
1F
100
AcDbEntity
  8
10
  6
Continuous
 62
     7
370
    25
100
AcDbLine
 10
177.0092482472764
 20
198.5982910468317
 30
0.0
 11
170.0092482472764
 21
198.5982910468317
 31
0.0
  0
LINE
  5
197
330
1F
100
AcDbEntity
  8
10
  6
Continuous
 62
     7
370
    25
100
AcDbLine
 10
176.2592482472764
 20
198.5982910468317
 30
0.0
 11
176.2592482472764
 21
198.0982910468324
 31
0.0
  0
LINE
  5
198
330
1F
100
AcDbEntity
  8
10
  6
Continuous
 62
     7
370
    25
100
AcDbLine
 10
175.0092482472764
 20
203.1982910468314
 30
0.0
 11
175.0092482472764
 21
205.0982910468317
 31
0.0
  0
ARC
  5
199
330
1F
100
AcDbEntity
  8
10
  6
Continuous
 62
     7
370
    25
100
AcDbCircle
 10
172.5092482472764
 20
213.0982910468319
 30
0.0
 40
3.0
100
AcDbArc
 50
0.0
 51
89.99999999999991
  0
LINE
  5
19A
330
1F
100
AcDbEntity
  8
10
  6
Continuous
 62
     7
370
    25
100
AcDbLine
 10
176.0092482472764
 20
205.0982910468317
 30
0.0
 11
176.0092482472764
 21
213.0982910468319
 31
0.0
  0
LINE
  5
19B
330
1F
100
AcDbEntity
  8
10
  6
Continuous
 62
     7
370
    25
100
AcDbLine
 10
332.9753372679588
 20
198.098291046831
 30
0.0
 11
326.0753372679583
 21
198.098291046831
 31
0.0
  0
LINE
  5
19C
330
1F
100
AcDbEntity
  8
10
  6
Continuous
 62
     7
370
    25
100
AcDbLine
 10
332.9753372679588
 20
198.4149577134983
 30
0.0
 11
326.0753372679583
 21
198.4149577134983
 31
0.0
  0
ARC
  5
19D
330
1F
100
AcDbEntity
  8
10
  6
Continuous
 62
     7
370
    25
100
AcDbCircle
 10
329.525337267959
 20
195.4479401696381
 30
0.0
 40
4.550350877192955
100
AcDbArc
 50
40.69569852538219
 51
139.3043014746175
  0
LINE
  5
19E
330
1F
100
AcDbEntity
  8
10
  6
Continuous
 62
     7
370
    25
100
AcDbLine
 10
332.9753372679588
 20
198.098291046831
 30
0.0
 11
332.9753372679588
 21
198.4149577134983
 31
0.0
  0
LINE
  5
19F
330
1F
100
AcDbEntity
  8
10
  6
Continuous
 62
     7
370
    25
100
AcDbLine
 10
326.0753372679583
 20
198.098291046831
 30
0.0
 11
326.0753372679583
 21
198.4149577134983
 31
0.0
  0
LINE
  5
1A0
330
1F
100
AcDbEntity
  8
10
  6
Continuous
 62
     7
370
    25
100
AcDbLine
 10
118.4592482472781
 20
68.09829104683217
 30
0.0
 11
111.5592482472784
 21
68.09829104683217
 31
0.0
  0
LINE
  5
1A1
330
1F
100
AcDbEntity
  8
10
  6
Continuous
 62
     7
370
    25
100
AcDbLine
 10
118.4592482472781
 20
67.78162438016511
 30
0.0
 11
111.5592482472784
 21
67.78162438016511
 31
0.0
  0
ARC
  5
1A2
330
1F
100
AcDbEntity
  8
10
  6
Continuous
 62
     7
370
    25
100
AcDbCircle
 10
115.0092482472783
 20
70.74864192402515
 30
0.0
 40
4.550350877192983
100
AcDbArc
 50
220.695698525381
 51
319.3043014746181
  0
LINE
  5
1A3
330
1F
100
AcDbEntity
  8
10
  6
Continuous
 62
     7
370
    25
100
AcDbLine
 10
118.4592482472781
 20
68.09829104683217
 30
0.0
 11
118.4592482472781
 21
67.78162438016511
 31
0.0
  0
LINE
  5
1A4
330
1F
100
AcDbEntity
  8
10
  6
Continuous
 62
     7
370
    25
100
AcDbLine
 10
111.5592482472784
 20
68.09829104683217
 30
0.0
 11
111.5592482472784
 21
67.78162438016511
 31
0.0
  0
LINE
  5
1A5
330
1F
100
AcDbEntity
  8
10
  6
Continuous
 62
     7
370
    25
100
AcDbLine
 10
129.9592482472781
 20
68.09829104683217
 30
0.0
 11
123.0592482472775
 21
68.09829104683217
 31
0.0
  0
LINE
  5
1A6
330
1F
100
AcDbEntity
  8
10
  6
Continuous
 62
     7
370
    25
100
AcDbLine
 10
129.9592482472781
 20
67.78162438016511
 30
0.0
 11
123.0592482472775
 21
67.78162438016511
 31
0.0
  0
ARC
  5
1A7
330
1F
100
AcDbEntity
  8
10
  6
Continuous
 62
     7
370
    25
100
AcDbCircle
 10
126.5092482472783
 20
70.74864192402515
 30
0.0
 40
4.550350877192983
100
AcDbArc
 50
220.695698525381
 51
319.3043014746181
  0
LINE
  5
1A8
330
1F
100
AcDbEntity
  8
10
  6
Continuous
 62
     7
370
    25
100
AcDbLine
 10
129.9592482472781
 20
68.09829104683217
 30
0.0
 11
129.9592482472781
 21
67.78162438016511
 31
0.0
  0
LINE
  5
1A9
330
1F
100
AcDbEntity
  8
10
  6
Continuous
 62
     7
370
    25
100
AcDbLine
 10
123.0592482472775
 20
68.09829104683217
 30
0.0
 11
123.0592482472775
 21
67.78162438016511
 31
0.0
  0
LINE
  5
1AA
330
1F
100
AcDbEntity
  8
10
  6
Continuous
 62
     7
370
    25
100
AcDbLine
 10
118.4592482472781
 20
198.0982910468326
 30
0.0
 11
111.5592482472784
 21
198.0982910468326
 31
0.0
  0
LINE
  5
1AB
330
1F
100
AcDbEntity
  8
10
  6
Continuous
 62
     7
370
    25
100
AcDbLine
 10
118.4592482472781
 20
198.4149577134997
 30
0.0
 11
111.5592482472784
 21
198.4149577134997
 31
0.0
  0
ARC
  5
1AC
330
1F
100
AcDbEntity
  8
10
  6
Continuous
 62
     7
370
    25
100
AcDbCircle
 10
115.0092482472783
 20
195.4479401696397
 30
0.0
 40
4.550350877192983
100
AcDbArc
 50
40.69569852538191
 51
139.3043014746181
  0
LINE
  5
1AD
330
1F
100
AcDbEntity
  8
10
  6
Continuous
 62
     7
370
    25
100
AcDbLine
 10
118.4592482472781
 20
198.0982910468326
 30
0.0
 11
118.4592482472781
 21
198.4149577134997
 31
0.0
  0
LINE
  5
1AE
330
1F
100
AcDbEntity
  8
10
  6
Continuous
 62
     7
370
    25
100
AcDbLine
 10
111.5592482472784
 20
198.0982910468326
 30
0.0
 11
111.5592482472784
 21
198.4149577134997
 31
0.0
  0
LINE
  5
1AF
330
1F
100
AcDbEntity
  8
10
  6
Continuous
 62
     7
370
    25
100
AcDbLine
 10
129.9592482472781
 20
198.0982910468326
 30
0.0
 11
123.0592482472775
 21
198.0982910468326
 31
0.0
  0
LINE
  5
1B0
330
1F
100
AcDbEntity
  8
10
  6
Continuous
 62
     7
370
    25
100
AcDbLine
 10
129.9592482472781
 20
198.4149577134997
 30
0.0
 11
123.0592482472775
 21
198.4149577134997
 31
0.0
  0
ARC
  5
1B1
330
1F
100
AcDbEntity
  8
10
  6
Continuous
 62
     7
370
    25
100
AcDbCircle
 10
126.5092482472783
 20
195.4479401696397
 30
0.0
 40
4.550350877192983
100
AcDbArc
 50
40.69569852538191
 51
139.3043014746181
  0
LINE
  5
1B2
330
1F
100
AcDbEntity
  8
10
  6
Continuous
 62
     7
370
    25
100
AcDbLine
 10
129.9592482472781
 20
198.0982910468326
 30
0.0
 11
129.9592482472781
 21
198.4149577134997
 31
0.0
  0
LINE
  5
1B3
330
1F
100
AcDbEntity
  8
10
  6
Continuous
 62
     7
370
    25
100
AcDbLine
 10
123.0592482472775
 20
198.0982910468326
 30
0.0
 11
123.0592482472775
 21
198.4149577134997
 31
0.0
  0
LINE
  5
1B4
330
1F
100
AcDbEntity
  8
10
  6
Continuous
 62
     7
370
    25
100
AcDbLine
 10
161.4592482472763
 20
198.0982910468326
 30
0.0
 11
154.5592482472766
 21
198.0982910468326
 31
0.0
  0
LINE
  5
1B5
330
1F
100
AcDbEntity
  8
10
  6
Continuous
 62
     7
370
    25
100
AcDbLine
 10
161.4592482472763
 20
198.4149577134997
 30
0.0
 11
154.5592482472766
 21
198.4149577134997
 31
0.0
  0
ARC
  5
1B6
330
1F
100
AcDbEntity
  8
10
  6
Continuous
 62
     7
370
    25
100
AcDbCircle
 10
158.0092482472764
 20
195.4479401696397
 30
0.0
 40
4.550350877192983
100
AcDbArc
 50
40.69569852538191
 51
139.3043014746181
  0
LINE
  5
1B7
330
1F
100
AcDbEntity
  8
10
  6
Continuous
 62
     7
370
    25
100
AcDbLine
 10
161.4592482472763
 20
198.0982910468326
 30
0.0
 11
161.4592482472763
 21
198.4149577134997
 31
0.0
  0
LINE
  5
1B8
330
1F
100
AcDbEntity
  8
10
  6
Continuous
 62
     7
370
    25
100
AcDbLine
 10
154.5592482472766
 20
198.0982910468326
 30
0.0
 11
154.5592482472766
 21
198.4149577134997
 31
0.0
  0
LINE
  5
1B9
330
1F
100
AcDbEntity
  8
10
  6
Continuous
 62
     7
370
    25
100
AcDbLine
 10
221.5592482472748
 20
198.0982910468317
 30
0.0
 11
228.4592482472754
 21
198.0982910468317
 31
0.0
  0
LINE
  5
1BA
330
1F
100
AcDbEntity
  8
10
  6
Continuous
 62
     7
370
    25
100
AcDbLine
 10
221.5592482472748
 20
198.414957713499
 30
0.0
 11
228.4592482472754
 21
198.414957713499
 31
0.0
  0
ARC
  5
1BB
330
1F
100
AcDbEntity
  8
10
  6
Continuous
 62
     7
370
    25
100
AcDbCircle
 10
225.0092482472746
 20
195.4479401696387
 30
0.0
 40
4.550350877192983
100
AcDbArc
 50
40.69569852538191
 51
139.3043014746181
  0
LINE
  5
1BC
330
1F
100
AcDbEntity
  8
10
  6
Continuous
 62
     7
370
    25
100
AcDbLine
 10
221.5592482472748
 20
198.0982910468317
 30
0.0
 11
221.5592482472748
 21
198.414957713499
 31
0.0
  0
LINE
  5
1BD
330
1F
100
AcDbEntity
  8
10
  6
Continuous
 62
     7
370
    25
100
AcDbLine
 10
228.4592482472754
 20
198.0982910468317
 30
0.0
 11
228.4592482472754
 21
198.414957713499
 31
0.0
  0
LINE
  5
1BE
330
1F
100
AcDbEntity
  8
10
  6
Continuous
 62
     7
370
    25
100
AcDbLine
 10
210.0592482472757
 20
198.0982910468317
 30
0.0
 11
216.9592482472754
 21
198.0982910468317
 31
0.0
  0
LINE
  5
1BF
330
1F
100
AcDbEntity
  8
10
  6
Continuous
 62
     7
370
    25
100
AcDbLine
 10
210.0592482472757
 20
198.414957713499
 30
0.0
 11
216.9592482472754
 21
198.414957713499
 31
0.0
  0
ARC
  5
1C0
330
1F
100
AcDbEntity
  8
10
  6
Continuous
 62
     7
370
    25
100
AcDbCircle
 10
213.5092482472755
 20
195.4479401696387
 30
0.0
 40
4.550350877192983
100
AcDbArc
 50
40.69569852538191
 51
139.3043014746181
  0
LINE
  5
1C1
330
1F
100
AcDbEntity
  8
10
  6
Continuous
 62
     7
370
    25
100
AcDbLine
 10
210.0592482472757
 20
198.0982910468317
 30
0.0
 11
210.0592482472757
 21
198.414957713499
 31
0.0
  0
LINE
  5
1C2
330
1F
100
AcDbEntity
  8
10
  6
Continuous
 62
     7
370
    25
100
AcDbLine
 10
216.9592482472754
 20
198.0982910468317
 30
0.0
 11
216.9592482472754
 21
198.414957713499
 31
0.0
  0
LINE
  5
1C3
330
1F
100
AcDbEntity
  8
10
  6
Continuous
 62
     7
370
    25
100
AcDbLine
 10
178.0092482472764
 20
198.0982910468324
 30
0.0
 11
186.0092482472764
 21
198.0982910468324
 31
0.0
  0
LINE
  5
1C4
330
1F
100
AcDbEntity
  8
10
  6
Continuous
 62
     7
370
    25
100
AcDbLine
 10
178.5592482472766
 20
198.0982910468326
 30
0.0
 11
185.4592482472772
 21
198.0982910468326
 31
0.0
  0
LINE
  5
1C5
330
1F
100
AcDbEntity
  8
10
  6
Continuous
 62
     7
370
    25
100
AcDbLine
 10
178.5592482472766
 20
198.4149577134997
 30
0.0
 11
185.4592482472772
 21
198.4149577134997
 31
0.0
  0
ARC
  5
1C6
330
1F
100
AcDbEntity
  8
10
  6
Continuous
 62
     7
370
    25
100
AcDbCircle
 10
182.0092482472764
 20
195.4479401696397
 30
0.0
 40
4.550350877192983
100
AcDbArc
 50
40.69569852538191
 51
139.3043014746181
  0
LINE
  5
1C7
330
1F
100
AcDbEntity
  8
10
  6
Continuous
 62
     7
370
    25
100
AcDbLine
 10
178.5592482472766
 20
198.0982910468326
 30
0.0
 11
178.5592482472766
 21
198.4149577134997
 31
0.0
  0
LINE
  5
1C8
330
1F
100
AcDbEntity
  8
10
  6
Continuous
 62
     7
370
    25
100
AcDbLine
 10
185.4592482472772
 20
198.0982910468326
 30
0.0
 11
185.4592482472772
 21
198.4149577134997
 31
0.0
  0
LINE
  5
1C9
330
1F
100
AcDbEntity
  8
10
  6
Continuous
 62
     7
370
    25
100
AcDbLine
 10
221.5592482472748
 20
68.09829104683217
 30
0.0
 11
228.4592482472754
 21
68.09829104683217
 31
0.0
  0
LINE
  5
1CA
330
1F
100
AcDbEntity
  8
10
  6
Continuous
 62
     7
370
    25
100
AcDbLine
 10
221.5592482472748
 20
67.78162438016511
 30
0.0
 11
228.4592482472754
 21
67.78162438016511
 31
0.0
  0
ARC
  5
1CB
330
1F
100
AcDbEntity
  8
10
  6
Continuous
 62
     7
370
    25
100
AcDbCircle
 10
225.0092482472746
 20
70.74864192402515
 30
0.0
 40
4.550350877192983
100
AcDbArc
 50
220.695698525381
 51
319.3043014746181
  0
LINE
  5
1CC
330
1F
100
AcDbEntity
  8
10
  6
Continuous
 62
     7
370
    25
100
AcDbLine
 10
221.5592482472748
 20
68.09829104683217
 30
0.0
 11
221.5592482472748
 21
67.78162438016511
 31
0.0
  0
LINE
  5
1CD
330
1F
100
AcDbEntity
  8
10
  6
Continuous
 62
     7
370
    25
100
AcDbLine
 10
228.4592482472754
 20
68.09829104683217
 30
0.0
 11
228.4592482472754
 21
67.78162438016511
 31
0.0
  0
LINE
  5
1CE
330
1F
100
AcDbEntity
  8
10
  6
Continuous
 62
     7
370
    25
100
AcDbLine
 10
210.0592482472757
 20
68.09829104683217
 30
0.0
 11
216.9592482472754
 21
68.09829104683217
 31
0.0
  0
LINE
  5
1CF
330
1F
100
AcDbEntity
  8
10
  6
Continuous
 62
     7
370
    25
100
AcDbLine
 10
210.0592482472757
 20
67.78162438016511
 30
0.0
 11
216.9592482472754
 21
67.78162438016511
 31
0.0
  0
ARC
  5
1D0
330
1F
100
AcDbEntity
  8
10
  6
Continuous
 62
     7
370
    25
100
AcDbCircle
 10
213.5092482472755
 20
70.74864192402515
 30
0.0
 40
4.550350877192983
100
AcDbArc
 50
220.695698525381
 51
319.3043014746181
  0
LINE
  5
1D1
330
1F
100
AcDbEntity
  8
10
  6
Continuous
 62
     7
370
    25
100
AcDbLine
 10
210.0592482472757
 20
68.09829104683217
 30
0.0
 11
210.0592482472757
 21
67.78162438016511
 31
0.0
  0
LINE
  5
1D2
330
1F
100
AcDbEntity
  8
10
  6
Continuous
 62
     7
370
    25
100
AcDbLine
 10
216.9592482472754
 20
68.09829104683217
 30
0.0
 11
216.9592482472754
 21
67.78162438016511
 31
0.0
  0
LINE
  5
1D3
330
1F
100
AcDbEntity
  8
6
  6
Continuous
 62
     1
370
    25
100
AcDbLine
 10
172.6046673088313
 20
225.6319058735326
 30
0.0
 11
173.1750685588313
 21
227.9223793110323
 31
0.0
  0
LINE
  5
1D4
330
1F
100
AcDbEntity
  8
6
  6
Continuous
 62
     1
370
    25
100
AcDbLine
 10
172.2783388713315
 20
223.2695830610328
 30
0.0
 11
172.6046673088313
 21
225.6319058735326
 31
0.0
  0
LINE
  5
1D5
330
1F
100
AcDbEntity
  8
6
  6
Continuous
 62
     1
370
    25
100
AcDbLine
 10
172.101478871331
 20
220.8632418110326
 30
0.0
 11
172.2783388713315
 21
223.2695830610328
 31
0.0
  0
LINE
  5
1D6
330
1F
100
AcDbEntity
  8
6
  6
Continuous
 62
     1
370
    25
100
AcDbLine
 10
171.8594331924869
 20
216.0982910468317
 30
0.0
 11
172.101478871331
 21
220.8632418110326
 31
0.0
  0
LINE
  5
1D7
330
1F
100
AcDbEntity
  8
6
  6
Continuous
 62
     1
370
    25
100
AcDbLine
 10
168.4083481525813
 20
221.0924452485324
 30
0.0
 11
168.5969464025811
 21
223.6588346235328
 31
0.0
  0
LINE
  5
1D8
330
1F
100
AcDbEntity
  8
6
  6
Continuous
 62
     1
370
    25
100
AcDbLine
 10
168.5969464025811
 20
223.6588346235328
 30
0.0
 11
168.9665336213311
 21
226.334131186032
 31
0.0
  0
LINE
  5
1D9
330
1F
100
AcDbEntity
  8
6
  6
Continuous
 62
     1
370
    25
100
AcDbLine
 10
168.1590633020669
 20
216.0982910468317
 30
0.0
 11
168.4083481525813
 21
221.0924452485324
 31
0.0
  0
LINE
  5
1DA
330
1F
100
AcDbEntity
  8
6
  6
Continuous
 62
     1
370
    25
100
AcDbLine
 10
173.6550163713309
 20
229.2069268110324
 30
0.0
 11
174.3141680558601
 21
230.6298383544363
 31
0.0
  0
LINE
  5
1DB
330
1F
100
AcDbEntity
  8
6
  6
Continuous
 62
     1
370
    25
100
AcDbLine
 10
169.6355259963311
 20
229.0205046235324
 30
0.0
 11
170.2384294338308
 21
230.6340746235328
 31
0.0
  0
LINE
  5
1DC
330
1F
100
AcDbEntity
  8
6
  6
Continuous
 62
     1
370
    25
100
AcDbLine
 10
173.1750685588313
 20
227.9223793110323
 30
0.0
 11
173.6550163713309
 21
229.2069268110324
 31
0.0
  0
LINE
  5
1DD
330
1F
100
AcDbEntity
  8
6
  6
Continuous
 62
     1
370
    25
100
AcDbLine
 10
168.9665336213311
 20
226.334131186032
 30
0.0
 11
169.6355259963311
 21
229.0205046235324
 31
0.0
  0
LINE
  5
1DE
330
1F
100
AcDbEntity
  8
6
  6
Continuous
 62
     1
370
    25
100
AcDbLine
 10
173.7587435588312
 20
235.8493171235323
 30
0.0
 11
174.574951996331
 21
236.5803446235332
 31
0.0
  0
LINE
  5
1DF
330
1F
100
AcDbEntity
  8
6
  6
Continuous
 62
     1
370
    25
100
AcDbLine
 10
172.5669851213315
 20
234.5432286860323
 30
0.0
 11
173.7587435588312
 21
235.8493171235323
 31
0.0
  0
LINE
  5
1E0
330
1F
100
AcDbEntity
  8
6
  6
Continuous
 62
     1
370
    25
100
AcDbLine
 10
175.4471460588311
 20
232.2104018110329
 30
0.0
 11
176.3661682463307
 21
233.217576498532
 31
0.0
  0
LINE
  5
1E1
330
1F
100
AcDbEntity
  8
6
  6
Continuous
 62
     1
370
    25
100
AcDbLine
 10
170.6897843400811
 20
231.6085158735323
 30
0.0
 11
171.5293513400811
 21
233.0956614985323
 31
0.0
  0
LINE
  5
1E2
330
1F
100
AcDbEntity
  8
6
  6
Continuous
 62
     1
370
    25
100
AcDbLine
 10
171.5293513400811
 20
233.0956614985323
 30
0.0
 11
172.5669851213315
 21
234.5432286860323
 31
0.0
  0
LINE
  5
1E3
330
1F
100
AcDbEntity
  8
6
  6
Continuous
 62
     1
370
    25
100
AcDbLine
 10
170.2384294338308
 20
230.6340746235328
 30
0.0
 11
170.6897843400811
 21
231.6085158735323
 31
0.0
  0
LINE
  5
1E4
330
1F
100
AcDbEntity
  8
6
  6
Continuous
 62
     1
370
    25
100
AcDbLine
 10
174.3141680558601
 20
230.6298383544363
 30
0.0
 11
175.4471460588311
 21
232.2104018110329
 31
0.0
  0
LINE
  5
1E5
330
1F
100
AcDbEntity
  8
6
  6
Continuous
 62
     1
370
    25
100
AcDbLine
 10
179.9822476213312
 20
235.3966105610323
 30
0.0
 11
180.6532657463313
 21
235.5571096235324
 31
0.0
  0
LINE
  5
1E6
330
1F
100
AcDbEntity
  8
6
  6
Continuous
 62
     1
370
    25
100
AcDbLine
 10
179.970060746331
 20
239.1980483735322
 30
0.0
 11
181.4608948088307
 21
239.4023230610328
 31
0.0
  0
LINE
  5
1E7
330
1F
100
AcDbEntity
  8
6
  6
Continuous
 62
     1
370
    25
100
AcDbLine
 10
178.9774779338313
 20
238.9606355610329
 30
0.0
 11
179.970060746331
 21
239.1980483735322
 31
0.0
  0
LINE
  5
1E8
330
1F
100
AcDbEntity
  8
6
  6
Continuous
 62
     1
370
    25
100
AcDbLine
 10
178.2275573088309
 20
238.7164471235326
 30
0.0
 11
178.9774779338313
 21
238.9606355610329
 31
0.0
  0
LINE
  5
1E9
330
1F
100
AcDbEntity
  8
6
  6
Continuous
 62
     1
370
    25
100
AcDbLine
 10
178.763941683831
 20
234.9236349360324
 30
0.0
 11
179.5272054338311
 21
235.2484139985327
 31
0.0
  0
LINE
  5
1EA
330
1F
100
AcDbEntity
  8
6
  6
Continuous
 62
     1
370
    25
100
AcDbLine
 10
179.5272054338311
 20
235.2484139985327
 30
0.0
 11
179.9822476213312
 21
235.3966105610323
 31
0.0
  0
LINE
  5
1EB
330
1F
100
AcDbEntity
  8
6
  6
Continuous
 62
     1
370
    25
100
AcDbLine
 10
178.0326482463306
 20
234.5199302485323
 30
0.0
 11
178.763941683831
 21
234.9236349360324
 31
0.0
  0
LINE
  5
1EC
330
1F
100
AcDbEntity
  8
6
  6
Continuous
 62
     1
370
    25
100
AcDbLine
 10
177.3390023088314
 20
234.0474749360326
 30
0.0
 11
178.0326482463306
 21
234.5199302485323
 31
0.0
  0
LINE
  5
1ED
330
1F
100
AcDbEntity
  8
6
  6
Continuous
 62
     1
370
    25
100
AcDbLine
 10
176.092888558831
 20
237.675405873533
 30
0.0
 11
177.1412257463307
 21
238.2541668110323
 31
0.0
  0
LINE
  5
1EE
330
1F
100
AcDbEntity
  8
6
  6
Continuous
 62
     1
370
    25
100
AcDbLine
 10
177.1412257463307
 20
238.2541668110323
 30
0.0
 11
178.2275573088309
 21
238.7164471235326
 31
0.0
  0
LINE
  5
1EF
330
1F
100
AcDbEntity
  8
6
  6
Continuous
 62
     1
370
    25
100
AcDbLine
 10
175.1503713713309
 20
237.0334789985325
 30
0.0
 11
176.092888558831
 21
237.675405873533
 31
0.0
  0
LINE
  5
1F0
330
1F
100
AcDbEntity
  8
6
  6
Continuous
 62
     1
370
    25
100
AcDbLine
 10
174.574951996331
 20
236.5803446235332
 30
0.0
 11
175.1503713713309
 21
237.0334789985325
 31
0.0
  0
LINE
  5
1F1
330
1F
100
AcDbEntity
  8
6
  6
Continuous
 62
     1
370
    25
100
AcDbLine
 10
176.3661682463307
 20
233.217576498532
 30
0.0
 11
176.9561794963311
 21
233.7459943110323
 31
0.0
  0
LINE
  5
1F2
330
1F
100
AcDbEntity
  8
6
  6
Continuous
 62
     1
370
    25
100
AcDbLine
 10
176.9561794963311
 20
233.7459943110323
 30
0.0
 11
177.3390023088314
 21
234.0474749360326
 31
0.0
  0
LINE
  5
1F3
330
1F
100
AcDbEntity
  8
6
  6
Continuous
 62
     1
370
    25
100
AcDbLine
 10
196.3504694963312
 20
244.8874227485328
 30
0.0
 11
196.4863173088306
 21
245.8829655610323
 31
0.0
  0
LINE
  5
1F4
330
1F
100
AcDbEntity
  8
6
  6
Continuous
 62
     1
370
    25
100
AcDbLine
 10
192.6970316838306
 20
245.4798274360328
 30
0.0
 11
192.8053260588313
 21
246.2737086860325
 31
0.0
  0
LINE
  5
1F5
330
1F
100
AcDbEntity
  8
6
  6
Continuous
 62
     1
370
    25
100
AcDbLine
 10
196.1799804338307
 20
243.9810499360326
 30
0.0
 11
196.3504694963312
 21
244.8874227485328
 31
0.0
  0
LINE
  5
1F6
330
1F
100
AcDbEntity
  8
6
  6
Continuous
 62
     1
370
    25
100
AcDbLine
 10
195.7604466838311
 20
242.4411561860322
 30
0.0
 11
196.1799804338307
 21
243.9810499360326
 31
0.0
  0
LINE
  5
1F7
330
1F
100
AcDbEntity
  8
6
  6
Continuous
 62
     1
370
    25
100
AcDbLine
 10
190.4456626213305
 20
241.3598658735325
 30
0.0
 11
191.0881676213312
 21
241.7318083735324
 31
0.0
  0
LINE
  5
1F8
330
1F
100
AcDbEntity
  8
6
  6
Continuous
 62
     1
370
    25
100
AcDbLine
 10
189.605438871331
 20
241.0105743110323
 30
0.0
 11
190.4456626213305
 21
241.3598658735325
 31
0.0
  0
LINE
  5
1F9
330
1F
100
AcDbEntity
  8
6
  6
Continuous
 62
     1
370
    25
100
AcDbLine
 10
188.5359076213308
 20
240.6575596235323
 30
0.0
 11
189.605438871331
 21
241.0105743110323
 31
0.0
  0
LINE
  5
1FA
330
1F
100
AcDbEntity
  8
6
  6
Continuous
 62
     1
370
    25
100
AcDbLine
 10
192.2547776213305
 20
243.6494836860327
 30
0.0
 11
192.5711507463311
 21
244.8106477485326
 31
0.0
  0
LINE
  5
1FB
330
1F
100
AcDbEntity
  8
6
  6
Continuous
 62
     1
370
    25
100
AcDbLine
 10
192.5711507463311
 20
244.8106477485326
 30
0.0
 11
192.6970316838306
 21
245.4798274360328
 31
0.0
  0
LINE
  5
1FC
330
1F
100
AcDbEntity
  8
6
  6
Continuous
 62
     1
370
    25
100
AcDbLine
 10
191.8723479338314
 20
242.7395033735327
 30
0.0
 11
192.2547776213305
 21
243.6494836860327
 31
0.0
  0
LINE
  5
1FD
330
1F
100
AcDbEntity
  8
6
  6
Continuous
 62
     1
370
    25
100
AcDbLine
 10
191.0881676213312
 20
241.7318083735324
 30
0.0
 11
191.2346760588307
 21
241.8480693110323
 31
0.0
  0
LINE
  5
1FE
330
1F
100
AcDbEntity
  8
6
  6
Continuous
 62
     1
370
    25
100
AcDbLine
 10
191.2346760588307
 20
241.8480693110323
 30
0.0
 11
191.4144266838312
 21
242.0369774360322
 31
0.0
  0
LINE
  5
1FF
330
1F
100
AcDbEntity
  8
6
  6
Continuous
 62
     1
370
    25
100
AcDbLine
 10
191.4144266838312
 20
242.0369774360322
 30
0.0
 11
191.8723479338314
 21
242.7395033735327
 31
0.0
  0
LINE
  5
200
330
1F
100
AcDbEntity
  8
6
  6
Continuous
 62
     1
370
    25
100
AcDbLine
 10
193.1760776213314
 20
238.6652483735322
 30
0.0
 11
193.7370669963311
 21
239.1103699360326
 31
0.0
  0
LINE
  5
201
330
1F
100
AcDbEntity
  8
6
  6
Continuous
 62
     1
370
    25
100
AcDbLine
 10
192.089699808831
 20
238.036329311032
 30
0.0
 11
193.1760776213314
 21
238.6652483735322
 31
0.0
  0
LINE
  5
202
330
1F
100
AcDbEntity
  8
6
  6
Continuous
 62
     1
370
    25
100
AcDbLine
 10
188.9228813713307
 20
236.9096330610328
 30
0.0
 11
189.6504169963309
 21
237.1290546235323
 31
0.0
  0
LINE
  5
203
330
1F
100
AcDbEntity
  8
6
  6
Continuous
 62
     1
370
    25
100
AcDbLine
 10
188.3637419963306
 20
236.7428208735328
 30
0.0
 11
188.9228813713307
 21
236.9096330610328
 31
0.0
  0
LINE
  5
204
330
1F
100
AcDbEntity
  8
6
  6
Continuous
 62
     1
370
    25
100
AcDbLine
 10
189.6504169963309
 20
237.1290546235323
 30
0.0
 11
190.8971666838315
 21
237.5406102485322
 31
0.0
  0
LINE
  5
205
330
1F
100
AcDbEntity
  8
6
  6
Continuous
 62
     1
370
    25
100
AcDbLine
 10
187.4079279338312
 20
236.468292436032
 30
0.0
 11
188.3637419963306
 21
236.7428208735328
 31
0.0
  0
LINE
  5
206
330
1F
100
AcDbEntity
  8
6
  6
Continuous
 62
     1
370
    25
100
AcDbLine
 10
190.8971666838315
 20
237.5406102485322
 30
0.0
 11
192.089699808831
 21
238.036329311032
 31
0.0
  0
LINE
  5
207
330
1F
100
AcDbEntity
  8
6
  6
Continuous
 62
     1
370
    25
100
AcDbLine
 10
193.7370669963311
 20
239.1103699360326
 30
0.0
 11
194.3288126213311
 21
239.7323861860323
 31
0.0
  0
LINE
  5
208
330
1F
100
AcDbEntity
  8
6
  6
Continuous
 62
     1
370
    25
100
AcDbLine
 10
194.3288126213311
 20
239.7323861860323
 30
0.0
 11
195.1541323088313
 21
240.9984336860323
 31
0.0
  0
LINE
  5
209
330
1F
100
AcDbEntity
  8
6
  6
Continuous
 62
     1
370
    25
100
AcDbLine
 10
187.8577669963315
 20
240.4529727485321
 30
0.0
 11
188.5359076213308
 21
240.6575596235323
 31
0.0
  0
LINE
  5
20A
330
1F
100
AcDbEntity
  8
6
  6
Continuous
 62
     1
370
    25
100
AcDbLine
 10
181.837473871331
 20
235.7193314985325
 30
0.0
 11
183.0403554338318
 21
235.8008702485329
 31
0.0
  0
LINE
  5
20B
330
1F
100
AcDbEntity
  8
6
  6
Continuous
 62
     1
370
    25
100
AcDbLine
 10
183.0403554338318
 20
235.8008702485329
 30
0.0
 11
184.2434219963316
 21
235.876315561032
 31
0.0
  0
LINE
  5
20C
330
1F
100
AcDbEntity
  8
6
  6
Continuous
 62
     1
370
    25
100
AcDbLine
 10
184.2434219963316
 20
235.876315561032
 30
0.0
 11
184.933992308831
 21
235.9467774360328
 31
0.0
  0
LINE
  5
20D
330
1F
100
AcDbEntity
  8
6
  6
Continuous
 62
     1
370
    25
100
AcDbLine
 10
180.6532657463313
 20
235.5571096235324
 30
0.0
 11
181.837473871331
 21
235.7193314985325
 31
0.0
  0
LINE
  5
20E
330
1F
100
AcDbEntity
  8
6
  6
Continuous
 62
     1
370
    25
100
AcDbLine
 10
186.4550276213313
 20
236.225086811032
 30
0.0
 11
187.4079279338312
 21
236.468292436032
 31
0.0
  0
LINE
  5
20F
330
1F
100
AcDbEntity
  8
6
  6
Continuous
 62
     1
370
    25
100
AcDbLine
 10
185.4962188713307
 20
236.0305130610323
 30
0.0
 11
186.4550276213313
 21
236.225086811032
 31
0.0
  0
LINE
  5
210
330
1F
100
AcDbEntity
  8
6
  6
Continuous
 62
     1
370
    25
100
AcDbLine
 10
184.933992308831
 20
235.9467774360328
 30
0.0
 11
185.4962188713307
 21
236.0305130610323
 31
0.0
  0
LINE
  5
211
330
1F
100
AcDbEntity
  8
6
  6
Continuous
 62
     1
370
    25
100
AcDbLine
 10
182.7983985588317
 20
239.4929614985319
 30
0.0
 11
183.9396751213308
 21
239.5645449360327
 31
0.0
  0
LINE
  5
212
330
1F
100
AcDbEntity
  8
6
  6
Continuous
 62
     1
370
    25
100
AcDbLine
 10
183.9396751213308
 20
239.5645449360327
 30
0.0
 11
184.473284496331
 21
239.6189580610323
 31
0.0
  0
LINE
  5
213
330
1F
100
AcDbEntity
  8
6
  6
Continuous
 62
     1
370
    25
100
AcDbLine
 10
184.473284496331
 20
239.6189580610323
 30
0.0
 11
184.8553094963308
 21
239.6758686860328
 31
0.0
  0
LINE
  5
214
330
1F
100
AcDbEntity
  8
6
  6
Continuous
 62
     1
370
    25
100
AcDbLine
 10
186.4395223088304
 20
240.0397405610327
 30
0.0
 11
187.3250363713314
 21
240.2941039985324
 31
0.0
  0
LINE
  5
215
330
1F
100
AcDbEntity
  8
6
  6
Continuous
 62
     1
370
    25
100
AcDbLine
 10
184.8553094963308
 20
239.6758686860328
 30
0.0
 11
185.6290719963308
 21
239.832887436032
 31
0.0
  0
LINE
  5
216
330
1F
100
AcDbEntity
  8
6
  6
Continuous
 62
     1
370
    25
100
AcDbLine
 10
185.6290719963308
 20
239.832887436032
 30
0.0
 11
186.4395223088304
 21
240.0397405610327
 31
0.0
  0
LINE
  5
217
330
1F
100
AcDbEntity
  8
6
  6
Continuous
 62
     1
370
    25
100
AcDbLine
 10
187.3250363713314
 20
240.2941039985324
 30
0.0
 11
187.8577669963315
 21
240.4529727485321
 31
0.0
  0
LINE
  5
218
330
1F
100
AcDbEntity
  8
6
  6
Continuous
 62
     1
370
    25
100
AcDbLine
 10
195.1541323088313
 20
240.9984336860323
 30
0.0
 11
195.7604466838311
 21
242.4411561860322
 31
0.0
  0
LINE
  5
219
330
1F
100
AcDbEntity
  8
6
  6
Continuous
 62
     1
370
    25
100
AcDbLine
 10
181.4608948088307
 20
239.4023230610328
 30
0.0
 11
182.7983985588317
 21
239.4929614985319
 31
0.0
  0
ARC
  5
21A
330
1F
100
AcDbEntity
  8
6
  6
Continuous
 62
     1
370
    25
100
AcDbCircle
 10
193.8507460609553
 20
247.6179259882372
 30
0.0
 40
1.387286231200875
100
AcDbArc
 50
48.1790344183979
 51
131.8148257719619
  0
ARC
  5
21B
330
1F
100
AcDbEntity
  8
6
  6
Continuous
 62
     1
370
    25
100
AcDbCircle
 10
195.7007957463311
 20
249.6860044750199
 30
0.0
 40
1.38753494312067
100
AcDbArc
 50
228.1909756726077
 51
311.8090243273916
  0
ARC
  5
21C
330
1F
100
AcDbEntity
  8
6
  6
Continuous
 62
     1
370
    25
100
AcDbCircle
 10
195.7007957463311
 20
247.6180566298442
 30
0.0
 40
1.38715574332511
100
AcDbArc
 50
48.17696566711762
 51
131.8230343328824
  0
ARC
  5
21D
330
1F
100
AcDbEntity
  8
6
  6
Continuous
 62
     1
370
    25
100
AcDbCircle
 10
195.7007957463311
 20
250.676986837321
 30
0.0
 40
1.387515022395519
100
AcDbArc
 50
228.1902399435973
 51
311.809760056402
  0
ARC
  5
21E
330
1F
100
AcDbEntity
  8
6
  6
Continuous
 62
     1
370
    25
100
AcDbCircle
 10
193.8508014301806
 20
248.6088675624915
 30
0.0
 40
1.387299627082399
100
AcDbArc
 50
48.18259787106611
 51
131.8173991288877
  0
LINE
  5
21F
330
1F
100
AcDbEntity
  8
6
  6
Continuous
 62
     1
370
    25
100
AcDbLine
 10
192.9180719963315
 20
247.7570779985324
 30
0.0
 11
192.9258071681652
 21
248.6518752770735
 31
0.0
  0
LINE
  5
220
330
1F
100
AcDbEntity
  8
6
  6
Continuous
 62
     1
370
    25
100
AcDbLine
 10
196.6151351213312
 20
247.5783784047824
 30
0.0
 11
196.6257957463313
 21
248.651776154783
 31
0.0
  0
LINE
  5
221
330
1F
100
AcDbEntity
  8
6
  6
Continuous
 62
     1
370
    25
100
AcDbLine
 10
196.6257957463313
 20
249.6427852431559
 30
0.0
 11
196.6257957463313
 21
257.000212543682
 31
0.0
  0
LINE
  5
222
330
1F
100
AcDbEntity
  8
6
  6
Continuous
 62
     1
370
    25
100
AcDbLine
 10
196.4863173088306
 20
245.8829655610323
 30
0.0
 11
196.6151351213312
 21
247.5783784047824
 31
0.0
  0
ARC
  5
223
330
1F
100
AcDbEntity
  8
6
  6
Continuous
 62
     1
370
    25
100
AcDbCircle
 10
193.8508014843228
 20
250.6769718149369
 30
0.0
 40
1.387499999999989
100
AcDbArc
 50
228.1900000000113
 51
311.8099970000301
  0
LINE
  5
224
330
1F
100
AcDbEntity
  8
6
  6
Continuous
 62
     1
370
    25
100
AcDbLine
 10
192.9258071681652
 20
249.6427852915883
 30
0.0
 11
192.9258071681652
 21
257.000212543682
 31
0.0
  0
LINE
  5
225
330
1F
100
AcDbEntity
  8
6
  6
Continuous
 62
     1
370
    25
100
AcDbLine
 10
192.8053260588313
 20
246.2737086860325
 30
0.0
 11
192.9180719963315
 21
247.7570779985324
 31
0.0
  0
LINE
  5
226
330
1F
100
AcDbEntity
  8
6
  6
Continuous
 62
     1
370
    25
100
AcDbLine
 10
324.1753372679595
 20
216.0982910468317
 30
0.0
 11
324.1753488161439
 21
234.8221995571112
 31
0.0
  0
ARC
  5
227
330
1F
100
AcDbEntity
  8
6
  6
Continuous
 62
     1
370
    25
100
AcDbCircle
 10
325.100342951825
 20
235.8561169551929
 30
0.0
 40
1.387299296151184
100
AcDbArc
 50
228.1825956443212
 51
311.8174143556686
  0
ARC
  5
228
330
1F
100
AcDbEntity
  8
6
  6
Continuous
 62
     1
370
    25
100
AcDbCircle
 10
326.9503372679592
 20
233.787997680455
 30
0.0
 40
1.387515353286915
100
AcDbArc
 50
48.19025216455034
 51
131.8097478354497
  0
ARC
  5
229
330
1F
100
AcDbEntity
  8
6
  6
Continuous
 62
     1
370
    25
100
AcDbCircle
 10
325.1003431323015
 20
233.7880130337626
 30
0.0
 40
1.387499999999989
100
AcDbArc
 50
48.19000999998504
 51
131.8099999999925
  0
LINE
  5
22A
330
1F
100
AcDbEntity
  8
6
  6
Continuous
 62
     1
370
    25
100
AcDbLine
 10
327.8753372679594
 20
216.0982910468317
 30
0.0
 11
327.8753372679594
 21
234.8221997185526
 31
0.0
  0
LINE
  5
22B
330
1F
100
AcDbEntity
  8
4
  6
DASHDOT
 62
     1
370
     9
100
AcDbLine
 10
170.0092482472764
 20
48.0982910468324
 30
0.0
 11
170.0092482472764
 21
218.0982910468317
 31
0.0
  0
LINE
  5
22C
330
1F
100
AcDbEntity
  8
4
  6
DASHDOT
 62
     1
370
     9
100
AcDbLine
 10
240.0092482472764
 20
133.0982910468317
 30
0.0
 11
100.0092482472764
 21
133.0982910468317
 31
0.0
  0
DIMENSION
  5
237
330
1F
100
AcDbEntity
  8
9
  6
Continuous
 62
     4
370
     9
100
AcDbDimension
280
     0
  2
Dim1
 10
319.0253372679591
 20
226.0087324267604
 30
0.0
 11
348.775337267959
 21
226.0087324267604
 31
0.0
 70
   160
  1
(<>
 71
     5
 42
-1.0
 73
     0
 74
     0
 75
     0
  3
Standard
100
AcDbAlignedDimension
 13
339.525337267959
 23
213.0982910468319
 33
0.0
 14
319.025337267959
 24
203.1982910468314
 34
0.0
 50
179.9999999999998
100
AcDbRotatedDimension
1001
ACAD
1000
DSTYLE
1002
{
1070
   279
1070
     2
1070
   340
1005
22D
1070
   140
1040
3.0
1070
    40
1040
1.0
1070
   147
1040
0.0
1070
    76
1070
     0
1070
    75
1070
     0
1070
   344
1005
0
1070
   343
1005
0
1070
   173
1070
     1
1070
   289
1070
     2
1070
   288
1070
     1
1070
    77
1070
     1
1070
   172
1070
     1
1070
   174
1070
     0
1070
    74
1070
     0
1070
    73
1070
     0
1070
   284
1070
     8
1070
    78
1070
     8
1070
    42
1040
1.0
1070
    44
1040
1.5
1070
    43
1040
30.0
1070
   271
1070
     2
1070
    41
1040
2.0
1002
}
  0
MTEXT
  5
238
330
1F
100
AcDbEntity
  8
9
  6
Continuous
 62
     4
370
     9
100
AcDbMText
 10
200.0100034000861
 20
247.4854302544086
 30
0.0
 40
3.0
 41
8.502427499999998
 46
3.0
 71
     7
 72
     1
  1
{\fＭＳ ゴシック;\T0.750000;L500}
 73
     1
 44
1.0
1001
ACAD
1000
ACAD_MTEXT_DEFINED_HEIGHT_BEGIN
1070
    46
1040
3.0
1000
ACAD_MTEXT_DEFINED_HEIGHT_END
  0
DIMENSION
  5
242
330
1F
100
AcDbEntity
  8
9
  6
Continuous
 62
     4
370
     9
100
AcDbDimension
280
     0
  2
Dim2
 10
352.5174901641667
 20
213.0982910468319
 30
0.0
 11
352.5174901641667
 21
205.0982910468317
 31
0.0
 70
   160
  1
(<>
 71
     5
 42
-1.0
 73
     0
 74
     0
 75
     0
 53
89.99999999999991
  3
Standard
100
AcDbAlignedDimension
 13
328.525337267959
 23
216.0982910468317
 33
0.0
 14
339.525337267959
 24
213.0982910468319
 34
0.0
 50
-89.99999999999991
100
AcDbRotatedDimension
1001
ACAD
1000
DSTYLE
1002
{
1070
   279
1070
     2
1070
   340
1005
22D
1070
   140
1040
3.0
1070
    40
1040
1.0
1070
   147
1040
0.0
1070
    76
1070
     0
1070
    75
1070
     0
1070
   344
1005
0
1070
   343
1005
0
1070
   173
1070
     1
1070
   289
1070
     2
1070
   288
1070
     1
1070
    77
1070
     1
1070
   172
1070
     1
1070
   174
1070
     0
1070
    74
1070
     0
1070
    73
1070
     0
1070
   284
1070
     8
1070
    78
1070
     8
1070
    42
1040
1.0
1070
    44
1040
1.5
1070
    43
1040
30.0
1070
   271
1070
     2
1070
    41
1040
2.0
1002
}
  0
DIMENSION
  5
24C
330
1F
100
AcDbEntity
  8
9
  6
Continuous
 62
     4
370
     9
100
AcDbDimension
280
     0
  2
Dim3
 10
338.525337267959
 20
48.02307827089726
 30
0.0
 11
333.025337267959
 21
48.02307827089726
 31
0.0
 70
   160
  1
<>
 71
     5
 42
-1.0
 73
     0
 74
     0
 75
     0
  3
Standard
100
AcDbAlignedDimension
 13
339.525337267959
 23
53.09829104683217
 33
0.0
 14
338.525337267959
 24
53.09829104683217
 34
0.0
 50
179.9999999999998
100
AcDbRotatedDimension
1001
ACAD
1000
DSTYLE
1002
{
1070
   279
1070
     2
1070
   340
1005
22D
1070
   140
1040
3.0
1070
    40
1040
1.0
1070
   147
1040
0.0
1070
    76
1070
     0
1070
    75
1070
     0
1070
   344
1005
0
1070
   343
1005
0
1070
   173
1070
     1
1070
   289
1070
     2
1070
   288
1070
     1
1070
    77
1070
     1
1070
   172
1070
     1
1070
   174
1070
     0
1070
    74
1070
     0
1070
    73
1070
     0
1070
   284
1070
     8
1070
    78
1070
     8
1070
    42
1040
1.0
1070
    44
1040
1.5
1070
    43
1040
30.0
1070
   271
1070
     2
1070
    41
1040
2.0
1002
}
  0
INSERT
  5
24D
330
1F
100
AcDbEntity
  8
9
  6
Continuous
 62
     4
370
     9
100
AcDbBlockReference
  2
_OPEN
 10
201.2952700494529
 20
208.3579697683158
 30
0.0
 41
2.0
 42
2.0
 43
2.0
 50
240.7026069000993
  0
POLYLINE
  5
24E
330
1F
100
AcDbEntity
  8
9
  6
Continuous
 62
     4
370
     9
100
AcDb2dPolyline
 66
     1
 10
0.0
 20
0.0
 30
0.0
  0
VERTEX
  5
24F
330
24E
100
AcDbEntity
  8
9
  6
Continuous
 62
     4
370
     9
100
AcDbVertex
100
AcDb2dVertex
 10
201.2952700494529
 20
208.3579697683158
 30
0.0
  0
VERTEX
  5
250
330
24E
100
AcDbEntity
  8
9
  6
Continuous
 62
     4
370
     9
100
AcDbVertex
100
AcDb2dVertex
 10
211.4134628415914
 20
226.390299661856
 30
0.0
  0
VERTEX
  5
251
330
24E
100
AcDbEntity
  8
9
  6
Continuous
 62
     4
370
     9
100
AcDbVertex
100
AcDb2dVertex
 10
212.0504404598223
 20
226.3902996618563
 30
0.0
  0
VERTEX
  5
252
330
24E
100
AcDbEntity
  8
9
  6
Continuous
 62
     4
370
     9
100
AcDbVertex
100
AcDb2dVertex
 10
223.5504404598223
 20
226.3902996618563
 30
0.0
  0
SEQEND
  5
253
330
24E
100
AcDbEntity
  8
9
  6
Continuous
 62
     4
370
     9
  0
MTEXT
  5
254
330
1F
100
AcDbEntity
  8
9
  6
Continuous
 62
     4
370
     9
100
AcDbMText
 10
212.0504404598223
 20
226.3902996618563
 30
0.0
 40
3.0
 41
16.30188327225
 46
3.0
 71
     7
 72
     1
  1
{\fＭＳ ゴシック;\T1.012235;4-Ø5.2}
 73
     1
 44
1.0
1001
ACAD
1000
ACAD_MTEXT_DEFINED_HEIGHT_BEGIN
1070
    46
1040
3.0
1000
ACAD_MTEXT_DEFINED_HEIGHT_END
  0
LINE
  5
255
330
1F
100
AcDbEntity
  8
10
  6
Continuous
 62
     7
370
    25
100
AcDbLine
 10
333.025337267959
 20
198.5982910468317
 30
0.0
 11
332.8087779109637
 21
198.5982910468317
 31
0.0
  0
LINE
  5
256
330
1F
100
AcDbEntity
  8
10
  6
Continuous
 62
     7
370
    25
100
AcDbLine
 10
326.2418966249543
 20
198.5982910468315
 30
0.0
 11
325.8087779109637
 21
198.5982910468315
 31
0.0
  0
CIRCLE
  5
257
330
1F
100
AcDbEntity
  8
10
  6
Continuous
 62
     7
370
    25
100
AcDbCircle
 10
200.0092482472764
 20
206.0982910468317
 30
0.0
 40
2.599999999999994
  0
CIRCLE
  5
258
330
1F
100
AcDbEntity
  8
10
  6
Continuous
 62
     7
370
    25
100
AcDbCircle
 10
140.0092482472764
 20
206.0982910468317
 30
0.0
 40
2.599999999999994
  0
CIRCLE
  5
259
330
1F
100
AcDbEntity
  8
10
  6
Continuous
 62
     7
370
    25
100
AcDbCircle
 10
140.0092482472764
 20
60.09829104683172
 30
0.0
 40
2.599999999999994
  0
CIRCLE
  5
25A
330
1F
100
AcDbEntity
  8
10
  6
Continuous
 62
     7
370
    25
100
AcDbCircle
 10
200.0092482472764
 20
60.09829104683172
 30
0.0
 40
2.599999999999994
  0
LINE
  5
25B
330
1F
100
AcDbEntity
  8
6
  6
Continuous
 62
     1
370
    25
100
AcDbLine
 10
190.2757657463317
 20
273.9527648311885
 30
0.0
 11
190.2757657463317
 21
266.1180113548319
 31
0.0
  0
LINE
  5
25C
330
1F
100
AcDbEntity
  8
6
  6
Continuous
 62
     1
370
    25
100
AcDbLine
 10
192.7757857463316
 20
282.9527418311884
 30
0.0
 11
192.7757857463316
 21
269.9527328311881
 31
0.0
  0
LINE
  5
25D
330
1F
100
AcDbEntity
  8
6
  6
Continuous
 62
     1
370
    25
100
AcDbLine
 10
194.3757857463315
 20
279.9527378311884
 30
0.0
 11
194.3757857463315
 21
270.9527368311881
 31
0.0
  0
LINE
  5
25E
330
1F
100
AcDbEntity
  8
6
  6
Continuous
 62
     1
370
    25
100
AcDbLine
 10
195.9757757463317
 20
279.9527378311884
 30
0.0
 11
195.9757757463317
 21
270.9527368311881
 31
0.0
  0
LINE
  5
25F
330
1F
100
AcDbEntity
  8
6
  6
Continuous
 62
     1
370
    25
100
AcDbLine
 10
195.1758057463317
 20
279.9527378311884
 30
0.0
 11
195.1758057463317
 21
270.9527368311881
 31
0.0
  0
LINE
  5
260
330
1F
100
AcDbEntity
  8
6
  6
Continuous
 62
     1
370
    25
100
AcDbLine
 10
193.5758057463318
 20
279.9527378311884
 30
0.0
 11
193.5758057463318
 21
270.9527368311881
 31
0.0
  0
LINE
  5
261
330
1F
100
AcDbEntity
  8
6
  6
Continuous
 62
     1
370
    25
100
AcDbLine
 10
199.275825746332
 20
273.9527648311885
 30
0.0
 11
199.275825746332
 21
266.1180113548319
 31
0.0
  0
LINE
  5
262
330
1F
100
AcDbEntity
  8
6
  6
Continuous
 62
     1
370
    25
100
AcDbLine
 10
196.7757957463318
 20
282.9527418311884
 30
0.0
 11
196.7757957463318
 21
269.9527328311881
 31
0.0
  0
LINE
  5
263
330
1F
100
AcDbEntity
  8
6
  6
Continuous
 62
     1
370
    25
100
AcDbLine
 10
191.2855359570772
 20
263.2972412761264
 30
0.0
 11
191.2855359570776
 21
257.000212543682
 31
0.0
  0
LINE
  5
264
330
1F
100
AcDbEntity
  8
6
  6
Continuous
 62
     1
370
    25
100
AcDbLine
 10
198.2660555355842
 20
263.2972412761264
 30
0.0
 11
198.2660555355842
 21
257.0002125436822
 31
0.0
  0
LINE
  5
265
330
1F
100
AcDbEntity
  8
6
  6
Continuous
 62
     1
370
    25
100
AcDbLine
 10
198.2660555355842
 20
257.0002125436822
 30
0.0
 11
191.2855359570776
 21
257.000212543682
 31
0.0
  0
ARC
  5
266
330
1F
100
AcDbEntity
  8
6
  6
Continuous
 62
     1
370
    25
100
AcDbCircle
 10
192.2757657463317
 20
266.1180113548323
 30
0.0
 40
2.0
100
AcDbArc
 50
179.9999999999998
 51
210.0000000000147
  0
ARC
  5
267
330
1F
100
AcDbEntity
  8
6
  6
Continuous
 62
     1
370
    25
100
AcDbCircle
 10
189.2855359570781
 20
263.2972412761264
 30
0.0
 40
2.0
100
AcDbArc
 50
0.0
 51
30.00000000001508
  0
LINE
  5
268
330
1F
100
AcDbEntity
  8
6
  6
Continuous
 62
     1
370
    25
100
AcDbLine
 10
190.5437149387635
 20
265.1180113548323
 30
0.0
 11
191.0175867646467
 21
264.2972412761271
 31
0.0
  0
ARC
  5
269
330
1F
100
AcDbEntity
  8
6
  6
Continuous
 62
     1
370
    25
100
AcDbCircle
 10
197.275825746332
 20
266.1180113548323
 30
0.0
 40
2.0
100
AcDbArc
 50
329.9999999999845
 51
0.0
  0
ARC
  5
26A
330
1F
100
AcDbEntity
  8
6
  6
Continuous
 62
     1
370
    25
100
AcDbCircle
 10
200.2660555355851
 20
263.2972412761264
 30
0.0
 40
2.0
100
AcDbArc
 50
149.9999999999849
 51
179.9999999999998
  0
LINE
  5
26B
330
1F
100
AcDbEntity
  8
6
  6
Continuous
 62
     1
370
    25
100
AcDbLine
 10
199.0078765539001
 20
265.1180113548323
 30
0.0
 11
198.534004728017
 21
264.2972412761271
 31
0.0
  0
LINE
  5
26C
330
1F
100
AcDbEntity
  8
6
  6
Continuous
 62
     1
370
    25
100
AcDbLine
 10
196.7757957463318
 20
269.9527328311881
 30
0.0
 11
192.7757857463316
 21
269.9527328311881
 31
0.0
  0
LINE
  5
26D
330
1F
100
AcDbEntity
  8
6
  6
Continuous
 62
     1
370
    25
100
AcDbLine
 10
196.7757957463318
 20
270.9527368311881
 30
0.0
 11
192.7757857463316
 21
270.9527368311881
 31
0.0
  0
LINE
  5
26E
330
1F
100
AcDbEntity
  8
6
  6
Continuous
 62
     1
370
    25
100
AcDbLine
 10
194.7757957463318
 20
282.9527418311884
 30
0.0
 11
189.5257857463316
 21
282.9527418311884
 31
0.0
  0
ARC
  5
26F
330
1F
100
AcDbEntity
  8
6
  6
Continuous
 62
     1
370
    25
100
AcDbCircle
 10
190.5257857463316
 20
275.9527408311881
 30
0.0
 40
1.0
100
AcDbArc
 50
179.9999999999998
 51
269.9999999999998
  0
LINE
  5
270
330
1F
100
AcDbEntity
  8
6
  6
Continuous
 62
     1
370
    25
100
AcDbLine
 10
190.7757757463314
 20
273.9527648311885
 30
0.0
 11
190.7757757463314
 21
274.9527368311881
 31
0.0
  0
LINE
  5
271
330
1F
100
AcDbEntity
  8
6
  6
Continuous
 62
     1
370
    25
100
AcDbLine
 10
190.2757657463317
 20
273.9527648311885
 30
0.0
 11
192.7757857463312
 21
273.9527648311885
 31
0.0
  0
LINE
  5
272
330
1F
100
AcDbEntity
  8
6
  6
Continuous
 62
     1
370
    25
100
AcDbLine
 10
190.5257857463316
 20
274.9527368311881
 30
0.0
 11
192.7757857463316
 21
274.9527368311881
 31
0.0
  0
LINE
  5
273
330
1F
100
AcDbEntity
  8
6
  6
Continuous
 62
     1
370
    25
100
AcDbLine
 10
190.7757757463314
 20
274.9527368311881
 30
0.0
 11
192.7757857463316
 21
274.9527368311881
 31
0.0
  0
LINE
  5
274
330
1F
100
AcDbEntity
  8
6
  6
Continuous
 62
     1
370
    25
100
AcDbLine
 10
200.0258057463316
 20
275.9527408311881
 30
0.0
 11
200.0258057463316
 21
282.9527418311884
 31
0.0
  0
LINE
  5
275
330
1F
100
AcDbEntity
  8
6
  6
Continuous
 62
     1
370
    25
100
AcDbLine
 10
198.7758157463318
 20
274.9527368311881
 30
0.0
 11
198.7758157463318
 21
273.9527648311885
 31
0.0
  0
LINE
  5
276
330
1F
100
AcDbEntity
  8
6
  6
Continuous
 62
     1
370
    25
100
AcDbLine
 10
199.275825746332
 20
273.9527648311885
 30
0.0
 11
196.775805746332
 21
273.9527648311885
 31
0.0
  0
LINE
  5
277
330
1F
100
AcDbEntity
  8
6
  6
Continuous
 62
     1
370
    25
100
AcDbLine
 10
199.0258057463316
 20
274.9527368311881
 30
0.0
 11
196.7757957463318
 21
274.9527368311881
 31
0.0
  0
LINE
  5
278
330
1F
100
AcDbEntity
  8
6
  6
Continuous
 62
     1
370
    25
100
AcDbLine
 10
196.7757957463318
 20
274.9527368311881
 30
0.0
 11
198.7758157463318
 21
274.9527368311881
 31
0.0
  0
ARC
  5
279
330
1F
100
AcDbEntity
  8
6
  6
Continuous
 62
     1
370
    25
100
AcDbCircle
 10
199.0258057463316
 20
275.9527408311881
 30
0.0
 40
1.0
100
AcDbArc
 50
269.9999999999998
 51
0.0
  0
LINE
  5
27A
330
1F
100
AcDbEntity
  8
6
  6
Continuous
 62
     1
370
    25
100
AcDbLine
 10
192.7757857463316
 20
279.9527378311884
 30
0.0
 11
196.7757957463318
 21
279.9527378311884
 31
0.0
  0
LINE
  5
27B
330
1F
100
AcDbEntity
  8
6
  6
Continuous
 62
     1
370
    25
100
AcDbLine
 10
194.7757957463318
 20
282.9527418311884
 30
0.0
 11
200.0258057463316
 21
282.9527418311884
 31
0.0
  0
LINE
  5
27C
330
1F
100
AcDbEntity
  8
6
  6
Continuous
 62
     1
370
    25
100
AcDbLine
 10
192.7757857463316
 20
281.9527328311881
 30
0.0
 11
196.7757957463318
 21
281.9527328311881
 31
0.0
  0
LINE
  5
27D
330
1F
100
AcDbEntity
  8
6
  6
Continuous
 62
     1
370
    25
100
AcDbLine
 10
189.5257857463316
 20
275.9527408311881
 30
0.0
 11
189.5257857463316
 21
282.9527418311884
 31
0.0
  0
CIRCLE
  5
27E
330
1F
100
AcDbEntity
  8
10
  6
Continuous
 62
     7
370
    25
100
AcDbCircle
 10
170.0092482472751
 20
133.0982910468254
 30
0.0
 40
27.5
  0
CIRCLE
  5
27F
330
1F
100
AcDbEntity
  8
3
  6
HIDDEN
 62
     3
370
     9
100
AcDbCircle
 10
170.0092482472751
 20
133.0982910468254
 30
0.0
 40
32.5
  0
LINE
  5
280
330
1F
100
AcDbEntity
  8
3
  6
HIDDEN
 62
     3
370
     9
100
AcDbLine
 10
339.525337267959
 20
160.5982910468254
 30
0.0
 11
295.525337267959
 21
160.5982910468256
 31
0.0
  0
LINE
  5
281
330
1F
100
AcDbEntity
  8
3
  6
HIDDEN
 62
     3
370
     9
100
AcDbLine
 10
338.5253372679581
 20
165.5982910468254
 30
0.0
 11
300.525337267959
 21
165.5982910468254
 31
0.0
  0
LINE
  5
282
330
1F
100
AcDbEntity
  8
3
  6
HIDDEN
 62
     3
370
     9
100
AcDbLine
 10
295.525337267959
 20
195.0982910468319
 30
0.0
 11
295.525337267959
 21
71.09829104683195
 31
0.0
  0
LINE
  5
283
330
1F
100
AcDbEntity
  8
3
  6
HIDDEN
 62
     3
370
     9
100
AcDbLine
 10
300.525337267959
 20
195.0982910468319
 30
0.0
 11
300.525337267959
 21
71.09829104683195
 31
0.0
  0
LINE
  5
284
330
1F
100
AcDbEntity
  8
3
  6
HIDDEN
 62
     3
370
     9
100
AcDbLine
 10
295.525337267959
 20
195.0982910468319
 30
0.0
 11
300.525337267959
 21
195.0982910468319
 31
0.0
  0
LINE
  5
285
330
1F
100
AcDbEntity
  8
3
  6
HIDDEN
 62
     3
370
     9
100
AcDbLine
 10
295.5253372679595
 20
71.0982910468324
 30
0.0
 11
300.5253372679595
 21
71.09829104683263
 31
0.0
  0
LINE
  5
286
330
1F
100
AcDbEntity
  8
4
  6
DASHDOT
 62
     1
370
     9
100
AcDbLine
 10
344.525337267959
 20
133.0982910468322
 30
0.0
 11
289.525337267959
 21
133.0982910468319
 31
0.0
  0
HATCH
  5
287
330
1F
100
AcDbEntity
  8
11
  6
Continuous
 62
     2
370
     9
100
AcDbHatch
 10
0.0
 20
0.0
 30
0.0
210
0.0
220
0.0
230
1.0
  2

 70
     0
 71
     0
 91
        4
 92
        0
 93
        5
 72
     1
 10
170.0092482472764
 20
183.0982910468317
 11
170.0092482472764
 21
165.5982910468254
 72
     2
 10
170.0092482472786
 20
133.0982910468288
 40
32.49999999999662
 50
0.0000000000051108
 51
89.9999999999999
 73
     1
 72
     1
 10
202.5092482472751
 20
133.0982910468317
 11
220.0092482472764
 21
133.0982910468317
 72
     1
 10
220.0092482472764
 20
133.0982910468317
 11
220.0092482472764
 21
183.0982910468317
 72
     1
 10
220.0092482472764
 20
183.0982910468317
 11
170.0092482472764
 21
183.0982910468317
 97
        0
 92
        0
 93
        5
 72
     1
 10
170.0092482472764
 20
183.0982910468317
 11
120.0092482472764
 21
183.0982910468317
 72
     1
 10
120.0092482472764
 20
183.0982910468317
 11
120.0092482472764
 21
133.0982910468317
 72
     1
 10
120.0092482472764
 20
133.0982910468317
 11
137.5092482472751
 21
133.0982910468317
 72
     2
 10
170.0092482472752
 20
133.0982910468252
 40
32.50000000000011
 50
89.9999999999999
 51
179.9999999999886
 73
     1
 72
     1
 10
170.0092482472764
 20
165.5982910468254
 11
170.0092482472764
 21
183.0982910468317
 97
        0
 92
        0
 93
        5
 72
     2
 10
170.0092482472752
 20
133.0982910468255
 40
32.50000000000007
 50
179.999999999989
 51
269.9999999999997
 73
     1
 72
     1
 10
170.0092482472764
 20
100.5982910468254
 11
170.0092482472764
 21
83.09829104683172
 72
     1
 10
170.0092482472764
 20
83.09829104683172
 11
120.0092482472764
 21
83.09829104683172
 72
     1
 10
120.0092482472764
 20
83.09829104683172
 11
120.0092482472764
 21
133.0982910468317
 72
     1
 10
120.0092482472764
 20
133.0982910468317
 11
137.5092482472751
 21
133.0982910468317
 97
        0
 92
        0
 93
        5
 72
     2
 10
170.0092482472751
 20
133.0982910468254
 40
32.5
 50
269.9999999999998
 51
359.9999999999996
 73
     1
 72
     1
 10
202.5092482472751
 20
133.0982910468254
 11
220.0092482472764
 21
133.0982910468317
 72
     1
 10
220.0092482472764
 20
133.0982910468317
 11
220.0092482472764
 21
83.09829104683172
 72
     1
 10
220.0092482472764
 20
83.09829104683172
 11
170.0092482472764
 21
83.09829104683172
 72
     1
 10
170.0092482472764
 20
83.09829104683172
 11
170.0092482472764
 21
100.5982910468254
 97
        0
 75
     0
 76
     2
 52
0.0
 41
1.0
 77
     0
 78
     2
 53
45.0
 43
784.8209019856404
 44
-425.1435323949286
 45
-3.367596045400887
 46
3.367596045400887
 79
     0
 53
135.0
 43
784.8209019856404
 44
-425.1435323949286
 45
-3.367596045400887
 46
-3.367596045400887
 79
     0
 98
        0
  0
DIMENSION
  5
28F
330
1F
100
AcDbEntity
  8
9
  6
Continuous
 62
     4
370
     9
100
AcDbDimension
280
     0
  2
Dim4
 10
195.9579466201751
 20
123.9925207470509
 30
0.0
 11
94.17381962744581
 21
159.7100302436641
 31
0.0
 70
   163
  1
∅<>
 71
     5
 42
-1.0
 73
     0
 74
     0
 75
     0
  3
Standard
100
AcDbDiametricDimension
 15
144.060549874375
 25
142.2040613465996
 35
0.0
 40
0.0
1001
ACAD
1000
DSTYLE
1002
{
1070
   340
1005
22D
1070
   140
1040
3.0
1070
    40
1040
1.0
1070
   147
1040
0.0
1070
    76
1070
     0
1070
    75
1070
     0
1070
   344
1005
0
1070
   343
1005
0
1070
   173
1070
     1
1070
   289
1070
     2
1070
   288
1070
     1
1070
    77
1070
     1
1070
   172
1070
     1
1070
   174
1070
     0
1070
    74
1070
     0
1070
    73
1070
     0
1070
   284
1070
     8
1070
    78
1070
     8
1070
    42
1040
1.0
1070
    44
1040
1.5
1070
    43
1040
30.0
1070
   271
1070
     2
1070
    41
1040
2.0
1002
}
  0
DIMENSION
  5
297
330
1F
100
AcDbEntity
  8
9
  6
Continuous
 62
     4
370
     9
100
AcDbDimension
280
     0
  2
Dim5
 10
198.5459704871869
 20
117.5449800230555
 30
0.0
 11
95.11074520038389
 21
173.9200680998933
 31
0.0
 70
   163
  1
∅<>
 71
     5
 42
-1.0
 73
     0
 74
     0
 75
     0
  3
Standard
100
AcDbDiametricDimension
 15
141.4725260073632
 25
148.6516020705952
 35
0.0
 40
0.0
1001
ACAD
1000
DSTYLE
1002
{
1070
   340
1005
22D
1070
   140
1040
3.0
1070
    40
1040
1.0
1070
   147
1040
0.0
1070
    76
1070
     0
1070
    75
1070
     0
1070
   344
1005
0
1070
   343
1005
0
1070
   173
1070
     1
1070
   289
1070
     2
1070
   288
1070
     1
1070
    77
1070
     1
1070
   172
1070
     1
1070
   174
1070
     0
1070
    74
1070
     0
1070
    73
1070
     0
1070
   284
1070
     8
1070
    78
1070
     8
1070
    42
1040
1.0
1070
    44
1040
1.5
1070
    43
1040
30.0
1070
   271
1070
     2
1070
    41
1040
2.0
1002
}
  0
LINE
  5
298
330
1F
100
AcDbEntity
  8
3
  6
HIDDEN
 62
     3
370
     9
100
AcDbLine
 10
339.525337267959
 20
105.598291046839
 30
0.0
 11
295.525337267959
 21
105.5982910468388
 31
0.0
  0
LINE
  5
299
330
1F
100
AcDbEntity
  8
3
  6
HIDDEN
 62
     3
370
     9
100
AcDbLine
 10
338.5253372679581
 20
100.598291046839
 30
0.0
 11
300.525337267959
 21
100.598291046839
 31
0.0
  0
DIMENSION
  5
2A3
330
1F
100
AcDbEntity
  8
9
  6
Continuous
 62
     4
370
     9
100
AcDbDimension
280
     0
  2
Dim6
 10
339.525337267959
 20
42.01712401416353
 30
0.0
 11
317.025337267959
 21
42.01712401416353
 31
0.0
 70
   160
  1
<>
 71
     8
 42
-1.0
 73
     0
 74
     0
 75
     0
  3
Standard
100
AcDbAlignedDimension
 13
294.525337267959
 23
68.09829104683217
 33
0.0
 14
339.525337267959
 24
53.09829104683217
 34
0.0
100
AcDbRotatedDimension
1001
ACAD
1000
DSTYLE
1002
{
1070
   279
1070
     1
1070
   340
1005
22D
1070
   140
1040
3.0
1070
    40
1040
1.0
1070
   147
1040
0.0
1070
    76
1070
     0
1070
    75
1070
     0
1070
   344
1005
0
1070
   343
1005
0
1070
   173
1070
     1
1070
   289
1070
     2
1070
   288
1070
     1
1070
    77
1070
     1
1070
   172
1070
     1
1070
   174
1070
     0
1070
    74
1070
     0
1070
    73
1070
     0
1070
   284
1070
     8
1070
    78
1070
     8
1070
    42
1040
1.0
1070
    44
1040
1.5
1070
    43
1040
30.0
1070
   271
1070
     2
1070
    41
1040
2.0
1002
}
  0
DIMENSION
  5
2AD
330
1F
100
AcDbEntity
  8
9
  6
Continuous
 62
     4
370
     9
100
AcDbDimension
280
     0
  2
Dim7
 10
200.0092482472764
 20
42.44818840588027
 30
0.0
 11
170.0092482472764
 21
42.44818840588027
 31
0.0
 70
   160
  1
<>
 71
     8
 42
-1.0
 73
     0
 74
     0
 75
     0
  3
Standard
100
AcDbAlignedDimension
 13
140.0092482472764
 23
60.09829104683172
 33
0.0
 14
200.0092482472764
 24
60.09829104683172
 34
0.0
100
AcDbRotatedDimension
1001
ACAD
1000
DSTYLE
1002
{
1070
   279
1070
     1
1070
   340
1005
22D
1070
   140
1040
3.0
1070
    40
1040
1.0
1070
   147
1040
0.0
1070
    76
1070
     0
1070
    75
1070
     0
1070
   344
1005
0
1070
   343
1005
0
1070
   173
1070
     1
1070
   289
1070
     2
1070
   288
1070
     1
1070
    77
1070
     1
1070
   172
1070
     1
1070
   174
1070
     0
1070
    74
1070
     0
1070
    73
1070
     0
1070
   284
1070
     8
1070
    78
1070
     8
1070
    42
1040
1.0
1070
    44
1040
1.5
1070
    43
1040
30.0
1070
   271
1070
     2
1070
    41
1040
2.0
1002
}
  0
DIMENSION
  5
2B7
330
1F
100
AcDbEntity
  8
9
  6
Continuous
 62
     4
370
     9
100
AcDbDimension
280
     0
  2
Dim8
 10
220.0092482472763
 20
34.47552235451076
 30
0.0
 11
170.0092482472764
 21
34.47552235451076
 31
0.0
 70
   160
  1
<>
 71
     8
 42
-1.0
 73
     0
 74
     0
 75
     0
  3
Standard
100
AcDbAlignedDimension
 13
120.0092482472764
 23
83.09829104683172
 33
0.0
 14
220.0092482472764
 24
83.09829104683172
 34
0.0
100
AcDbRotatedDimension
1001
ACAD
1000
DSTYLE
1002
{
1070
   279
1070
     1
1070
   340
1005
22D
1070
   140
1040
3.0
1070
    40
1040
1.0
1070
   147
1040
0.0
1070
    76
1070
     0
1070
    75
1070
     0
1070
   344
1005
0
1070
   343
1005
0
1070
   173
1070
     1
1070
   289
1070
     2
1070
   288
1070
     1
1070
    77
1070
     1
1070
   172
1070
     1
1070
   174
1070
     0
1070
    74
1070
     0
1070
    73
1070
     0
1070
   284
1070
     8
1070
    78
1070
     8
1070
    42
1040
1.0
1070
    44
1040
1.5
1070
    43
1040
30.0
1070
   271
1070
     2
1070
    41
1040
2.0
1002
}
  0
DIMENSION
  5
2C1
330
1F
100
AcDbEntity
  8
9
  6
Continuous
 62
     4
370
     9
100
AcDbDimension
280
     0
  2
Dim9
 10
235.0092482472763
 20
26.32152356651363
 30
0.0
 11
170.0092482472764
 21
26.32152356651363
 31
0.0
 70
   160
  1
<>
 71
     8
 42
-1.0
 73
     0
 74
     0
 75
     0
  3
Standard
100
AcDbAlignedDimension
 13
105.0092482472764
 23
68.09829104683126
 33
0.0
 14
235.0092482472764
 24
68.09829104683217
 34
0.0
100
AcDbRotatedDimension
1001
ACAD
1000
DSTYLE
1002
{
1070
   279
1070
     1
1070
   340
1005
22D
1070
   140
1040
3.0
1070
    40
1040
1.0
1070
   147
1040
0.0
1070
    76
1070
     0
1070
    75
1070
     0
1070
   344
1005
0
1070
   343
1005
0
1070
   173
1070
     1
1070
   289
1070
     2
1070
   288
1070
     1
1070
    77
1070
     1
1070
   172
1070
     1
1070
   174
1070
     0
1070
    74
1070
     0
1070
    73
1070
     0
1070
   284
1070
     8
1070
    78
1070
     8
1070
    42
1040
1.0
1070
    44
1040
1.5
1070
    43
1040
30.0
1070
   271
1070
     2
1070
    41
1040
2.0
1002
}
  0
DIMENSION
  5
2CB
330
1F
100
AcDbEntity
  8
9
  6
Continuous
 62
     4
370
     9
100
AcDbDimension
280
     0
  2
Dim10
 10
247.4703247700818
 20
83.09829104683163
 30
0.0
 11
247.4703247700818
 21
133.0982910468326
 31
0.0
 70
   160
  1
<>
 71
     8
 42
-1.0
 73
     0
 74
     0
 75
     0
 53
89.99999999999991
  3
Standard
100
AcDbAlignedDimension
 13
220.0092482472764
 23
183.0982910468317
 33
0.0
 14
220.0092482472764
 24
83.09829104683172
 34
0.0
 50
-89.99999999999991
100
AcDbRotatedDimension
1001
ACAD
1000
DSTYLE
1002
{
1070
   279
1070
     1
1070
   340
1005
22D
1070
   140
1040
3.0
1070
    40
1040
1.0
1070
   147
1040
0.0
1070
    76
1070
     0
1070
    75
1070
     0
1070
   344
1005
0
1070
   343
1005
0
1070
   173
1070
     1
1070
   289
1070
     2
1070
   288
1070
     1
1070
    77
1070
     1
1070
   172
1070
     1
1070
   174
1070
     0
1070
    74
1070
     0
1070
    73
1070
     0
1070
   284
1070
     8
1070
    78
1070
     8
1070
    42
1040
1.0
1070
    44
1040
1.5
1070
    43
1040
30.0
1070
   271
1070
     2
1070
    41
1040
2.0
1002
}
  0
DIMENSION
  5
2D5
330
1F
100
AcDbEntity
  8
9
  6
Continuous
 62
     4
370
     9
100
AcDbDimension
280
     0
  2
Dim11
 10
255.8095767420527
 20
68.0982910468321
 30
0.0
 11
255.8095767420527
 21
133.0982910468319
 31
0.0
 70
   160
  1
<>
 71
     8
 42
-1.0
 73
     0
 74
     0
 75
     0
 53
89.99999999999991
  3
Standard
100
AcDbAlignedDimension
 13
235.0092482472764
 23
198.0982910468317
 33
0.0
 14
235.0092482472764
 24
68.09829104683217
 34
0.0
 50
-89.99999999999991
100
AcDbRotatedDimension
1001
ACAD
1000
DSTYLE
1002
{
1070
   279
1070
     1
1070
   340
1005
22D
1070
   140
1040
3.0
1070
    40
1040
1.0
1070
   147
1040
0.0
1070
    76
1070
     0
1070
    75
1070
     0
1070
   344
1005
0
1070
   343
1005
0
1070
   173
1070
     1
1070
   289
1070
     2
1070
   288
1070
     1
1070
    77
1070
     1
1070
   172
1070
     1
1070
   174
1070
     0
1070
    74
1070
     0
1070
    73
1070
     0
1070
   284
1070
     8
1070
    78
1070
     8
1070
    42
1040
1.0
1070
    44
1040
1.5
1070
    43
1040
30.0
1070
   271
1070
     2
1070
    41
1040
2.0
1002
}
  0
DIMENSION
  5
2DF
330
1F
100
AcDbEntity
  8
9
  6
Continuous
 62
     4
370
     9
100
AcDbDimension
280
     0
  2
Dim12
 10
264.0519130218454
 20
60.09829104683151
 30
0.0
 11
264.0519130218454
 21
133.0982910468317
 31
0.0
 70
   160
  1
<>
 71
     8
 42
-1.0
 73
     0
 74
     0
 75
     0
 53
89.99999999999991
  3
Standard
100
AcDbAlignedDimension
 13
200.0092482472764
 23
206.0982910468317
 33
0.0
 14
200.0092482472764
 24
60.09829104683172
 34
0.0
 50
-89.99999999999991
100
AcDbRotatedDimension
1001
ACAD
1000
DSTYLE
1002
{
1070
   279
1070
     1
1070
   340
1005
22D
1070
   140
1040
3.0
1070
    40
1040
1.0
1070
   147
1040
0.0
1070
    76
1070
     0
1070
    75
1070
     0
1070
   344
1005
0
1070
   343
1005
0
1070
   173
1070
     1
1070
   289
1070
     2
1070
   288
1070
     1
1070
    77
1070
     1
1070
   172
1070
     1
1070
   174
1070
     0
1070
    74
1070
     0
1070
    73
1070
     0
1070
   284
1070
     8
1070
    78
1070
     8
1070
    42
1040
1.0
1070
    44
1040
1.5
1070
    43
1040
30.0
1070
   271
1070
     2
1070
    41
1040
2.0
1002
}
  0
DIMENSION
  5
2E9
330
1F
100
AcDbEntity
  8
9
  6
Continuous
 62
     4
370
     9
100
AcDbDimension
280
     0
  2
Dim13
 10
272.8544892096643
 20
53.09829104683153
 30
0.0
 11
272.8544892096643
 21
133.0982910468329
 31
0.0
 70
   160
  1
<>
 71
     8
 42
-1.0
 73
     0
 74
     0
 75
     0
 53
89.99999999999991
  3
Standard
100
AcDbAlignedDimension
 13
215.0092482472774
 23
213.0982910468319
 33
0.0
 14
215.0092482472774
 24
53.09829104683172
 34
0.0
 50
-89.99999999999991
100
AcDbRotatedDimension
1001
ACAD
1000
DSTYLE
1002
{
1070
   279
1070
     1
1070
   340
1005
22D
1070
   140
1040
3.0
1070
    40
1040
1.0
1070
   147
1040
0.0
1070
    76
1070
     0
1070
    75
1070
     0
1070
   344
1005
0
1070
   343
1005
0
1070
   173
1070
     1
1070
   289
1070
     2
1070
   288
1070
     1
1070
    77
1070
     1
1070
   172
1070
     1
1070
   174
1070
     0
1070
    74
1070
     0
1070
    73
1070
     0
1070
   284
1070
     8
1070
    78
1070
     8
1070
    42
1040
1.0
1070
    44
1040
1.5
1070
    43
1040
30.0
1070
   271
1070
     2
1070
    41
1040
2.0
1002
}
  0
MTEXT
  5
2EA
330
1F
100
AcDbEntity
  8
2
  6
Continuous
 62
   151
370
     9
100
AcDbMText
 10
20.00006646154907
 20
52.22107897645037
 30
0.0
 40
2.6
 41
50.36159148971598
 46
2.6
 71
     4
 72
     1
  1
{\fＭＳ ゴシック;\T1.067966;Details of Connector}
 73
     1
 44
1.0
1001
ACAD
1000
ACAD_MTEXT_DEFINED_HEIGHT_BEGIN
1070
    46
1040
2.6
1000
ACAD_MTEXT_DEFINED_HEIGHT_END
  0
MTEXT
  5
2EB
330
1F
100
AcDbEntity
  8
2
  6
Continuous
 62
   151
370
     9
100
AcDbMText
 10
41.00001900000007
 20
32.49999500000013
 30
0.0
 40
2.0
 41
9.911252531679999
 46
2.0
 71
     4
 72
     1
  1
{\fＭＳ ゴシック;\T1.147374;Light}
 73
     1
 44
1.0
1001
ACAD
1000
ACAD_MTEXT_DEFINED_HEIGHT_BEGIN
1070
    46
1040
2.0
1000
ACAD_MTEXT_DEFINED_HEIGHT_END
  0
MTEXT
  5
2EC
330
1F
100
AcDbEntity
  8
2
  6
Continuous
 62
   151
370
     9
100
AcDbMText
 10
41.00001900000007
 20
27.50000499999987
 30
0.0
 40
2.0
 41
18.43591075648
 46
2.0
 71
     4
 72
     1
  1
{\fＭＳ ゴシック;\T1.142132;SMR-03V-B}
 73
     1
 44
1.0
1001
ACAD
1000
ACAD_MTEXT_DEFINED_HEIGHT_BEGIN
1070
    46
1040
2.0
1000
ACAD_MTEXT_DEFINED_HEIGHT_END
  0
MTEXT
  5
2ED
330
1F
100
AcDbEntity
  8
2
  6
Continuous
 62
   151
370
     9
100
AcDbMText
 10
41.00001900000007
 20
22.50000499999987
 30
0.0
 40
2.0
 41
26.94663324896
 46
2.0
 71
     4
 72
     1
  1
{\fＭＳ ゴシック;\T1.150276;BYM-001T-P0.6}
 73
     1
 44
1.0
1001
ACAD
1000
ACAD_MTEXT_DEFINED_HEIGHT_BEGIN
1070
    46
1040
2.0
1000
ACAD_MTEXT_DEFINED_HEIGHT_END
  0
MTEXT
  5
2EE
330
1F
100
AcDbEntity
  8
2
  6
Continuous
 62
   151
370
     9
100
AcDbMText
 10
65.00000899999986
 20
27.50000499999987
 30
0.0
 40
2.0
 41
20.56509110124
 46
2.0
 71
     4
 72
     1
  1
{\fＭＳ ゴシック;\T1.142542;SMP-03V-BC}
 73
     1
 44
1.0
1001
ACAD
1000
ACAD_MTEXT_DEFINED_HEIGHT_BEGIN
1070
    46
1040
2.0
1000
ACAD_MTEXT_DEFINED_HEIGHT_END
  0
MTEXT
  5
2EF
330
1F
100
AcDbEntity
  8
2
  6
Continuous
 62
   151
370
     9
100
AcDbMText
 10
65.00000899999986
 20
22.50000499999987
 30
0.0
 40
2.0
 41
29.0777173934
 46
2.0
 71
     4
 72
     1
  1
{\fＭＳ ゴシック;\T1.148710;BHF-001T-0.8SS}
 73
     1
 44
1.0
1001
ACAD
1000
ACAD_MTEXT_DEFINED_HEIGHT_BEGIN
1070
    46
1040
2.0
1000
ACAD_MTEXT_DEFINED_HEIGHT_END
  0
MTEXT
  5
2F0
330
1F
100
AcDbEntity
  8
2
  6
Continuous
 62
   151
370
     9
100
AcDbMText
 10
65.00000899999986
 20
32.49999500000013
 30
0.0
 40
2.0
 41
29.89701994232
 46
2.0
 71
     4
 72
     1
  1
{\fＭＳ ゴシック;\T1.108817;Power　Supply　}
 73
     1
 44
1.0
1001
ACAD
1000
ACAD_MTEXT_DEFINED_HEIGHT_BEGIN
1070
    46
1040
2.0
1000
ACAD_MTEXT_DEFINED_HEIGHT_END
  0
MTEXT
  5
2F1
330
1F
100
AcDbEntity
  8
2
  6
Continuous
 62
   151
370
     9
100
AcDbMText
 10
21.00000899999986
 20
27.50000499999987
 30
0.0
 40
2.0
 41
18.42046834736
 46
2.0
 71
     4
 72
     1
  1
{\fＭＳ ゴシック;\T1.158599;Connector}
 73
     1
 44
1.0
1001
ACAD
1000
ACAD_MTEXT_DEFINED_HEIGHT_BEGIN
1070
    46
1040
2.0
1000
ACAD_MTEXT_DEFINED_HEIGHT_END
  0
MTEXT
  5
2F2
330
1F
100
AcDbEntity
  8
2
  6
Continuous
 62
   151
370
     9
100
AcDbMText
 10
21.00000899999986
 20
22.50000499999987
 30
0.0
 40
2.0
 41
14.172395271
 46
2.0
 71
     4
 72
     1
  1
{\fＭＳ ゴシック;\T1.145825;Contact}
 73
     1
 44
1.0
1001
ACAD
1000
ACAD_MTEXT_DEFINED_HEIGHT_BEGIN
1070
    46
1040
2.0
1000
ACAD_MTEXT_DEFINED_HEIGHT_END
  0
INSERT
  5
2F8
330
1F
100
AcDbEntity
  8
0
100
AcDbBlockReference
  2
*G29
 10
0.0
 20
0.0
 30
0.0
  0
INSERT
  5
2FD
330
1F
100
AcDbEntity
  8
0
100
AcDbBlockReference
  2
*G30
 10
0.0
 20
0.0
 30
0.0
  0
VIEWPORT
  5
6A
330
1B
100
AcDbEntity
 67
     1
  8
0
100
AcDbViewport
 10
210.0
 20
148.5
 30
0.0
 40
420.0
 41
297.0
 68
     1
 69
     1
 12
210.0
 22
148.5
 13
0.0
 23
0.0
 14
0.5
 24
0.5
 15
0.5
 25
0.5
 16
0.0
 26
0.0
 36
1.0
 17
0.0
 27
0.0
 37
0.0
 42
50.0
 43
0.0
 44
0.0
 45
9.0
 50
0.0
 51
0.0
 72
   100
 90
   557152
  1

281
     0
 71
     1
 74
     0
110
0.0
120
0.0
130
0.0
111
1.0
121
0.0
131
0.0
112
0.0
122
1.0
132
0.0
 79
     0
146
0.0
170
     0
 61
     5
292
     1
282
     1
141
0.0
142
0.0
 63
   256
  0
ENDSEC
  0
SECTION
  2
OBJECTS
  0
DICTIONARY
  5
C
330
0
100
AcDbDictionary
281
     1
  3
ACAD_DETAILVIEWSTYLE
350
302
  3
ACAD_GROUP
350
D
  3
ACAD_LAYOUT
350
1A
  3
ACAD_MATERIAL
350
43
  3
ACAD_MLEADERSTYLE
350
301
  3
ACAD_MLINESTYLE
350
17
  3
ACAD_PLOTSETTINGS
350
19
  3
ACAD_PLOTSTYLENAME
350
E
  3
ACAD_SCALELIST
350
47
  3
ACAD_SECTIONVIEWSTYLE
350
303
  3
ACAD_TABLESTYLE
350
300
  3
ACAD_VISUALSTYLE
350
2A
  3
AcDbVariableDictionary
350
2FE
  0
SUN
  5
69
330
29
100
AcDbSun
 90
        1
290
     0
 63
     7
421
 16777215
 40
1.0
291
     1
 91
  2455826
 92
 54000000
292
     0
 70
     2
 71
   256
280
     1
  0
DICTIONARY
  5
302
102
{ACAD_REACTORS
330
C
102
}
330
C
100
AcDbDictionary
281
     1
  0
DICTIONARY
  5
D
102
{ACAD_REACTORS
330
C
102
}
330
C
100
AcDbDictionary
281
     1
  0
DICTIONARY
  5
1A
102
{ACAD_REACTORS
330
C
102
}
330
C
100
AcDbDictionary
281
     1
  3
Layout1
350
1E
  3
Layout2
350
26
  3
Model
350
22
  0
DICTIONARY
  5
43
102
{ACAD_REACTORS
330
C
102
}
330
C
100
AcDbDictionary
281
     1
  3
ByBlock
350
45
  3
ByLayer
350
44
  3
Global
350
46
  0
DICTIONARY
  5
301
102
{ACAD_REACTORS
330
C
102
}
330
C
100
AcDbDictionary
281
     1
  0
DICTIONARY
  5
17
102
{ACAD_REACTORS
330
C
102
}
330
C
100
AcDbDictionary
281
     1
  3
Standard
350
18
  0
DICTIONARY
  5
19
102
{ACAD_REACTORS
330
C
102
}
330
C
100
AcDbDictionary
281
     1
  0
ACDBDICTIONARYWDFLT
  5
E
102
{ACAD_REACTORS
330
C
102
}
330
C
100
AcDbDictionary
281
     1
  3
Normal
350
F
100
AcDbDictionaryWithDefault
340
F
  0
DICTIONARY
  5
47
102
{ACAD_REACTORS
330
C
102
}
330
C
100
AcDbDictionary
281
     1
  3
A0
350
48
  3
A1
350
49
  3
A2
350
4A
  3
A3
350
4B
  3
A4
350
4C
  3
A5
350
4D
  3
A6
350
4E
  3
A7
350
4F
  3
A8
350
50
  3
A9
350
51
  3
B0
350
52
  3
B1
350
53
  3
B2
350
54
  3
B3
350
55
  3
B4
350
56
  3
B5
350
57
  3
B6
350
58
  3
B7
350
59
  3
B8
350
5A
  3
B9
350
5B
  3
C0
350
5C
  3
C1
350
5D
  3
C2
350
5E
  3
C3
350
5F
  3
C4
350
60
  3
C5
350
61
  3
C6
350
62
  3
C7
350
63
  3
C8
350
64
  3
C9
350
65
  3
D0
350
66
  3
D1
350
67
  3
D2
350
68
  0
DICTIONARY
  5
303
102
{ACAD_REACTORS
330
C
102
}
330
C
100
AcDbDictionary
281
     1
  0
DICTIONARY
  5
300
102
{ACAD_REACTORS
330
C
102
}
330
C
100
AcDbDictionary
281
     1
  0
DICTIONARY
  5
2A
102
{ACAD_REACTORS
330
C
102
}
330
C
100
AcDbDictionary
281
     1
  3
2dWireframe
350
2F
  3
Basic
350
32
  3
Brighten
350
36
  3
ColorChange
350
3A
  3
Conceptual
350
34
  3
Dim
350
35
  3
EdgeColorOff
350
3D
  3
Facepattern
350
39
  3
Flat
350
2B
  3
FlatWithEdges
350
2C
  3
Gouraud
350
2D
  3
GouraudWithEdges
350
2E
  3
Hidden
350
31
  3
JitterOff
350
3B
  3
Linepattern
350
38
  3
OverhangOff
350
3C
  3
Realistic
350
33
  3
Shaded
350
42
  3
Shaded with edges
350
41
  3
Shades of Gray
350
3E
  3
Sketchy
350
3F
  3
Thicken
350
37
  3
Wireframe
350
30
  3
X-Ray
350
40
  0
DICTIONARY
  5
2FE
102
{ACAD_REACTORS
330
C
102
}
330
C
100
AcDbDictionary
281
     1
  3
CANNOSCALE
350
2FF
  0
LAYOUT
  5
1E
102
{ACAD_REACTORS
330
1A
102
}
330
1A
100
AcDbPlotSettings
  1

  2
none_device
  4

  6

 40
0.0
 41
0.0
 42
0.0
 43
0.0
 44
0.0
 45
0.0
 46
0.0
 47
0.0
 48
0.0
 49
0.0
140
0.0
141
0.0
142
1.0
143
1.0
 70
   688
 72
     0
 73
     0
 74
     5
  7

 75
    16
 76
     0
 77
     2
 78
   300
147
1.0
148
0.0
149
0.0
100
AcDbLayout
  1
Layout1
 70
     1
 71
     1
 10
0.0
 20
0.0
 11
420.0
 21
297.0
 12
0.0
 22
0.0
 32
0.0
 14
0.0
 24
0.0
 34
0.0
 15
420.0
 25
297.0
 35
0.0
146
0.0
 13
0.0
 23
0.0
 33
0.0
 16
1.0
 26
0.0
 36
0.0
 17
0.0
 27
1.0
 37
0.0
 76
     0
330
1B
331
6A
  0
LAYOUT
  5
26
102
{ACAD_REACTORS
330
1A
102
}
330
1A
100
AcDbPlotSettings
  1

  2
none_device
  4

  6

 40
0.0
 41
0.0
 42
0.0
 43
0.0
 44
0.0
 45
0.0
 46
0.0
 47
0.0
 48
0.0
 49
0.0
140
0.0
141
0.0
142
1.0
143
1.0
 70
   688
 72
     0
 73
     0
 74
     5
  7

 75
    16
 76
     0
 77
     2
 78
   300
147
1.0
148
0.0
149
0.0
100
AcDbLayout
  1
Layout2
 70
     1
 71
     2
 10
0.0
 20
0.0
 11
0.0
 21
0.0
 12
0.0
 22
0.0
 32
0.0
 14
0.0
 24
0.0
 34
0.0
 15
0.0
 25
0.0
 35
0.0
146
0.0
 13
0.0
 23
0.0
 33
0.0
 16
1.0
 26
0.0
 36
0.0
 17
0.0
 27
1.0
 37
0.0
 76
     0
330
23
  0
LAYOUT
  5
22
102
{ACAD_REACTORS
330
1A
102
}
330
1A
100
AcDbPlotSettings
  1

  2
none_device
  4
Letter_(8.50_x_11.00_Inches)
  6

 40
6.35
 41
6.35
 42
6.35000508
 43
6.35000508
 44
215.9
 45
279.4
 46
0.0
 47
0.0
 48
0.0
 49
0.0
140
0.0
141
0.0
142
1.0
143
1.0
 70
  1712
 72
     0
 73
     0
 74
     0
  7

 75
     0
 76
     0
 77
     2
 78
   300
147
1.0
148
0.0
149
0.0
100
AcDbLayout
  1
Model
 70
     1
 71
     0
 10
0.0
 20
0.0
 11
420.0
 21
297.0
 12
0.0
 22
0.0
 32
0.0
 14
20.00000899999986
 24
20.0
 34
0.0
 15
354.0174901641667
 25
282.9527418311884
 35
0.0
146
0.0
 13
0.0
 23
0.0
 33
0.0
 16
1.0
 26
0.0
 36
0.0
 17
0.0
 27
1.0
 37
0.0
 76
     0
330
1F
331
29
  0
MATERIAL
  5
45
102
{ACAD_REACTORS
330
43
102
}
330
43
100
AcDbMaterial
  1
ByBlock
 72
     1
 94
      127
  0
MATERIAL
  5
44
102
{ACAD_REACTORS
330
43
102
}
330
43
100
AcDbMaterial
  1
ByLayer
 72
     1
 94
      127
  0
MATERIAL
  5
46
102
{ACAD_REACTORS
330
43
102
}
330
43
100
AcDbMaterial
  1
Global
 72
     1
 94
      127
  0
MLINESTYLE
  5
18
102
{ACAD_REACTORS
330
17
102
}
330
17
100
AcDbMlineStyle
  2
Standard
 70
     0
  3

 62
   256
 51
90.0
 52
90.0
 71
     2
 49
0.5
 62
   256
  6
BYLAYER
 49
-0.5
 62
   256
  6
BYLAYER
  0
ACDBPLACEHOLDER
  5
F
102
{ACAD_REACTORS
330
E
102
}
330
E
  0
SCALE
  5
48
102
{ACAD_REACTORS
330
47
102
}
330
47
100
AcDbScale
 70
     0
300
1:1
140
1.0
141
1.0
290
     1
  0
SCALE
  5
49
102
{ACAD_REACTORS
330
47
102
}
330
47
100
AcDbScale
 70
     0
300
1:2
140
1.0
141
2.0
290
     0
  0
SCALE
  5
4A
102
{ACAD_REACTORS
330
47
102
}
330
47
100
AcDbScale
 70
     0
300
1:4
140
1.0
141
4.0
290
     0
  0
SCALE
  5
4B
102
{ACAD_REACTORS
330
47
102
}
330
47
100
AcDbScale
 70
     0
300
1:5
140
1.0
141
5.0
290
     0
  0
SCALE
  5
4C
102
{ACAD_REACTORS
330
47
102
}
330
47
100
AcDbScale
 70
     0
300
1:8
140
1.0
141
8.0
290
     0
  0
SCALE
  5
4D
102
{ACAD_REACTORS
330
47
102
}
330
47
100
AcDbScale
 70
     0
300
1:10
140
1.0
141
10.0
290
     0
  0
SCALE
  5
4E
102
{ACAD_REACTORS
330
47
102
}
330
47
100
AcDbScale
 70
     0
300
1:16
140
1.0
141
16.0
290
     0
  0
SCALE
  5
4F
102
{ACAD_REACTORS
330
47
102
}
330
47
100
AcDbScale
 70
     0
300
1:20
140
1.0
141
20.0
290
     0
  0
SCALE
  5
50
102
{ACAD_REACTORS
330
47
102
}
330
47
100
AcDbScale
 70
     0
300
1:30
140
1.0
141
30.0
290
     0
  0
SCALE
  5
51
102
{ACAD_REACTORS
330
47
102
}
330
47
100
AcDbScale
 70
     0
300
1:40
140
1.0
141
40.0
290
     0
  0
SCALE
  5
52
102
{ACAD_REACTORS
330
47
102
}
330
47
100
AcDbScale
 70
     0
300
1:50
140
1.0
141
50.0
290
     0
  0
SCALE
  5
53
102
{ACAD_REACTORS
330
47
102
}
330
47
100
AcDbScale
 70
     0
300
1:100
140
1.0
141
100.0
290
     0
  0
SCALE
  5
54
102
{ACAD_REACTORS
330
47
102
}
330
47
100
AcDbScale
 70
     0
300
2:1
140
2.0
141
1.0
290
     0
  0
SCALE
  5
55
102
{ACAD_REACTORS
330
47
102
}
330
47
100
AcDbScale
 70
     0
300
4:1
140
4.0
141
1.0
290
     0
  0
SCALE
  5
56
102
{ACAD_REACTORS
330
47
102
}
330
47
100
AcDbScale
 70
     0
300
8:1
140
8.0
141
1.0
290
     0
  0
SCALE
  5
57
102
{ACAD_REACTORS
330
47
102
}
330
47
100
AcDbScale
 70
     0
300
10:1
140
10.0
141
1.0
290
     0
  0
SCALE
  5
58
102
{ACAD_REACTORS
330
47
102
}
330
47
100
AcDbScale
 70
     0
300
100:1
140
100.0
141
1.0
290
     0
  0
SCALE
  5
59
102
{ACAD_REACTORS
330
47
102
}
330
47
100
AcDbScale
 70
     0
300
1/128" = 1'-0"
140
0.0078125
141
12.0
290
     0
  0
SCALE
  5
5A
102
{ACAD_REACTORS
330
47
102
}
330
47
100
AcDbScale
 70
     0
300
1/64" = 1'-0"
140
0.015625
141
12.0
290
     0
  0
SCALE
  5
5B
102
{ACAD_REACTORS
330
47
102
}
330
47
100
AcDbScale
 70
     0
300
1/32" = 1'-0"
140
0.03125
141
12.0
290
     0
  0
SCALE
  5
5C
102
{ACAD_REACTORS
330
47
102
}
330
47
100
AcDbScale
 70
     0
300
1/16" = 1'-0"
140
0.0625
141
12.0
290
     0
  0
SCALE
  5
5D
102
{ACAD_REACTORS
330
47
102
}
330
47
100
AcDbScale
 70
     0
300
3/32" = 1'-0"
140
0.09375
141
12.0
290
     0
  0
SCALE
  5
5E
102
{ACAD_REACTORS
330
47
102
}
330
47
100
AcDbScale
 70
     0
300
1/8" = 1'-0"
140
0.125
141
12.0
290
     0
  0
SCALE
  5
5F
102
{ACAD_REACTORS
330
47
102
}
330
47
100
AcDbScale
 70
     0
300
3/16" = 1'-0"
140
0.1875
141
12.0
290
     0
  0
SCALE
  5
60
102
{ACAD_REACTORS
330
47
102
}
330
47
100
AcDbScale
 70
     0
300
1/4" = 1'-0"
140
0.25
141
12.0
290
     0
  0
SCALE
  5
61
102
{ACAD_REACTORS
330
47
102
}
330
47
100
AcDbScale
 70
     0
300
3/8" = 1'-0"
140
0.375
141
12.0
290
     0
  0
SCALE
  5
62
102
{ACAD_REACTORS
330
47
102
}
330
47
100
AcDbScale
 70
     0
300
1/2" = 1'-0"
140
0.5
141
12.0
290
     0
  0
SCALE
  5
63
102
{ACAD_REACTORS
330
47
102
}
330
47
100
AcDbScale
 70
     0
300
3/4" = 1'-0"
140
0.75
141
12.0
290
     0
  0
SCALE
  5
64
102
{ACAD_REACTORS
330
47
102
}
330
47
100
AcDbScale
 70
     0
300
1" = 1'-0"
140
1.0
141
12.0
290
     0
  0
SCALE
  5
65
102
{ACAD_REACTORS
330
47
102
}
330
47
100
AcDbScale
 70
     0
300
1-1/2" = 1'-0"
140
1.5
141
12.0
290
     0
  0
SCALE
  5
66
102
{ACAD_REACTORS
330
47
102
}
330
47
100
AcDbScale
 70
     0
300
3" = 1'-0"
140
3.0
141
12.0
290
     0
  0
SCALE
  5
67
102
{ACAD_REACTORS
330
47
102
}
330
47
100
AcDbScale
 70
     0
300
6" = 1'-0"
140
6.0
141
12.0
290
     0
  0
SCALE
  5
68
102
{ACAD_REACTORS
330
47
102
}
330
47
100
AcDbScale
 70
     0
300
1'-0" = 1'-0"
140
12.0
141
12.0
290
     0
  0
VISUALSTYLE
  5
2F
102
{ACAD_REACTORS
330
2A
102
}
330
2A
100
AcDbVisualStyle
  2
2dWireframe
 70
     4
177
     3
291
     0
 70
    58
 90
        0
176
     1
 90
        2
176
     1
 90
        0
176
     1
 90
        0
176
     1
 40
0.6
176
     1
 40
30.0
176
     1
 62
     7
420
 16777215
176
     1
 90
        1
176
     1
 90
        4
176
     1
 62
     7
176
     1
 62
   257
176
     1
 90
        1
176
     1
 90
        1
176
     1
 40
1.0
176
     1
 90
        0
176
     1
 62
   257
176
     1
 40
1.0
176
     1
 90
        1
176
     1
 90
        6
176
     1
 90
        2
176
     1
 62
     7
176
     1
 90
        5
176
     1
 90
        0
176
     1
 90
        0
176
     1
290
     0
176
     1
 90
        1
176
     1
 40
0.0
176
     1
 90
        0
176
     1
290
     1
176
     1
290
     1
176
     1
290
     0
176
     1
290
     0
176
     1
290
     0
176
     1
290
     0
176
     1
290
     0
176
     1
290
     0
176
     1
290
     0
176
     1
 90
       50
176
     1
 40
0.0
176
     1
 40
1.0
176
     1
 90
        0
176
     1
 62
    18
420
        0
176
     1
 90
       50
176
     1
 90
        3
176
     1
 62
     5
420
      255
176
     1
290
     0
176
     1
 90
       50
176
     1
 90
       50
176
     1
 90
       50
176
     1
290
     0
176
     1
 90
       50
176
     1
 62
   256
176
     0
 40
1.0
176
     0
 90
        2
176
     1
  1
strokes_ogs.tif
176
     1
290
     0
176
     1
 40
1.0
176
     1
 40
1.0
176
     1
  0
VISUALSTYLE
  5
32
102
{ACAD_REACTORS
330
2A
102
}
330
2A
100
AcDbVisualStyle
  2
Basic
 70
     7
177
     3
291
     1
 70
    58
 90
        1
176
     1
 90
        0
176
     1
 90
        1
176
     1
 90
        0
176
     1
 40
0.6
176
     1
 40
30.0
176
     1
 62
     7
420
 16777215
176
     1
 90
        0
176
     1
 90
        4
176
     1
 62
     7
176
     1
 62
   257
176
     1
 90
        1
176
     1
 90
        1
176
     1
 40
1.0
176
     1
 90
        8
176
     1
 62
     7
176
     1
 40
1.0
176
     1
 90
        1
176
     1
 90
        6
176
     1
 90
        2
176
     1
 62
     7
176
     1
 90
        5
176
     1
 90
        0
176
     1
 90
        0
176
     1
290
     0
176
     1
 90
        1
176
     1
 40
0.0
176
     1
 90
        0
176
     1
290
     0
176
     1
290
     1
176
     1
290
     1
176
     1
290
     0
176
     1
290
     0
176
     1
290
     0
176
     1
290
     0
176
     1
290
     0
176
     1
290
     0
176
     1
 90
       50
176
     1
 40
0.0
176
     1
 40
1.0
176
     1
 90
        0
176
     1
 62
    18
420
        0
176
     1
 90
       50
176
     1
 90
        3
176
     1
 62
     5
420
      255
176
     1
290
     0
176
     1
 90
       50
176
     1
 90
       50
176
     1
 90
       50
176
     1
290
     0
176
     1
 90
       50
176
     1
 62
   256
176
     0
 40
1.0
176
     0
 90
        2
176
     1
  1
strokes_ogs.tif
176
     1
290
     0
176
     1
 40
1.0
176
     1
 40
1.0
176
     1
  0
VISUALSTYLE
  5
36
102
{ACAD_REACTORS
330
2A
102
}
330
2A
100
AcDbVisualStyle
  2
Brighten
 70
    12
177
     3
291
     1
 70
    58
 90
        2
176
     1
 90
        2
176
     1
 90
        0
176
     1
 90
        0
176
     1
 40
0.6
176
     1
 40
30.0
176
     1
 62
     7
420
 16777215
176
     1
 90
        1
176
     1
 90
        4
176
     1
 62
     7
176
     1
 62
   257
176
     1
 90
        1
176
     1
 90
        1
176
     1
 40
1.0
176
     1
 90
        8
176
     1
 62
     7
176
     1
 40
1.0
176
     1
 90
        1
176
     1
 90
        6
176
     1
 90
        2
176
     1
 62
     7
176
     1
 90
        5
176
     1
 90
        0
176
     1
 90
        0
176
     1
290
     0
176
     1
 90
        1
176
     1
 40
50.0
176
     1
 90
        0
176
     1
290
     0
176
     1
290
     1
176
     1
290
     1
176
     1
290
     0
176
     1
290
     0
176
     1
290
     0
176
     1
290
     0
176
     1
290
     0
176
     1
290
     0
176
     1
 90
       50
176
     1
 40
0.0
176
     1
 40
1.0
176
     1
 90
        0
176
     1
 62
    18
420
        0
176
     1
 90
       50
176
     1
 90
        3
176
     1
 62
     5
420
      255
176
     1
290
     0
176
     1
 90
       50
176
     1
 90
       50
176
     1
 90
       50
176
     1
290
     0
176
     1
 90
       50
176
     1
 62
   256
176
     0
 40
1.0
176
     0
 90
        2
176
     1
  1
strokes_ogs.tif
176
     1
290
     0
176
     1
 40
1.0
176
     1
 40
1.0
176
     1
  0
VISUALSTYLE
  5
3A
102
{ACAD_REACTORS
330
2A
102
}
330
2A
100
AcDbVisualStyle
  2
ColorChange
 70
    16
177
     3
291
     1
 70
    58
 90
        2
176
     1
 90
        2
176
     1
 90
        3
176
     1
 90
        0
176
     1
 40
0.6
176
     1
 40
30.0
176
     1
 62
     8
420
  8421504
176
     1
 90
        1
176
     1
 90
        4
176
     1
 62
     7
176
     1
 62
   257
176
     1
 90
        1
176
     1
 90
        1
176
     1
 40
1.0
176
     1
 90
        8
176
     1
 62
     8
420
  8421504
176
     1
 40
1.0
176
     1
 90
        1
176
     1
 90
        6
176
     1
 90
        2
176
     1
 62
     7
176
     1
 90
        5
176
     1
 90
        0
176
     1
 90
        0
176
     1
290
     0
176
     1
 90
        1
176
     1
 40
0.0
176
     1
 90
        0
176
     1
290
     0
176
     1
290
     1
176
     1
290
     1
176
     1
290
     0
176
     1
290
     0
176
     1
290
     0
176
     1
290
     0
176
     1
290
     0
176
     1
290
     0
176
     1
 90
       50
176
     1
 40
0.0
176
     1
 40
1.0
176
     1
 90
        0
176
     1
 62
    18
420
        0
176
     1
 90
       50
176
     1
 90
        3
176
     1
 62
     5
420
      255
176
     1
290
     0
176
     1
 90
       50
176
     1
 90
       50
176
     1
 90
       50
176
     1
290
     0
176
     1
 90
       50
176
     1
 62
   256
176
     0
 40
1.0
176
     0
 90
        2
176
     1
  1
strokes_ogs.tif
176
     1
290
     0
176
     1
 40
1.0
176
     1
 40
1.0
176
     1
  0
VISUALSTYLE
  5
34
102
{ACAD_REACTORS
330
2A
102
}
330
2A
100
AcDbVisualStyle
  2
Conceptual
 70
     9
177
     3
291
     0
 70
    58
 90
        3
176
     1
 90
        2
176
     1
 90
        0
176
     1
 90
        0
176
     1
 40
0.6
176
     1
 40
30.0
176
     1
 62
     7
420
 16777215
176
     1
 90
        2
176
     1
 90
        2
176
     1
 62
     7
176
     1
 62
   257
176
     1
 90
        1
176
     1
 90
        1
176
     1
 40
179.0
176
     1
 90
        8
176
     1
 62
     7
176
     1
 40
1.0
176
     1
 90
        1
176
     1
 90
        6
176
     1
 90
        2
176
     1
 62
     7
176
     1
 90
        3
176
     1
 90
        0
176
     1
 90
        0
176
     1
290
     0
176
     1
 90
        1
176
     1
 40
0.0
176
     1
 90
        0
176
     1
290
     0
176
     1
290
     1
176
     1
290
     1
176
     1
290
     0
176
     1
290
     0
176
     1
290
     0
176
     1
290
     0
176
     1
290
     0
176
     1
290
     0
176
     1
 90
       50
176
     1
 40
0.0
176
     1
 40
1.0
176
     1
 90
        0
176
     1
 62
    18
420
        0
176
     1
 90
       50
176
     1
 90
        3
176
     1
 62
     5
420
      255
176
     1
290
     0
176
     1
 90
       50
176
     1
 90
       50
176
     1
 90
       50
176
     1
290
     0
176
     1
 90
       50
176
     1
 62
   256
176
     0
 40
1.0
176
     0
 90
        2
176
     1
  1
strokes_ogs.tif
176
     1
290
     0
176
     1
 40
1.0
176
     1
 40
1.0
176
     1
  0
VISUALSTYLE
  5
35
102
{ACAD_REACTORS
330
2A
102
}
330
2A
100
AcDbVisualStyle
  2
Dim
 70
    11
177
     3
291
     1
 70
    58
 90
        2
176
     1
 90
        2
176
     1
 90
        0
176
     1
 90
        0
176
     1
 40
0.6
176
     1
 40
30.0
176
     1
 62
     7
420
 16777215
176
     1
 90
        1
176
     1
 90
        4
176
     1
 62
     7
176
     1
 62
   257
176
     1
 90
        1
176
     1
 90
        1
176
     1
 40
1.0
176
     1
 90
        8
176
     1
 62
     7
176
     1
 40
1.0
176
     1
 90
        1
176
     1
 90
        6
176
     1
 90
        2
176
     1
 62
     7
176
     1
 90
        5
176
     1
 90
        0
176
     1
 90
        0
176
     1
290
     0
176
     1
 90
        1
176
     1
 40
-50.0
176
     1
 90
        0
176
     1
290
     0
176
     1
290
     1
176
     1
290
     1
176
     1
290
     0
176
     1
290
     0
176
     1
290
     0
176
     1
290
     0
176
     1
290
     0
176
     1
290
     0
176
     1
 90
       50
176
     1
 40
0.0
176
     1
 40
1.0
176
     1
 90
        0
176
     1
 62
    18
420
        0
176
     1
 90
       50
176
     1
 90
        3
176
     1
 62
     5
420
      255
176
     1
290
     0
176
     1
 90
       50
176
     1
 90
       50
176
     1
 90
       50
176
     1
290
     0
176
     1
 90
       50
176
     1
 62
   256
176
     0
 40
1.0
176
     0
 90
        2
176
     1
  1
strokes_ogs.tif
176
     1
290
     0
176
     1
 40
1.0
176
     1
 40
1.0
176
     1
  0
VISUALSTYLE
  5
3D
102
{ACAD_REACTORS
330
2A
102
}
330
2A
100
AcDbVisualStyle
  2
EdgeColorOff
 70
    22
177
     3
291
     1
 70
    58
 90
        2
176
     0
 90
        2
176
     0
 90
        0
176
     0
 90
        0
176
     0
 40
0.6
176
     0
 40
30.0
176
     0
 62
     7
420
 16777215
176
     0
 90
        1
176
     0
 90
        4
176
     0
 62
     7
176
     0
 62
   257
176
     0
 90
        1
176
     0
 90
        1
176
     0
 40
1.0
176
     0
 90
        8
176
     2
 62
     7
176
     0
 40
1.0
176
     0
 90
        1
176
     0
 90
        6
176
     0
 90
        2
176
     0
 62
     7
176
     0
 90
        5
176
     0
 90
        0
176
     0
 90
        0
176
     0
290
     0
176
     0
 90
        1
176
     0
 40
0.0
176
     0
 90
        0
176
     0
290
     0
176
     0
290
     1
176
     0
290
     1
176
     0
290
     0
176
     0
290
     0
176
     0
290
     0
176
     0
290
     0
176
     0
290
     0
176
     0
290
     0
176
     0
 90
       50
176
     0
 40
0.0
176
     0
 40
1.0
176
     0
 90
        0
176
     0
 62
    18
420
        0
176
     0
 90
       50
176
     0
 90
        3
176
     0
 62
     5
420
      255
176
     0
290
     0
176
     0
 90
       50
176
     0
 90
       50
176
     0
 90
       50
176
     0
290
     0
176
     0
 90
       50
176
     0
 62
   256
176
     0
 40
1.0
176
     0
 90
        2
176
     0
  1
strokes_ogs.tif
176
     0
290
     0
176
     0
 40
1.0
176
     0
 40
1.0
176
     0
  0
VISUALSTYLE
  5
39
102
{ACAD_REACTORS
330
2A
102
}
330
2A
100
AcDbVisualStyle
  2
Facepattern
 70
    15
177
     3
291
     1
 70
    58
 90
        2
176
     1
 90
        2
176
     1
 90
        0
176
     1
 90
        0
176
     1
 40
0.6
176
     1
 40
30.0
176
     1
 62
     7
420
 16777215
176
     1
 90
        1
176
     1
 90
        4
176
     1
 62
     7
176
     1
 62
   257
176
     1
 90
        1
176
     1
 90
        1
176
     1
 40
1.0
176
     1
 90
        8
176
     1
 62
     7
176
     1
 40
1.0
176
     1
 90
        1
176
     1
 90
        6
176
     1
 90
        2
176
     1
 62
     7
176
     1
 90
        5
176
     1
 90
        0
176
     1
 90
        0
176
     1
290
     0
176
     1
 90
        1
176
     1
 40
0.0
176
     1
 90
        0
176
     1
290
     0
176
     1
290
     1
176
     1
290
     1
176
     1
290
     0
176
     1
290
     0
176
     1
290
     0
176
     1
290
     0
176
     1
290
     0
176
     1
290
     0
176
     1
 90
       50
176
     1
 40
0.0
176
     1
 40
1.0
176
     1
 90
        0
176
     1
 62
    18
420
        0
176
     1
 90
       50
176
     1
 90
        3
176
     1
 62
     5
420
      255
176
     1
290
     0
176
     1
 90
       50
176
     1
 90
       50
176
     1
 90
       50
176
     1
290
     0
176
     1
 90
       50
176
     1
 62
   256
176
     0
 40
1.0
176
     0
 90
        2
176
     1
  1
strokes_ogs.tif
176
     1
290
     0
176
     1
 40
1.0
176
     1
 40
1.0
176
     1
  0
VISUALSTYLE
  5
2B
102
{ACAD_REACTORS
330
2A
102
}
330
2A
100
AcDbVisualStyle
  2
Flat
 70
     0
177
     3
291
     1
 70
    58
 90
        2
176
     1
 90
        1
176
     1
 90
        1
176
     1
 90
        2
176
     1
 40
0.6
176
     1
 40
30.0
176
     1
 62
     7
420
 16777215
176
     1
 90
        0
176
     1
 90
        0
176
     1
 62
     7
176
     1
 62
   257
176
     1
 90
        1
176
     1
 90
        1
176
     1
 40
1.0
176
     1
 90
        8
176
     1
 62
     7
176
     1
 40
1.0
176
     1
 90
        1
176
     1
 90
        6
176
     1
 90
        2
176
     1
 62
     7
176
     1
 90
        5
176
     1
 90
        0
176
     1
 90
        0
176
     1
290
     0
176
     1
 90
       13
176
     1
 40
0.0
176
     1
 90
        0
176
     1
290
     0
176
     1
290
     1
176
     1
290
     1
176
     1
290
     0
176
     1
290
     0
176
     1
290
     0
176
     1
290
     0
176
     1
290
     0
176
     1
290
     0
176
     1
 90
       50
176
     1
 40
0.0
176
     1
 40
1.0
176
     1
 90
        0
176
     1
 62
    18
420
        0
176
     1
 90
       50
176
     1
 90
        3
176
     1
 62
     5
420
      255
176
     1
290
     0
176
     1
 90
       50
176
     1
 90
       50
176
     1
 90
       50
176
     1
290
     0
176
     1
 90
       50
176
     1
 62
   256
176
     0
 40
1.0
176
     0
 90
        2
176
     1
  1
strokes_ogs.tif
176
     1
290
     0
176
     1
 40
1.0
176
     1
 40
1.0
176
     1
  0
VISUALSTYLE
  5
2C
102
{ACAD_REACTORS
330
2A
102
}
330
2A
100
AcDbVisualStyle
  2
FlatWithEdges
 70
     1
177
     3
291
     1
 70
    58
 90
        2
176
     1
 90
        1
176
     1
 90
        1
176
     1
 90
        2
176
     1
 40
0.6
176
     1
 40
30.0
176
     1
 62
     7
420
 16777215
176
     1
 90
        1
176
     1
 90
        0
176
     1
 62
     7
176
     1
 62
   257
176
     1
 90
        1
176
     1
 90
        1
176
     1
 40
1.0
176
     1
 90
        0
176
     1
 62
   257
176
     1
 40
1.0
176
     1
 90
        1
176
     1
 90
        6
176
     1
 90
        2
176
     1
 62
     7
176
     1
 90
        5
176
     1
 90
        0
176
     1
 90
        0
176
     1
290
     0
176
     1
 90
       13
176
     1
 40
0.0
176
     1
 90
        0
176
     1
290
     0
176
     1
290
     1
176
     1
290
     1
176
     1
290
     0
176
     1
290
     0
176
     1
290
     0
176
     1
290
     0
176
     1
290
     0
176
     1
290
     0
176
     1
 90
       50
176
     1
 40
0.0
176
     1
 40
1.0
176
     1
 90
        0
176
     1
 62
    18
420
        0
176
     1
 90
       50
176
     1
 90
        3
176
     1
 62
     5
420
      255
176
     1
290
     0
176
     1
 90
       50
176
     1
 90
       50
176
     1
 90
       50
176
     1
290
     0
176
     1
 90
       50
176
     1
 62
   256
176
     0
 40
1.0
176
     0
 90
        2
176
     1
  1
strokes_ogs.tif
176
     1
290
     0
176
     1
 40
1.0
176
     1
 40
1.0
176
     1
  0
VISUALSTYLE
  5
2D
102
{ACAD_REACTORS
330
2A
102
}
330
2A
100
AcDbVisualStyle
  2
Gouraud
 70
     2
177
     3
291
     1
 70
    58
 90
        2
176
     1
 90
        2
176
     1
 90
        1
176
     1
 90
        2
176
     1
 40
0.6
176
     1
 40
30.0
176
     1
 62
     7
420
 16777215
176
     1
 90
        0
176
     1
 90
        0
176
     1
 62
     7
176
     1
 62
   257
176
     1
 90
        1
176
     1
 90
        1
176
     1
 40
1.0
176
     1
 90
        0
176
     1
 62
     7
176
     1
 40
1.0
176
     1
 90
        1
176
     1
 90
        6
176
     1
 90
        2
176
     1
 62
     7
176
     1
 90
        5
176
     1
 90
        0
176
     1
 90
        0
176
     1
290
     0
176
     1
 90
       13
176
     1
 40
0.0
176
     1
 90
        0
176
     1
290
     0
176
     1
290
     1
176
     1
290
     1
176
     1
290
     0
176
     1
290
     0
176
     1
290
     0
176
     1
290
     0
176
     1
290
     0
176
     1
290
     0
176
     1
 90
       50
176
     1
 40
0.0
176
     1
 40
1.0
176
     1
 90
        0
176
     1
 62
    18
420
        0
176
     1
 90
       50
176
     1
 90
        3
176
     1
 62
     5
420
      255
176
     1
290
     0
176
     1
 90
       50
176
     1
 90
       50
176
     1
 90
       50
176
     1
290
     0
176
     1
 90
       50
176
     1
 62
   256
176
     0
 40
1.0
176
     0
 90
        2
176
     1
  1
strokes_ogs.tif
176
     1
290
     0
176
     1
 40
1.0
176
     1
 40
1.0
176
     1
  0
VISUALSTYLE
  5
2E
102
{ACAD_REACTORS
330
2A
102
}
330
2A
100
AcDbVisualStyle
  2
GouraudWithEdges
 70
     3
177
     3
291
     1
 70
    58
 90
        2
176
     1
 90
        2
176
     1
 90
        1
176
     1
 90
        2
176
     1
 40
0.6
176
     1
 40
30.0
176
     1
 62
     7
420
 16777215
176
     1
 90
        1
176
     1
 90
        0
176
     1
 62
     7
176
     1
 62
   257
176
     1
 90
        1
176
     1
 90
        1
176
     1
 40
1.0
176
     1
 90
        0
176
     1
 62
   257
176
     1
 40
1.0
176
     1
 90
        1
176
     1
 90
        6
176
     1
 90
        2
176
     1
 62
     7
176
     1
 90
        5
176
     1
 90
        0
176
     1
 90
        0
176
     1
290
     0
176
     1
 90
       13
176
     1
 40
0.0
176
     1
 90
        0
176
     1
290
     0
176
     1
290
     1
176
     1
290
     1
176
     1
290
     0
176
     1
290
     0
176
     1
290
     0
176
     1
290
     0
176
     1
290
     0
176
     1
290
     0
176
     1
 90
       50
176
     1
 40
0.0
176
     1
 40
1.0
176
     1
 90
        0
176
     1
 62
    18
420
        0
176
     1
 90
       50
176
     1
 90
        3
176
     1
 62
     5
420
      255
176
     1
290
     0
176
     1
 90
       50
176
     1
 90
       50
176
     1
 90
       50
176
     1
290
     0
176
     1
 90
       50
176
     1
 62
   256
176
     0
 40
1.0
176
     0
 90
        2
176
     1
  1
strokes_ogs.tif
176
     1
290
     0
176
     1
 40
1.0
176
     1
 40
1.0
176
     1
  0
VISUALSTYLE
  5
31
102
{ACAD_REACTORS
330
2A
102
}
330
2A
100
AcDbVisualStyle
  2
Hidden
 70
     6
177
     3
291
     0
 70
    58
 90
        1
176
     1
 90
        2
176
     1
 90
        2
176
     1
 90
        0
176
     1
 40
0.6
176
     1
 40
30.0
176
     1
 62
     7
420
 16777215
176
     1
 90
        2
176
     1
 90
        2
176
     1
 62
     7
176
     1
 62
   257
176
     1
 90
        2
176
     1
 90
        1
176
     1
 40
40.0
176
     1
 90
        0
176
     1
 62
   257
176
     1
 40
1.0
176
     1
 90
        1
176
     1
 90
        6
176
     1
 90
        2
176
     1
 62
     7
176
     1
 90
        3
176
     1
 90
        0
176
     1
 90
        0
176
     1
290
     0
176
     1
 90
        1
176
     1
 40
0.0
176
     1
 90
        0
176
     1
290
     0
176
     1
290
     1
176
     1
290
     1
176
     1
290
     0
176
     1
290
     0
176
     1
290
     0
176
     1
290
     0
176
     1
290
     0
176
     1
290
     0
176
     1
 90
       50
176
     1
 40
0.0
176
     1
 40
1.0
176
     1
 90
        0
176
     1
 62
    18
420
        0
176
     1
 90
       50
176
     1
 90
        3
176
     1
 62
     5
420
      255
176
     1
290
     0
176
     1
 90
       50
176
     1
 90
       50
176
     1
 90
       50
176
     1
290
     0
176
     1
 90
       50
176
     1
 62
   256
176
     0
 40
1.0
176
     0
 90
        2
176
     1
  1
strokes_ogs.tif
176
     1
290
     0
176
     1
 40
1.0
176
     1
 40
1.0
176
     1
  0
VISUALSTYLE
  5
3B
102
{ACAD_REACTORS
330
2A
102
}
330
2A
100
AcDbVisualStyle
  2
JitterOff
 70
    20
177
     3
291
     1
 70
    58
 90
        2
176
     0
 90
        2
176
     0
 90
        0
176
     0
 90
        0
176
     0
 40
0.6
176
     0
 40
30.0
176
     0
 62
     7
420
 16777215
176
     0
 90
        1
176
     0
 90
        4
176
     0
 62
     7
176
     0
 62
   257
176
     0
 90
        1
176
     0
 90
        1
176
     0
 40
1.0
176
     0
 90
       10
176
     2
 62
     7
176
     0
 40
1.0
176
     0
 90
        1
176
     0
 90
        6
176
     0
 90
        2
176
     0
 62
     7
176
     0
 90
        5
176
     0
 90
        0
176
     0
 90
        0
176
     0
290
     0
176
     0
 90
        1
176
     0
 40
0.0
176
     0
 90
        0
176
     0
290
     0
176
     0
290
     1
176
     0
290
     1
176
     0
290
     0
176
     0
290
     0
176
     0
290
     0
176
     0
290
     0
176
     0
290
     0
176
     0
290
     0
176
     0
 90
       50
176
     0
 40
0.0
176
     0
 40
1.0
176
     0
 90
        0
176
     0
 62
    18
420
        0
176
     0
 90
       50
176
     0
 90
        3
176
     0
 62
     5
420
      255
176
     0
290
     0
176
     0
 90
       50
176
     0
 90
       50
176
     0
 90
       50
176
     0
290
     0
176
     0
 90
       50
176
     0
 62
   256
176
     0
 40
1.0
176
     0
 90
        2
176
     0
  1
strokes_ogs.tif
176
     0
290
     0
176
     0
 40
1.0
176
     0
 40
1.0
176
     0
  0
VISUALSTYLE
  5
38
102
{ACAD_REACTORS
330
2A
102
}
330
2A
100
AcDbVisualStyle
  2
Linepattern
 70
    14
177
     3
291
     1
 70
    58
 90
        2
176
     1
 90
        2
176
     1
 90
        0
176
     1
 90
        0
176
     1
 40
0.6
176
     1
 40
30.0
176
     1
 62
     7
420
 16777215
176
     1
 90
        1
176
     1
 90
        4
176
     1
 62
     7
176
     1
 62
   257
176
     1
 90
        7
176
     1
 90
        7
176
     1
 40
1.0
176
     1
 90
        8
176
     1
 62
     7
176
     1
 40
1.0
176
     1
 90
        1
176
     1
 90
        6
176
     1
 90
        2
176
     1
 62
     7
176
     1
 90
        5
176
     1
 90
        0
176
     1
 90
        0
176
     1
290
     0
176
     1
 90
        1
176
     1
 40
0.0
176
     1
 90
        0
176
     1
290
     0
176
     1
290
     1
176
     1
290
     1
176
     1
290
     0
176
     1
290
     0
176
     1
290
     0
176
     1
290
     0
176
     1
290
     0
176
     1
290
     0
176
     1
 90
       50
176
     1
 40
0.0
176
     1
 40
1.0
176
     1
 90
        0
176
     1
 62
    18
420
        0
176
     1
 90
       50
176
     1
 90
        3
176
     1
 62
     5
420
      255
176
     1
290
     0
176
     1
 90
       50
176
     1
 90
       50
176
     1
 90
       50
176
     1
290
     0
176
     1
 90
       50
176
     1
 62
   256
176
     0
 40
1.0
176
     0
 90
        2
176
     1
  1
strokes_ogs.tif
176
     1
290
     0
176
     1
 40
1.0
176
     1
 40
1.0
176
     1
  0
VISUALSTYLE
  5
3C
102
{ACAD_REACTORS
330
2A
102
}
330
2A
100
AcDbVisualStyle
  2
OverhangOff
 70
    21
177
     3
291
     1
 70
    58
 90
        2
176
     0
 90
        2
176
     0
 90
        0
176
     0
 90
        0
176
     0
 40
0.6
176
     0
 40
30.0
176
     0
 62
     7
420
 16777215
176
     0
 90
        1
176
     0
 90
        4
176
     0
 62
     7
176
     0
 62
   257
176
     0
 90
        1
176
     0
 90
        1
176
     0
 40
1.0
176
     0
 90
        9
176
     2
 62
     7
176
     0
 40
1.0
176
     0
 90
        1
176
     0
 90
        6
176
     0
 90
        2
176
     0
 62
     7
176
     0
 90
        5
176
     0
 90
        0
176
     0
 90
        0
176
     0
290
     0
176
     0
 90
        1
176
     0
 40
0.0
176
     0
 90
        0
176
     0
290
     0
176
     0
290
     1
176
     0
290
     1
176
     0
290
     0
176
     0
290
     0
176
     0
290
     0
176
     0
290
     0
176
     0
290
     0
176
     0
290
     0
176
     0
 90
       50
176
     0
 40
0.0
176
     0
 40
1.0
176
     0
 90
        0
176
     0
 62
    18
420
        0
176
     0
 90
       50
176
     0
 90
        3
176
     0
 62
     5
420
      255
176
     0
290
     0
176
     0
 90
       50
176
     0
 90
       50
176
     0
 90
       50
176
     0
290
     0
176
     0
 90
       50
176
     0
 62
   256
176
     0
 40
1.0
176
     0
 90
        2
176
     0
  1
strokes_ogs.tif
176
     0
290
     0
176
     0
 40
1.0
176
     0
 40
1.0
176
     0
  0
VISUALSTYLE
  5
33
102
{ACAD_REACTORS
330
2A
102
}
330
2A
100
AcDbVisualStyle
  2
Realistic
 70
     8
177
     3
291
     0
 70
    58
 90
        2
176
     1
 90
        3
176
     1
 90
        0
176
     1
 90
        2
176
     1
 40
0.6
176
     1
 40
30.0
176
     1
 62
     7
420
 16777215
176
     1
 90
        0
176
     1
 90
        0
176
     1
 62
     7
176
     1
 62
   257
176
     1
 90
        1
176
     1
 90
        1
176
     1
 40
1.0
176
     1
 90
        8
176
     1
 62
   257
176
     1
 40
1.0
176
     1
 90
        1
176
     1
 90
        6
176
     1
 90
        2
176
     1
 62
     7
176
     1
 90
        3
176
     1
 90
        0
176
     1
 90
        0
176
     1
290
     0
176
     1
 90
       13
176
     1
 40
0.0
176
     1
 90
        0
176
     1
290
     0
176
     1
290
     1
176
     1
290
     1
176
     1
290
     0
176
     1
290
     0
176
     1
290
     0
176
     1
290
     0
176
     1
290
     0
176
     1
290
     0
176
     1
 90
       50
176
     1
 40
0.0
176
     1
 40
1.0
176
     1
 90
        0
176
     1
 62
    18
420
        0
176
     1
 90
       50
176
     1
 90
        3
176
     1
 62
     5
420
      255
176
     1
290
     0
176
     1
 90
       50
176
     1
 90
       50
176
     1
 90
       50
176
     1
290
     0
176
     1
 90
       50
176
     1
 62
   256
176
     0
 40
1.0
176
     0
 90
        2
176
     1
  1
strokes_ogs.tif
176
     1
290
     0
176
     1
 40
1.0
176
     1
 40
1.0
176
     1
  0
VISUALSTYLE
  5
42
102
{ACAD_REACTORS
330
2A
102
}
330
2A
100
AcDbVisualStyle
  2
Shaded
 70
    27
177
     3
291
     0
 70
    58
 90
        2
176
     1
 90
        2
176
     1
 90
        1
176
     1
 90
        2
176
     1
 40
0.6
176
     1
 40
30.0
176
     1
 62
     7
420
 16777215
176
     1
 90
        0
176
     1
 90
        4
176
     1
 62
     7
176
     1
 62
   257
176
     1
 90
        1
176
     1
 90
        1
176
     1
 40
1.0
176
     1
 90
        8
176
     1
 62
   257
176
     1
 40
1.0
176
     1
 90
        1
176
     1
 90
        6
176
     1
 90
        2
176
     1
 62
     8
420
  7895160
176
     1
 90
        3
176
     1
 90
        0
176
     1
 90
        0
176
     1
290
     0
176
     1
 90
        5
176
     1
 40
0.0
176
     1
 90
        0
176
     1
290
     0
176
     1
290
     1
176
     1
290
     1
176
     1
290
     0
176
     1
290
     0
176
     1
290
     0
176
     1
290
     0
176
     1
290
     0
176
     1
290
     0
176
     1
 90
       50
176
     1
 40
0.0
176
     1
 40
1.0
176
     1
 90
        0
176
     1
 62
    18
420
        0
176
     1
 90
       50
176
     1
 90
        3
176
     1
 62
     5
420
      255
176
     1
290
     0
176
     1
 90
       50
176
     1
 90
       50
176
     1
 90
       50
176
     1
290
     0
176
     1
 90
       50
176
     1
 62
   256
176
     0
 40
1.0
176
     0
 90
        2
176
     1
  1
strokes_ogs.tif
176
     1
290
     0
176
     1
 40
1.0
176
     1
 40
1.0
176
     1
  0
VISUALSTYLE
  5
41
102
{ACAD_REACTORS
330
2A
102
}
330
2A
100
AcDbVisualStyle
  2
Shaded with edges
 70
    26
177
     3
291
     0
 70
    58
 90
        2
176
     1
 90
        2
176
     1
 90
        1
176
     1
 90
        2
176
     1
 40
0.6
176
     1
 40
30.0
176
     1
 62
     7
420
 16777215
176
     1
 90
        1
176
     1
 90
       10
176
     1
 62
     7
176
     1
 62
   257
176
     1
 90
        2
176
     1
 90
        1
176
     1
 40
1.0
176
     1
 90
        8
176
     1
 62
   257
176
     1
 40
1.0
176
     1
 90
        1
176
     1
 90
        6
176
     1
 90
        2
176
     1
 62
     7
176
     1
 90
        3
176
     1
 90
        0
176
     1
 90
        0
176
     1
290
     0
176
     1
 90
        5
176
     1
 40
0.0
176
     1
 90
        0
176
     1
290
     0
176
     1
290
     1
176
     1
290
     1
176
     1
290
     0
176
     1
290
     0
176
     1
290
     0
176
     1
290
     0
176
     1
290
     0
176
     1
290
     0
176
     1
 90
       50
176
     1
 40
0.0
176
     1
 40
1.0
176
     1
 90
        0
176
     1
 62
    18
420
        0
176
     1
 90
       50
176
     1
 90
        3
176
     1
 62
     5
420
      255
176
     1
290
     0
176
     1
 90
       50
176
     1
 90
       50
176
     1
 90
       50
176
     1
290
     0
176
     1
 90
       50
176
     1
 62
   256
176
     0
 40
1.0
176
     0
 90
        2
176
     1
  1
strokes_ogs.tif
176
     1
290
     0
176
     1
 40
1.0
176
     1
 40
1.0
176
     1
  0
VISUALSTYLE
  5
3E
102
{ACAD_REACTORS
330
2A
102
}
330
2A
100
AcDbVisualStyle
  2
Shades of Gray
 70
    23
177
     3
291
     0
 70
    58
 90
        2
176
     1
 90
        2
176
     1
 90
        3
176
     1
 90
        0
176
     1
 40
0.6
176
     1
 40
30.0
176
     1
 62
     7
420
 16777215
176
     1
 90
        2
176
     1
 90
        2
176
     1
 62
     7
176
     1
 62
     7
176
     1
 90
        1
176
     1
 90
        1
176
     1
 40
40.0
176
     1
 90
        8
176
     1
 62
     7
176
     1
 40
1.0
176
     1
 90
        1
176
     1
 90
        6
176
     1
 90
        2
176
     1
 62
     7
176
     1
 90
        3
176
     1
 90
        0
176
     1
 90
        0
176
     1
290
     0
176
     1
 90
        1
176
     1
 40
0.0
176
     1
 90
        0
176
     1
290
     0
176
     1
290
     1
176
     1
290
     1
176
     1
290
     0
176
     1
290
     0
176
     1
290
     0
176
     1
290
     0
176
     1
290
     0
176
     1
290
     0
176
     1
 90
       50
176
     1
 40
0.0
176
     1
 40
1.0
176
     1
 90
        0
176
     1
 62
    18
420
        0
176
     1
 90
       50
176
     1
 90
        3
176
     1
 62
     5
420
      255
176
     1
290
     0
176
     1
 90
       50
176
     1
 90
       50
176
     1
 90
       50
176
     1
290
     0
176
     1
 90
       50
176
     1
 62
   256
176
     0
 40
1.0
176
     0
 90
        2
176
     1
  1
strokes_ogs.tif
176
     1
290
     0
176
     1
 40
1.0
176
     1
 40
1.0
176
     1
  0
VISUALSTYLE
  5
3F
102
{ACAD_REACTORS
330
2A
102
}
330
2A
100
AcDbVisualStyle
  2
Sketchy
 70
    24
177
     3
291
     0
 70
    58
 90
        1
176
     1
 90
        2
176
     1
 90
        2
176
     1
 90
        0
176
     1
 40
0.6
176
     1
 40
30.0
176
     1
 62
     7
420
 16777215
176
     1
 90
        2
176
     1
 90
        2
176
     1
 62
     7
176
     1
 62
     7
176
     1
 90
        1
176
     1
 90
        1
176
     1
 40
40.0
176
     1
 90
       11
176
     1
 62
     7
176
     1
 40
1.0
176
     1
 90
        1
176
     1
 90
        6
176
     1
 90
        2
176
     1
 62
     7
176
     1
 90
        6
176
     1
 90
        0
176
     1
 90
        0
176
     1
290
     0
176
     1
 90
        1
176
     1
 40
0.0
176
     1
 90
        0
176
     1
290
     0
176
     1
290
     1
176
     1
290
     1
176
     1
290
     0
176
     1
290
     0
176
     1
290
     0
176
     1
290
     0
176
     1
290
     0
176
     1
290
     0
176
     1
 90
       50
176
     1
 40
0.0
176
     1
 40
1.0
176
     1
 90
        0
176
     1
 62
    18
420
        0
176
     1
 90
       50
176
     1
 90
        3
176
     1
 62
     5
420
      255
176
     1
290
     0
176
     1
 90
       50
176
     1
 90
       50
176
     1
 90
       50
176
     1
290
     0
176
     1
 90
       50
176
     1
 62
   256
176
     0
 40
1.0
176
     0
 90
        2
176
     1
  1
strokes_ogs.tif
176
     1
290
     0
176
     1
 40
1.0
176
     1
 40
1.0
176
     1
  0
VISUALSTYLE
  5
37
102
{ACAD_REACTORS
330
2A
102
}
330
2A
100
AcDbVisualStyle
  2
Thicken
 70
    13
177
     3
291
     1
 70
    58
 90
        2
176
     1
 90
        2
176
     1
 90
        0
176
     1
 90
        0
176
     1
 40
0.6
176
     1
 40
30.0
176
     1
 62
     7
420
 16777215
176
     1
 90
        1
176
     1
 90
        4
176
     1
 62
     7
176
     1
 62
   257
176
     1
 90
        1
176
     1
 90
        1
176
     1
 40
1.0
176
     1
 90
       12
176
     1
 62
     7
176
     1
 40
1.0
176
     1
 90
        1
176
     1
 90
        6
176
     1
 90
        2
176
     1
 62
     7
176
     1
 90
        5
176
     1
 90
        0
176
     1
 90
        0
176
     1
290
     0
176
     1
 90
        1
176
     1
 40
0.0
176
     1
 90
        0
176
     1
290
     0
176
     1
290
     1
176
     1
290
     1
176
     1
290
     0
176
     1
290
     0
176
     1
290
     0
176
     1
290
     0
176
     1
290
     0
176
     1
290
     0
176
     1
 90
       50
176
     1
 40
0.0
176
     1
 40
1.0
176
     1
 90
        0
176
     1
 62
    18
420
        0
176
     1
 90
       50
176
     1
 90
        3
176
     1
 62
     5
420
      255
176
     1
290
     0
176
     1
 90
       50
176
     1
 90
       50
176
     1
 90
       50
176
     1
290
     0
176
     1
 90
       50
176
     1
 62
   256
176
     0
 40
1.0
176
     0
 90
        2
176
     1
  1
strokes_ogs.tif
176
     1
290
     0
176
     1
 40
1.0
176
     1
 40
1.0
176
     1
  0
VISUALSTYLE
  5
30
102
{ACAD_REACTORS
330
2A
102
}
330
2A
100
AcDbVisualStyle
  2
Wireframe
 70
     5
177
     3
291
     0
 70
    58
 90
        0
176
     1
 90
        2
176
     1
 90
        0
176
     1
 90
        0
176
     1
 40
0.6
176
     1
 40
30.0
176
     1
 62
     7
420
 16777215
176
     1
 90
        1
176
     1
 90
        4
176
     1
 62
     7
176
     1
 62
   257
176
     1
 90
        1
176
     1
 90
        1
176
     1
 40
1.0
176
     1
 90
        0
176
     1
 62
   257
176
     1
 40
1.0
176
     1
 90
        1
176
     1
 90
        6
176
     1
 90
        2
176
     1
 62
     7
176
     1
 90
        3
176
     1
 90
        0
176
     1
 90
        0
176
     1
290
     0
176
     1
 90
        1
176
     1
 40
0.0
176
     1
 90
        0
176
     1
290
     0
176
     1
290
     1
176
     1
290
     1
176
     1
290
     0
176
     1
290
     0
176
     1
290
     0
176
     1
290
     0
176
     1
290
     0
176
     1
290
     0
176
     1
 90
       50
176
     1
 40
0.0
176
     1
 40
1.0
176
     1
 90
        0
176
     1
 62
    18
420
        0
176
     1
 90
       50
176
     1
 90
        3
176
     1
 62
     5
420
      255
176
     1
290
     0
176
     1
 90
       50
176
     1
 90
       50
176
     1
 90
       50
176
     1
290
     0
176
     1
 90
       50
176
     1
 62
   256
176
     0
 40
1.0
176
     0
 90
        2
176
     1
  1
strokes_ogs.tif
176
     1
290
     0
176
     1
 40
1.0
176
     1
 40
1.0
176
     1
  0
VISUALSTYLE
  5
40
102
{ACAD_REACTORS
330
2A
102
}
330
2A
100
AcDbVisualStyle
  2
X-Ray
 70
    25
177
     3
291
     0
 70
    58
 90
        2
176
     1
 90
        2
176
     1
 90
        1
176
     1
 90
        1
176
     1
 40
0.5
176
     1
 40
30.0
176
     1
 62
     7
420
 16777215
176
     1
 90
        1
176
     1
 90
        0
176
     1
 62
     7
176
     1
 62
   257
176
     1
 90
        1
176
     1
 90
        1
176
     1
 40
1.0
176
     1
 90
        8
176
     1
 62
     7
176
     1
 40
1.0
176
     1
 90
        1
176
     1
 90
        6
176
     1
 90
        2
176
     1
 62
     7
176
     1
 90
        3
176
     1
 90
        0
176
     1
 90
        0
176
     1
290
     0
176
     1
 90
       13
176
     1
 40
0.0
176
     1
 90
        0
176
     1
290
     0
176
     1
290
     1
176
     1
290
     1
176
     1
290
     0
176
     1
290
     0
176
     1
290
     0
176
     1
290
     0
176
     1
290
     0
176
     1
290
     0
176
     1
 90
       50
176
     1
 40
0.0
176
     1
 40
1.0
176
     1
 90
        0
176
     1
 62
    18
420
        0
176
     1
 90
       50
176
     1
 90
        3
176
     1
 62
     5
420
      255
176
     1
290
     0
176
     1
 90
       50
176
     1
 90
       50
176
     1
 90
       50
176
     1
290
     0
176
     1
 90
       50
176
     1
 62
   256
176
     0
 40
1.0
176
     0
 90
        2
176
     1
  1
strokes_ogs.tif
176
     1
290
     0
176
     1
 40
1.0
176
     1
 40
1.0
176
     1
  0
DICTIONARYVAR
  5
2FF
102
{ACAD_REACTORS
330
2FE
102
}
330
2FE
100
DictionaryVariables
280
     0
  1
1:1
  0
ENDSEC
  0
EOF
