  0
SECTION
  2
HEADER
  9
$ACADVER
  1
AC1027
  9
$ACADMAINTVER
 70
     8
  9
$DWGCODEPAGE
  3
ANSI_932
  9
$REQUIREDVERSIONS
160
                 0
  9
$INSBASE
 10
0.0
 20
0.0
 30
0.0
  9
$EXTMIN
 10
20.00000899999986
 20
20.00000000000011
 30
0.0
  9
$EXTMAX
 10
360.6647529196562
 20
282.1149368831309
 30
0.0
  9
$LIMMIN
 10
0.0
 20
0.0
  9
$LIMMAX
 10
420.0
 20
297.0
  9
$ORTHOMODE
 70
     0
  9
$REGENMODE
 70
     1
  9
$FILLMODE
 70
     1
  9
$QTEXTMODE
 70
     0
  9
$MIRRTEXT
 70
     1
  9
$LTSCALE
 40
0.25
  9
$ATTMODE
 70
     1
  9
$TEXTSIZE
 40
2.8
  9
$TRACEWID
 40
0.05
  9
$TEXTSTYLE
  7
Standard
  9
$CLAYER
  8
0
  9
$CELTYPE
  6
ByLayer
  9
$CECOLOR
 62
   256
  9
$CELTSCALE
 40
1.0
  9
$DISPSILH
 70
     0
  9
$DIMSCALE
 40
1.0
  9
$DIMASZ
 40
1.55291427
  9
$DIMEXO
 40
2.0
  9
$DIMDLI
 40
30.0
  9
$DIMRND
 40
0.0
  9
$DIMDLE
 40
0.0
  9
$DIMEXE
 40
2.0
  9
$DIMTP
 40
0.0
  9
$DIMTM
 40
0.0
  9
$DIMTXT
 40
2.8
  9
$DIMCEN
 40
0.09
  9
$DIMTSZ
 40
0.0
  9
$DIMTOL
 70
     0
  9
$DIMLIM
 70
     0
  9
$DIMTIH
 70
     0
  9
$DIMTOH
 70
     0
  9
$DIMSE1
 70
     0
  9
$DIMSE2
 70
     0
  9
$DIMTAD
 70
     3
  9
$DIMZIN
 70
     8
  9
$DIMBLK
  1

  9
$DIMASO
 70
     1
  9
$DIMSHO
 70
     1
  9
$DIMPOST
  1

  9
$DIMAPOST
  1

  9
$DIMALT
 70
     0
  9
$DIMALTD
 70
     2
  9
$DIMALTF
 40
25.4
  9
$DIMLFAC
 40
1.0
  9
$DIMTOFL
 70
     1
  9
$DIMTVP
 40
0.7
  9
$DIMTIX
 70
     0
  9
$DIMSOXD
 70
     0
  9
$DIMSAH
 70
     0
  9
$DIMBLK1
  1

  9
$DIMBLK2
  1

  9
$DIMSTYLE
  2
Standard
  9
$DIMCLRD
 70
     0
  9
$DIMCLRE
 70
     0
  9
$DIMCLRT
 70
     0
  9
$DIMTFAC
 40
0.5
  9
$DIMGAP
 40
0.09
  9
$DIMJUST
 70
     0
  9
$DIMSD1
 70
     0
  9
$DIMSD2
 70
     0
  9
$DIMTOLJ
 70
     1
  9
$DIMTZIN
 70
     8
  9
$DIMALTZ
 70
     0
  9
$DIMALTTZ
 70
     0
  9
$DIMUPT
 70
     1
  9
$DIMDEC
 70
     2
  9
$DIMTDEC
 70
     4
  9
$DIMALTU
 70
     2
  9
$DIMALTTD
 70
     2
  9
$DIMTXSTY
  7
Standard
  9
$DIMAUNIT
 70
     0
  9
$DIMADEC
 70
     0
  9
$DIMALTRND
 40
0.0
  9
$DIMAZIN
 70
     0
  9
$DIMDSEP
 70
    46
  9
$DIMATFIT
 70
     2
  9
$DIMFRAC
 70
     0
  9
$DIMLDRBLK
  1

  9
$DIMLUNIT
 70
     2
  9
$DIMLWD
 70
    -2
  9
$DIMLWE
 70
    -2
  9
$DIMTMOVE
 70
     2
  9
$DIMFXL
 40
1.0
  9
$DIMFXLON
 70
     0
  9
$DIMJOGANG
 40
0.7853981633974483
  9
$DIMTFILL
 70
     0
  9
$DIMTFILLCLR
 70
     0
  9
$DIMARCSYM
 70
     0
  9
$DIMLTYPE
  6

  9
$DIMLTEX1
  6

  9
$DIMLTEX2
  6

  9
$DIMTXTDIRECTION
 70
     0
  9
$LUNITS
 70
     2
  9
$LUPREC
 70
     4
  9
$SKETCHINC
 40
0.1
  9
$FILLETRAD
 40
0.5
  9
$AUNITS
 70
     0
  9
$AUPREC
 70
     0
  9
$MENU
  1
.
  9
$ELEVATION
 40
0.0
  9
$PELEVATION
 40
0.0
  9
$THICKNESS
 40
0.0
  9
$LIMCHECK
 70
     0
  9
$CHAMFERA
 40
0.0
  9
$CHAMFERB
 40
0.0
  9
$CHAMFERC
 40
0.0
  9
$CHAMFERD
 40
0.0
  9
$SKPOLY
 70
     0
  9
$TDCREATE
 40
2460053.849907408
  9
$TDUCREATE
 40
2460053.474907408
  9
$TDUPDATE
 40
2460053.474909549
  9
$TDUUPDATE
 40
2460053.099909549
  9
$TDINDWG
 40
0.0000000116
  9
$TDUSRTIMER
 40
0.0000000116
  9
$USRTIMER
 70
     1
  9
$ANGBASE
 50
0.0
  9
$ANGDIR
 70
     0
  9
$PDMODE
 70
     0
  9
$PDSIZE
 40
0.0
  9
$PLINEWID
 40
0.0
  9
$SPLFRAME
 70
     0
  9
$SPLINETYPE
 70
     6
  9
$SPLINESEGS
 70
     8
  9
$HANDSEED
  5
2E6
  9
$SURFTAB1
 70
     6
  9
$SURFTAB2
 70
     6
  9
$SURFTYPE
 70
     6
  9
$SURFU
 70
     6
  9
$SURFV
 70
     6
  9
$UCSBASE
  2

  9
$UCSNAME
  2

  9
$UCSORG
 10
0.0
 20
0.0
 30
0.0
  9
$UCSXDIR
 10
1.0
 20
0.0
 30
0.0
  9
$UCSYDIR
 10
0.0
 20
1.0
 30
0.0
  9
$UCSORTHOREF
  2

  9
$UCSORTHOVIEW
 70
     0
  9
$UCSORGTOP
 10
0.0
 20
0.0
 30
0.0
  9
$UCSORGBOTTOM
 10
0.0
 20
0.0
 30
0.0
  9
$UCSORGLEFT
 10
0.0
 20
0.0
 30
0.0
  9
$UCSORGRIGHT
 10
0.0
 20
0.0
 30
0.0
  9
$UCSORGFRONT
 10
0.0
 20
0.0
 30
0.0
  9
$UCSORGBACK
 10
0.0
 20
0.0
 30
0.0
  9
$PUCSBASE
  2

  9
$PUCSNAME
  2

  9
$PUCSORG
 10
0.0
 20
0.0
 30
0.0
  9
$PUCSXDIR
 10
1.0
 20
0.0
 30
0.0
  9
$PUCSYDIR
 10
0.0
 20
1.0
 30
0.0
  9
$PUCSORTHOREF
  2

  9
$PUCSORTHOVIEW
 70
     0
  9
$PUCSORGTOP
 10
0.0
 20
0.0
 30
0.0
  9
$PUCSORGBOTTOM
 10
0.0
 20
0.0
 30
0.0
  9
$PUCSORGLEFT
 10
0.0
 20
0.0
 30
0.0
  9
$PUCSORGRIGHT
 10
0.0
 20
0.0
 30
0.0
  9
$PUCSORGFRONT
 10
0.0
 20
0.0
 30
0.0
  9
$PUCSORGBACK
 10
0.0
 20
0.0
 30
0.0
  9
$USERI1
 70
     0
  9
$USERI2
 70
     0
  9
$USERI3
 70
     0
  9
$USERI4
 70
     0
  9
$USERI5
 70
     0
  9
$USERR1
 40
0.0
  9
$USERR2
 40
0.0
  9
$USERR3
 40
0.0
  9
$USERR4
 40
0.0
  9
$USERR5
 40
0.0
  9
$WORLDVIEW
 70
     1
  9
$SHADEDGE
 70
     3
  9
$SHADEDIF
 70
    70
  9
$TILEMODE
 70
     1
  9
$MAXACTVP
 70
    64
  9
$PINSBASE
 10
0.0
 20
0.0
 30
0.0
  9
$PLIMCHECK
 70
     0
  9
$PEXTMIN
 10
0.0
 20
0.0
 30
0.0
  9
$PEXTMAX
 10
420.0
 20
297.0
 30
0.0
  9
$PLIMMIN
 10
0.0
 20
0.0
  9
$PLIMMAX
 10
420.0
 20
297.0
  9
$UNITMODE
 70
     0
  9
$VISRETAIN
 70
     1
  9
$PLINEGEN
 70
     0
  9
$PSLTSCALE
 70
     1
  9
$TREEDEPTH
 70
  3020
  9
$CMLSTYLE
  2
Standard
  9
$CMLJUST
 70
     0
  9
$CMLSCALE
 40
1.0
  9
$PROXYGRAPHICS
 70
     1
  9
$MEASUREMENT
 70
     1
  9
$CELWEIGHT
370
    -1
  9
$ENDCAPS
280
     0
  9
$JOINSTYLE
280
     0
  9
$LWDISPLAY
290
     0
  9
$INSUNITS
 70
     4
  9
$HYPERLINKBASE
  1

  9
$STYLESHEET
  1

  9
$XEDIT
290
     1
  9
$CEPSNTYPE
380
     0
  9
$PSTYLEMODE
290
     1
  9
$FINGERPRINTGUID
  2
{3D6B5206-D617-4E00-ADA2-028CBABC9C15}
  9
$VERSIONGUID
  2
{FAEB1C32-E019-11D5-929B-00C0DF256EC4}
  9
$EXTNAMES
290
     1
  9
$PSVPSCALE
 40
0.0
  9
$OLESTARTUP
290
     0
  9
$SORTENTS
280
   127
  9
$INDEXCTL
280
     0
  9
$HIDETEXT
280
     1
  9
$XCLIPFRAME
280
     2
  9
$HALOGAP
280
     0
  9
$OBSCOLOR
 70
   257
  9
$OBSLTYPE
280
     0
  9
$INTERSECTIONDISPLAY
280
     0
  9
$INTERSECTIONCOLOR
 70
   257
  9
$DIMASSOC
280
     1
  9
$PROJECTNAME
  1

  9
$CAMERADISPLAY
290
     0
  9
$LENSLENGTH
 40
50.0
  9
$CAMERAHEIGHT
 40
0.0
  9
$STEPSPERSEC
 40
2.0
  9
$STEPSIZE
 40
6.0
  9
$3DDWFPREC
 40
2.0
  9
$PSOLWIDTH
 40
0.25
  9
$PSOLHEIGHT
 40
4.0
  9
$LOFTANG1
 40
1.570796326794897
  9
$LOFTANG2
 40
1.570796326794897
  9
$LOFTMAG1
 40
0.0
  9
$LOFTMAG2
 40
0.0
  9
$LOFTPARAM
 70
     7
  9
$LOFTNORMALS
280
     1
  9
$LATITUDE
 40
37.795
  9
$LONGITUDE
 40
-122.394
  9
$NORTHDIRECTION
 40
0.0
  9
$TIMEZONE
 70
 -8000
  9
$LIGHTGLYPHDISPLAY
280
     1
  9
$TILEMODELIGHTSYNCH
280
     1
  9
$CMATERIAL
347
44
  9
$SOLIDHIST
280
     1
  9
$SHOWHIST
280
     1
  9
$DWFFRAME
280
     2
  9
$DGNFRAME
280
     2
  9
$REALWORLDSCALE
290
     1
  9
$INTERFERECOLOR
 62
   256
  9
$CSHADOW
280
     0
  9
$SHADOWPLANELOCATION
 40
0.0
  0
ENDSEC
  0
SECTION
  2
CLASSES
  0
CLASS
  1
ACDBDICTIONARYWDFLT
  2
AcDbDictionaryWithDefault
  3
ObjectDBX Classes
 90
        0
 91
        4
280
     0
281
     0
  0
CLASS
  1
VISUALSTYLE
  2
AcDbVisualStyle
  3
ObjectDBX Classes
 90
     4095
 91
        4
280
     0
281
     0
  0
CLASS
  1
MATERIAL
  2
AcDbMaterial
  3
ObjectDBX Classes
 90
     1153
 91
        4
280
     0
281
     0
  0
CLASS
  1
SCALE
  2
AcDbScale
  3
ObjectDBX Classes
 90
     1153
 91
        4
280
     0
281
     0
  0
CLASS
  1
SUN
  2
AcDbSun
  3
SCENEOE
 90
     1153
 91
        4
280
     0
281
     0
  0
CLASS
  1
DICTIONARYVAR
  2
AcDbDictionaryVar
  3
ObjectDBX Classes
 90
        0
 91
        4
280
     0
281
     0
  0
ENDSEC
  0
SECTION
  2
TABLES
  0
TABLE
  2
VPORT
  5
8
330
0
100
AcDbSymbolTable
 70
     1
  0
VPORT
  5
29
330
8
100
AcDbSymbolTableRecord
100
AcDbViewportTableRecord
  2
*Active
 70
     0
 10
0.0
 20
0.0
 11
1.0
 21
1.0
 12
10.42990654205607
 22
4.5
 13
0.0
 23
0.0
 14
0.5
 24
0.5
 15
0.5
 25
0.5
 16
0.0
 26
0.0
 36
1.0
 17
0.0
 27
0.0
 37
0.0
 40
9.0
 41
1.972972972850329
 42
50.0
 43
0.0
 44
0.0
 50
0.0
 51
0.0
 71
     0
 72
   100
 73
     1
 74
     3
 75
     0
 76
     0
 77
     0
 78
     0
281
     0
 65
     1
110
0.0
120
0.0
130
0.0
111
1.0
121
0.0
131
0.0
112
0.0
122
1.0
132
0.0
 79
     0
146
0.0
 60
     3
 61
     5
292
     1
282
     1
141
0.0
142
0.0
 63
   250
361
69
  0
ENDTAB
  0
TABLE
  2
LTYPE
  5
5
330
0
100
AcDbSymbolTable
 70
     9
  0
LTYPE
  5
14
330
5
100
AcDbSymbolTableRecord
100
AcDbLinetypeTableRecord
  2
ByBlock
 70
     0
  3

 72
    65
 73
     0
 40
0.0
  0
LTYPE
  5
15
330
5
100
AcDbSymbolTableRecord
100
AcDbLinetypeTableRecord
  2
ByLayer
 70
     0
  3

 72
    65
 73
     0
 40
0.0
  0
LTYPE
  5
16
330
5
100
AcDbSymbolTableRecord
100
AcDbLinetypeTableRecord
  2
Continuous
 70
     0
  3
Solid line
 72
    65
 73
     0
 40
0.0
  0
LTYPE
  5
B9
330
5
100
AcDbSymbolTableRecord
100
AcDbLinetypeTableRecord
  2
DOT
 70
     0
  3
DOT
 72
    65
 73
     2
 40
4.0
 49
6.0
 74
     0
 49
-2.0
 74
     0
  0
LTYPE
  5
BA
330
5
100
AcDbSymbolTableRecord
100
AcDbLinetypeTableRecord
  2
HIDDEN
 70
     0
  3
HIDDEN
 72
    65
 73
     2
 40
4.2
 49
8.4
 74
     0
 49
-4.2
 74
     0
  0
LTYPE
  5
BB
330
5
100
AcDbSymbolTableRecord
100
AcDbLinetypeTableRecord
  2
DASHDOT
 70
     0
  3
DASHDOT
 72
    65
 73
     4
 40
14.5
 49
30.0
 74
     0
 49
-9.0
 74
     0
 49
2.5
 74
     0
 49
-9.0
 74
     0
  0
LTYPE
  5
BC
330
5
100
AcDbSymbolTableRecord
100
AcDbLinetypeTableRecord
  2
PHANTOM
 70
     0
  3
PHANTOM
 72
    65
 73
     6
 40
12.0
 49
30.0
 74
     0
 49
-9.0
 74
     0
 49
2.5
 74
     0
 49
-5.0
 74
     0
 49
2.5
 74
     0
 49
-9.0
 74
     0
  0
LTYPE
  5
BD
330
5
100
AcDbSymbolTableRecord
100
AcDbLinetypeTableRecord
  2
ACAD_ISO14W100
 70
     0
  3
ACAD_ISO14W100
 72
    65
 73
     8
 40
1.5
 49
12.0
 74
     0
 49
-3.0
 74
     0
 49
0.5
 74
     0
 49
-3.0
 74
     0
 49
0.5
 74
     0
 49
-3.0
 74
     0
 49
0.5
 74
     0
 49
-3.0
 74
     0
  0
LTYPE
  5
BE
330
5
100
AcDbSymbolTableRecord
100
AcDbLinetypeTableRecord
  2
ACAD_ISO06W100
 70
     0
  3
ACAD_ISO06W100
 72
    65
 73
     8
 40
13.5
 49
24.0
 74
     0
 49
-3.0
 74
     0
 49
0.5
 74
     0
 49
-3.0
 74
     0
 49
0.5
 74
     0
 49
-3.0
 74
     0
 49
0.5
 74
     0
 49
-3.0
 74
     0
  0
LTYPE
  5
BF
330
5
100
AcDbSymbolTableRecord
100
AcDbLinetypeTableRecord
  2
ACAD_ISO11W100
 70
     0
  3
ACAD_ISO11W100
 72
    65
 73
     6
 40
15.5
 49
12.0
 74
     0
 49
-3.0
 74
     0
 49
12.0
 74
     0
 49
-3.0
 74
     0
 49
0.5
 74
     0
 49
-3.0
 74
     0
  0
LTYPE
  5
C0
330
5
100
AcDbSymbolTableRecord
100
AcDbLinetypeTableRecord
  2
ACAD_ISO13W100
 70
     0
  3
ACAD_ISO13W100
 72
    65
 73
     8
 40
13.0
 49
12.0
 74
     0
 49
-3.0
 74
     0
 49
12.0
 74
     0
 49
-3.0
 74
     0
 49
0.5
 74
     0
 49
-3.0
 74
     0
 49
0.5
 74
     0
 49
-3.0
 74
     0
  0
ENDTAB
  0
TABLE
  2
LAYER
  5
2
330
0
100
AcDbSymbolTable
 70
    11
  0
LAYER
  5
10
330
2
100
AcDbSymbolTableRecord
100
AcDbLayerTableRecord
  2
0
 70
     0
 62
     7
  6
Continuous
370
    -3
390
F
347
46
348
0
  0
LAYER
  5
C1
330
2
100
AcDbSymbolTableRecord
100
AcDbLayerTableRecord
  2
1
 70
     0
 62
     7
  6
Continuous
370
     9
390
F
347
46
348
0
  0
LAYER
  5
C2
330
2
100
AcDbSymbolTableRecord
100
AcDbLayerTableRecord
  2
2
 70
     0
 62
   151
  6
Continuous
370
    20
390
F
347
46
348
0
  0
LAYER
  5
C3
330
2
100
AcDbSymbolTableRecord
100
AcDbLayerTableRecord
  2
3
 70
     0
 62
     1
  6
DASHDOT
370
     9
390
F
347
46
348
0
  0
LAYER
  5
C4
330
2
100
AcDbSymbolTableRecord
100
AcDbLayerTableRecord
  2
4
 70
     0
 62
     7
  6
Continuous
370
     9
390
F
347
46
348
0
  0
LAYER
  5
C5
330
2
100
AcDbSymbolTableRecord
100
AcDbLayerTableRecord
  2
5
 70
     0
 62
     1
  6
Continuous
370
    25
390
F
347
46
348
0
  0
LAYER
  5
C6
330
2
100
AcDbSymbolTableRecord
100
AcDbLayerTableRecord
  2
6
 70
     0
 62
     6
  6
Continuous
370
     9
390
F
347
46
348
0
  0
LAYER
  5
C7
330
2
100
AcDbSymbolTableRecord
100
AcDbLayerTableRecord
  2
7
 70
     0
 62
     3
  6
Continuous
370
    40
390
F
347
46
348
0
  0
LAYER
  5
C8
330
2
100
AcDbSymbolTableRecord
100
AcDbLayerTableRecord
  2
8
 70
     0
 62
     4
  6
Continuous
370
     9
390
F
347
46
348
0
  0
LAYER
  5
C9
330
2
100
AcDbSymbolTableRecord
100
AcDbLayerTableRecord
  2
9
 70
     0
 62
     7
  6
Continuous
370
    25
390
F
347
46
348
0
  0
LAYER
  5
CA
330
2
100
AcDbSymbolTableRecord
100
AcDbLayerTableRecord
  2
10
 70
     0
 62
     2
  6
Continuous
370
     9
390
F
347
46
348
0
  0
ENDTAB
  0
TABLE
  2
STYLE
  5
3
330
0
100
AcDbSymbolTable
 70
     3
  0
STYLE
  5
11
330
3
100
AcDbSymbolTableRecord
100
AcDbTextStyleTableRecord
  2
Standard
 70
     0
 40
0.0
 41
1.0
 50
0.0
 71
     0
 42
2.8
  3
txt
  4
bigfont
  0
STYLE
  5
6C
330
3
100
AcDbSymbolTableRecord
100
AcDbTextStyleTableRecord
  2
T_STANDARD
 70
     4
 40
10.0
 41
1.0
 50
0.0
 71
     0
 42
2.8
  3
txt
  4
bigfont
1001
ACAD
1000

1071
      256
  0
STYLE
  5
22B
330
3
100
AcDbSymbolTableRecord
100
AcDbTextStyleTableRecord
  2
ＭＳ ゴシック
 70
     0
 40
0.0
 41
1.0
 50
0.0
 71
     0
 42
2.8
  3

  4

1001
ACAD
1000
ＭＳ ゴシック
1071
      256
  0
ENDTAB
  0
TABLE
  2
VIEW
  5
6
330
0
100
AcDbSymbolTable
 70
     0
  0
ENDTAB
  0
TABLE
  2
UCS
  5
7
330
0
100
AcDbSymbolTable
 70
     0
  0
ENDTAB
  0
TABLE
  2
APPID
  5
9
330
0
100
AcDbSymbolTable
 70
     2
  0
APPID
  5
12
330
9
100
AcDbSymbolTableRecord
100
AcDbRegAppTableRecord
  2
ACAD
 70
     0
  0
APPID
  5
6B
330
9
100
AcDbSymbolTableRecord
100
AcDbRegAppTableRecord
  2
ODA
 70
     0
  0
ENDTAB
  0
TABLE
  2
DIMSTYLE
  5
A
330
0
100
AcDbSymbolTable
 70
     1
100
AcDbDimStyleTable
  0
DIMSTYLE
105
27
102
{ACAD_REACTORS
330
235
330
240
330
24B
330
255
330
25F
330
269
330
273
330
27D
330
287
330
292
330
29C
102
}
330
A
100
AcDbSymbolTableRecord
100
AcDbDimStyleTableRecord
  2
Standard
 70
     0
178
     0
340
11
  0
ENDTAB
  0
TABLE
  2
BLOCK_RECORD
  5
1
330
0
100
AcDbSymbolTable
 70
    29
  0
BLOCK_RECORD
  5
1F
330
1
100
AcDbSymbolTableRecord
100
AcDbBlockTableRecord
  2
*Model_Space
340
22
 70
     0
280
     1
281
     0
  0
BLOCK_RECORD
  5
1B
330
1
100
AcDbSymbolTableRecord
100
AcDbBlockTableRecord
  2
*Paper_Space
340
1E
 70
     0
280
     1
281
     0
  0
BLOCK_RECORD
  5
23
330
1
100
AcDbSymbolTableRecord
100
AcDbBlockTableRecord
  2
*Paper_Space0
340
26
 70
     0
280
     1
281
     0
  0
BLOCK_RECORD
  5
6D
330
1
100
AcDbSymbolTableRecord
100
AcDbBlockTableRecord
  2
_ORIGIN
340
0
 70
     0
280
     1
281
     0
  0
BLOCK_RECORD
  5
72
330
1
100
AcDbSymbolTableRecord
100
AcDbBlockTableRecord
  2
_DOTBLANK
340
0
 70
     0
280
     1
281
     0
  0
BLOCK_RECORD
  5
77
330
1
100
AcDbSymbolTableRecord
100
AcDbBlockTableRecord
  2
_DOT
340
0
 70
     0
280
     1
281
     0
  0
BLOCK_RECORD
  5
7C
330
1
100
AcDbSymbolTableRecord
100
AcDbBlockTableRecord
  2
_OPEN
340
0
102
{BLKREFS
331
2C6
102
}
 70
     0
280
     1
281
     0
  0
BLOCK_RECORD
  5
82
330
1
100
AcDbSymbolTableRecord
100
AcDbBlockTableRecord
  2
_CLOSED
340
0
 70
     0
280
     1
281
     0
  0
BLOCK_RECORD
  5
89
330
1
100
AcDbSymbolTableRecord
100
AcDbBlockTableRecord
  2
_CLOSEDBLANK
340
0
 70
     0
280
     1
281
     0
  0
BLOCK_RECORD
  5
8F
330
1
100
AcDbSymbolTableRecord
100
AcDbBlockTableRecord
  2
_ARROWFILLED
340
0
102
{BLKREFS
331
233
331
234
331
23E
331
23F
331
249
331
24A
331
253
331
254
331
25D
331
25E
331
267
331
268
331
271
331
272
331
27B
331
27C
331
285
331
286
331
290
331
291
331
29A
331
29B
102
}
 70
     0
280
     1
281
     0
  0
BLOCK_RECORD
  5
93
330
1
100
AcDbSymbolTableRecord
100
AcDbBlockTableRecord
  2
_BOXBLANK
340
0
 70
     0
280
     1
281
     0
  0
BLOCK_RECORD
  5
9B
330
1
100
AcDbSymbolTableRecord
100
AcDbBlockTableRecord
  2
_BOXFILLED
340
0
 70
     0
280
     1
281
     0
  0
BLOCK_RECORD
  5
A0
330
1
100
AcDbSymbolTableRecord
100
AcDbBlockTableRecord
  2
_INTEGRAL
340
0
 70
     0
280
     1
281
     0
  0
BLOCK_RECORD
  5
A5
330
1
100
AcDbSymbolTableRecord
100
AcDbBlockTableRecord
  2
_OBLIQUE
340
0
 70
     0
280
     1
281
     0
  0
BLOCK_RECORD
  5
A9
330
1
100
AcDbSymbolTableRecord
100
AcDbBlockTableRecord
  2
_NONE
340
0
 70
     0
280
     1
281
     0
  0
BLOCK_RECORD
  5
AC
330
1
100
AcDbSymbolTableRecord
100
AcDbBlockTableRecord
  2
MARK_OPEN
340
0
 70
     0
280
     1
281
     0
  0
BLOCK_RECORD
  5
B1
330
1
100
AcDbSymbolTableRecord
100
AcDbBlockTableRecord
  2
MARK_ORIGIN
340
0
 70
     0
280
     1
281
     0
  0
BLOCK_RECORD
  5
B5
330
1
100
AcDbSymbolTableRecord
100
AcDbBlockTableRecord
  2
MARK_DOT
340
0
 70
     0
280
     1
281
     0
  0
BLOCK_RECORD
  5
22C
330
1
100
AcDbSymbolTableRecord
100
AcDbBlockTableRecord
  2
Dim1
340
0
 70
     0
280
     1
281
     0
  0
BLOCK_RECORD
  5
236
330
1
100
AcDbSymbolTableRecord
100
AcDbBlockTableRecord
  2
Dim2
340
0
 70
     0
280
     1
281
     0
  0
BLOCK_RECORD
  5
241
330
1
100
AcDbSymbolTableRecord
100
AcDbBlockTableRecord
  2
Dim3
340
0
 70
     0
280
     1
281
     0
  0
BLOCK_RECORD
  5
24C
330
1
100
AcDbSymbolTableRecord
100
AcDbBlockTableRecord
  2
Dim4
340
0
 70
     0
280
     1
281
     0
  0
BLOCK_RECORD
  5
256
330
1
100
AcDbSymbolTableRecord
100
AcDbBlockTableRecord
  2
Dim5
340
0
 70
     0
280
     1
281
     0
  0
BLOCK_RECORD
  5
260
330
1
100
AcDbSymbolTableRecord
100
AcDbBlockTableRecord
  2
Dim6
340
0
 70
     0
280
     1
281
     0
  0
BLOCK_RECORD
  5
26A
330
1
100
AcDbSymbolTableRecord
100
AcDbBlockTableRecord
  2
Dim7
340
0
 70
     0
280
     1
281
     0
  0
BLOCK_RECORD
  5
274
330
1
100
AcDbSymbolTableRecord
100
AcDbBlockTableRecord
  2
Dim8
340
0
 70
     0
280
     1
281
     0
  0
BLOCK_RECORD
  5
27E
330
1
100
AcDbSymbolTableRecord
100
AcDbBlockTableRecord
  2
Dim9
340
0
 70
     0
280
     1
281
     0
  0
BLOCK_RECORD
  5
289
330
1
100
AcDbSymbolTableRecord
100
AcDbBlockTableRecord
  2
Dim10
340
0
 70
     0
280
     1
281
     0
  0
BLOCK_RECORD
  5
293
330
1
100
AcDbSymbolTableRecord
100
AcDbBlockTableRecord
  2
Dim11
340
0
 70
     0
280
     1
281
     0
  0
BLOCK_RECORD
  5
2D5
330
1
100
AcDbSymbolTableRecord
100
AcDbBlockTableRecord
  2
*G27
340
0
102
{BLKREFS
331
2D9
102
}
 70
     0
280
     1
281
     0
  0
BLOCK_RECORD
  5
2DA
330
1
100
AcDbSymbolTableRecord
100
AcDbBlockTableRecord
  2
*G28
340
0
102
{BLKREFS
331
2DF
102
}
 70
     0
280
     1
281
     0
  0
ENDTAB
  0
ENDSEC
  0
SECTION
  2
BLOCKS
  0
BLOCK
  5
20
330
1F
100
AcDbEntity
  8
0
100
AcDbBlockBegin
  2
*Model_Space
 70
     0
 10
0.0
 20
0.0
 30
0.0
  3
*Model_Space
  1
*Model_Space
  0
ENDBLK
  5
21
330
1F
100
AcDbEntity
  8
0
100
AcDbBlockEnd
  0
BLOCK
  5
1C
330
1B
100
AcDbEntity
 67
     1
  8
0
100
AcDbBlockBegin
  2
*Paper_Space
 70
     0
 10
0.0
 20
0.0
 30
0.0
  3
*Paper_Space
  1
*Paper_Space
  0
ENDBLK
  5
1D
330
1B
100
AcDbEntity
 67
     1
  8
0
100
AcDbBlockEnd
  0
BLOCK
  5
24
330
23
100
AcDbEntity
  8
0
100
AcDbBlockBegin
  2
*Paper_Space0
 70
     0
 10
0.0
 20
0.0
 30
0.0
  3
*Paper_Space0
  1
*Paper_Space0
  0
ENDBLK
  5
25
330
23
100
AcDbEntity
  8
0
100
AcDbBlockEnd
  0
BLOCK
  5
70
330
6D
100
AcDbEntity
  8
0
100
AcDbBlockBegin
  2
_ORIGIN
 70
     0
 10
0.0
 20
0.0
 30
0.0
  3
_ORIGIN
  1
_ORIGIN
  0
CIRCLE
  5
6E
330
6D
100
AcDbEntity
  8
0
 62
     0
100
AcDbCircle
 10
0.0
 20
0.0
 30
0.0
 40
0.5
  0
LINE
  5
6F
330
6D
100
AcDbEntity
  8
0
 62
     0
100
AcDbLine
 10
0.0
 20
0.0
 30
0.0
 11
-1.0
 21
0.0
 31
0.0
  0
ENDBLK
  5
71
330
6D
100
AcDbEntity
  8
0
100
AcDbBlockEnd
  0
BLOCK
  5
75
330
72
100
AcDbEntity
  8
0
100
AcDbBlockBegin
  2
_DOTBLANK
 70
     0
 10
0.0
 20
0.0
 30
0.0
  3
_DOTBLANK
  1
_DOTBLANK
  0
CIRCLE
  5
73
330
72
100
AcDbEntity
  8
0
 62
     0
100
AcDbCircle
 10
0.0
 20
0.0
 30
0.0
 40
0.5
  0
LINE
  5
74
330
72
100
AcDbEntity
  8
0
 62
     0
100
AcDbLine
 10
-0.5
 20
0.0
 30
0.0
 11
-1.0
 21
0.0
 31
0.0
  0
ENDBLK
  5
76
330
72
100
AcDbEntity
  8
0
100
AcDbBlockEnd
  0
BLOCK
  5
7A
330
77
100
AcDbEntity
  8
0
100
AcDbBlockBegin
  2
_DOT
 70
     0
 10
0.0
 20
0.0
 30
0.0
  3
_DOT
  1
_DOT
  0
LWPOLYLINE
  5
78
330
77
100
AcDbEntity
  8
0
 62
     0
100
AcDbPolyline
 90
        2
 70
     1
 43
0.5
 10
-0.25
 20
0.0
 42
1.0
 10
0.25
 20
0.0
 42
1.0
  0
LINE
  5
79
330
77
100
AcDbEntity
  8
0
 62
     0
100
AcDbLine
 10
-0.5
 20
0.0
 30
0.0
 11
-1.0
 21
0.0
 31
0.0
  0
ENDBLK
  5
7B
330
77
100
AcDbEntity
  8
0
100
AcDbBlockEnd
  0
BLOCK
  5
80
330
7C
100
AcDbEntity
  8
0
100
AcDbBlockBegin
  2
_OPEN
 70
     0
 10
0.0
 20
0.0
 30
0.0
  3
_OPEN
  1
_OPEN
  0
LINE
  5
7D
330
7C
100
AcDbEntity
  8
0
 62
     0
100
AcDbLine
 10
0.0
 20
0.0
 30
0.0
 11
-1.0
 21
0.1666666666666667
 31
0.0
  0
LINE
  5
7E
330
7C
100
AcDbEntity
  8
0
 62
     0
100
AcDbLine
 10
0.0
 20
0.0
 30
0.0
 11
-1.0
 21
-0.1666666666666667
 31
0.0
  0
LINE
  5
7F
330
7C
100
AcDbEntity
  8
0
 62
     0
100
AcDbLine
 10
0.0
 20
0.0
 30
0.0
 11
-1.0
 21
0.0
 31
0.0
  0
ENDBLK
  5
81
330
7C
100
AcDbEntity
  8
0
100
AcDbBlockEnd
  0
BLOCK
  5
87
330
82
100
AcDbEntity
  8
0
100
AcDbBlockBegin
  2
_CLOSED
 70
     0
 10
0.0
 20
0.0
 30
0.0
  3
_CLOSED
  1
_CLOSED
  0
LINE
  5
83
330
82
100
AcDbEntity
  8
0
 62
     0
100
AcDbLine
 10
0.0
 20
0.0
 30
0.0
 11
-1.0
 21
0.1666666666666667
 31
0.0
  0
LINE
  5
84
330
82
100
AcDbEntity
  8
0
 62
     0
100
AcDbLine
 10
0.0
 20
0.0
 30
0.0
 11
-1.0
 21
-0.1666666666666667
 31
0.0
  0
LINE
  5
85
330
82
100
AcDbEntity
  8
0
 62
     0
100
AcDbLine
 10
-1.0
 20
0.1666666666666667
 30
0.0
 11
-1.0
 21
-0.1666666666666667
 31
0.0
  0
LINE
  5
86
330
82
100
AcDbEntity
  8
0
 62
     0
100
AcDbLine
 10
0.0
 20
0.0
 30
0.0
 11
-1.0
 21
0.0
 31
0.0
  0
ENDBLK
  5
88
330
82
100
AcDbEntity
  8
0
100
AcDbBlockEnd
  0
BLOCK
  5
8D
330
89
100
AcDbEntity
  8
0
100
AcDbBlockBegin
  2
_CLOSEDBLANK
 70
     0
 10
0.0
 20
0.0
 30
0.0
  3
_CLOSEDBLANK
  1
_CLOSEDBLANK
  0
LINE
  5
8A
330
89
100
AcDbEntity
  8
0
 62
     0
100
AcDbLine
 10
0.0
 20
0.0
 30
0.0
 11
-1.0
 21
0.1666666666666667
 31
0.0
  0
LINE
  5
8B
330
89
100
AcDbEntity
  8
0
 62
     0
100
AcDbLine
 10
0.0
 20
0.0
 30
0.0
 11
-1.0
 21
-0.1666666666666667
 31
0.0
  0
LINE
  5
8C
330
89
100
AcDbEntity
  8
0
 62
     0
100
AcDbLine
 10
-1.0
 20
0.1666666666666667
 30
0.0
 11
-1.0
 21
-0.1666666666666667
 31
0.0
  0
ENDBLK
  5
8E
330
89
100
AcDbEntity
  8
0
100
AcDbBlockEnd
  0
BLOCK
  5
91
330
8F
100
AcDbEntity
  8
0
100
AcDbBlockBegin
  2
_ARROWFILLED
 70
     0
 10
0.0
 20
0.0
 30
0.0
  3
_ARROWFILLED
  1
_ARROWFILLED
  0
SOLID
  5
90
330
8F
100
AcDbEntity
  8
0
 62
     0
100
AcDbTrace
 10
0.0
 20
0.0
 30
0.0
 11
-1.0
 21
-0.1666666666666667
 31
0.0
 12
-1.0
 22
0.1666666666666667
 32
0.0
 13
0.0
 23
0.0
 33
0.0
  0
ENDBLK
  5
92
330
8F
100
AcDbEntity
  8
0
100
AcDbBlockEnd
  0
BLOCK
  5
99
330
93
100
AcDbEntity
  8
0
100
AcDbBlockBegin
  2
_BOXBLANK
 70
     0
 10
0.0
 20
0.0
 30
0.0
  3
_BOXBLANK
  1
_BOXBLANK
  0
LINE
  5
94
330
93
100
AcDbEntity
  8
0
 62
     0
100
AcDbLine
 10
-0.5
 20
-0.5
 30
0.0
 11
0.5
 21
-0.5
 31
0.0
  0
LINE
  5
95
330
93
100
AcDbEntity
  8
0
 62
     0
100
AcDbLine
 10
0.5
 20
-0.5
 30
0.0
 11
0.5
 21
0.5
 31
0.0
  0
LINE
  5
96
330
93
100
AcDbEntity
  8
0
 62
     0
100
AcDbLine
 10
0.5
 20
0.5
 30
0.0
 11
-0.5
 21
0.5
 31
0.0
  0
LINE
  5
97
330
93
100
AcDbEntity
  8
0
 62
     0
100
AcDbLine
 10
-0.5
 20
0.5
 30
0.0
 11
-0.5
 21
-0.5
 31
0.0
  0
LINE
  5
98
330
93
100
AcDbEntity
  8
0
 62
     0
100
AcDbLine
 10
-0.5
 20
0.0
 30
0.0
 11
-1.0
 21
0.0
 31
0.0
  0
ENDBLK
  5
9A
330
93
100
AcDbEntity
  8
0
100
AcDbBlockEnd
  0
BLOCK
  5
9E
330
9B
100
AcDbEntity
  8
0
100
AcDbBlockBegin
  2
_BOXFILLED
 70
     0
 10
0.0
 20
0.0
 30
0.0
  3
_BOXFILLED
  1
_BOXFILLED
  0
SOLID
  5
9C
330
9B
100
AcDbEntity
  8
0
 62
     0
100
AcDbTrace
 10
-0.5
 20
0.5
 30
0.0
 11
0.5
 21
0.5
 31
0.0
 12
-0.5
 22
-0.5
 32
0.0
 13
0.5
 23
-0.5
 33
0.0
  0
LINE
  5
9D
330
9B
100
AcDbEntity
  8
0
 62
     0
100
AcDbLine
 10
-0.5
 20
0.0
 30
0.0
 11
-1.0
 21
0.0
 31
0.0
  0
ENDBLK
  5
9F
330
9B
100
AcDbEntity
  8
0
100
AcDbBlockEnd
  0
BLOCK
  5
A3
330
A0
100
AcDbEntity
  8
0
100
AcDbBlockBegin
  2
_INTEGRAL
 70
     0
 10
0.0
 20
0.0
 30
0.0
  3
_INTEGRAL
  1
_INTEGRAL
  0
ARC
  5
A1
330
A0
100
AcDbEntity
  8
0
 62
     0
100
AcDbCircle
 10
0.444888
 20
-0.0913346
 30
0.0
 40
0.4541666
100
AcDbArc
 50
101.9999999999999
 51
167.9999999999998
  0
ARC
  5
A2
330
A0
100
AcDbEntity
  8
0
 62
     0
100
AcDbCircle
 10
-0.444888
 20
0.0913346
 30
0.0
 40
0.4541666
100
AcDbArc
 50
281.9999999999997
 51
347.9999999999997
  0
ENDBLK
  5
A4
330
A0
100
AcDbEntity
  8
0
100
AcDbBlockEnd
  0
BLOCK
  5
A7
330
A5
100
AcDbEntity
  8
0
100
AcDbBlockBegin
  2
_OBLIQUE
 70
     0
 10
0.0
 20
0.0
 30
0.0
  3
_OBLIQUE
  1
_OBLIQUE
  0
LINE
  5
A6
330
A5
100
AcDbEntity
  8
0
 62
     0
100
AcDbLine
 10
-0.5
 20
-0.5
 30
0.0
 11
0.5
 21
0.5
 31
0.0
  0
ENDBLK
  5
A8
330
A5
100
AcDbEntity
  8
0
100
AcDbBlockEnd
  0
BLOCK
  5
AA
330
A9
100
AcDbEntity
  8
0
100
AcDbBlockBegin
  2
_NONE
 70
     0
 10
0.0
 20
0.0
 30
0.0
  3
_NONE
  1
_NONE
  0
ENDBLK
  5
AB
330
A9
100
AcDbEntity
  8
0
100
AcDbBlockEnd
  0
BLOCK
  5
AF
330
AC
100
AcDbEntity
  8
0
100
AcDbBlockBegin
  2
MARK_OPEN
 70
     0
 10
0.0
 20
0.0
 30
0.0
  3
MARK_OPEN
  1
MARK_OPEN
  0
LINE
  5
AD
330
AC
100
AcDbEntity
  8
0
 62
     0
100
AcDbLine
 10
0.0
 20
0.0
 30
0.0
 11
-1.0
 21
0.1666666666666667
 31
0.0
  0
LINE
  5
AE
330
AC
100
AcDbEntity
  8
0
 62
     0
100
AcDbLine
 10
0.0
 20
0.0
 30
0.0
 11
-1.0
 21
-0.1666666666666667
 31
0.0
  0
ENDBLK
  5
B0
330
AC
100
AcDbEntity
  8
0
100
AcDbBlockEnd
  0
BLOCK
  5
B3
330
B1
100
AcDbEntity
  8
0
100
AcDbBlockBegin
  2
MARK_ORIGIN
 70
     0
 10
0.0
 20
0.0
 30
0.0
  3
MARK_ORIGIN
  1
MARK_ORIGIN
  0
CIRCLE
  5
B2
330
B1
100
AcDbEntity
  8
0
 62
     0
100
AcDbCircle
 10
0.0
 20
0.0
 30
0.0
 40
0.5
  0
ENDBLK
  5
B4
330
B1
100
AcDbEntity
  8
0
100
AcDbBlockEnd
  0
BLOCK
  5
B7
330
B5
100
AcDbEntity
  8
0
100
AcDbBlockBegin
  2
MARK_DOT
 70
     0
 10
0.0
 20
0.0
 30
0.0
  3
MARK_DOT
  1
MARK_DOT
  0
LWPOLYLINE
  5
B6
330
B5
100
AcDbEntity
  8
0
 62
     0
100
AcDbPolyline
 90
        2
 70
     1
 43
0.5
 10
-0.25
 20
0.0
 42
1.0
 10
0.25
 20
0.0
 42
1.0
  0
ENDBLK
  5
B8
330
B5
100
AcDbEntity
  8
0
100
AcDbBlockEnd
  0
BLOCK
  5
22D
330
22C
100
AcDbEntity
  8
0
100
AcDbBlockBegin
  2
Dim1
 70
     0
 10
0.0
 20
0.0
 30
0.0
  3
Dim1
  1
Dim1
  0
LINE
  5
22F
330
22C
100
AcDbEntity
  8
8
  6
Continuous
 62
     4
370
     9
100
AcDbLine
 10
301.1726000234485
 20
66.26048609877489
 30
0.0
 11
301.1726000234485
 21
39.67931906610602
 31
0.0
  0
LINE
  5
230
330
22C
100
AcDbEntity
  8
8
  6
Continuous
 62
     4
370
     9
100
AcDbLine
 10
346.1726000234485
 20
51.26048609877489
 30
0.0
 11
346.1726000234485
 21
39.67931906610602
 31
0.0
  0
LINE
  5
231
330
22C
100
AcDbEntity
  8
8
  6
Continuous
 62
     4
370
     9
100
AcDbLine
 10
301.1726000234485
 20
41.17931906610602
 30
0.0
 11
346.1726000234485
 21
41.17931906610602
 31
0.0
  0
MTEXT
  5
232
330
22C
100
AcDbEntity
  8
8
  6
Continuous
 62
     4
370
     9
100
AcDbMText
 10
323.6726000234485
 20
44.17931906610602
 30
0.0
 40
3.0
 41
24.28571428571428
 46
3.0
 71
     5
 72
     1
  1
45
  7
ＭＳ ゴシック
 73
     1
 44
1.0
1001
ACAD
1000
ACAD_MTEXT_DEFINED_HEIGHT_BEGIN
1070
    46
1040
3.0
1000
ACAD_MTEXT_DEFINED_HEIGHT_END
  0
INSERT
  5
233
330
22C
100
AcDbEntity
  8
8
  6
Continuous
 62
     4
370
     9
100
AcDbBlockReference
  2
_ARROWFILLED
 10
301.1726000234485
 20
41.17931906610602
 30
0.0
 41
2.0
 42
2.0
 43
2.0
 50
179.9999999999998
  0
INSERT
  5
234
330
22C
100
AcDbEntity
  8
8
  6
Continuous
 62
     4
370
     9
100
AcDbBlockReference
  2
_ARROWFILLED
 10
346.1726000234485
 20
41.17931906610602
 30
0.0
 41
2.0
 42
2.0
 43
2.0
 50
359.9999999999997
  0
ENDBLK
  5
22E
330
22C
100
AcDbEntity
  8
0
100
AcDbBlockEnd
  0
BLOCK
  5
237
330
236
100
AcDbEntity
  8
0
100
AcDbBlockBegin
  2
Dim2
 70
     0
 10
0.0
 20
0.0
 30
0.0
  3
Dim2
  1
Dim2
  0
LINE
  5
239
330
236
100
AcDbEntity
  8
8
  6
Continuous
 62
     4
370
     9
100
AcDbLine
 10
146.6565110027659
 20
58.26048609877444
 30
0.0
 11
146.6565110027659
 21
40.07001695905429
 31
0.0
  0
LINE
  5
23A
330
236
100
AcDbEntity
  8
8
  6
Continuous
 62
     4
370
     9
100
AcDbLine
 10
206.6565110027659
 20
58.26048609877444
 30
0.0
 11
206.6565110027659
 21
40.07001695905429
 31
0.0
  0
LINE
  5
23B
330
236
100
AcDbEntity
  8
8
  6
Continuous
 62
     4
370
     9
100
AcDbLine
 10
146.6565110027659
 20
41.57001695905429
 30
0.0
 11
175.1565110027659
 21
41.57001695905429
 31
0.0
  0
LINE
  5
23C
330
236
100
AcDbEntity
  8
8
  6
Continuous
 62
     4
370
     9
100
AcDbLine
 10
178.1565110027659
 20
41.57001695905429
 30
0.0
 11
206.6565110027659
 21
41.57001695905429
 31
0.0
  0
MTEXT
  5
23D
330
236
100
AcDbEntity
  8
8
  6
Continuous
 62
     4
370
     9
100
AcDbMText
 10
176.6565110027659
 20
41.57001695905429
 30
0.0
 40
3.0
 41
23.57142857142857
 46
3.0
 71
     5
 72
     1
  1
60
  7
ＭＳ ゴシック
 73
     1
 44
1.0
1001
ACAD
1000
ACAD_MTEXT_DEFINED_HEIGHT_BEGIN
1070
    46
1040
3.0
1000
ACAD_MTEXT_DEFINED_HEIGHT_END
  0
INSERT
  5
23E
330
236
100
AcDbEntity
  8
8
  6
Continuous
 62
     4
370
     9
100
AcDbBlockReference
  2
_ARROWFILLED
 10
146.6565110027659
 20
41.57001695905429
 30
0.0
 41
2.0
 42
2.0
 43
2.0
 50
179.9999999999998
  0
INSERT
  5
23F
330
236
100
AcDbEntity
  8
8
  6
Continuous
 62
     4
370
     9
100
AcDbBlockReference
  2
_ARROWFILLED
 10
206.6565110027659
 20
41.57001695905429
 30
0.0
 41
2.0
 42
2.0
 43
2.0
 50
359.9999999999997
  0
ENDBLK
  5
238
330
236
100
AcDbEntity
  8
0
100
AcDbBlockEnd
  0
BLOCK
  5
242
330
241
100
AcDbEntity
  8
0
100
AcDbBlockBegin
  2
Dim3
 70
     0
 10
0.0
 20
0.0
 30
0.0
  3
Dim3
  1
Dim3
  0
LINE
  5
244
330
241
100
AcDbEntity
  8
8
  6
Continuous
 62
     4
370
     9
100
AcDbLine
 10
126.6565110027659
 20
81.26048609877444
 30
0.0
 11
126.6565110027658
 21
32.74620692661843
 31
0.0
  0
LINE
  5
245
330
241
100
AcDbEntity
  8
8
  6
Continuous
 62
     4
370
     9
100
AcDbLine
 10
226.6565110027659
 20
81.26048609877444
 30
0.0
 11
226.6565110027658
 21
32.74620692661843
 31
0.0
  0
LINE
  5
246
330
241
100
AcDbEntity
  8
8
  6
Continuous
 62
     4
370
     9
100
AcDbLine
 10
126.6565110027658
 20
34.24620692661843
 30
0.0
 11
174.4065110027659
 21
34.24620692661843
 31
0.0
  0
LINE
  5
247
330
241
100
AcDbEntity
  8
8
  6
Continuous
 62
     4
370
     9
100
AcDbLine
 10
178.9065110027659
 20
34.24620692661843
 30
0.0
 11
226.6565110027658
 21
34.24620692661843
 31
0.0
  0
MTEXT
  5
248
330
241
100
AcDbEntity
  8
8
  6
Continuous
 62
     4
370
     9
100
AcDbMText
 10
176.6565110027659
 20
34.24620692661843
 30
0.0
 40
3.0
 41
36.42857142857143
 46
3.0
 71
     5
 72
     1
  1
100
  7
ＭＳ ゴシック
 73
     1
 44
1.0
1001
ACAD
1000
ACAD_MTEXT_DEFINED_HEIGHT_BEGIN
1070
    46
1040
3.0
1000
ACAD_MTEXT_DEFINED_HEIGHT_END
  0
INSERT
  5
249
330
241
100
AcDbEntity
  8
8
  6
Continuous
 62
     4
370
     9
100
AcDbBlockReference
  2
_ARROWFILLED
 10
126.6565110027658
 20
34.24620692661843
 30
0.0
 41
2.0
 42
2.0
 43
2.0
 50
179.9999999999998
  0
INSERT
  5
24A
330
241
100
AcDbEntity
  8
8
  6
Continuous
 62
     4
370
     9
100
AcDbBlockReference
  2
_ARROWFILLED
 10
226.6565110027658
 20
34.24620692661843
 30
0.0
 41
2.0
 42
2.0
 43
2.0
 50
359.9999999999997
  0
ENDBLK
  5
243
330
241
100
AcDbEntity
  8
0
100
AcDbBlockEnd
  0
BLOCK
  5
24D
330
24C
100
AcDbEntity
  8
0
100
AcDbBlockBegin
  2
Dim4
 70
     0
 10
0.0
 20
0.0
 30
0.0
  3
Dim4
  1
Dim4
  0
LINE
  5
24F
330
24C
100
AcDbEntity
  8
8
  6
Continuous
 62
     4
370
     9
100
AcDbLine
 10
111.6565110027659
 20
66.26048609877398
 30
0.0
 11
111.6565110027658
 21
25.48371861845635
 31
0.0
  0
LINE
  5
250
330
24C
100
AcDbEntity
  8
8
  6
Continuous
 62
     4
370
     9
100
AcDbLine
 10
241.6565110027659
 20
66.26048609877489
 30
0.0
 11
241.6565110027659
 21
25.48371861845635
 31
0.0
  0
LINE
  5
251
330
24C
100
AcDbEntity
  8
8
  6
Continuous
 62
     4
370
     9
100
AcDbLine
 10
111.6565110027658
 20
26.98371861845635
 30
0.0
 11
241.6565110027659
 21
26.98371861845635
 31
0.0
  0
MTEXT
  5
252
330
24C
100
AcDbEntity
  8
8
  6
Continuous
 62
     4
370
     9
100
AcDbMText
 10
176.6565110027659
 20
29.98371861845635
 30
0.0
 40
3.0
 41
36.42857142857143
 46
3.0
 71
     5
 72
     1
  1
130
  7
ＭＳ ゴシック
 73
     1
 44
1.0
1001
ACAD
1000
ACAD_MTEXT_DEFINED_HEIGHT_BEGIN
1070
    46
1040
3.0
1000
ACAD_MTEXT_DEFINED_HEIGHT_END
  0
INSERT
  5
253
330
24C
100
AcDbEntity
  8
8
  6
Continuous
 62
     4
370
     9
100
AcDbBlockReference
  2
_ARROWFILLED
 10
111.6565110027658
 20
26.98371861845635
 30
0.0
 41
2.0
 42
2.0
 43
2.0
 50
179.9999999999998
  0
INSERT
  5
254
330
24C
100
AcDbEntity
  8
8
  6
Continuous
 62
     4
370
     9
100
AcDbBlockReference
  2
_ARROWFILLED
 10
241.6565110027659
 20
26.98371861845635
 30
0.0
 41
2.0
 42
2.0
 43
2.0
 50
359.9999999999997
  0
ENDBLK
  5
24E
330
24C
100
AcDbEntity
  8
0
100
AcDbBlockEnd
  0
BLOCK
  5
257
330
256
100
AcDbEntity
  8
0
100
AcDbBlockBegin
  2
Dim5
 70
     0
 10
0.0
 20
0.0
 30
0.0
  3
Dim5
  1
Dim5
  0
LINE
  5
259
330
256
100
AcDbEntity
  8
8
  6
Continuous
 62
     4
370
     9
100
AcDbLine
 10
227.6565110027659
 20
182.2604860987744
 30
0.0
 11
254.8009762986003
 21
182.2604860987743
 31
0.0
  0
LINE
  5
25A
330
256
100
AcDbEntity
  8
8
  6
Continuous
 62
     4
370
     9
100
AcDbLine
 10
227.6565110027659
 20
82.26048609877444
 30
0.0
 11
254.8009762986003
 21
82.26048609877435
 31
0.0
  0
LINE
  5
25B
330
256
100
AcDbEntity
  8
8
  6
Continuous
 62
     4
370
     9
100
AcDbLine
 10
253.3009762986003
 20
182.2604860987743
 30
0.0
 11
253.3009762986003
 21
82.26048609877435
 31
0.0
  0
MTEXT
  5
25C
330
256
100
AcDbEntity
  8
8
  6
Continuous
 62
     4
370
     9
100
AcDbMText
 10
250.3009762986003
 20
132.2604860987744
 30
0.0
 40
3.0
 41
36.42857142857143
 46
3.0
 71
     5
 72
     1
  1
100
  7
ＭＳ ゴシック
 11
1.615544574432587E-15
 21
1.0
 31
0.0
 73
     1
 44
1.0
1001
ACAD
1000
ACAD_MTEXT_DEFINED_HEIGHT_BEGIN
1070
    46
1040
3.0
1000
ACAD_MTEXT_DEFINED_HEIGHT_END
  0
INSERT
  5
25D
330
256
100
AcDbEntity
  8
8
  6
Continuous
 62
     4
370
     9
100
AcDbBlockReference
  2
_ARROWFILLED
 10
253.3009762986003
 20
182.2604860987743
 30
0.0
 41
2.0
 42
2.0
 43
2.0
 50
89.99999999999991
  0
INSERT
  5
25E
330
256
100
AcDbEntity
  8
8
  6
Continuous
 62
     4
370
     9
100
AcDbBlockReference
  2
_ARROWFILLED
 10
253.3009762986003
 20
82.26048609877435
 30
0.0
 41
2.0
 42
2.0
 43
2.0
 50
269.9999999999998
  0
ENDBLK
  5
258
330
256
100
AcDbEntity
  8
0
100
AcDbBlockEnd
  0
BLOCK
  5
261
330
260
100
AcDbEntity
  8
0
100
AcDbBlockBegin
  2
Dim6
 70
     0
 10
0.0
 20
0.0
 30
0.0
  3
Dim6
  1
Dim6
  0
LINE
  5
263
330
260
100
AcDbEntity
  8
8
  6
Continuous
 62
     4
370
     9
100
AcDbLine
 10
242.6565110027659
 20
197.2604860987744
 30
0.0
 11
263.9568394975468
 21
197.2604860987744
 31
0.0
  0
LINE
  5
264
330
260
100
AcDbEntity
  8
8
  6
Continuous
 62
     4
370
     9
100
AcDbLine
 10
242.6565110027659
 20
67.26048609877489
 30
0.0
 11
263.9568394975468
 21
67.26048609877482
 31
0.0
  0
LINE
  5
265
330
260
100
AcDbEntity
  8
8
  6
Continuous
 62
     4
370
     9
100
AcDbLine
 10
262.4568394975468
 20
197.2604860987744
 30
0.0
 11
262.4568394975468
 21
67.26048609877482
 31
0.0
  0
MTEXT
  5
266
330
260
100
AcDbEntity
  8
8
  6
Continuous
 62
     4
370
     9
100
AcDbMText
 10
259.4568394975468
 20
132.2604860987747
 30
0.0
 40
3.0
 41
36.42857142857143
 46
3.0
 71
     5
 72
     1
  1
130
  7
ＭＳ ゴシック
 11
1.615544574432587E-15
 21
1.0
 31
0.0
 73
     1
 44
1.0
1001
ACAD
1000
ACAD_MTEXT_DEFINED_HEIGHT_BEGIN
1070
    46
1040
3.0
1000
ACAD_MTEXT_DEFINED_HEIGHT_END
  0
INSERT
  5
267
330
260
100
AcDbEntity
  8
8
  6
Continuous
 62
     4
370
     9
100
AcDbBlockReference
  2
_ARROWFILLED
 10
262.4568394975468
 20
197.2604860987744
 30
0.0
 41
2.0
 42
2.0
 43
2.0
 50
89.99999999999991
  0
INSERT
  5
268
330
260
100
AcDbEntity
  8
8
  6
Continuous
 62
     4
370
     9
100
AcDbBlockReference
  2
_ARROWFILLED
 10
262.4568394975468
 20
67.26048609877482
 30
0.0
 41
2.0
 42
2.0
 43
2.0
 50
269.9999999999998
  0
ENDBLK
  5
262
330
260
100
AcDbEntity
  8
0
100
AcDbBlockEnd
  0
BLOCK
  5
26B
330
26A
100
AcDbEntity
  8
0
100
AcDbBlockBegin
  2
Dim7
 70
     0
 10
0.0
 20
0.0
 30
0.0
  3
Dim7
  1
Dim7
  0
LINE
  5
26D
330
26A
100
AcDbEntity
  8
8
  6
Continuous
 62
     4
370
     9
100
AcDbLine
 10
207.6565110027659
 20
205.2604860987744
 30
0.0
 11
272.1991757773394
 21
205.2604860987742
 31
0.0
  0
LINE
  5
26E
330
26A
100
AcDbEntity
  8
8
  6
Continuous
 62
     4
370
     9
100
AcDbLine
 10
207.6565110027659
 20
59.26048609877444
 30
0.0
 11
272.1991757773394
 21
59.26048609877423
 31
0.0
  0
LINE
  5
26F
330
26A
100
AcDbEntity
  8
8
  6
Continuous
 62
     4
370
     9
100
AcDbLine
 10
270.6991757773394
 20
205.2604860987742
 30
0.0
 11
270.6991757773394
 21
59.26048609877424
 31
0.0
  0
MTEXT
  5
270
330
26A
100
AcDbEntity
  8
8
  6
Continuous
 62
     4
370
     9
100
AcDbMText
 10
267.6991757773394
 20
132.2604860987744
 30
0.0
 40
3.0
 41
36.42857142857143
 46
3.0
 71
     5
 72
     1
  1
146
  7
ＭＳ ゴシック
 11
1.615544574432587E-15
 21
1.0
 31
0.0
 73
     1
 44
1.0
1001
ACAD
1000
ACAD_MTEXT_DEFINED_HEIGHT_BEGIN
1070
    46
1040
3.0
1000
ACAD_MTEXT_DEFINED_HEIGHT_END
  0
INSERT
  5
271
330
26A
100
AcDbEntity
  8
8
  6
Continuous
 62
     4
370
     9
100
AcDbBlockReference
  2
_ARROWFILLED
 10
270.6991757773394
 20
205.2604860987742
 30
0.0
 41
2.0
 42
2.0
 43
2.0
 50
89.99999999999991
  0
INSERT
  5
272
330
26A
100
AcDbEntity
  8
8
  6
Continuous
 62
     4
370
     9
100
AcDbBlockReference
  2
_ARROWFILLED
 10
270.6991757773394
 20
59.26048609877424
 30
0.0
 41
2.0
 42
2.0
 43
2.0
 50
269.9999999999998
  0
ENDBLK
  5
26C
330
26A
100
AcDbEntity
  8
0
100
AcDbBlockEnd
  0
BLOCK
  5
275
330
274
100
AcDbEntity
  8
0
100
AcDbBlockBegin
  2
Dim8
 70
     0
 10
0.0
 20
0.0
 30
0.0
  3
Dim8
  1
Dim8
  0
LINE
  5
277
330
274
100
AcDbEntity
  8
8
  6
Continuous
 62
     4
370
     9
100
AcDbLine
 10
222.6565110027668
 20
212.2604860987744
 30
0.0
 11
280.3156436426543
 21
212.2604860987742
 31
0.0
  0
LINE
  5
278
330
274
100
AcDbEntity
  8
8
  6
Continuous
 62
     4
370
     9
100
AcDbLine
 10
222.6565110027668
 20
52.26048609877444
 30
0.0
 11
280.3156436426543
 21
52.26048609877425
 31
0.0
  0
LINE
  5
279
330
274
100
AcDbEntity
  8
8
  6
Continuous
 62
     4
370
     9
100
AcDbLine
 10
278.8156436426543
 20
212.2604860987742
 30
0.0
 11
278.8156436426543
 21
52.26048609877426
 31
0.0
  0
MTEXT
  5
27A
330
274
100
AcDbEntity
  8
8
  6
Continuous
 62
     4
370
     9
100
AcDbMText
 10
275.8156436426543
 20
132.2604860987744
 30
0.0
 40
3.0
 41
36.42857142857143
 46
3.0
 71
     5
 72
     1
  1
160
  7
ＭＳ ゴシック
 11
1.615544574432587E-15
 21
1.0
 31
0.0
 73
     1
 44
1.0
1001
ACAD
1000
ACAD_MTEXT_DEFINED_HEIGHT_BEGIN
1070
    46
1040
3.0
1000
ACAD_MTEXT_DEFINED_HEIGHT_END
  0
INSERT
  5
27B
330
274
100
AcDbEntity
  8
8
  6
Continuous
 62
     4
370
     9
100
AcDbBlockReference
  2
_ARROWFILLED
 10
278.8156436426543
 20
212.2604860987742
 30
0.0
 41
2.0
 42
2.0
 43
2.0
 50
89.99999999999991
  0
INSERT
  5
27C
330
274
100
AcDbEntity
  8
8
  6
Continuous
 62
     4
370
     9
100
AcDbBlockReference
  2
_ARROWFILLED
 10
278.8156436426543
 20
52.26048609877426
 30
0.0
 41
2.0
 42
2.0
 43
2.0
 50
269.9999999999998
  0
ENDBLK
  5
276
330
274
100
AcDbEntity
  8
0
100
AcDbBlockEnd
  0
BLOCK
  5
27F
330
27E
100
AcDbEntity
  8
0
100
AcDbBlockBegin
  2
Dim9
 70
     0
 10
0.0
 20
0.0
 30
0.0
  3
Dim9
  1
Dim9
  0
LINE
  5
281
330
27E
100
AcDbEntity
  8
8
  6
Continuous
 62
     4
370
     9
100
AcDbLine
 10
346.1726000234485
 20
213.2604860987744
 30
0.0
 11
346.1726000234485
 21
226.6709274787031
 31
0.0
  0
LINE
  5
282
330
27E
100
AcDbEntity
  8
8
  6
Continuous
 62
     4
370
     9
100
AcDbLine
 10
325.6726000234485
 20
203.3604860987739
 30
0.0
 11
325.6726000234486
 21
226.6709274787031
 31
0.0
  0
LINE
  5
283
330
27E
100
AcDbEntity
  8
8
  6
Continuous
 62
     4
370
     9
100
AcDbLine
 10
350.9226000234485
 20
225.1709274787031
 30
0.0
 11
325.6726000234486
 21
225.1709274787031
 31
0.0
  0
MTEXT
  5
284
330
27E
100
AcDbEntity
  8
8
  6
Continuous
 62
     4
370
     9
100
AcDbMText
 10
350.9226000234485
 20
225.170927478703
 30
0.0
 40
3.0
 41
64.28571428571429
 46
3.0
 71
     4
 72
     1
  1
(20.5)
  7
ＭＳ ゴシック
 73
     1
 44
1.0
1001
ACAD
1000
ACAD_MTEXT_DEFINED_HEIGHT_BEGIN
1070
    46
1040
3.0
1000
ACAD_MTEXT_DEFINED_HEIGHT_END
  0
INSERT
  5
285
330
27E
100
AcDbEntity
  8
8
  6
Continuous
 62
     4
370
     9
100
AcDbBlockReference
  2
_ARROWFILLED
 10
346.1726000234485
 20
225.1709274787031
 30
0.0
 41
2.0
 42
2.0
 43
2.0
 50
359.9999999999997
  0
INSERT
  5
286
330
27E
100
AcDbEntity
  8
8
  6
Continuous
 62
     4
370
     9
100
AcDbBlockReference
  2
_ARROWFILLED
 10
325.6726000234486
 20
225.1709274787031
 30
0.0
 41
2.0
 42
2.0
 43
2.0
 50
179.9999999999998
  0
ENDBLK
  5
280
330
27E
100
AcDbEntity
  8
0
100
AcDbBlockEnd
  0
BLOCK
  5
28A
330
289
100
AcDbEntity
  8
0
100
AcDbBlockBegin
  2
Dim10
 70
     0
 10
0.0
 20
0.0
 30
0.0
  3
Dim10
  1
Dim10
  0
LINE
  5
28C
330
289
100
AcDbEntity
  8
8
  6
Continuous
 62
     4
370
     9
100
AcDbLine
 10
336.1726000234485
 20
215.2604860987744
 30
0.0
 11
360.6647529196562
 21
215.2604860987743
 31
0.0
  0
LINE
  5
28D
330
289
100
AcDbEntity
  8
8
  6
Continuous
 62
     4
370
     9
100
AcDbLine
 10
347.1726000234485
 20
212.2604860987744
 30
0.0
 11
360.6647529196562
 21
212.2604860987744
 31
0.0
  0
LINE
  5
28E
330
289
100
AcDbEntity
  8
8
  6
Continuous
 62
     4
370
     9
100
AcDbLine
 10
359.1647529196562
 20
219.2604860987743
 30
0.0
 11
359.1647529196562
 21
206.5104860987744
 31
0.0
  0
MTEXT
  5
28F
330
289
100
AcDbEntity
  8
8
  6
Continuous
 62
     4
370
     9
100
AcDbMText
 10
359.1647529196562
 20
204.2604860987744
 30
0.0
 40
3.0
 41
28.57142857142857
 46
3.0
 71
     5
 72
     1
  1
(3)
  7
ＭＳ ゴシック
 11
1.615544574432587E-15
 21
1.0
 31
0.0
 73
     1
 44
1.0
1001
ACAD
1000
ACAD_MTEXT_DEFINED_HEIGHT_BEGIN
1070
    46
1040
3.0
1000
ACAD_MTEXT_DEFINED_HEIGHT_END
  0
INSERT
  5
290
330
289
100
AcDbEntity
  8
8
  6
Continuous
 62
     4
370
     9
100
AcDbBlockReference
  2
_ARROWFILLED
 10
359.1647529196562
 20
215.2604860987743
 30
0.0
 41
2.0
 42
2.0
 43
2.0
 50
269.9999999999998
  0
INSERT
  5
291
330
289
100
AcDbEntity
  8
8
  6
Continuous
 62
     4
370
     9
100
AcDbBlockReference
  2
_ARROWFILLED
 10
359.1647529196562
 20
212.2604860987744
 30
0.0
 41
2.0
 42
2.0
 43
2.0
 50
89.99999999999959
  0
ENDBLK
  5
28B
330
289
100
AcDbEntity
  8
0
100
AcDbBlockEnd
  0
BLOCK
  5
294
330
293
100
AcDbEntity
  8
0
100
AcDbBlockBegin
  2
Dim11
 70
     0
 10
0.0
 20
0.0
 30
0.0
  3
Dim11
  1
Dim11
  0
LINE
  5
296
330
293
100
AcDbEntity
  8
8
  6
Continuous
 62
     4
370
     9
100
AcDbLine
 10
346.1726000234485
 20
51.26048609877489
 30
0.0
 11
346.1726000234485
 21
45.68527332283998
 31
0.0
  0
LINE
  5
297
330
293
100
AcDbEntity
  8
8
  6
Continuous
 62
     4
370
     9
100
AcDbLine
 10
345.1726000234485
 20
51.26048609877489
 30
0.0
 11
345.1726000234485
 21
45.68527332283998
 31
0.0
  0
LINE
  5
298
330
293
100
AcDbEntity
  8
8
  6
Continuous
 62
     4
370
     9
100
AcDbLine
 10
350.1726000234485
 20
47.18527332283998
 30
0.0
 11
340.4226000234485
 21
47.18527332283998
 31
0.0
  0
MTEXT
  5
299
330
293
100
AcDbEntity
  8
8
  6
Continuous
 62
     4
370
     9
100
AcDbMText
 10
339.6726000234485
 20
47.18527332283998
 30
0.0
 40
3.0
 41
3.571428571428572
 46
3.0
 71
     5
 72
     1
  1
1
  7
ＭＳ ゴシック
 73
     1
 44
1.0
1001
ACAD
1000
ACAD_MTEXT_DEFINED_HEIGHT_BEGIN
1070
    46
1040
3.0
1000
ACAD_MTEXT_DEFINED_HEIGHT_END
  0
INSERT
  5
29A
330
293
100
AcDbEntity
  8
8
  6
Continuous
 62
     4
370
     9
100
AcDbBlockReference
  2
_ARROWFILLED
 10
346.1726000234485
 20
47.18527332283998
 30
0.0
 41
2.0
 42
2.0
 43
2.0
 50
179.9999999999995
  0
INSERT
  5
29B
330
293
100
AcDbEntity
  8
8
  6
Continuous
 62
     4
370
     9
100
AcDbBlockReference
  2
_ARROWFILLED
 10
345.1726000234485
 20
47.18527332283998
 30
0.0
 41
2.0
 42
2.0
 43
2.0
 50
359.9999999999997
  0
ENDBLK
  5
295
330
293
100
AcDbEntity
  8
0
100
AcDbBlockEnd
  0
BLOCK
  5
2D6
330
2D5
100
AcDbEntity
  8
0
100
AcDbBlockBegin
  2
*G27
 70
     1
 10
0.0
 20
0.0
 30
0.0
  3
*G27
  1
*G27
  0
MTEXT
  5
2D8
330
2D5
100
AcDbEntity
  8
2
  6
Continuous
 62
   151
370
     9
100
AcDbMText
 10
58.20882960237683
 20
44.84624285206273
 30
0.0
 40
1.399986
 41
2.956924091607389
 46
1.399986
 71
     4
 72
     1
  1
{\fＭＳ ゴシック;\T0.769362;1 +}
 73
     1
 44
1.0
1001
ACAD
1000
ACAD_MTEXT_DEFINED_HEIGHT_BEGIN
1070
    46
1040
1.399986
1000
ACAD_MTEXT_DEFINED_HEIGHT_END
  0
ENDBLK
  5
2D7
330
2D5
100
AcDbEntity
  8
0
100
AcDbBlockEnd
  0
BLOCK
  5
2DB
330
2DA
100
AcDbEntity
  8
0
100
AcDbBlockBegin
  2
*G28
 70
     1
 10
0.0
 20
0.0
 30
0.0
  3
*G28
  1
*G28
  0
MTEXT
  5
2DD
330
2DA
100
AcDbEntity
  8
2
  6
Continuous
 62
   151
370
     9
100
AcDbMText
 10
58.21782628384381
 20
42.74997998170386
 30
0.0
 40
1.399986
 41
3.997579523805
 46
1.399986
 71
     4
 72
     1
  1
{\fＭＳ ゴシック;\T0.750000;2 NC}
 73
     1
 44
1.0
1001
ACAD
1000
ACAD_MTEXT_DEFINED_HEIGHT_BEGIN
1070
    46
1040
1.399986
1000
ACAD_MTEXT_DEFINED_HEIGHT_END
  0
MTEXT
  5
2DE
330
2DA
100
AcDbEntity
  8
2
  6
Continuous
 62
   151
370
     9
100
AcDbMText
 10
58.21782628384381
 20
40.41666531503719
 30
0.0
 40
1.399986
 41
3.038130618389999
 46
1.399986
 71
     4
 72
     1
  1
{\fＭＳ ゴシック;\T0.750000;3 -}
 73
     1
 44
1.0
1001
ACAD
1000
ACAD_MTEXT_DEFINED_HEIGHT_BEGIN
1070
    46
1040
1.399986
1000
ACAD_MTEXT_DEFINED_HEIGHT_END
  0
ENDBLK
  5
2DC
330
2DA
100
AcDbEntity
  8
0
100
AcDbBlockEnd
  0
ENDSEC
  0
SECTION
  2
ENTITIES
  0
LINE
  5
CB
330
1F
100
AcDbEntity
  8
6
  6
Continuous
 62
     6
370
     9
100
AcDbLine
 10
20.00000899999986
 20
35.00000000000011
 30
0.0
 11
92.00000899999986
 21
35.00000000000011
 31
0.0
  0
LINE
  5
CC
330
1F
100
AcDbEntity
  8
6
  6
Continuous
 62
     6
370
     9
100
AcDbLine
 10
20.00000899999986
 20
29.99998999999991
 30
0.0
 11
92.00000899999986
 21
29.99998999999991
 31
0.0
  0
LINE
  5
CD
330
1F
100
AcDbEntity
  8
6
  6
Continuous
 62
     6
370
     9
100
AcDbLine
 10
20.00000899999986
 20
25.00000000000011
 30
0.0
 11
92.00000899999986
 21
25.00000000000011
 31
0.0
  0
LINE
  5
CE
330
1F
100
AcDbEntity
  8
6
  6
Continuous
 62
     6
370
     9
100
AcDbLine
 10
20.00000899999986
 20
20.00000000000011
 30
0.0
 11
92.00000899999986
 21
20.00000000000011
 31
0.0
  0
LINE
  5
CF
330
1F
100
AcDbEntity
  8
6
  6
Continuous
 62
     6
370
     9
100
AcDbLine
 10
64.00000899999986
 20
35.00000000000011
 30
0.0
 11
64.00000899999986
 21
20.00000000000011
 31
0.0
  0
LINE
  5
D0
330
1F
100
AcDbEntity
  8
6
  6
Continuous
 62
     6
370
     9
100
AcDbLine
 10
64.00000899999986
 20
35.00000000000011
 30
0.0
 11
64.00000899999986
 21
20.00000000000011
 31
0.0
  0
LINE
  5
D1
330
1F
100
AcDbEntity
  8
6
  6
Continuous
 62
     6
370
     9
100
AcDbLine
 10
40.00001899999984
 20
35.00000000000011
 30
0.0
 11
40.00001899999984
 21
20.00000000000011
 31
0.0
  0
LINE
  5
D2
330
1F
100
AcDbEntity
  8
6
  6
Continuous
 62
     6
370
     9
100
AcDbLine
 10
20.00000899999986
 20
35.00000000000011
 30
0.0
 11
20.00000899999986
 21
20.00000000000011
 31
0.0
  0
LINE
  5
D3
330
1F
100
AcDbEntity
  8
6
  6
Continuous
 62
     6
370
     9
100
AcDbLine
 10
20.00000899999986
 20
35.00000000000011
 30
0.0
 11
40.00001899999984
 21
29.99998999999991
 31
0.0
  0
LINE
  5
D4
330
1F
100
AcDbEntity
  8
6
  6
Continuous
 62
     6
370
     9
100
AcDbLine
 10
92.00000899999986
 20
35.00000000000011
 30
0.0
 11
92.00000899999986
 21
20.00000000000011
 31
0.0
  0
MTEXT
  5
D5
330
1F
100
AcDbEntity
  8
2
  6
Continuous
 62
   151
370
     9
100
AcDbMText
 10
20.00006646154907
 20
52.2210789764506
 30
0.0
 40
2.6
 41
57.44283837601399
 46
2.6
 71
     4
 72
     1
  1
{\fＭＳ ゴシック;\T1.223389;Details of Connector}
 73
     1
 44
1.0
1001
ACAD
1000
ACAD_MTEXT_DEFINED_HEIGHT_BEGIN
1070
    46
1040
2.6
1000
ACAD_MTEXT_DEFINED_HEIGHT_END
  0
LINE
  5
D6
330
1F
100
AcDbEntity
  8
5
  6
Continuous
 62
     1
370
    25
100
AcDbLine
 10
30.32643542240839
 20
41.66498177104802
 30
0.0
 11
20.00002623846467
 21
41.66498169578551
 31
0.0
  0
LINE
  5
D7
330
1F
100
AcDbEntity
  8
5
  6
Continuous
 62
     1
370
    25
100
AcDbLine
 10
50.03320252687217
 20
43.16997148170401
 30
0.0
 11
50.03320252687217
 21
44.00997848170425
 31
0.0
  0
LINE
  5
D8
330
1F
100
AcDbEntity
  8
5
  6
Continuous
 62
     1
370
    25
100
AcDbLine
 10
56.12319972687283
 20
39.77497148170426
 30
0.0
 11
56.12319972687283
 21
45.72498548170427
 31
0.0
  0
LINE
  5
D9
330
1F
100
AcDbEntity
  8
5
  6
Continuous
 62
     1
370
    25
100
AcDbLine
 10
55.77319832687272
 20
45.72498548170427
 30
0.0
 11
55.77319832687272
 21
39.77497148170426
 31
0.0
  0
LINE
  5
DA
330
1F
100
AcDbEntity
  8
5
  6
Continuous
 62
     1
370
    25
100
AcDbLine
 10
55.42320602687278
 20
45.51497148170426
 30
0.0
 11
55.42320602687278
 21
39.9849854817038
 31
0.0
  0
LINE
  5
DB
330
1F
100
AcDbEntity
  8
5
  6
Continuous
 62
     1
370
    25
100
AcDbLine
 10
51.57319342687288
 20
45.51497148170426
 30
0.0
 11
51.57319342687288
 21
39.9849854817038
 31
0.0
  0
LINE
  5
DC
330
1F
100
AcDbEntity
  8
5
  6
Continuous
 62
     1
370
    25
100
AcDbLine
 10
49.82319622687237
 20
43.93996448170435
 30
0.0
 11
49.82319622687237
 21
41.55998548170408
 31
0.0
  0
LINE
  5
DD
330
1F
100
AcDbEntity
  8
5
  6
Continuous
 62
     1
370
    25
100
AcDbLine
 10
53.84820112687294
 20
43.44997498170403
 30
0.0
 11
53.84820112687294
 21
42.04998198170404
 31
0.0
  0
LINE
  5
DE
330
1F
100
AcDbEntity
  8
5
  6
Continuous
 62
     1
370
    25
100
AcDbLine
 10
54.54820322687237
 20
42.04998198170404
 30
0.0
 11
54.54820322687237
 21
43.44997498170403
 31
0.0
  0
LINE
  5
DF
330
1F
100
AcDbEntity
  8
5
  6
Continuous
 62
     1
370
    25
100
AcDbLine
 10
51.78319902687281
 20
45.72498548170427
 30
0.0
 11
55.21320042687285
 21
45.72498548170427
 31
0.0
  0
LINE
  5
E0
330
1F
100
AcDbEntity
  8
5
  6
Continuous
 62
     1
370
    25
100
AcDbLine
 10
51.57320182687272
 20
46.0749854817044
 30
0.0
 11
55.42319762687248
 21
46.0749854817044
 31
0.0
  0
LINE
  5
E1
330
1F
100
AcDbEntity
  8
5
  6
Continuous
 62
     1
370
    25
100
AcDbLine
 10
55.42320602687278
 20
46.42497148170412
 30
0.0
 11
51.57319342687288
 21
46.42497148170412
 31
0.0
  0
LINE
  5
E2
330
1F
100
AcDbEntity
  8
5
  6
Continuous
 62
     1
370
    25
100
AcDbLine
 10
53.14820742687289
 20
45.02494698170437
 30
0.0
 11
52.44820042687252
 21
45.02494698170437
 31
0.0
  0
LINE
  5
E3
330
1F
100
AcDbEntity
  8
5
  6
Continuous
 62
     1
370
    25
100
AcDbLine
 10
52.44820042687252
 20
43.97493998170455
 30
0.0
 11
53.14820742687289
 21
43.97493998170455
 31
0.0
  0
LINE
  5
E4
330
1F
100
AcDbEntity
  8
5
  6
Continuous
 62
     1
370
    25
100
AcDbLine
 10
54.54820322687237
 20
43.44997498170403
 30
0.0
 11
53.84820112687294
 21
43.44997498170403
 31
0.0
  0
ARC
  5
E5
330
1F
100
AcDbEntity
  8
5
  6
Continuous
 62
     1
370
    25
100
AcDbCircle
 10
55.42320602687278
 20
45.72498548170427
 30
0.0
 40
0.7000000000000028
100
AcDbArc
 50
0.0
 51
89.99999999999991
  0
ARC
  5
E6
330
1F
100
AcDbEntity
  8
5
  6
Continuous
 62
     1
370
    25
100
AcDbCircle
 10
55.21320042687285
 20
45.51497148170426
 30
0.0
 40
0.2100000000000009
100
AcDbArc
 50
0.0
 51
89.99999999999991
  0
ARC
  5
E7
330
1F
100
AcDbEntity
  8
5
  6
Continuous
 62
     1
370
    25
100
AcDbCircle
 10
55.42319762687248
 20
45.72498548170427
 30
0.0
 40
0.3500000000000014
100
AcDbArc
 50
0.0
 51
89.99999999999991
  0
LINE
  5
E8
330
1F
100
AcDbEntity
  8
5
  6
Continuous
 62
     1
370
    25
100
AcDbLine
 10
54.54820322687237
 20
45.19993998170446
 30
0.0
 11
53.84820112687294
 21
45.19993998170446
 31
0.0
  0
LINE
  5
E9
330
1F
100
AcDbEntity
  8
5
  6
Continuous
 62
     1
370
    25
100
AcDbLine
 10
53.14820742687289
 20
43.97493998170455
 30
0.0
 11
53.14820742687289
 21
45.02494698170437
 31
0.0
  0
LINE
  5
EA
330
1F
100
AcDbEntity
  8
5
  6
Continuous
 62
     1
370
    25
100
AcDbLine
 10
53.84820112687294
 20
45.19993998170446
 30
0.0
 11
53.84820112687294
 21
43.79994698170401
 31
0.0
  0
LINE
  5
EB
330
1F
100
AcDbEntity
  8
5
  6
Continuous
 62
     1
370
    25
100
AcDbLine
 10
54.54820322687237
 20
43.79994698170401
 30
0.0
 11
54.54820322687237
 21
45.19993998170446
 31
0.0
  0
LINE
  5
EC
330
1F
100
AcDbEntity
  8
5
  6
Continuous
 62
     1
370
    25
100
AcDbLine
 10
53.84820112687294
 20
43.79994698170401
 30
0.0
 11
54.54820322687237
 21
43.79994698170401
 31
0.0
  0
LINE
  5
ED
330
1F
100
AcDbEntity
  8
5
  6
Continuous
 62
     1
370
    25
100
AcDbLine
 10
50.52319832687272
 20
43.44997848170408
 30
0.0
 11
50.52319832687272
 21
44.14998548170422
 31
0.0
  0
ARC
  5
EE
330
1F
100
AcDbEntity
  8
5
  6
Continuous
 62
     1
370
    25
100
AcDbCircle
 10
50.03320252687217
 20
43.93996448170435
 30
0.0
 40
0.2100000000000009
100
AcDbArc
 50
89.99999999999991
 51
179.9999999999998
  0
LINE
  5
EF
330
1F
100
AcDbEntity
  8
5
  6
Continuous
 62
     1
370
    25
100
AcDbLine
 10
50.17319762687248
 20
44.00997848170425
 30
0.0
 11
50.17319762687248
 21
44.14998548170422
 31
0.0
  0
LINE
  5
F0
330
1F
100
AcDbEntity
  8
5
  6
Continuous
 62
     1
370
    25
100
AcDbLine
 10
50.03320252687217
 20
44.00997848170425
 30
0.0
 11
50.17319762687248
 21
44.00997848170425
 31
0.0
  0
LINE
  5
F1
330
1F
100
AcDbEntity
  8
5
  6
Continuous
 62
     1
370
    25
100
AcDbLine
 10
50.52319832687272
 20
43.44997848170408
 30
0.0
 11
51.57319342687288
 21
43.44997848170408
 31
0.0
  0
LINE
  5
F2
330
1F
100
AcDbEntity
  8
5
  6
Continuous
 62
     1
370
    25
100
AcDbLine
 10
50.03320252687217
 20
44.14998548170422
 30
0.0
 11
51.57319342687288
 21
44.14998548170422
 31
0.0
  0
ARC
  5
F3
330
1F
100
AcDbEntity
  8
5
  6
Continuous
 62
     1
370
    25
100
AcDbCircle
 10
51.78319902687281
 20
45.51497148170426
 30
0.0
 40
0.2100000000000009
100
AcDbArc
 50
89.99999999999991
 51
179.9999999999998
  0
ARC
  5
F4
330
1F
100
AcDbEntity
  8
5
  6
Continuous
 62
     1
370
    25
100
AcDbCircle
 10
51.57320182687272
 20
45.72498548170427
 30
0.0
 40
0.3500000000000014
100
AcDbArc
 50
89.99999999999991
 51
179.9999999999998
  0
ARC
  5
F5
330
1F
100
AcDbEntity
  8
5
  6
Continuous
 62
     1
370
    25
100
AcDbCircle
 10
51.57319342687288
 20
45.72498548170427
 30
0.0
 40
0.7000000000000028
100
AcDbArc
 50
89.99999999999991
 51
179.9999999999998
  0
LINE
  5
F6
330
1F
100
AcDbEntity
  8
5
  6
Continuous
 62
     1
370
    25
100
AcDbLine
 10
52.44820042687252
 20
44.84993998170455
 30
0.0
 11
52.09820392687243
 21
44.84993998170455
 31
0.0
  0
LINE
  5
F7
330
1F
100
AcDbEntity
  8
5
  6
Continuous
 62
     1
370
    25
100
AcDbLine
 10
52.44820042687252
 20
45.02494698170437
 30
0.0
 11
52.44820042687252
 21
44.84993998170455
 31
0.0
  0
LINE
  5
F8
330
1F
100
AcDbEntity
  8
5
  6
Continuous
 62
     1
370
    25
100
AcDbLine
 10
52.09820392687243
 20
44.84993998170455
 30
0.0
 11
52.09820392687243
 21
44.14995398170402
 31
0.0
  0
LINE
  5
F9
330
1F
100
AcDbEntity
  8
5
  6
Continuous
 62
     1
370
    25
100
AcDbLine
 10
52.44820042687252
 20
44.14995398170402
 30
0.0
 11
52.44820042687252
 21
43.97493998170455
 31
0.0
  0
LINE
  5
FA
330
1F
100
AcDbEntity
  8
5
  6
Continuous
 62
     1
370
    25
100
AcDbLine
 10
52.09820392687243
 20
44.14995398170402
 30
0.0
 11
52.44820042687252
 21
44.14995398170402
 31
0.0
  0
LINE
  5
FB
330
1F
100
AcDbEntity
  8
5
  6
Continuous
 62
     1
370
    25
100
AcDbLine
 10
51.22320112687294
 20
45.72498548170427
 30
0.0
 11
51.22320112687294
 21
44.14998548170422
 31
0.0
  0
LINE
  5
FC
330
1F
100
AcDbEntity
  8
5
  6
Continuous
 62
     1
370
    25
100
AcDbLine
 10
50.87319972687283
 20
45.72498548170427
 30
0.0
 11
50.87319972687283
 21
44.14998548170422
 31
0.0
  0
LINE
  5
FD
330
1F
100
AcDbEntity
  8
5
  6
Continuous
 62
     1
370
    25
100
AcDbLine
 10
55.21320042687285
 20
39.77497148170426
 30
0.0
 11
51.78319902687281
 21
39.77497148170426
 31
0.0
  0
LINE
  5
FE
330
1F
100
AcDbEntity
  8
5
  6
Continuous
 62
     1
370
    25
100
AcDbLine
 10
55.42319762687248
 20
39.42497148170412
 30
0.0
 11
51.57320182687272
 21
39.42497148170412
 31
0.0
  0
LINE
  5
FF
330
1F
100
AcDbEntity
  8
5
  6
Continuous
 62
     1
370
    25
100
AcDbLine
 10
55.42320602687278
 20
39.0749854817044
 30
0.0
 11
51.57319342687288
 21
39.0749854817044
 31
0.0
  0
LINE
  5
100
330
1F
100
AcDbEntity
  8
5
  6
Continuous
 62
     1
370
    25
100
AcDbLine
 10
52.44820042687252
 20
40.47500998170415
 30
0.0
 11
53.14820742687289
 21
40.47500998170415
 31
0.0
  0
LINE
  5
101
330
1F
100
AcDbEntity
  8
5
  6
Continuous
 62
     1
370
    25
100
AcDbLine
 10
53.14820742687289
 20
41.52501698170397
 30
0.0
 11
52.44820042687252
 21
41.52501698170397
 31
0.0
  0
LINE
  5
102
330
1F
100
AcDbEntity
  8
5
  6
Continuous
 62
     1
370
    25
100
AcDbLine
 10
52.44820042687252
 20
42.22497498170412
 30
0.0
 11
53.14820742687289
 21
42.22497498170412
 31
0.0
  0
LINE
  5
103
330
1F
100
AcDbEntity
  8
5
  6
Continuous
 62
     1
370
    25
100
AcDbLine
 10
53.14820742687289
 20
43.27498198170395
 30
0.0
 11
52.44820042687252
 21
43.27498198170395
 31
0.0
  0
ARC
  5
104
330
1F
100
AcDbEntity
  8
5
  6
Continuous
 62
     1
370
    25
100
AcDbCircle
 10
55.42320602687278
 20
39.77497148170426
 30
0.0
 40
0.7000000000000028
100
AcDbArc
 50
269.9999999999998
 51
0.0
  0
ARC
  5
105
330
1F
100
AcDbEntity
  8
5
  6
Continuous
 62
     1
370
    25
100
AcDbCircle
 10
55.21320042687285
 20
39.9849854817038
 30
0.0
 40
0.2100000000000009
100
AcDbArc
 50
269.9999999999998
 51
0.0
  0
ARC
  5
106
330
1F
100
AcDbEntity
  8
5
  6
Continuous
 62
     1
370
    25
100
AcDbCircle
 10
55.42319762687248
 20
39.77497148170426
 30
0.0
 40
0.3500000000000014
100
AcDbArc
 50
269.9999999999998
 51
0.0
  0
LINE
  5
107
330
1F
100
AcDbEntity
  8
5
  6
Continuous
 62
     1
370
    25
100
AcDbLine
 10
53.84820112687294
 20
40.30001698170406
 30
0.0
 11
54.54820322687237
 21
40.30001698170406
 31
0.0
  0
LINE
  5
108
330
1F
100
AcDbEntity
  8
5
  6
Continuous
 62
     1
370
    25
100
AcDbLine
 10
54.54820322687237
 20
40.30001698170406
 30
0.0
 11
54.54820322687237
 21
41.70000998170406
 31
0.0
  0
LINE
  5
109
330
1F
100
AcDbEntity
  8
5
  6
Continuous
 62
     1
370
    25
100
AcDbLine
 10
53.84820112687294
 20
41.70000998170406
 30
0.0
 11
53.84820112687294
 21
40.30001698170406
 31
0.0
  0
LINE
  5
10A
330
1F
100
AcDbEntity
  8
5
  6
Continuous
 62
     1
370
    25
100
AcDbLine
 10
53.14820742687289
 20
40.47500998170415
 30
0.0
 11
53.14820742687289
 21
41.52501698170397
 31
0.0
  0
LINE
  5
10B
330
1F
100
AcDbEntity
  8
5
  6
Continuous
 62
     1
370
    25
100
AcDbLine
 10
54.54820322687237
 20
41.70000998170406
 30
0.0
 11
53.84820112687294
 21
41.70000998170406
 31
0.0
  0
LINE
  5
10C
330
1F
100
AcDbEntity
  8
5
  6
Continuous
 62
     1
370
    25
100
AcDbLine
 10
53.84820112687294
 20
42.04998198170404
 30
0.0
 11
54.54820322687237
 21
42.04998198170404
 31
0.0
  0
LINE
  5
10D
330
1F
100
AcDbEntity
  8
5
  6
Continuous
 62
     1
370
    25
100
AcDbLine
 10
53.14820742687289
 20
42.22497498170412
 30
0.0
 11
53.14820742687289
 21
43.27498198170395
 31
0.0
  0
ARC
  5
10E
330
1F
100
AcDbEntity
  8
5
  6
Continuous
 62
     1
370
    25
100
AcDbCircle
 10
51.78319902687281
 20
39.9849854817038
 30
0.0
 40
0.2100000000000009
100
AcDbArc
 50
179.9999999999998
 51
269.9999999999998
  0
ARC
  5
10F
330
1F
100
AcDbEntity
  8
5
  6
Continuous
 62
     1
370
    25
100
AcDbCircle
 10
51.57320182687272
 20
39.77497148170426
 30
0.0
 40
0.3500000000000014
100
AcDbArc
 50
179.9999999999998
 51
269.9999999999998
  0
ARC
  5
110
330
1F
100
AcDbEntity
  8
5
  6
Continuous
 62
     1
370
    25
100
AcDbCircle
 10
51.57319342687288
 20
39.77497148170426
 30
0.0
 40
0.7000000000000028
100
AcDbArc
 50
179.9999999999998
 51
269.9999999999998
  0
LINE
  5
111
330
1F
100
AcDbEntity
  8
5
  6
Continuous
 62
     1
370
    25
100
AcDbLine
 10
52.09820392687243
 20
40.65002398170407
 30
0.0
 11
52.44820042687252
 21
40.65002398170407
 31
0.0
  0
LINE
  5
112
330
1F
100
AcDbEntity
  8
5
  6
Continuous
 62
     1
370
    25
100
AcDbLine
 10
52.44820042687252
 20
40.65002398170407
 30
0.0
 11
52.44820042687252
 21
40.47500998170415
 31
0.0
  0
LINE
  5
113
330
1F
100
AcDbEntity
  8
5
  6
Continuous
 62
     1
370
    25
100
AcDbLine
 10
52.09820392687243
 20
41.35000998170415
 30
0.0
 11
52.09820392687243
 21
40.65002398170407
 31
0.0
  0
LINE
  5
114
330
1F
100
AcDbEntity
  8
5
  6
Continuous
 62
     1
370
    25
100
AcDbLine
 10
52.44820042687252
 20
41.52501698170397
 30
0.0
 11
52.44820042687252
 21
41.35000998170415
 31
0.0
  0
LINE
  5
115
330
1F
100
AcDbEntity
  8
5
  6
Continuous
 62
     1
370
    25
100
AcDbLine
 10
52.44820042687252
 20
41.35000998170415
 30
0.0
 11
52.09820392687243
 21
41.35000998170415
 31
0.0
  0
LINE
  5
116
330
1F
100
AcDbEntity
  8
5
  6
Continuous
 62
     1
370
    25
100
AcDbLine
 10
50.03320252687217
 20
41.48997848170427
 30
0.0
 11
50.03320252687217
 21
42.32998548170451
 31
0.0
  0
LINE
  5
117
330
1F
100
AcDbEntity
  8
5
  6
Continuous
 62
     1
370
    25
100
AcDbLine
 10
50.52319832687272
 20
41.3499714817043
 30
0.0
 11
50.52319832687272
 21
42.04997848170422
 31
0.0
  0
LINE
  5
118
330
1F
100
AcDbEntity
  8
5
  6
Continuous
 62
     1
370
    25
100
AcDbLine
 10
50.17319762687248
 20
42.32998548170451
 30
0.0
 11
50.03320252687217
 21
42.32998548170451
 31
0.0
  0
LINE
  5
119
330
1F
100
AcDbEntity
  8
5
  6
Continuous
 62
     1
370
    25
100
AcDbLine
 10
51.57319342687288
 20
42.04997848170422
 30
0.0
 11
50.52319832687272
 21
42.04997848170422
 31
0.0
  0
ARC
  5
11A
330
1F
100
AcDbEntity
  8
5
  6
Continuous
 62
     1
370
    25
100
AcDbCircle
 10
50.03320252687217
 20
41.55998548170408
 30
0.0
 40
0.2100000000000009
100
AcDbArc
 50
179.9999999999998
 51
269.9999999999998
  0
LINE
  5
11B
330
1F
100
AcDbEntity
  8
5
  6
Continuous
 62
     1
370
    25
100
AcDbLine
 10
50.17319762687248
 20
41.3499714817043
 30
0.0
 11
50.17319762687248
 21
41.48997848170427
 31
0.0
  0
LINE
  5
11C
330
1F
100
AcDbEntity
  8
5
  6
Continuous
 62
     1
370
    25
100
AcDbLine
 10
50.17319762687248
 20
41.48997848170427
 30
0.0
 11
50.03320252687217
 21
41.48997848170427
 31
0.0
  0
LINE
  5
11D
330
1F
100
AcDbEntity
  8
5
  6
Continuous
 62
     1
370
    25
100
AcDbLine
 10
50.03320252687217
 20
41.3499714817043
 30
0.0
 11
51.57319342687288
 21
41.3499714817043
 31
0.0
  0
LINE
  5
11E
330
1F
100
AcDbEntity
  8
5
  6
Continuous
 62
     1
370
    25
100
AcDbLine
 10
52.09820392687243
 20
42.39998898170404
 30
0.0
 11
52.44820042687252
 21
42.39998898170404
 31
0.0
  0
LINE
  5
11F
330
1F
100
AcDbEntity
  8
5
  6
Continuous
 62
     1
370
    25
100
AcDbLine
 10
52.44820042687252
 20
42.39998898170404
 30
0.0
 11
52.44820042687252
 21
42.22497498170412
 31
0.0
  0
LINE
  5
120
330
1F
100
AcDbEntity
  8
5
  6
Continuous
 62
     1
370
    25
100
AcDbLine
 10
51.22320112687294
 20
39.77497148170426
 30
0.0
 11
51.22320112687294
 21
41.3499714817043
 31
0.0
  0
LINE
  5
121
330
1F
100
AcDbEntity
  8
5
  6
Continuous
 62
     1
370
    25
100
AcDbLine
 10
50.87319972687283
 20
39.77497148170426
 30
0.0
 11
50.87319972687283
 21
41.3499714817043
 31
0.0
  0
LINE
  5
122
330
1F
100
AcDbEntity
  8
5
  6
Continuous
 62
     1
370
    25
100
AcDbLine
 10
50.17319762687248
 20
43.16997148170401
 30
0.0
 11
50.03320252687217
 21
43.16997148170401
 31
0.0
  0
LINE
  5
123
330
1F
100
AcDbEntity
  8
5
  6
Continuous
 62
     1
370
    25
100
AcDbLine
 10
52.44820042687252
 20
43.27498198170395
 30
0.0
 11
52.44820042687252
 21
43.09997498170412
 31
0.0
  0
LINE
  5
124
330
1F
100
AcDbEntity
  8
5
  6
Continuous
 62
     1
370
    25
100
AcDbLine
 10
52.44820042687252
 20
43.09997498170412
 30
0.0
 11
52.09820392687243
 21
43.09997498170412
 31
0.0
  0
LINE
  5
125
330
1F
100
AcDbEntity
  8
5
  6
Continuous
 62
     1
370
    25
100
AcDbLine
 10
50.17319762687248
 20
42.32998548170451
 30
0.0
 11
50.17319762687248
 21
43.16997148170401
 31
0.0
  0
LINE
  5
126
330
1F
100
AcDbEntity
  8
5
  6
Continuous
 62
     1
370
    25
100
AcDbLine
 10
52.09820392687243
 20
43.09997498170412
 30
0.0
 11
52.09820392687243
 21
42.39998898170404
 31
0.0
  0
LINE
  5
127
330
1F
100
AcDbEntity
  8
5
  6
Continuous
 62
     1
370
    25
100
AcDbLine
 10
47.72319482687681
 20
44.14998198170395
 30
0.0
 11
38.62318852687667
 21
44.14998198170395
 31
0.0
  0
LINE
  5
128
330
1F
100
AcDbEntity
  8
5
  6
Continuous
 62
     1
370
    25
100
AcDbLine
 10
45.62319202687604
 20
43.02998198170405
 30
0.0
 11
39.32319132687599
 21
43.02998198170405
 31
0.0
  0
LINE
  5
129
330
1F
100
AcDbEntity
  8
5
  6
Continuous
 62
     1
370
    25
100
AcDbLine
 10
45.62319202687604
 20
41.9099889817038
 30
0.0
 11
39.32319132687599
 21
41.9099889817038
 31
0.0
  0
LINE
  5
12A
330
1F
100
AcDbEntity
  8
5
  6
Continuous
 62
     1
370
    25
100
AcDbLine
 10
45.62319202687604
 20
42.46996798170392
 30
0.0
 11
39.32319132687599
 21
42.46996798170392
 31
0.0
  0
LINE
  5
12B
330
1F
100
AcDbEntity
  8
5
  6
Continuous
 62
     1
370
    25
100
AcDbLine
 10
45.62319202687604
 20
43.58996798170426
 30
0.0
 11
39.32319132687599
 21
43.58996798170426
 31
0.0
  0
LINE
  5
12C
330
1F
100
AcDbEntity
  8
5
  6
Continuous
 62
     1
370
    25
100
AcDbLine
 10
47.72319482687681
 20
41.34997498170412
 30
0.0
 11
38.62318852687667
 21
41.34997498170412
 31
0.0
  0
LINE
  5
12D
330
1F
100
AcDbEntity
  8
5
  6
Continuous
 62
     1
370
    25
100
AcDbLine
 10
30.32643542240839
 20
43.83498178631669
 30
0.0
 11
20.00002623846467
 21
43.83498178631669
 31
0.0
  0
LINE
  5
12E
330
1F
100
AcDbEntity
  8
5
  6
Continuous
 62
     1
370
    25
100
AcDbLine
 10
30.32643542240839
 20
40.78997498170463
 30
0.0
 11
30.32643542240839
 21
44.7099749817047
 31
0.0
  0
LINE
  5
12F
330
1F
100
AcDbEntity
  8
5
  6
Continuous
 62
     1
370
    25
100
AcDbLine
 10
38.62318852687667
 20
41.34997498170412
 30
0.0
 11
38.62318852687667
 21
44.14998198170395
 31
0.0
  0
LINE
  5
130
330
1F
100
AcDbEntity
  8
5
  6
Continuous
 62
     1
370
    25
100
AcDbLine
 10
39.32319132687599
 20
41.34997498170412
 30
0.0
 11
39.32319132687599
 21
44.14998198170395
 31
0.0
  0
ARC
  5
131
330
1F
100
AcDbEntity
  8
5
  6
Continuous
 62
     1
370
    25
100
AcDbCircle
 10
42.82319412687639
 20
45.72498198170399
 30
0.0
 40
0.7000000000000028
100
AcDbArc
 50
89.99999999999991
 51
179.9999999999998
  0
LINE
  5
132
330
1F
100
AcDbEntity
  8
5
  6
Continuous
 62
     1
370
    25
100
AcDbLine
 10
41.42321092687644
 20
45.54998898170413
 30
0.0
 11
42.12319132687617
 21
45.54998898170413
 31
0.0
  0
LINE
  5
133
330
1F
100
AcDbEntity
  8
5
  6
Continuous
 62
     1
370
    25
100
AcDbLine
 10
41.42321092687644
 20
45.89999598170414
 30
0.0
 11
41.42321092687644
 21
44.1499819817044
 31
0.0
  0
LINE
  5
134
330
1F
100
AcDbEntity
  8
5
  6
Continuous
 62
     1
370
    25
100
AcDbLine
 10
42.12319132687617
 20
45.72498198170399
 30
0.0
 11
42.12319132687617
 21
44.14998198170395
 31
0.0
  0
LINE
  5
135
330
1F
100
AcDbEntity
  8
5
  6
Continuous
 62
     1
370
    25
100
AcDbLine
 10
42.82319412687639
 20
39.07496798170394
 30
0.0
 11
47.72319482687681
 21
39.07496798170394
 31
0.0
  0
LINE
  5
136
330
1F
100
AcDbEntity
  8
5
  6
Continuous
 62
     1
370
    25
100
AcDbLine
 10
42.12319132687617
 20
39.94996098170384
 30
0.0
 11
41.42321092687644
 21
39.94996098170384
 31
0.0
  0
LINE
  5
137
330
1F
100
AcDbEntity
  8
5
  6
Continuous
 62
     1
370
    25
100
AcDbLine
 10
41.42321092687644
 20
39.59995398170383
 30
0.0
 11
41.42321092687644
 21
41.34996798170403
 31
0.0
  0
LINE
  5
138
330
1F
100
AcDbEntity
  8
5
  6
Continuous
 62
     1
370
    25
100
AcDbLine
 10
42.12319132687617
 20
39.77496798170421
 30
0.0
 11
42.12319132687617
 21
41.34997498170412
 31
0.0
  0
ARC
  5
139
330
1F
100
AcDbEntity
  8
5
  6
Continuous
 62
     1
370
    25
100
AcDbCircle
 10
42.82319412687639
 20
39.77496798170421
 30
0.0
 40
0.7000000000000028
100
AcDbArc
 50
179.9999999999998
 51
269.9999999999998
  0
LINE
  5
13A
330
1F
100
AcDbEntity
  8
5
  6
Continuous
 62
     1
370
    25
100
AcDbLine
 10
45.62319202687604
 20
44.14998198170395
 30
0.0
 11
45.62319202687604
 21
41.34997498170412
 31
0.0
  0
LINE
  5
13B
330
1F
100
AcDbEntity
  8
5
  6
Continuous
 62
     1
370
    25
100
AcDbLine
 10
47.72319482687681
 20
46.42498198170404
 30
0.0
 11
47.72319482687681
 21
39.07496798170394
 31
0.0
  0
LINE
  5
13C
330
1F
100
AcDbEntity
  8
5
  6
Continuous
 62
     1
370
    25
100
AcDbLine
 10
47.02318852687631
 20
44.14998198170395
 30
0.0
 11
47.02318852687631
 21
41.34997498170412
 31
0.0
  0
LINE
  5
13D
330
1F
100
AcDbEntity
  8
5
  6
Continuous
 62
     1
370
    25
100
AcDbLine
 10
42.82319412687639
 20
46.42498198170404
 30
0.0
 11
47.72319482687681
 21
46.42498198170404
 31
0.0
  0
LINE
  5
13E
330
1F
100
AcDbEntity
  8
5
  6
Continuous
 62
     1
370
    25
100
AcDbLine
 10
41.42321092687644
 20
45.89999598170414
 30
0.0
 11
36.36230311185363
 21
45.89999598170414
 31
0.0
  0
LINE
  5
13F
330
1F
100
AcDbEntity
  8
5
  6
Continuous
 62
     1
370
    25
100
AcDbLine
 10
33.56760871721008
 20
44.7099749817047
 30
0.0
 11
30.32643542240839
 21
44.7099749817047
 31
0.0
  0
LINE
  5
140
330
1F
100
AcDbEntity
  8
5
  6
Continuous
 62
     1
370
    25
100
AcDbLine
 10
34.34826105952288
 20
44.92912295260783
 30
0.0
 11
35.58165076954083
 21
45.68084801080101
 31
0.0
  0
ARC
  5
141
330
1F
100
AcDbEntity
  8
5
  6
Continuous
 62
     1
370
    25
100
AcDbCircle
 10
33.56760871721008
 20
46.2099749817047
 30
0.0
 40
1.5
100
AcDbArc
 50
269.9999999999998
 51
301.3614279074201
  0
ARC
  5
142
330
1F
100
AcDbEntity
  8
5
  6
Continuous
 62
     1
370
    25
100
AcDbCircle
 10
36.36230311185363
 20
44.39999598170414
 30
0.0
 40
1.5
100
AcDbArc
 50
89.99999999999991
 51
121.3614279074202
  0
LINE
  5
143
330
1F
100
AcDbEntity
  8
5
  6
Continuous
 62
     1
370
    25
100
AcDbLine
 10
41.42321092687644
 20
39.5999539817052
 30
0.0
 11
36.36230311185363
 21
39.5999539817052
 31
0.0
  0
LINE
  5
144
330
1F
100
AcDbEntity
  8
5
  6
Continuous
 62
     1
370
    25
100
AcDbLine
 10
33.56760871721008
 20
40.78997498170463
 30
0.0
 11
30.32643542240839
 21
40.78997498170463
 31
0.0
  0
LINE
  5
145
330
1F
100
AcDbEntity
  8
5
  6
Continuous
 62
     1
370
    25
100
AcDbLine
 10
34.34826105952288
 20
40.57082701080151
 30
0.0
 11
35.58165076954083
 21
39.81910195260832
 31
0.0
  0
ARC
  5
146
330
1F
100
AcDbEntity
  8
5
  6
Continuous
 62
     1
370
    25
100
AcDbCircle
 10
33.56760871721008
 20
39.28997498170463
 30
0.0
 40
1.5
100
AcDbArc
 50
58.63857209257962
 51
89.99999999999991
  0
ARC
  5
147
330
1F
100
AcDbEntity
  8
5
  6
Continuous
 62
     1
370
    25
100
AcDbCircle
 10
36.36230311185363
 20
41.0999539817052
 30
0.0
 40
1.5
100
AcDbArc
 50
238.6385720925792
 51
269.9999999999998
  0
HATCH
  5
148
330
1F
100
AcDbEntity
  8
10
  6
Continuous
 62
     2
370
     9
100
AcDbHatch
 10
0.0
 20
0.0
 30
0.0
210
0.0
220
0.0
230
1.0
  2

 70
     0
 71
     0
 91
        4
 92
        0
 93
        4
 72
     1
 10
176.6565110027659
 20
182.2604860987744
 11
176.6565110027659
 21
132.2604860987744
 72
     1
 10
176.6565110027659
 20
132.2604860987744
 11
226.6565110027659
 21
132.2604860987744
 72
     1
 10
226.6565110027659
 20
132.2604860987744
 11
226.6565110027659
 21
182.2604860987744
 72
     1
 10
226.6565110027659
 20
182.2604860987744
 11
176.6565110027659
 21
182.2604860987744
 97
        0
 92
        0
 93
        4
 72
     1
 10
176.6565110027659
 20
182.2604860987744
 11
126.6565110027659
 21
182.2604860987744
 72
     1
 10
126.6565110027659
 20
182.2604860987744
 11
126.6565110027659
 21
132.2604860987744
 72
     1
 10
126.6565110027659
 20
132.2604860987744
 11
176.6565110027659
 21
132.2604860987744
 72
     1
 10
176.6565110027659
 20
132.2604860987744
 11
176.6565110027659
 21
182.2604860987744
 97
        0
 92
        0
 93
        4
 72
     1
 10
176.6565110027659
 20
132.2604860987744
 11
126.6565110027659
 21
132.2604860987744
 72
     1
 10
126.6565110027659
 20
132.2604860987744
 11
126.6565110027659
 21
82.26048609877444
 72
     1
 10
126.6565110027659
 20
82.26048609877444
 11
176.6565110027659
 21
82.26048609877444
 72
     1
 10
176.6565110027659
 20
82.26048609877444
 11
176.6565110027659
 21
132.2604860987744
 97
        0
 92
        0
 93
        4
 72
     1
 10
176.6565110027659
 20
82.26048609877444
 11
226.6565110027659
 21
82.26048609877444
 72
     1
 10
226.6565110027659
 20
82.26048609877444
 11
226.6565110027659
 21
132.2604860987744
 72
     1
 10
226.6565110027659
 20
132.2604860987744
 11
176.6565110027659
 21
132.2604860987744
 72
     1
 10
176.6565110027659
 20
132.2604860987744
 11
176.6565110027659
 21
82.26048609877444
 97
        0
 75
     0
 76
     2
 52
0.0
 41
1.0
 77
     0
 78
     2
 53
45.0
 43
-3899.545329909848
 44
1633.89750659297
 45
-3.367596045401115
 46
3.367596045401115
 79
     0
 53
135.0
 43
-3899.545329909848
 44
1633.89750659297
 45
-3.367596045401115
 46
-3.367596045400887
 79
     0
 98
        0
  0
POLYLINE
  5
149
330
1F
100
AcDbEntity
  8
9
  6
Continuous
 62
     7
370
    25
100
AcDb2dPolyline
 66
     1
 10
0.0
 20
0.0
 30
0.0
  0
VERTEX
  5
14A
330
149
100
AcDbEntity
  8
9
  6
Continuous
 62
     7
370
    25
100
AcDbVertex
100
AcDb2dVertex
 10
226.6565110027659
 20
82.26048609877444
 30
0.0
  0
VERTEX
  5
14B
330
149
100
AcDbEntity
  8
9
  6
Continuous
 62
     7
370
    25
100
AcDbVertex
100
AcDb2dVertex
 10
226.6565110027659
 20
182.2604860987744
 30
0.0
  0
VERTEX
  5
14C
330
149
100
AcDbEntity
  8
9
  6
Continuous
 62
     7
370
    25
100
AcDbVertex
100
AcDb2dVertex
 10
126.6565110027659
 20
182.2604860987744
 30
0.0
  0
VERTEX
  5
14D
330
149
100
AcDbEntity
  8
9
  6
Continuous
 62
     7
370
    25
100
AcDbVertex
100
AcDb2dVertex
 10
126.6565110027659
 20
82.26048609877444
 30
0.0
  0
VERTEX
  5
14E
330
149
100
AcDbEntity
  8
9
  6
Continuous
 62
     7
370
    25
100
AcDbVertex
100
AcDb2dVertex
 10
226.6565110027659
 20
82.26048609877444
 30
0.0
  0
SEQEND
  5
14F
330
149
100
AcDbEntity
  8
9
  6
Continuous
 62
     7
370
    25
  0
LINE
  5
150
330
1F
100
AcDbEntity
  8
9
  6
Continuous
 62
     7
370
    25
100
AcDbLine
 10
241.6565110027659
 20
197.2604860987744
 30
0.0
 11
241.6565110027659
 21
67.26048609877489
 31
0.0
  0
LINE
  5
151
330
1F
100
AcDbEntity
  8
9
  6
Continuous
 62
     7
370
    25
100
AcDbLine
 10
241.6565110027659
 20
67.26048609877489
 30
0.0
 11
111.6565110027659
 21
67.26048609877398
 31
0.0
  0
LINE
  5
152
330
1F
100
AcDbEntity
  8
9
  6
Continuous
 62
     7
370
    25
100
AcDbLine
 10
241.6565110027659
 20
197.2604860987744
 30
0.0
 11
111.6565110027659
 21
197.2604860987749
 31
0.0
  0
LINE
  5
153
330
1F
100
AcDbEntity
  8
9
  6
Continuous
 62
     7
370
    25
100
AcDbLine
 10
111.6565110027659
 20
197.2604860987749
 30
0.0
 11
111.6565110027659
 21
67.26048609877398
 31
0.0
  0
LINE
  5
154
330
1F
100
AcDbEntity
  8
9
  6
Continuous
 62
     7
370
    25
100
AcDbLine
 10
339.6226000234483
 20
67.26048609877489
 30
0.0
 11
332.7226000234477
 21
67.26048609877489
 31
0.0
  0
LINE
  5
155
330
1F
100
AcDbEntity
  8
9
  6
Continuous
 62
     7
370
    25
100
AcDbLine
 10
339.6226000234483
 20
66.94381943210783
 30
0.0
 11
332.7226000234477
 21
66.94381943210783
 31
0.0
  0
ARC
  5
156
330
1F
100
AcDbEntity
  8
9
  6
Continuous
 62
     7
370
    25
100
AcDbCircle
 10
336.1726000234485
 20
69.91083697596787
 30
0.0
 40
4.550350877192955
100
AcDbArc
 50
220.6956985253817
 51
319.3043014746176
  0
LINE
  5
157
330
1F
100
AcDbEntity
  8
9
  6
Continuous
 62
     7
370
    25
100
AcDbLine
 10
339.6226000234483
 20
67.26048609877489
 30
0.0
 11
339.6226000234483
 21
66.94381943210783
 31
0.0
  0
LINE
  5
158
330
1F
100
AcDbEntity
  8
9
  6
Continuous
 62
     7
370
    25
100
AcDbLine
 10
332.7226000234477
 20
67.26048609877489
 30
0.0
 11
332.7226000234477
 21
66.94381943210783
 31
0.0
  0
LINE
  5
159
330
1F
100
AcDbEntity
  8
9
  6
Continuous
 62
     7
370
    25
100
AcDbLine
 10
301.1726000234485
 20
197.2604860987744
 30
0.0
 11
301.1726000234485
 21
67.26048609877489
 31
0.0
  0
LINE
  5
15A
330
1F
100
AcDbEntity
  8
9
  6
Continuous
 62
     7
370
    25
100
AcDbLine
 10
346.1726000234485
 20
212.2604860987744
 30
0.0
 11
346.1726000234485
 21
52.26048609877489
 31
0.0
  0
LINE
  5
15B
330
1F
100
AcDbEntity
  8
9
  6
Continuous
 62
     7
370
    25
100
AcDbLine
 10
345.1726000234485
 20
212.2604860987744
 30
0.0
 11
345.1726000234466
 21
52.26048609877489
 31
0.0
  0
LINE
  5
15C
330
1F
100
AcDbEntity
  8
9
  6
Continuous
 62
     7
370
    25
100
AcDbLine
 10
301.1726000234485
 20
197.2604860987744
 30
0.0
 11
345.1726000234485
 21
197.2604860987735
 31
0.0
  0
LINE
  5
15D
330
1F
100
AcDbEntity
  8
9
  6
Continuous
 62
     7
370
    25
100
AcDbLine
 10
345.1726000234485
 20
196.2604860987735
 30
0.0
 11
346.1726000234485
 21
196.2604860987735
 31
0.0
  0
LINE
  5
15E
330
1F
100
AcDbEntity
  8
9
  6
Continuous
 62
     7
370
    25
100
AcDbLine
 10
345.1726000234485
 20
212.2604860987744
 30
0.0
 11
346.1726000234485
 21
212.2604860987744
 31
0.0
  0
LINE
  5
15F
330
1F
100
AcDbEntity
  8
9
  6
Continuous
 62
     7
370
    25
100
AcDbLine
 10
301.1726000234485
 20
67.26048609877489
 30
0.0
 11
345.1726000234466
 21
67.26048609877489
 31
0.0
  0
LINE
  5
160
330
1F
100
AcDbEntity
  8
9
  6
Continuous
 62
     7
370
    25
100
AcDbLine
 10
345.1726000234466
 20
68.26048609877489
 30
0.0
 11
346.1726000234485
 21
68.26048609877444
 31
0.0
  0
LINE
  5
161
330
1F
100
AcDbEntity
  8
9
  6
Continuous
 62
     7
370
    25
100
AcDbLine
 10
345.1726000234485
 20
52.26048609877489
 30
0.0
 11
346.1726000234485
 21
52.26048609877489
 31
0.0
  0
LINE
  5
162
330
1F
100
AcDbEntity
  8
9
  6
Continuous
 62
     7
370
    25
100
AcDbLine
 10
226.6565110027659
 20
57.26048609877444
 30
0.0
 11
226.6565110027659
 21
67.26048609877444
 31
0.0
  0
ARC
  5
163
330
1F
100
AcDbEntity
  8
9
  6
Continuous
 62
     7
370
    25
100
AcDbCircle
 10
221.6565110027668
 20
57.26048609877444
 30
0.0
 40
5.0
100
AcDbArc
 50
269.9999999999998
 51
0.0
  0
LINE
  5
164
330
1F
100
AcDbEntity
  8
9
  6
Continuous
 62
     7
370
    25
100
AcDbLine
 10
131.6565110027659
 20
52.26048609877444
 30
0.0
 11
221.6565110027668
 21
52.2604860987758
 31
0.0
  0
LINE
  5
165
330
1F
100
AcDbEntity
  8
9
  6
Continuous
 62
     7
370
    25
100
AcDbLine
 10
126.6565110027659
 20
57.26048609877444
 30
0.0
 11
126.6565110027659
 21
67.26048609877444
 31
0.0
  0
ARC
  5
166
330
1F
100
AcDbEntity
  8
9
  6
Continuous
 62
     7
370
    25
100
AcDbCircle
 10
131.656511002765
 20
57.26048609877444
 30
0.0
 40
5.0
100
AcDbArc
 50
179.9999999999998
 51
269.9999999999998
  0
LINE
  5
167
330
1F
100
AcDbEntity
  8
9
  6
Continuous
 62
     7
370
    25
100
AcDbLine
 10
221.6565110027659
 20
212.2604860987744
 30
0.0
 11
189.156511002765
 21
212.2604860987744
 31
0.0
  0
ARC
  5
168
330
1F
100
AcDbEntity
  8
9
  6
Continuous
 62
     7
370
    25
100
AcDbCircle
 10
189.156511002765
 20
207.2604860987744
 30
0.0
 40
5.0
100
AcDbArc
 50
89.99999999999991
 51
179.9999999999998
  0
LINE
  5
169
330
1F
100
AcDbEntity
  8
9
  6
Continuous
 62
     7
370
    25
100
AcDbLine
 10
226.6565110027659
 20
207.2604860987744
 30
0.0
 11
226.6565110027659
 21
197.2604860987744
 31
0.0
  0
LINE
  5
16A
330
1F
100
AcDbEntity
  8
9
  6
Continuous
 62
     7
370
    25
100
AcDbLine
 10
184.156511002765
 20
207.2604860987744
 30
0.0
 11
184.156511002765
 21
197.2604860987744
 31
0.0
  0
ARC
  5
16B
330
1F
100
AcDbEntity
  8
9
  6
Continuous
 62
     7
370
    25
100
AcDbCircle
 10
221.6565110027668
 20
207.2604860987744
 30
0.0
 40
5.0
100
AcDbArc
 50
0.0
 51
89.99999999999991
  0
LINE
  5
16C
330
1F
100
AcDbEntity
  8
9
  6
Continuous
 62
     7
370
    25
100
AcDbLine
 10
131.6565110027659
 20
212.2604860987744
 30
0.0
 11
164.1565110027659
 21
212.2604860987744
 31
0.0
  0
ARC
  5
16D
330
1F
100
AcDbEntity
  8
9
  6
Continuous
 62
     7
370
    25
100
AcDbCircle
 10
164.1565110027659
 20
207.2604860987744
 30
0.0
 40
5.0
100
AcDbArc
 50
0.0
 51
89.99999999999991
  0
LINE
  5
16E
330
1F
100
AcDbEntity
  8
9
  6
Continuous
 62
     7
370
    25
100
AcDbLine
 10
126.6565110027659
 20
207.2604860987744
 30
0.0
 11
126.6565110027659
 21
197.2604860987744
 31
0.0
  0
LINE
  5
16F
330
1F
100
AcDbEntity
  8
9
  6
Continuous
 62
     7
370
    25
100
AcDbLine
 10
169.1565110027659
 20
207.2604860987744
 30
0.0
 11
169.1565110027659
 21
197.2604860987744
 31
0.0
  0
ARC
  5
170
330
1F
100
AcDbEntity
  8
9
  6
Continuous
 62
     7
370
    25
100
AcDbCircle
 10
131.656511002765
 20
207.2604860987744
 30
0.0
 40
5.0
100
AcDbArc
 50
89.99999999999991
 51
179.9999999999998
  0
LINE
  5
171
330
1F
100
AcDbEntity
  8
9
  6
Continuous
 62
     7
370
    25
100
AcDbLine
 10
326.4226000234485
 20
197.7604860987744
 30
0.0
 11
326.4226000234485
 21
197.2604860987744
 31
0.0
  0
LINE
  5
172
330
1F
100
AcDbEntity
  8
9
  6
Continuous
 62
     7
370
    25
100
AcDbLine
 10
325.6726000234485
 20
197.7604860987744
 30
0.0
 11
325.6726000234485
 21
202.3604860987739
 31
0.0
  0
LINE
  5
173
330
1F
100
AcDbEntity
  8
9
  6
Continuous
 62
     7
370
    25
100
AcDbLine
 10
329.1726000234485
 20
197.7604860987744
 30
0.0
 11
329.1726000234485
 21
202.3604860987739
 31
0.0
  0
LINE
  5
174
330
1F
100
AcDbEntity
  8
9
  6
Continuous
 62
     7
370
    25
100
AcDbLine
 10
339.6726000234494
 20
197.7604860987747
 30
0.0
 11
339.6726000234485
 21
202.3604860987739
 31
0.0
  0
LINE
  5
175
330
1F
100
AcDbEntity
  8
9
  6
Continuous
 62
     7
370
    25
100
AcDbLine
 10
336.1726000234485
 20
199.1604860987738
 30
0.0
 11
336.1726000234485
 21
202.3604860987739
 31
0.0
  0
LINE
  5
176
330
1F
100
AcDbEntity
  8
9
  6
Continuous
 62
     7
370
    25
100
AcDbLine
 10
325.6726000234485
 20
202.3604860987739
 30
0.0
 11
332.6726000234485
 21
202.3604860987739
 31
0.0
  0
LINE
  5
177
330
1F
100
AcDbEntity
  8
9
  6
Continuous
 62
     7
370
    25
100
AcDbLine
 10
326.6726000234485
 20
204.2604860987744
 30
0.0
 11
332.6726000234485
 21
204.2604860987744
 31
0.0
  0
LINE
  5
178
330
1F
100
AcDbEntity
  8
9
  6
Continuous
 62
     7
370
    25
100
AcDbLine
 10
330.1726000234485
 20
215.2604860987744
 30
0.0
 11
335.1726000234485
 21
215.2604860987744
 31
0.0
  0
ARC
  5
179
330
1F
100
AcDbEntity
  8
9
  6
Continuous
 62
     7
370
    25
100
AcDbCircle
 10
330.1726000234485
 20
212.2604860987744
 30
0.0
 40
3.0
100
AcDbArc
 50
89.99999999999991
 51
179.9999999999998
  0
LINE
  5
17A
330
1F
100
AcDbEntity
  8
9
  6
Continuous
 62
     7
370
    25
100
AcDbLine
 10
326.6726000234485
 20
212.2604860987744
 30
0.0
 11
338.6726000234485
 21
212.2604860987744
 31
0.0
  0
LINE
  5
17B
330
1F
100
AcDbEntity
  8
9
  6
Continuous
 62
     7
370
    25
100
AcDbLine
 10
326.6726000234485
 20
204.2604860987744
 30
0.0
 11
326.6726000234485
 21
212.2604860987744
 31
0.0
  0
LINE
  5
17C
330
1F
100
AcDbEntity
  8
9
  6
Continuous
 62
     7
370
    25
100
AcDbLine
 10
327.6726000234485
 20
202.3604860987739
 30
0.0
 11
327.6726000234485
 21
204.2604860987744
 31
0.0
  0
LINE
  5
17D
330
1F
100
AcDbEntity
  8
9
  6
Continuous
 62
     7
370
    25
100
AcDbLine
 10
339.6726000234485
 20
202.3604860987739
 30
0.0
 11
332.6726000234485
 21
202.3604860987739
 31
0.0
  0
LINE
  5
17E
330
1F
100
AcDbEntity
  8
9
  6
Continuous
 62
     7
370
    25
100
AcDbLine
 10
338.6726000234485
 20
204.2604860987744
 30
0.0
 11
332.6726000234485
 21
204.2604860987744
 31
0.0
  0
LINE
  5
17F
330
1F
100
AcDbEntity
  8
9
  6
Continuous
 62
     7
370
    25
100
AcDbLine
 10
332.6726000234485
 20
204.2604860987744
 30
0.0
 11
332.6726000234485
 21
212.2604860987744
 31
0.0
  0
LINE
  5
180
330
1F
100
AcDbEntity
  8
9
  6
Continuous
 62
     7
370
    25
100
AcDbLine
 10
325.6726000234485
 20
197.7604860987744
 30
0.0
 11
332.8891593804437
 21
197.7604860987742
 31
0.0
  0
LINE
  5
181
330
1F
100
AcDbEntity
  8
9
  6
Continuous
 62
     7
370
    25
100
AcDbLine
 10
337.6726000234485
 20
202.3604860987739
 30
0.0
 11
337.6726000234485
 21
204.2604860987744
 31
0.0
  0
ARC
  5
182
330
1F
100
AcDbEntity
  8
9
  6
Continuous
 62
     7
370
    25
100
AcDbCircle
 10
335.1726000234485
 20
212.2604860987744
 30
0.0
 40
3.0
100
AcDbArc
 50
0.0
 51
89.99999999999991
  0
LINE
  5
183
330
1F
100
AcDbEntity
  8
9
  6
Continuous
 62
     7
370
    25
100
AcDbLine
 10
338.6726000234485
 20
204.2604860987744
 30
0.0
 11
338.6726000234485
 21
212.2604860987744
 31
0.0
  0
LINE
  5
184
330
1F
100
AcDbEntity
  8
9
  6
Continuous
 62
     7
370
    25
100
AcDbLine
 10
170.4065110027659
 20
197.7604860987744
 30
0.0
 11
170.4065110027659
 21
197.2604860987749
 31
0.0
  0
LINE
  5
185
330
1F
100
AcDbEntity
  8
9
  6
Continuous
 62
     7
370
    25
100
AcDbLine
 10
169.6565110027659
 20
197.7604860987744
 30
0.0
 11
169.6565110027659
 21
202.3604860987739
 31
0.0
  0
LINE
  5
186
330
1F
100
AcDbEntity
  8
9
  6
Continuous
 62
     7
370
    25
100
AcDbLine
 10
173.1565110027659
 20
197.7604860987744
 30
0.0
 11
173.1565110027659
 21
202.3604860987739
 31
0.0
  0
LINE
  5
187
330
1F
100
AcDbEntity
  8
9
  6
Continuous
 62
     7
370
    25
100
AcDbLine
 10
183.6565110027659
 20
197.7604860987744
 30
0.0
 11
183.6565110027659
 21
202.3604860987739
 31
0.0
  0
LINE
  5
188
330
1F
100
AcDbEntity
  8
9
  6
Continuous
 62
     7
370
    25
100
AcDbLine
 10
180.1565110027659
 20
197.7604860987744
 30
0.0
 11
180.1565110027659
 21
202.3604860987739
 31
0.0
  0
LINE
  5
189
330
1F
100
AcDbEntity
  8
9
  6
Continuous
 62
     7
370
    25
100
AcDbLine
 10
169.6565110027659
 20
202.3604860987739
 30
0.0
 11
176.6565110027659
 21
202.3604860987739
 31
0.0
  0
LINE
  5
18A
330
1F
100
AcDbEntity
  8
9
  6
Continuous
 62
     7
370
    25
100
AcDbLine
 10
170.6565110027659
 20
204.2604860987744
 30
0.0
 11
176.6565110027659
 21
204.2604860987744
 31
0.0
  0
LINE
  5
18B
330
1F
100
AcDbEntity
  8
9
  6
Continuous
 62
     7
370
    25
100
AcDbLine
 10
174.1565110027659
 20
215.2604860987744
 30
0.0
 11
179.1565110027659
 21
215.2604860987744
 31
0.0
  0
ARC
  5
18C
330
1F
100
AcDbEntity
  8
9
  6
Continuous
 62
     7
370
    25
100
AcDbCircle
 10
174.1565110027659
 20
212.2604860987744
 30
0.0
 40
3.0
100
AcDbArc
 50
89.99999999999991
 51
179.9999999999998
  0
LINE
  5
18D
330
1F
100
AcDbEntity
  8
9
  6
Continuous
 62
     7
370
    25
100
AcDbLine
 10
170.6565110027659
 20
212.2604860987744
 30
0.0
 11
182.6565110027659
 21
212.2604860987744
 31
0.0
  0
LINE
  5
18E
330
1F
100
AcDbEntity
  8
9
  6
Continuous
 62
     7
370
    25
100
AcDbLine
 10
170.6565110027659
 20
204.2604860987744
 30
0.0
 11
170.6565110027659
 21
212.2604860987744
 31
0.0
  0
LINE
  5
18F
330
1F
100
AcDbEntity
  8
9
  6
Continuous
 62
     7
370
    25
100
AcDbLine
 10
171.6565110027659
 20
202.3604860987739
 30
0.0
 11
171.6565110027659
 21
204.2604860987744
 31
0.0
  0
LINE
  5
190
330
1F
100
AcDbEntity
  8
9
  6
Continuous
 62
     7
370
    25
100
AcDbLine
 10
183.6565110027659
 20
202.3604860987739
 30
0.0
 11
176.6565110027659
 21
202.3604860987739
 31
0.0
  0
LINE
  5
191
330
1F
100
AcDbEntity
  8
9
  6
Continuous
 62
     7
370
    25
100
AcDbLine
 10
182.6565110027659
 20
204.2604860987744
 30
0.0
 11
176.6565110027659
 21
204.2604860987744
 31
0.0
  0
LINE
  5
192
330
1F
100
AcDbEntity
  8
9
  6
Continuous
 62
     7
370
    25
100
AcDbLine
 10
176.6565110027659
 20
204.2604860987744
 30
0.0
 11
176.6565110027659
 21
212.2604860987744
 31
0.0
  0
LINE
  5
193
330
1F
100
AcDbEntity
  8
9
  6
Continuous
 62
     7
370
    25
100
AcDbLine
 10
169.6565110027659
 20
197.7604860987744
 30
0.0
 11
176.6565110027659
 21
197.7604860987744
 31
0.0
  0
LINE
  5
194
330
1F
100
AcDbEntity
  8
9
  6
Continuous
 62
     7
370
    25
100
AcDbLine
 10
183.6565110027659
 20
197.7604860987744
 30
0.0
 11
176.6565110027659
 21
197.7604860987744
 31
0.0
  0
LINE
  5
195
330
1F
100
AcDbEntity
  8
9
  6
Continuous
 62
     7
370
    25
100
AcDbLine
 10
182.9065110027659
 20
197.7604860987744
 30
0.0
 11
182.9065110027659
 21
197.2604860987749
 31
0.0
  0
LINE
  5
196
330
1F
100
AcDbEntity
  8
9
  6
Continuous
 62
     7
370
    25
100
AcDbLine
 10
181.6565110027659
 20
202.3604860987739
 30
0.0
 11
181.6565110027659
 21
204.2604860987744
 31
0.0
  0
ARC
  5
197
330
1F
100
AcDbEntity
  8
9
  6
Continuous
 62
     7
370
    25
100
AcDbCircle
 10
179.1565110027659
 20
212.2604860987744
 30
0.0
 40
3.0
100
AcDbArc
 50
0.0
 51
89.99999999999991
  0
LINE
  5
198
330
1F
100
AcDbEntity
  8
9
  6
Continuous
 62
     7
370
    25
100
AcDbLine
 10
182.6565110027659
 20
204.2604860987744
 30
0.0
 11
182.6565110027659
 21
212.2604860987744
 31
0.0
  0
LINE
  5
199
330
1F
100
AcDbEntity
  8
9
  6
Continuous
 62
     7
370
    25
100
AcDbLine
 10
339.6226000234483
 20
197.2604860987738
 30
0.0
 11
332.7226000234477
 21
197.2604860987738
 31
0.0
  0
LINE
  5
19A
330
1F
100
AcDbEntity
  8
9
  6
Continuous
 62
     7
370
    25
100
AcDbLine
 10
339.6226000234483
 20
197.5771527654408
 30
0.0
 11
332.7226000234477
 21
197.5771527654408
 31
0.0
  0
ARC
  5
19B
330
1F
100
AcDbEntity
  8
9
  6
Continuous
 62
     7
370
    25
100
AcDbCircle
 10
336.1726000234485
 20
194.6101352215808
 30
0.0
 40
4.550350877192955
100
AcDbArc
 50
40.69569852538191
 51
139.3043014746181
  0
LINE
  5
19C
330
1F
100
AcDbEntity
  8
9
  6
Continuous
 62
     7
370
    25
100
AcDbLine
 10
339.6226000234483
 20
197.2604860987738
 30
0.0
 11
339.6226000234483
 21
197.5771527654408
 31
0.0
  0
LINE
  5
19D
330
1F
100
AcDbEntity
  8
9
  6
Continuous
 62
     7
370
    25
100
AcDbLine
 10
332.7226000234477
 20
197.2604860987738
 30
0.0
 11
332.7226000234477
 21
197.5771527654408
 31
0.0
  0
LINE
  5
19E
330
1F
100
AcDbEntity
  8
9
  6
Continuous
 62
     7
370
    25
100
AcDbLine
 10
125.1065110027675
 20
67.26048609877489
 30
0.0
 11
118.2065110027679
 21
67.26048609877489
 31
0.0
  0
LINE
  5
19F
330
1F
100
AcDbEntity
  8
9
  6
Continuous
 62
     7
370
    25
100
AcDbLine
 10
125.1065110027675
 20
66.94381943210783
 30
0.0
 11
118.2065110027679
 21
66.94381943210783
 31
0.0
  0
ARC
  5
1A0
330
1F
100
AcDbEntity
  8
9
  6
Continuous
 62
     7
370
    25
100
AcDbCircle
 10
121.6565110027677
 20
69.91083697596787
 30
0.0
 40
4.550350877192983
100
AcDbArc
 50
220.6956985253826
 51
319.3043014746167
  0
LINE
  5
1A1
330
1F
100
AcDbEntity
  8
9
  6
Continuous
 62
     7
370
    25
100
AcDbLine
 10
125.1065110027675
 20
67.26048609877489
 30
0.0
 11
125.1065110027675
 21
66.94381943210783
 31
0.0
  0
LINE
  5
1A2
330
1F
100
AcDbEntity
  8
9
  6
Continuous
 62
     7
370
    25
100
AcDbLine
 10
118.2065110027679
 20
67.26048609877489
 30
0.0
 11
118.2065110027679
 21
66.94381943210783
 31
0.0
  0
LINE
  5
1A3
330
1F
100
AcDbEntity
  8
9
  6
Continuous
 62
     7
370
    25
100
AcDbLine
 10
136.6065110027675
 20
67.26048609877489
 30
0.0
 11
129.706511002767
 21
67.26048609877489
 31
0.0
  0
LINE
  5
1A4
330
1F
100
AcDbEntity
  8
9
  6
Continuous
 62
     7
370
    25
100
AcDbLine
 10
136.6065110027675
 20
66.94381943210783
 30
0.0
 11
129.706511002767
 21
66.94381943210783
 31
0.0
  0
ARC
  5
1A5
330
1F
100
AcDbEntity
  8
9
  6
Continuous
 62
     7
370
    25
100
AcDbCircle
 10
133.1565110027677
 20
69.91083697596787
 30
0.0
 40
4.550350877192983
100
AcDbArc
 50
220.6956985253825
 51
319.3043014746166
  0
LINE
  5
1A6
330
1F
100
AcDbEntity
  8
9
  6
Continuous
 62
     7
370
    25
100
AcDbLine
 10
136.6065110027675
 20
67.26048609877489
 30
0.0
 11
136.6065110027675
 21
66.94381943210783
 31
0.0
  0
LINE
  5
1A7
330
1F
100
AcDbEntity
  8
9
  6
Continuous
 62
     7
370
    25
100
AcDbLine
 10
129.706511002767
 20
67.26048609877489
 30
0.0
 11
129.706511002767
 21
66.94381943210783
 31
0.0
  0
LINE
  5
1A8
330
1F
100
AcDbEntity
  8
9
  6
Continuous
 62
     7
370
    25
100
AcDbLine
 10
125.1065110027675
 20
197.2604860987753
 30
0.0
 11
118.2065110027679
 21
197.2604860987753
 31
0.0
  0
LINE
  5
1A9
330
1F
100
AcDbEntity
  8
9
  6
Continuous
 62
     7
370
    25
100
AcDbLine
 10
125.1065110027675
 20
197.5771527654424
 30
0.0
 11
118.2065110027679
 21
197.5771527654424
 31
0.0
  0
ARC
  5
1AA
330
1F
100
AcDbEntity
  8
9
  6
Continuous
 62
     7
370
    25
100
AcDbCircle
 10
121.6565110027677
 20
194.6101352215824
 30
0.0
 40
4.550350877192983
100
AcDbArc
 50
40.69569852538281
 51
139.3043014746172
  0
LINE
  5
1AB
330
1F
100
AcDbEntity
  8
9
  6
Continuous
 62
     7
370
    25
100
AcDbLine
 10
125.1065110027675
 20
197.2604860987753
 30
0.0
 11
125.1065110027675
 21
197.5771527654424
 31
0.0
  0
LINE
  5
1AC
330
1F
100
AcDbEntity
  8
9
  6
Continuous
 62
     7
370
    25
100
AcDbLine
 10
118.2065110027679
 20
197.2604860987753
 30
0.0
 11
118.2065110027679
 21
197.5771527654424
 31
0.0
  0
LINE
  5
1AD
330
1F
100
AcDbEntity
  8
9
  6
Continuous
 62
     7
370
    25
100
AcDbLine
 10
136.6065110027675
 20
197.2604860987753
 30
0.0
 11
129.706511002767
 21
197.2604860987753
 31
0.0
  0
LINE
  5
1AE
330
1F
100
AcDbEntity
  8
9
  6
Continuous
 62
     7
370
    25
100
AcDbLine
 10
136.6065110027675
 20
197.5771527654424
 30
0.0
 11
129.706511002767
 21
197.5771527654424
 31
0.0
  0
ARC
  5
1AF
330
1F
100
AcDbEntity
  8
9
  6
Continuous
 62
     7
370
    25
100
AcDbCircle
 10
133.1565110027677
 20
194.6101352215824
 30
0.0
 40
4.550350877192983
100
AcDbArc
 50
40.69569852538292
 51
139.3043014746171
  0
LINE
  5
1B0
330
1F
100
AcDbEntity
  8
9
  6
Continuous
 62
     7
370
    25
100
AcDbLine
 10
136.6065110027675
 20
197.2604860987753
 30
0.0
 11
136.6065110027675
 21
197.5771527654424
 31
0.0
  0
LINE
  5
1B1
330
1F
100
AcDbEntity
  8
9
  6
Continuous
 62
     7
370
    25
100
AcDbLine
 10
129.706511002767
 20
197.2604860987753
 30
0.0
 11
129.706511002767
 21
197.5771527654424
 31
0.0
  0
LINE
  5
1B2
330
1F
100
AcDbEntity
  8
9
  6
Continuous
 62
     7
370
    25
100
AcDbLine
 10
168.1065110027657
 20
197.2604860987753
 30
0.0
 11
161.2065110027661
 21
197.2604860987753
 31
0.0
  0
LINE
  5
1B3
330
1F
100
AcDbEntity
  8
9
  6
Continuous
 62
     7
370
    25
100
AcDbLine
 10
168.1065110027657
 20
197.5771527654424
 30
0.0
 11
161.2065110027661
 21
197.5771527654424
 31
0.0
  0
ARC
  5
1B4
330
1F
100
AcDbEntity
  8
9
  6
Continuous
 62
     7
370
    25
100
AcDbCircle
 10
164.6565110027659
 20
194.6101352215824
 30
0.0
 40
4.550350877192983
100
AcDbArc
 50
40.69569852538292
 51
139.3043014746171
  0
LINE
  5
1B5
330
1F
100
AcDbEntity
  8
9
  6
Continuous
 62
     7
370
    25
100
AcDbLine
 10
168.1065110027657
 20
197.2604860987753
 30
0.0
 11
168.1065110027657
 21
197.5771527654424
 31
0.0
  0
LINE
  5
1B6
330
1F
100
AcDbEntity
  8
9
  6
Continuous
 62
     7
370
    25
100
AcDbLine
 10
161.2065110027661
 20
197.2604860987753
 30
0.0
 11
161.2065110027661
 21
197.5771527654424
 31
0.0
  0
LINE
  5
1B7
330
1F
100
AcDbEntity
  8
9
  6
Continuous
 62
     7
370
    25
100
AcDbLine
 10
228.2065110027643
 20
197.2604860987744
 30
0.0
 11
235.1065110027648
 21
197.2604860987744
 31
0.0
  0
LINE
  5
1B8
330
1F
100
AcDbEntity
  8
9
  6
Continuous
 62
     7
370
    25
100
AcDbLine
 10
228.2065110027643
 20
197.5771527654415
 30
0.0
 11
235.1065110027648
 21
197.5771527654415
 31
0.0
  0
ARC
  5
1B9
330
1F
100
AcDbEntity
  8
9
  6
Continuous
 62
     7
370
    25
100
AcDbCircle
 10
231.6565110027641
 20
194.6101352215815
 30
0.0
 40
4.550350877192983
100
AcDbArc
 50
40.69569852538292
 51
139.3043014746171
  0
LINE
  5
1BA
330
1F
100
AcDbEntity
  8
9
  6
Continuous
 62
     7
370
    25
100
AcDbLine
 10
228.2065110027643
 20
197.2604860987744
 30
0.0
 11
228.2065110027643
 21
197.5771527654415
 31
0.0
  0
LINE
  5
1BB
330
1F
100
AcDbEntity
  8
9
  6
Continuous
 62
     7
370
    25
100
AcDbLine
 10
235.1065110027648
 20
197.2604860987744
 30
0.0
 11
235.1065110027648
 21
197.5771527654415
 31
0.0
  0
LINE
  5
1BC
330
1F
100
AcDbEntity
  8
9
  6
Continuous
 62
     7
370
    25
100
AcDbLine
 10
216.7065110027652
 20
197.2604860987744
 30
0.0
 11
223.6065110027648
 21
197.2604860987744
 31
0.0
  0
LINE
  5
1BD
330
1F
100
AcDbEntity
  8
9
  6
Continuous
 62
     7
370
    25
100
AcDbLine
 10
216.7065110027652
 20
197.5771527654415
 30
0.0
 11
223.6065110027648
 21
197.5771527654415
 31
0.0
  0
ARC
  5
1BE
330
1F
100
AcDbEntity
  8
9
  6
Continuous
 62
     7
370
    25
100
AcDbCircle
 10
220.156511002765
 20
194.6101352215815
 30
0.0
 40
4.550350877192983
100
AcDbArc
 50
40.69569852538292
 51
139.3043014746171
  0
LINE
  5
1BF
330
1F
100
AcDbEntity
  8
9
  6
Continuous
 62
     7
370
    25
100
AcDbLine
 10
216.7065110027652
 20
197.2604860987744
 30
0.0
 11
216.7065110027652
 21
197.5771527654415
 31
0.0
  0
LINE
  5
1C0
330
1F
100
AcDbEntity
  8
9
  6
Continuous
 62
     7
370
    25
100
AcDbLine
 10
223.6065110027648
 20
197.2604860987744
 30
0.0
 11
223.6065110027648
 21
197.5771527654415
 31
0.0
  0
LINE
  5
1C1
330
1F
100
AcDbEntity
  8
9
  6
Continuous
 62
     7
370
    25
100
AcDbLine
 10
184.6565110027659
 20
197.2604860987749
 30
0.0
 11
192.6565110027659
 21
197.2604860987749
 31
0.0
  0
LINE
  5
1C2
330
1F
100
AcDbEntity
  8
9
  6
Continuous
 62
     7
370
    25
100
AcDbLine
 10
185.2065110027661
 20
197.2604860987753
 30
0.0
 11
192.1065110027666
 21
197.2604860987753
 31
0.0
  0
LINE
  5
1C3
330
1F
100
AcDbEntity
  8
9
  6
Continuous
 62
     7
370
    25
100
AcDbLine
 10
185.2065110027661
 20
197.5771527654424
 30
0.0
 11
192.1065110027666
 21
197.5771527654424
 31
0.0
  0
ARC
  5
1C4
330
1F
100
AcDbEntity
  8
9
  6
Continuous
 62
     7
370
    25
100
AcDbCircle
 10
188.6565110027659
 20
194.6101352215824
 30
0.0
 40
4.550350877192983
100
AcDbArc
 50
40.69569852538292
 51
139.3043014746171
  0
LINE
  5
1C5
330
1F
100
AcDbEntity
  8
9
  6
Continuous
 62
     7
370
    25
100
AcDbLine
 10
185.2065110027661
 20
197.2604860987753
 30
0.0
 11
185.2065110027661
 21
197.5771527654424
 31
0.0
  0
LINE
  5
1C6
330
1F
100
AcDbEntity
  8
9
  6
Continuous
 62
     7
370
    25
100
AcDbLine
 10
192.1065110027666
 20
197.2604860987753
 30
0.0
 11
192.1065110027666
 21
197.5771527654424
 31
0.0
  0
LINE
  5
1C7
330
1F
100
AcDbEntity
  8
9
  6
Continuous
 62
     7
370
    25
100
AcDbLine
 10
228.2065110027643
 20
67.26048609877489
 30
0.0
 11
235.1065110027648
 21
67.26048609877489
 31
0.0
  0
LINE
  5
1C8
330
1F
100
AcDbEntity
  8
9
  6
Continuous
 62
     7
370
    25
100
AcDbLine
 10
228.2065110027643
 20
66.94381943210783
 30
0.0
 11
235.1065110027648
 21
66.94381943210783
 31
0.0
  0
ARC
  5
1C9
330
1F
100
AcDbEntity
  8
9
  6
Continuous
 62
     7
370
    25
100
AcDbCircle
 10
231.6565110027641
 20
69.91083697596787
 30
0.0
 40
4.550350877192983
100
AcDbArc
 50
220.6956985253827
 51
319.3043014746166
  0
LINE
  5
1CA
330
1F
100
AcDbEntity
  8
9
  6
Continuous
 62
     7
370
    25
100
AcDbLine
 10
228.2065110027643
 20
67.26048609877489
 30
0.0
 11
228.2065110027643
 21
66.94381943210783
 31
0.0
  0
LINE
  5
1CB
330
1F
100
AcDbEntity
  8
9
  6
Continuous
 62
     7
370
    25
100
AcDbLine
 10
235.1065110027648
 20
67.26048609877489
 30
0.0
 11
235.1065110027648
 21
66.94381943210783
 31
0.0
  0
LINE
  5
1CC
330
1F
100
AcDbEntity
  8
9
  6
Continuous
 62
     7
370
    25
100
AcDbLine
 10
216.7065110027652
 20
67.26048609877489
 30
0.0
 11
223.6065110027648
 21
67.26048609877489
 31
0.0
  0
LINE
  5
1CD
330
1F
100
AcDbEntity
  8
9
  6
Continuous
 62
     7
370
    25
100
AcDbLine
 10
216.7065110027652
 20
66.94381943210783
 30
0.0
 11
223.6065110027648
 21
66.94381943210783
 31
0.0
  0
ARC
  5
1CE
330
1F
100
AcDbEntity
  8
9
  6
Continuous
 62
     7
370
    25
100
AcDbCircle
 10
220.156511002765
 20
69.91083697596787
 30
0.0
 40
4.550350877192983
100
AcDbArc
 50
220.6956985253827
 51
319.3043014746166
  0
LINE
  5
1CF
330
1F
100
AcDbEntity
  8
9
  6
Continuous
 62
     7
370
    25
100
AcDbLine
 10
216.7065110027652
 20
67.26048609877489
 30
0.0
 11
216.7065110027652
 21
66.94381943210783
 31
0.0
  0
LINE
  5
1D0
330
1F
100
AcDbEntity
  8
9
  6
Continuous
 62
     7
370
    25
100
AcDbLine
 10
223.6065110027648
 20
67.26048609877489
 30
0.0
 11
223.6065110027648
 21
66.94381943210783
 31
0.0
  0
LINE
  5
1D1
330
1F
100
AcDbEntity
  8
5
  6
Continuous
 62
     1
370
    25
100
AcDbLine
 10
179.2519300643207
 20
224.794100925475
 30
0.0
 11
179.8223313143208
 21
227.0845743629748
 31
0.0
  0
LINE
  5
1D2
330
1F
100
AcDbEntity
  8
5
  6
Continuous
 62
     1
370
    25
100
AcDbLine
 10
178.9256016268209
 20
222.4317781129753
 30
0.0
 11
179.2519300643207
 21
224.794100925475
 31
0.0
  0
LINE
  5
1D3
330
1F
100
AcDbEntity
  8
5
  6
Continuous
 62
     1
370
    25
100
AcDbLine
 10
178.7487416268204
 20
220.0254368629753
 30
0.0
 11
178.9256016268209
 21
222.4317781129753
 31
0.0
  0
LINE
  5
1D4
330
1F
100
AcDbEntity
  8
5
  6
Continuous
 62
     1
370
    25
100
AcDbLine
 10
178.5066959479764
 20
215.2604860987744
 30
0.0
 11
178.7487416268204
 21
220.0254368629753
 31
0.0
  0
LINE
  5
1D5
330
1F
100
AcDbEntity
  8
5
  6
Continuous
 62
     1
370
    25
100
AcDbLine
 10
175.0556109080708
 20
220.2546403004749
 30
0.0
 11
175.2442091580706
 21
222.8210296754755
 31
0.0
  0
LINE
  5
1D6
330
1F
100
AcDbEntity
  8
5
  6
Continuous
 62
     1
370
    25
100
AcDbLine
 10
175.2442091580706
 20
222.8210296754755
 30
0.0
 11
175.6137963768206
 21
225.4963262379747
 31
0.0
  0
LINE
  5
1D7
330
1F
100
AcDbEntity
  8
5
  6
Continuous
 62
     1
370
    25
100
AcDbLine
 10
174.8063260575564
 20
215.2604860987744
 30
0.0
 11
175.0556109080708
 21
220.2546403004749
 31
0.0
  0
LINE
  5
1D8
330
1F
100
AcDbEntity
  8
5
  6
Continuous
 62
     1
370
    25
100
AcDbLine
 10
180.3022791268204
 20
228.3691218629751
 30
0.0
 11
180.9614308113496
 21
229.7920334063788
 31
0.0
  0
LINE
  5
1D9
330
1F
100
AcDbEntity
  8
5
  6
Continuous
 62
     1
370
    25
100
AcDbLine
 10
176.2827887518206
 20
228.1826996754749
 30
0.0
 11
176.8856921893203
 21
229.7962696754753
 31
0.0
  0
LINE
  5
1DA
330
1F
100
AcDbEntity
  8
5
  6
Continuous
 62
     1
370
    25
100
AcDbLine
 10
179.8223313143208
 20
227.0845743629748
 30
0.0
 11
180.3022791268204
 21
228.3691218629751
 31
0.0
  0
LINE
  5
1DB
330
1F
100
AcDbEntity
  8
5
  6
Continuous
 62
     1
370
    25
100
AcDbLine
 10
175.6137963768206
 20
225.4963262379747
 30
0.0
 11
176.2827887518206
 21
228.1826996754749
 31
0.0
  0
LINE
  5
1DC
330
1F
100
AcDbEntity
  8
5
  6
Continuous
 62
     1
370
    25
100
AcDbLine
 10
180.4060063143206
 20
235.0115121754748
 30
0.0
 11
181.2222147518205
 21
235.7425396754757
 31
0.0
  0
LINE
  5
1DD
330
1F
100
AcDbEntity
  8
5
  6
Continuous
 62
     1
370
    25
100
AcDbLine
 10
179.214247876821
 20
233.7054237379748
 30
0.0
 11
180.4060063143206
 21
235.0115121754748
 31
0.0
  0
LINE
  5
1DE
330
1F
100
AcDbEntity
  8
5
  6
Continuous
 62
     1
370
    25
100
AcDbLine
 10
182.0944088143206
 20
231.3725968629756
 30
0.0
 11
183.0134310018202
 21
232.3797715504747
 31
0.0
  0
LINE
  5
1DF
330
1F
100
AcDbEntity
  8
5
  6
Continuous
 62
     1
370
    25
100
AcDbLine
 10
177.3370470955706
 20
230.7707109254748
 30
0.0
 11
178.1766140955706
 21
232.257856550475
 31
0.0
  0
LINE
  5
1E0
330
1F
100
AcDbEntity
  8
5
  6
Continuous
 62
     1
370
    25
100
AcDbLine
 10
178.1766140955706
 20
232.257856550475
 30
0.0
 11
179.214247876821
 21
233.7054237379748
 31
0.0
  0
LINE
  5
1E1
330
1F
100
AcDbEntity
  8
5
  6
Continuous
 62
     1
370
    25
100
AcDbLine
 10
176.8856921893203
 20
229.7962696754753
 30
0.0
 11
177.3370470955706
 21
230.7707109254748
 31
0.0
  0
LINE
  5
1E2
330
1F
100
AcDbEntity
  8
5
  6
Continuous
 62
     1
370
    25
100
AcDbLine
 10
180.9614308113496
 20
229.7920334063788
 30
0.0
 11
182.0944088143206
 21
231.3725968629756
 31
0.0
  0
LINE
  5
1E3
330
1F
100
AcDbEntity
  8
5
  6
Continuous
 62
     1
370
    25
100
AcDbLine
 10
186.6295103768207
 20
234.558805612975
 30
0.0
 11
187.3005285018207
 21
234.7193046754751
 31
0.0
  0
LINE
  5
1E4
330
1F
100
AcDbEntity
  8
5
  6
Continuous
 62
     1
370
    25
100
AcDbLine
 10
186.6173235018205
 20
238.3602434254749
 30
0.0
 11
188.1081575643202
 21
238.5645181129753
 31
0.0
  0
LINE
  5
1E5
330
1F
100
AcDbEntity
  8
5
  6
Continuous
 62
     1
370
    25
100
AcDbLine
 10
185.6247406893208
 20
238.1228306129756
 30
0.0
 11
186.6173235018205
 21
238.3602434254749
 31
0.0
  0
LINE
  5
1E6
330
1F
100
AcDbEntity
  8
5
  6
Continuous
 62
     1
370
    25
100
AcDbLine
 10
184.8748200643204
 20
237.8786421754753
 30
0.0
 11
185.6247406893208
 21
238.1228306129756
 31
0.0
  0
LINE
  5
1E7
330
1F
100
AcDbEntity
  8
5
  6
Continuous
 62
     1
370
    25
100
AcDbLine
 10
185.4112044393205
 20
234.0858299879751
 30
0.0
 11
186.1744681893206
 21
234.4106090504752
 31
0.0
  0
LINE
  5
1E8
330
1F
100
AcDbEntity
  8
5
  6
Continuous
 62
     1
370
    25
100
AcDbLine
 10
186.1744681893206
 20
234.4106090504752
 30
0.0
 11
186.6295103768207
 21
234.558805612975
 31
0.0
  0
LINE
  5
1E9
330
1F
100
AcDbEntity
  8
5
  6
Continuous
 62
     1
370
    25
100
AcDbLine
 10
184.6799110018201
 20
233.682125300475
 30
0.0
 11
185.4112044393205
 21
234.0858299879751
 31
0.0
  0
LINE
  5
1EA
330
1F
100
AcDbEntity
  8
5
  6
Continuous
 62
     1
370
    25
100
AcDbLine
 10
183.9862650643208
 20
233.2096699879753
 30
0.0
 11
184.6799110018201
 21
233.682125300475
 31
0.0
  0
LINE
  5
1EB
330
1F
100
AcDbEntity
  8
5
  6
Continuous
 62
     1
370
    25
100
AcDbLine
 10
182.7401513143204
 20
236.8376009254757
 30
0.0
 11
183.7884885018202
 21
237.416361862975
 31
0.0
  0
LINE
  5
1EC
330
1F
100
AcDbEntity
  8
5
  6
Continuous
 62
     1
370
    25
100
AcDbLine
 10
183.7884885018202
 20
237.416361862975
 30
0.0
 11
184.8748200643204
 21
237.8786421754753
 31
0.0
  0
LINE
  5
1ED
330
1F
100
AcDbEntity
  8
5
  6
Continuous
 62
     1
370
    25
100
AcDbLine
 10
181.7976341268204
 20
236.1956740504752
 30
0.0
 11
182.7401513143204
 21
236.8376009254757
 31
0.0
  0
LINE
  5
1EE
330
1F
100
AcDbEntity
  8
5
  6
Continuous
 62
     1
370
    25
100
AcDbLine
 10
181.2222147518205
 20
235.7425396754757
 30
0.0
 11
181.7976341268204
 21
236.1956740504752
 31
0.0
  0
LINE
  5
1EF
330
1F
100
AcDbEntity
  8
5
  6
Continuous
 62
     1
370
    25
100
AcDbLine
 10
183.0134310018202
 20
232.3797715504747
 30
0.0
 11
183.6034422518205
 21
232.908189362975
 31
0.0
  0
LINE
  5
1F0
330
1F
100
AcDbEntity
  8
5
  6
Continuous
 62
     1
370
    25
100
AcDbLine
 10
183.6034422518205
 20
232.908189362975
 30
0.0
 11
183.9862650643208
 21
233.2096699879753
 31
0.0
  0
LINE
  5
1F1
330
1F
100
AcDbEntity
  8
5
  6
Continuous
 62
     1
370
    25
100
AcDbLine
 10
202.9977322518207
 20
244.0496178004755
 30
0.0
 11
203.1335800643201
 21
245.045160612975
 31
0.0
  0
LINE
  5
1F2
330
1F
100
AcDbEntity
  8
5
  6
Continuous
 62
     1
370
    25
100
AcDbLine
 10
199.34429443932
 20
244.6420224879753
 30
0.0
 11
199.4525888143207
 21
245.435903737975
 31
0.0
  0
LINE
  5
1F3
330
1F
100
AcDbEntity
  8
5
  6
Continuous
 62
     1
370
    25
100
AcDbLine
 10
202.8272431893201
 20
243.1432449879753
 30
0.0
 11
202.9977322518207
 21
244.0496178004755
 31
0.0
  0
LINE
  5
1F4
330
1F
100
AcDbEntity
  8
5
  6
Continuous
 62
     1
370
    25
100
AcDbLine
 10
202.4077094393206
 20
241.6033512379749
 30
0.0
 11
202.8272431893201
 21
243.1432449879753
 31
0.0
  0
LINE
  5
1F5
330
1F
100
AcDbEntity
  8
5
  6
Continuous
 62
     1
370
    25
100
AcDbLine
 10
197.0929253768199
 20
240.5220609254752
 30
0.0
 11
197.7354303768207
 21
240.8940034254751
 31
0.0
  0
LINE
  5
1F6
330
1F
100
AcDbEntity
  8
5
  6
Continuous
 62
     1
370
    25
100
AcDbLine
 10
196.2527016268205
 20
240.172769362975
 30
0.0
 11
197.0929253768199
 21
240.5220609254752
 31
0.0
  0
LINE
  5
1F7
330
1F
100
AcDbEntity
  8
5
  6
Continuous
 62
     1
370
    25
100
AcDbLine
 10
195.1831703768203
 20
239.819754675475
 30
0.0
 11
196.2527016268205
 21
240.172769362975
 31
0.0
  0
LINE
  5
1F8
330
1F
100
AcDbEntity
  8
5
  6
Continuous
 62
     1
370
    25
100
AcDbLine
 10
198.90204037682
 20
242.8116787379754
 30
0.0
 11
199.2184135018206
 21
243.9728428004751
 31
0.0
  0
LINE
  5
1F9
330
1F
100
AcDbEntity
  8
5
  6
Continuous
 62
     1
370
    25
100
AcDbLine
 10
199.2184135018206
 20
243.9728428004751
 30
0.0
 11
199.34429443932
 21
244.6420224879753
 31
0.0
  0
LINE
  5
1FA
330
1F
100
AcDbEntity
  8
5
  6
Continuous
 62
     1
370
    25
100
AcDbLine
 10
198.5196106893209
 20
241.9016984254754
 30
0.0
 11
198.90204037682
 21
242.8116787379754
 31
0.0
  0
LINE
  5
1FB
330
1F
100
AcDbEntity
  8
5
  6
Continuous
 62
     1
370
    25
100
AcDbLine
 10
197.7354303768207
 20
240.8940034254751
 30
0.0
 11
197.8819388143202
 21
241.0102643629748
 31
0.0
  0
LINE
  5
1FC
330
1F
100
AcDbEntity
  8
5
  6
Continuous
 62
     1
370
    25
100
AcDbLine
 10
197.8819388143202
 20
241.0102643629748
 30
0.0
 11
198.0616894393206
 21
241.1991724879749
 31
0.0
  0
LINE
  5
1FD
330
1F
100
AcDbEntity
  8
5
  6
Continuous
 62
     1
370
    25
100
AcDbLine
 10
198.0616894393206
 20
241.1991724879749
 30
0.0
 11
198.5196106893209
 21
241.9016984254754
 31
0.0
  0
LINE
  5
1FE
330
1F
100
AcDbEntity
  8
5
  6
Continuous
 62
     1
370
    25
100
AcDbLine
 10
199.8233403768209
 20
237.8274434254749
 30
0.0
 11
200.3843297518206
 21
238.2725649879753
 31
0.0
  0
LINE
  5
1FF
330
1F
100
AcDbEntity
  8
5
  6
Continuous
 62
     1
370
    25
100
AcDbLine
 10
198.7369625643205
 20
237.1985243629747
 30
0.0
 11
199.8233403768209
 21
237.8274434254749
 31
0.0
  0
LINE
  5
200
330
1F
100
AcDbEntity
  8
5
  6
Continuous
 62
     1
370
    25
100
AcDbLine
 10
195.5701441268202
 20
236.0718281129753
 30
0.0
 11
196.2976797518204
 21
236.2912496754748
 31
0.0
  0
LINE
  5
201
330
1F
100
AcDbEntity
  8
5
  6
Continuous
 62
     1
370
    25
100
AcDbLine
 10
195.0110047518201
 20
235.9050159254753
 30
0.0
 11
195.5701441268202
 21
236.0718281129753
 31
0.0
  0
LINE
  5
202
330
1F
100
AcDbEntity
  8
5
  6
Continuous
 62
     1
370
    25
100
AcDbLine
 10
196.2976797518204
 20
236.2912496754748
 30
0.0
 11
197.544429439321
 21
236.7028053004747
 31
0.0
  0
LINE
  5
203
330
1F
100
AcDbEntity
  8
5
  6
Continuous
 62
     1
370
    25
100
AcDbLine
 10
194.0551906893206
 20
235.6304874879747
 30
0.0
 11
195.0110047518201
 21
235.9050159254753
 31
0.0
  0
LINE
  5
204
330
1F
100
AcDbEntity
  8
5
  6
Continuous
 62
     1
370
    25
100
AcDbLine
 10
197.544429439321
 20
236.7028053004747
 30
0.0
 11
198.7369625643205
 21
237.1985243629747
 31
0.0
  0
LINE
  5
205
330
1F
100
AcDbEntity
  8
5
  6
Continuous
 62
     1
370
    25
100
AcDbLine
 10
200.3843297518206
 20
238.2725649879753
 30
0.0
 11
200.9760753768205
 21
238.8945812379748
 31
0.0
  0
LINE
  5
206
330
1F
100
AcDbEntity
  8
5
  6
Continuous
 62
     1
370
    25
100
AcDbLine
 10
200.9760753768205
 20
238.8945812379748
 30
0.0
 11
201.8013950643208
 21
240.160628737975
 31
0.0
  0
LINE
  5
207
330
1F
100
AcDbEntity
  8
5
  6
Continuous
 62
     1
370
    25
100
AcDbLine
 10
194.505029751821
 20
239.6151678004749
 30
0.0
 11
195.1831703768203
 21
239.819754675475
 31
0.0
  0
LINE
  5
208
330
1F
100
AcDbEntity
  8
5
  6
Continuous
 62
     1
370
    25
100
AcDbLine
 10
188.4847366268204
 20
234.881526550475
 30
0.0
 11
189.6876181893213
 21
234.9630653004756
 31
0.0
  0
LINE
  5
209
330
1F
100
AcDbEntity
  8
5
  6
Continuous
 62
     1
370
    25
100
AcDbLine
 10
189.6876181893213
 20
234.9630653004756
 30
0.0
 11
190.890684751821
 21
235.0385106129747
 31
0.0
  0
LINE
  5
20A
330
1F
100
AcDbEntity
  8
5
  6
Continuous
 62
     1
370
    25
100
AcDbLine
 10
190.890684751821
 20
235.0385106129747
 30
0.0
 11
191.5812550643204
 21
235.1089724879753
 31
0.0
  0
LINE
  5
20B
330
1F
100
AcDbEntity
  8
5
  6
Continuous
 62
     1
370
    25
100
AcDbLine
 10
187.3005285018207
 20
234.7193046754751
 30
0.0
 11
188.4847366268204
 21
234.881526550475
 31
0.0
  0
LINE
  5
20C
330
1F
100
AcDbEntity
  8
5
  6
Continuous
 62
     1
370
    25
100
AcDbLine
 10
193.1022903768207
 20
235.3872818629748
 30
0.0
 11
194.0551906893206
 21
235.6304874879747
 31
0.0
  0
LINE
  5
20D
330
1F
100
AcDbEntity
  8
5
  6
Continuous
 62
     1
370
    25
100
AcDbLine
 10
192.1434816268202
 20
235.1927081129747
 30
0.0
 11
193.1022903768207
 21
235.3872818629748
 31
0.0
  0
LINE
  5
20E
330
1F
100
AcDbEntity
  8
5
  6
Continuous
 62
     1
370
    25
100
AcDbLine
 10
191.5812550643204
 20
235.1089724879753
 30
0.0
 11
192.1434816268202
 21
235.1927081129747
 31
0.0
  0
LINE
  5
20F
330
1F
100
AcDbEntity
  8
5
  6
Continuous
 62
     1
370
    25
100
AcDbLine
 10
189.4456613143211
 20
238.6551565504747
 30
0.0
 11
190.5869378768202
 21
238.7267399879752
 31
0.0
  0
LINE
  5
210
330
1F
100
AcDbEntity
  8
5
  6
Continuous
 62
     1
370
    25
100
AcDbLine
 10
190.5869378768202
 20
238.7267399879752
 30
0.0
 11
191.1205472518204
 21
238.7811531129751
 31
0.0
  0
LINE
  5
211
330
1F
100
AcDbEntity
  8
5
  6
Continuous
 62
     1
370
    25
100
AcDbLine
 10
191.1205472518204
 20
238.7811531129751
 30
0.0
 11
191.5025722518203
 21
238.8380637379755
 31
0.0
  0
LINE
  5
212
330
1F
100
AcDbEntity
  8
5
  6
Continuous
 62
     1
370
    25
100
AcDbLine
 10
193.0867850643199
 20
239.2019356129754
 30
0.0
 11
193.9722991268209
 21
239.4562990504751
 31
0.0
  0
LINE
  5
213
330
1F
100
AcDbEntity
  8
5
  6
Continuous
 62
     1
370
    25
100
AcDbLine
 10
191.5025722518203
 20
238.8380637379755
 30
0.0
 11
192.2763347518203
 21
238.9950824879747
 31
0.0
  0
LINE
  5
214
330
1F
100
AcDbEntity
  8
5
  6
Continuous
 62
     1
370
    25
100
AcDbLine
 10
192.2763347518203
 20
238.9950824879747
 30
0.0
 11
193.0867850643199
 21
239.2019356129754
 31
0.0
  0
LINE
  5
215
330
1F
100
AcDbEntity
  8
5
  6
Continuous
 62
     1
370
    25
100
AcDbLine
 10
193.9722991268209
 20
239.4562990504751
 30
0.0
 11
194.505029751821
 21
239.6151678004749
 31
0.0
  0
LINE
  5
216
330
1F
100
AcDbEntity
  8
5
  6
Continuous
 62
     1
370
    25
100
AcDbLine
 10
201.8013950643208
 20
240.160628737975
 30
0.0
 11
202.4077094393206
 21
241.6033512379749
 31
0.0
  0
LINE
  5
217
330
1F
100
AcDbEntity
  8
5
  6
Continuous
 62
     1
370
    25
100
AcDbLine
 10
188.1081575643202
 20
238.5645181129753
 30
0.0
 11
189.4456613143211
 21
238.6551565504747
 31
0.0
  0
ARC
  5
218
330
1F
100
AcDbEntity
  8
5
  6
Continuous
 62
     1
370
    25
100
AcDbCircle
 10
200.4980088164448
 20
246.7801210401799
 30
0.0
 40
1.387286231200875
100
AcDbArc
 50
48.1790344183979
 51
131.8148257719619
  0
ARC
  5
219
330
1F
100
AcDbEntity
  8
5
  6
Continuous
 62
     1
370
    25
100
AcDbCircle
 10
202.3480585018206
 20
248.8481995269626
 30
0.0
 40
1.38753494312067
100
AcDbArc
 50
228.1909756726044
 51
311.8090243273949
  0
ARC
  5
21A
330
1F
100
AcDbEntity
  8
5
  6
Continuous
 62
     1
370
    25
100
AcDbCircle
 10
202.3480585018206
 20
246.7802516817869
 30
0.0
 40
1.38715574332511
100
AcDbArc
 50
48.17696566712426
 51
131.8230343328757
  0
ARC
  5
21B
330
1F
100
AcDbEntity
  8
5
  6
Continuous
 62
     1
370
    25
100
AcDbCircle
 10
202.3480585018206
 20
249.8391818892637
 30
0.0
 40
1.387515022395519
100
AcDbArc
 50
228.1902399436006
 51
311.8097600563987
  0
ARC
  5
21C
330
1F
100
AcDbEntity
  8
5
  6
Continuous
 62
     1
370
    25
100
AcDbCircle
 10
200.49806418567
 20
247.771062614434
 30
0.0
 40
1.387299627082399
100
AcDbArc
 50
48.18259787107937
 51
131.8173991288919
  0
LINE
  5
21D
330
1F
100
AcDbEntity
  8
5
  6
Continuous
 62
     1
370
    25
100
AcDbLine
 10
199.565334751821
 20
246.9192730504751
 30
0.0
 11
199.5730699236547
 21
247.814070329016
 31
0.0
  0
LINE
  5
21E
330
1F
100
AcDbEntity
  8
5
  6
Continuous
 62
     1
370
    25
100
AcDbLine
 10
203.2623978768206
 20
246.7405734567251
 30
0.0
 11
203.2730585018207
 21
247.8139712067255
 31
0.0
  0
LINE
  5
21F
330
1F
100
AcDbEntity
  8
5
  6
Continuous
 62
     1
370
    25
100
AcDbLine
 10
203.2730585018207
 20
248.8049802950986
 30
0.0
 11
203.2730585018207
 21
256.1624075956247
 31
0.0
  0
LINE
  5
220
330
1F
100
AcDbEntity
  8
5
  6
Continuous
 62
     1
370
    25
100
AcDbLine
 10
203.1335800643201
 20
245.045160612975
 30
0.0
 11
203.2623978768206
 21
246.7405734567251
 31
0.0
  0
ARC
  5
221
330
1F
100
AcDbEntity
  8
5
  6
Continuous
 62
     1
370
    25
100
AcDbCircle
 10
200.4980642398123
 20
249.8391668668796
 30
0.0
 40
1.387499999999989
100
AcDbArc
 50
228.1900000000097
 51
311.8099970000235
  0
LINE
  5
222
330
1F
100
AcDbEntity
  8
5
  6
Continuous
 62
     1
370
    25
100
AcDbLine
 10
199.5730699236547
 20
248.804980343531
 30
0.0
 11
199.5730699236547
 21
256.1624075956247
 31
0.0
  0
LINE
  5
223
330
1F
100
AcDbEntity
  8
5
  6
Continuous
 62
     1
370
    25
100
AcDbLine
 10
199.4525888143207
 20
245.435903737975
 30
0.0
 11
199.565334751821
 21
246.9192730504751
 31
0.0
  0
LINE
  5
224
330
1F
100
AcDbEntity
  8
5
  6
Continuous
 62
     1
370
    25
100
AcDbLine
 10
330.822600023449
 20
215.2604860987744
 30
0.0
 11
330.8226115716334
 21
233.9843946090537
 31
0.0
  0
ARC
  5
225
330
1F
100
AcDbEntity
  8
5
  6
Continuous
 62
     1
370
    25
100
AcDbCircle
 10
331.7476057073145
 20
235.0183120071356
 30
0.0
 40
1.387299296151184
100
AcDbArc
 50
228.1825956443186
 51
311.8174143556752
  0
ARC
  5
226
330
1F
100
AcDbEntity
  8
5
  6
Continuous
 62
     1
370
    25
100
AcDbCircle
 10
333.5976000234486
 20
232.9501927323977
 30
0.0
 40
1.387515353286915
100
AcDbArc
 50
48.19025216455871
 51
131.8097478354413
  0
ARC
  5
227
330
1F
100
AcDbEntity
  8
5
  6
Continuous
 62
     1
370
    25
100
AcDbCircle
 10
331.747605887791
 20
232.9502080857051
 30
0.0
 40
1.387499999999989
100
AcDbArc
 50
48.19000999998583
 51
131.8099999999966
  0
LINE
  5
228
330
1F
100
AcDbEntity
  8
5
  6
Continuous
 62
     1
370
    25
100
AcDbLine
 10
334.5226000234488
 20
215.2604860987744
 30
0.0
 11
334.5226000234488
 21
233.9843947704953
 31
0.0
  0
LINE
  5
229
330
1F
100
AcDbEntity
  8
3
  6
DASHDOT
 62
     1
370
     9
100
AcDbLine
 10
176.6565110027659
 20
47.26048609877512
 30
0.0
 11
176.6565110027659
 21
217.2604860987745
 31
0.0
  0
LINE
  5
22A
330
1F
100
AcDbEntity
  8
3
  6
DASHDOT
 62
     1
370
     9
100
AcDbLine
 10
246.6565110027659
 20
132.2604860987744
 30
0.0
 11
106.6565110027659
 21
132.2604860987744
 31
0.0
  0
DIMENSION
  5
235
330
1F
100
AcDbEntity
  8
8
  6
Continuous
 62
     4
370
     9
100
AcDbDimension
280
     0
  2
Dim1
 10
346.1726000234485
 20
41.17931906610602
 30
0.0
 11
323.6726000234485
 21
44.17931906610602
 31
0.0
 70
   160
  1
<>
 71
     5
 42
-1.0
 73
     0
 74
     0
 75
     0
  3
Standard
100
AcDbAlignedDimension
 13
301.1726000234485
 23
67.26048609877489
 33
0.0
 14
346.1726000234485
 24
52.26048609877489
 34
0.0
100
AcDbRotatedDimension
1001
ACAD
1000
DSTYLE
1002
{
1070
   279
1070
     2
1070
   340
1005
22B
1070
   140
1040
3.0
1070
    40
1040
1.0
1070
   147
1040
0.0
1070
    76
1070
     0
1070
    75
1070
     0
1070
   344
1005
0
1070
   343
1005
0
1070
   173
1070
     1
1070
   289
1070
     2
1070
   288
1070
     1
1070
    77
1070
     1
1070
   172
1070
     1
1070
   174
1070
     0
1070
    74
1070
     0
1070
    73
1070
     0
1070
   284
1070
     8
1070
    78
1070
     8
1070
    42
1040
1.0
1070
    44
1040
1.5
1070
    43
1040
30.0
1070
   271
1070
     2
1070
    41
1040
2.0
1002
}
  0
DIMENSION
  5
240
330
1F
100
AcDbEntity
  8
8
  6
Continuous
 62
     4
370
     9
100
AcDbDimension
280
     0
  2
Dim2
 10
206.6565110027659
 20
41.57001695905429
 30
0.0
 11
176.6565110027659
 21
41.57001695905429
 31
0.0
 70
   160
  1
<>
 71
     5
 42
-1.0
 73
     0
 74
     0
 75
     0
  3
Standard
100
AcDbAlignedDimension
 13
146.6565110027659
 23
59.26048609877444
 33
0.0
 14
206.6565110027659
 24
59.26048609877444
 34
0.0
100
AcDbRotatedDimension
1001
ACAD
1000
DSTYLE
1002
{
1070
   279
1070
     2
1070
   340
1005
22B
1070
   140
1040
3.0
1070
    40
1040
1.0
1070
   147
1040
0.0
1070
    76
1070
     0
1070
    75
1070
     0
1070
   344
1005
0
1070
   343
1005
0
1070
   173
1070
     1
1070
   289
1070
     2
1070
   288
1070
     1
1070
    77
1070
     1
1070
   172
1070
     1
1070
   174
1070
     0
1070
    74
1070
     0
1070
    73
1070
     0
1070
   284
1070
     8
1070
    78
1070
     8
1070
    42
1040
1.0
1070
    44
1040
1.5
1070
    43
1040
30.0
1070
   271
1070
     2
1070
    41
1040
2.0
1002
}
  0
DIMENSION
  5
24B
330
1F
100
AcDbEntity
  8
8
  6
Continuous
 62
     4
370
     9
100
AcDbDimension
280
     0
  2
Dim3
 10
226.6565110027658
 20
34.24620692661843
 30
0.0
 11
176.6565110027659
 21
34.24620692661843
 31
0.0
 70
   160
  1
<>
 71
     5
 42
-1.0
 73
     0
 74
     0
 75
     0
  3
Standard
100
AcDbAlignedDimension
 13
126.6565110027659
 23
82.26048609877444
 33
0.0
 14
226.6565110027659
 24
82.26048609877444
 34
0.0
100
AcDbRotatedDimension
1001
ACAD
1000
DSTYLE
1002
{
1070
   279
1070
     2
1070
   340
1005
22B
1070
   140
1040
3.0
1070
    40
1040
1.0
1070
   147
1040
0.0
1070
    76
1070
     0
1070
    75
1070
     0
1070
   344
1005
0
1070
   343
1005
0
1070
   173
1070
     1
1070
   289
1070
     2
1070
   288
1070
     1
1070
    77
1070
     1
1070
   172
1070
     1
1070
   174
1070
     0
1070
    74
1070
     0
1070
    73
1070
     0
1070
   284
1070
     8
1070
    78
1070
     8
1070
    42
1040
1.0
1070
    44
1040
1.5
1070
    43
1040
30.0
1070
   271
1070
     2
1070
    41
1040
2.0
1002
}
  0
DIMENSION
  5
255
330
1F
100
AcDbEntity
  8
8
  6
Continuous
 62
     4
370
     9
100
AcDbDimension
280
     0
  2
Dim4
 10
241.6565110027659
 20
26.98371861845635
 30
0.0
 11
176.6565110027659
 21
29.98371861845635
 31
0.0
 70
   160
  1
<>
 71
     5
 42
-1.0
 73
     0
 74
     0
 75
     0
  3
Standard
100
AcDbAlignedDimension
 13
111.6565110027659
 23
67.26048609877398
 33
0.0
 14
241.6565110027659
 24
67.26048609877489
 34
0.0
100
AcDbRotatedDimension
1001
ACAD
1000
DSTYLE
1002
{
1070
   279
1070
     2
1070
   340
1005
22B
1070
   140
1040
3.0
1070
    40
1040
1.0
1070
   147
1040
0.0
1070
    76
1070
     0
1070
    75
1070
     0
1070
   344
1005
0
1070
   343
1005
0
1070
   173
1070
     1
1070
   289
1070
     2
1070
   288
1070
     1
1070
    77
1070
     1
1070
   172
1070
     1
1070
   174
1070
     0
1070
    74
1070
     0
1070
    73
1070
     0
1070
   284
1070
     8
1070
    78
1070
     8
1070
    42
1040
1.0
1070
    44
1040
1.5
1070
    43
1040
30.0
1070
   271
1070
     2
1070
    41
1040
2.0
1002
}
  0
DIMENSION
  5
25F
330
1F
100
AcDbEntity
  8
8
  6
Continuous
 62
     4
370
     9
100
AcDbDimension
280
     0
  2
Dim5
 10
253.3009762986003
 20
82.26048609877435
 30
0.0
 11
250.3009762986003
 21
132.2604860987744
 31
0.0
 70
   160
  1
<>
 71
     5
 42
-1.0
 73
     0
 74
     0
 75
     0
 53
89.99999999999991
  3
Standard
100
AcDbAlignedDimension
 13
226.6565110027659
 23
182.2604860987744
 33
0.0
 14
226.6565110027659
 24
82.26048609877444
 34
0.0
 50
-89.99999999999991
100
AcDbRotatedDimension
1001
ACAD
1000
DSTYLE
1002
{
1070
   279
1070
     2
1070
   340
1005
22B
1070
   140
1040
3.0
1070
    40
1040
1.0
1070
   147
1040
0.0
1070
    76
1070
     0
1070
    75
1070
     0
1070
   344
1005
0
1070
   343
1005
0
1070
   173
1070
     1
1070
   289
1070
     2
1070
   288
1070
     1
1070
    77
1070
     1
1070
   172
1070
     1
1070
   174
1070
     0
1070
    74
1070
     0
1070
    73
1070
     0
1070
   284
1070
     8
1070
    78
1070
     8
1070
    42
1040
1.0
1070
    44
1040
1.5
1070
    43
1040
30.0
1070
   271
1070
     2
1070
    41
1040
2.0
1002
}
  0
DIMENSION
  5
269
330
1F
100
AcDbEntity
  8
8
  6
Continuous
 62
     4
370
     9
100
AcDbDimension
280
     0
  2
Dim6
 10
262.4568394975468
 20
67.26048609877482
 30
0.0
 11
259.4568394975468
 21
132.2604860987747
 31
0.0
 70
   160
  1
<>
 71
     5
 42
-1.0
 73
     0
 74
     0
 75
     0
 53
89.99999999999991
  3
Standard
100
AcDbAlignedDimension
 13
241.6565110027659
 23
197.2604860987744
 33
0.0
 14
241.6565110027659
 24
67.26048609877489
 34
0.0
 50
-89.99999999999991
100
AcDbRotatedDimension
1001
ACAD
1000
DSTYLE
1002
{
1070
   279
1070
     2
1070
   340
1005
22B
1070
   140
1040
3.0
1070
    40
1040
1.0
1070
   147
1040
0.0
1070
    76
1070
     0
1070
    75
1070
     0
1070
   344
1005
0
1070
   343
1005
0
1070
   173
1070
     1
1070
   289
1070
     2
1070
   288
1070
     1
1070
    77
1070
     1
1070
   172
1070
     1
1070
   174
1070
     0
1070
    74
1070
     0
1070
    73
1070
     0
1070
   284
1070
     8
1070
    78
1070
     8
1070
    42
1040
1.0
1070
    44
1040
1.5
1070
    43
1040
30.0
1070
   271
1070
     2
1070
    41
1040
2.0
1002
}
  0
DIMENSION
  5
273
330
1F
100
AcDbEntity
  8
8
  6
Continuous
 62
     4
370
     9
100
AcDbDimension
280
     0
  2
Dim7
 10
270.6991757773394
 20
59.26048609877424
 30
0.0
 11
267.6991757773394
 21
132.2604860987744
 31
0.0
 70
   160
  1
<>
 71
     5
 42
-1.0
 73
     0
 74
     0
 75
     0
 53
89.99999999999991
  3
Standard
100
AcDbAlignedDimension
 13
206.6565110027659
 23
205.2604860987744
 33
0.0
 14
206.6565110027659
 24
59.26048609877444
 34
0.0
 50
-89.99999999999991
100
AcDbRotatedDimension
1001
ACAD
1000
DSTYLE
1002
{
1070
   279
1070
     2
1070
   340
1005
22B
1070
   140
1040
3.0
1070
    40
1040
1.0
1070
   147
1040
0.0
1070
    76
1070
     0
1070
    75
1070
     0
1070
   344
1005
0
1070
   343
1005
0
1070
   173
1070
     1
1070
   289
1070
     2
1070
   288
1070
     1
1070
    77
1070
     1
1070
   172
1070
     1
1070
   174
1070
     0
1070
    74
1070
     0
1070
    73
1070
     0
1070
   284
1070
     8
1070
    78
1070
     8
1070
    42
1040
1.0
1070
    44
1040
1.5
1070
    43
1040
30.0
1070
   271
1070
     2
1070
    41
1040
2.0
1002
}
  0
DIMENSION
  5
27D
330
1F
100
AcDbEntity
  8
8
  6
Continuous
 62
     4
370
     9
100
AcDbDimension
280
     0
  2
Dim8
 10
278.8156436426543
 20
52.26048609877426
 30
0.0
 11
275.8156436426543
 21
132.2604860987744
 31
0.0
 70
   160
  1
<>
 71
     5
 42
-1.0
 73
     0
 74
     0
 75
     0
 53
89.99999999999991
  3
Standard
100
AcDbAlignedDimension
 13
221.6565110027668
 23
212.2604860987744
 33
0.0
 14
221.6565110027668
 24
52.26048609877444
 34
0.0
 50
-89.99999999999991
100
AcDbRotatedDimension
1001
ACAD
1000
DSTYLE
1002
{
1070
   279
1070
     2
1070
   340
1005
22B
1070
   140
1040
3.0
1070
    40
1040
1.0
1070
   147
1040
0.0
1070
    76
1070
     0
1070
    75
1070
     0
1070
   344
1005
0
1070
   343
1005
0
1070
   173
1070
     1
1070
   289
1070
     2
1070
   288
1070
     1
1070
    77
1070
     1
1070
   172
1070
     1
1070
   174
1070
     0
1070
    74
1070
     0
1070
    73
1070
     0
1070
   284
1070
     8
1070
    78
1070
     8
1070
    42
1040
1.0
1070
    44
1040
1.5
1070
    43
1040
30.0
1070
   271
1070
     2
1070
    41
1040
2.0
1002
}
  0
DIMENSION
  5
287
330
1F
100
AcDbEntity
  8
8
  6
Continuous
 62
     4
370
     9
100
AcDbDimension
280
     0
  2
Dim9
 10
325.6726000234486
 20
225.1709274787031
 30
0.0
 11
355.4226000234485
 21
225.170927478703
 31
0.0
 70
   160
  1
(<>
 71
     5
 42
-1.0
 73
     0
 74
     0
 75
     0
  3
Standard
100
AcDbAlignedDimension
 13
346.1726000234485
 23
212.2604860987744
 33
0.0
 14
325.6726000234485
 24
202.3604860987739
 34
0.0
 50
179.9999999999998
100
AcDbRotatedDimension
1001
ACAD
1000
DSTYLE
1002
{
1070
   279
1070
     2
1070
   340
1005
22B
1070
   140
1040
3.0
1070
    40
1040
1.0
1070
   147
1040
0.0
1070
    76
1070
     0
1070
    75
1070
     0
1070
   344
1005
0
1070
   343
1005
0
1070
   173
1070
     1
1070
   289
1070
     2
1070
   288
1070
     1
1070
    77
1070
     1
1070
   172
1070
     1
1070
   174
1070
     0
1070
    74
1070
     0
1070
    73
1070
     0
1070
   284
1070
     8
1070
    78
1070
     8
1070
    42
1040
1.0
1070
    44
1040
1.5
1070
    43
1040
30.0
1070
   271
1070
     2
1070
    41
1040
2.0
1002
}
  0
MTEXT
  5
288
330
1F
100
AcDbEntity
  8
8
  6
Continuous
 62
     4
370
     9
100
AcDbMText
 10
206.6572661555756
 20
246.6476253063511
 30
0.0
 40
3.0
 41
8.502427499999998
 46
3.0
 71
     7
 72
     1
  1
{\fＭＳ ゴシック;\T0.750000;L500}
 73
     1
 44
1.0
1001
ACAD
1000
ACAD_MTEXT_DEFINED_HEIGHT_BEGIN
1070
    46
1040
3.0
1000
ACAD_MTEXT_DEFINED_HEIGHT_END
  0
DIMENSION
  5
292
330
1F
100
AcDbEntity
  8
8
  6
Continuous
 62
     4
370
     9
100
AcDbDimension
280
     0
  2
Dim10
 10
359.1647529196562
 20
212.2604860987744
 30
0.0
 11
359.1647529196562
 21
204.2604860987744
 31
0.0
 70
   160
  1
(<>
 71
     5
 42
-1.0
 73
     0
 74
     0
 75
     0
 53
89.99999999999991
  3
Standard
100
AcDbAlignedDimension
 13
335.1726000234485
 23
215.2604860987744
 33
0.0
 14
346.1726000234485
 24
212.2604860987744
 34
0.0
 50
-89.99999999999991
100
AcDbRotatedDimension
1001
ACAD
1000
DSTYLE
1002
{
1070
   279
1070
     2
1070
   340
1005
22B
1070
   140
1040
3.0
1070
    40
1040
1.0
1070
   147
1040
0.0
1070
    76
1070
     0
1070
    75
1070
     0
1070
   344
1005
0
1070
   343
1005
0
1070
   173
1070
     1
1070
   289
1070
     2
1070
   288
1070
     1
1070
    77
1070
     1
1070
   172
1070
     1
1070
   174
1070
     0
1070
    74
1070
     0
1070
    73
1070
     0
1070
   284
1070
     8
1070
    78
1070
     8
1070
    42
1040
1.0
1070
    44
1040
1.5
1070
    43
1040
30.0
1070
   271
1070
     2
1070
    41
1040
2.0
1002
}
  0
DIMENSION
  5
29C
330
1F
100
AcDbEntity
  8
8
  6
Continuous
 62
     4
370
     9
100
AcDbDimension
280
     0
  2
Dim11
 10
345.1726000234485
 20
47.18527332283998
 30
0.0
 11
339.6726000234485
 21
47.18527332283998
 31
0.0
 70
   160
  1
<>
 71
     5
 42
-1.0
 73
     0
 74
     0
 75
     0
  3
Standard
100
AcDbAlignedDimension
 13
346.1726000234485
 23
52.26048609877489
 33
0.0
 14
345.1726000234485
 24
52.26048609877489
 34
0.0
 50
179.9999999999998
100
AcDbRotatedDimension
1001
ACAD
1000
DSTYLE
1002
{
1070
   279
1070
     2
1070
   340
1005
22B
1070
   140
1040
3.0
1070
    40
1040
1.0
1070
   147
1040
0.0
1070
    76
1070
     0
1070
    75
1070
     0
1070
   344
1005
0
1070
   343
1005
0
1070
   173
1070
     1
1070
   289
1070
     2
1070
   288
1070
     1
1070
    77
1070
     1
1070
   172
1070
     1
1070
   174
1070
     0
1070
    74
1070
     0
1070
    73
1070
     0
1070
   284
1070
     8
1070
    78
1070
     8
1070
    42
1040
1.0
1070
    44
1040
1.5
1070
    43
1040
30.0
1070
   271
1070
     2
1070
    41
1040
2.0
1002
}
  0
LINE
  5
29D
330
1F
100
AcDbEntity
  8
9
  6
Continuous
 62
     7
370
    25
100
AcDbLine
 10
339.6726000234485
 20
197.7604860987744
 30
0.0
 11
339.4560406664532
 21
197.7604860987744
 31
0.0
  0
LINE
  5
29E
330
1F
100
AcDbEntity
  8
9
  6
Continuous
 62
     7
370
    25
100
AcDbLine
 10
332.8891593804437
 20
197.7604860987742
 30
0.0
 11
332.4560406664532
 21
197.7604860987742
 31
0.0
  0
CIRCLE
  5
29F
330
1F
100
AcDbEntity
  8
9
  6
Continuous
 62
     7
370
    25
100
AcDbCircle
 10
206.6565110027659
 20
205.2604860987744
 30
0.0
 40
2.599999999999994
  0
CIRCLE
  5
2A0
330
1F
100
AcDbEntity
  8
9
  6
Continuous
 62
     7
370
    25
100
AcDbCircle
 10
146.6565110027659
 20
205.2604860987744
 30
0.0
 40
2.599999999999994
  0
CIRCLE
  5
2A1
330
1F
100
AcDbEntity
  8
9
  6
Continuous
 62
     7
370
    25
100
AcDbCircle
 10
146.6565110027659
 20
59.26048609877444
 30
0.0
 40
2.599999999999994
  0
CIRCLE
  5
2A2
330
1F
100
AcDbEntity
  8
9
  6
Continuous
 62
     7
370
    25
100
AcDbCircle
 10
206.6565110027659
 20
59.26048609877444
 30
0.0
 40
2.599999999999994
  0
LINE
  5
2A3
330
1F
100
AcDbEntity
  8
5
  6
Continuous
 62
     1
370
    25
100
AcDbLine
 10
196.9230285018209
 20
273.114959883131
 30
0.0
 11
196.9230285018208
 21
265.2802064067744
 31
0.0
  0
LINE
  5
2A4
330
1F
100
AcDbEntity
  8
5
  6
Continuous
 62
     1
370
    25
100
AcDbLine
 10
199.4230485018212
 20
282.1149368831309
 30
0.0
 11
199.4230485018212
 21
269.1149278831308
 31
0.0
  0
LINE
  5
2A5
330
1F
100
AcDbEntity
  8
5
  6
Continuous
 62
     1
370
    25
100
AcDbLine
 10
201.0230485018211
 20
279.1149328831309
 30
0.0
 11
201.0230485018211
 21
270.1149318831308
 31
0.0
  0
LINE
  5
2A6
330
1F
100
AcDbEntity
  8
5
  6
Continuous
 62
     1
370
    25
100
AcDbLine
 10
202.6230385018212
 20
279.1149328831309
 30
0.0
 11
202.6230385018212
 21
270.1149318831308
 31
0.0
  0
LINE
  5
2A7
330
1F
100
AcDbEntity
  8
5
  6
Continuous
 62
     1
370
    25
100
AcDbLine
 10
201.8230685018211
 20
279.1149328831309
 30
0.0
 11
201.8230685018211
 21
270.1149318831308
 31
0.0
  0
LINE
  5
2A8
330
1F
100
AcDbEntity
  8
5
  6
Continuous
 62
     1
370
    25
100
AcDbLine
 10
200.2230685018211
 20
279.1149328831309
 30
0.0
 11
200.2230685018211
 21
270.1149318831308
 31
0.0
  0
LINE
  5
2A9
330
1F
100
AcDbEntity
  8
5
  6
Continuous
 62
     1
370
    25
100
AcDbLine
 10
205.9230885018214
 20
273.114959883131
 30
0.0
 11
205.9230885018216
 21
265.2802064067744
 31
0.0
  0
LINE
  5
2AA
330
1F
100
AcDbEntity
  8
5
  6
Continuous
 62
     1
370
    25
100
AcDbLine
 10
203.4230585018212
 20
282.1149368831309
 30
0.0
 11
203.4230585018212
 21
269.1149278831308
 31
0.0
  0
LINE
  5
2AB
330
1F
100
AcDbEntity
  8
5
  6
Continuous
 62
     1
370
    25
100
AcDbLine
 10
197.9327987125668
 20
262.459436328069
 30
0.0
 11
197.932798712567
 21
256.1624075956246
 31
0.0
  0
LINE
  5
2AC
330
1F
100
AcDbEntity
  8
5
  6
Continuous
 62
     1
370
    25
100
AcDbLine
 10
204.9133182910738
 20
262.459436328069
 30
0.0
 11
204.9133182910738
 21
256.1624075956248
 31
0.0
  0
LINE
  5
2AD
330
1F
100
AcDbEntity
  8
5
  6
Continuous
 62
     1
370
    25
100
AcDbLine
 10
204.9133182910738
 20
256.1624075956248
 30
0.0
 11
197.932798712567
 21
256.1624075956246
 31
0.0
  0
ARC
  5
2AE
330
1F
100
AcDbEntity
  8
5
  6
Continuous
 62
     1
370
    25
100
AcDbCircle
 10
198.9230285018208
 20
265.2802064067748
 30
0.0
 40
2.0
100
AcDbArc
 50
179.9999999999998
 51
210.0000000000147
  0
ARC
  5
2AF
330
1F
100
AcDbEntity
  8
5
  6
Continuous
 62
     1
370
    25
100
AcDbCircle
 10
195.9327987125677
 20
262.459436328069
 30
0.0
 40
2.0
100
AcDbArc
 50
0.0
 51
30.00000000001508
  0
LINE
  5
2B0
330
1F
100
AcDbEntity
  8
5
  6
Continuous
 62
     1
370
    25
100
AcDbLine
 10
197.1909776942528
 20
264.2802064067748
 30
0.0
 11
197.6648495201359
 21
263.4594363280696
 31
0.0
  0
ARC
  5
2B1
330
1F
100
AcDbEntity
  8
5
  6
Continuous
 62
     1
370
    25
100
AcDbCircle
 10
203.9230885018216
 20
265.2802064067748
 30
0.0
 40
2.0
100
AcDbArc
 50
329.9999999999845
 51
0.0
  0
ARC
  5
2B2
330
1F
100
AcDbEntity
  8
5
  6
Continuous
 62
     1
370
    25
100
AcDbCircle
 10
206.9133182910747
 20
262.459436328069
 30
0.0
 40
2.0
100
AcDbArc
 50
149.9999999999849
 51
179.9999999999998
  0
LINE
  5
2B3
330
1F
100
AcDbEntity
  8
5
  6
Continuous
 62
     1
370
    25
100
AcDbLine
 10
205.6551393093896
 20
264.2802064067748
 30
0.0
 11
205.1812674835064
 21
263.4594363280696
 31
0.0
  0
LINE
  5
2B4
330
1F
100
AcDbEntity
  8
5
  6
Continuous
 62
     1
370
    25
100
AcDbLine
 10
203.4230585018212
 20
269.1149278831308
 30
0.0
 11
199.4230485018212
 21
269.1149278831308
 31
0.0
  0
LINE
  5
2B5
330
1F
100
AcDbEntity
  8
5
  6
Continuous
 62
     1
370
    25
100
AcDbLine
 10
203.4230585018212
 20
270.1149318831308
 30
0.0
 11
199.4230485018212
 21
270.1149318831308
 31
0.0
  0
LINE
  5
2B6
330
1F
100
AcDbEntity
  8
5
  6
Continuous
 62
     1
370
    25
100
AcDbLine
 10
201.4230585018212
 20
282.1149368831309
 30
0.0
 11
196.1730485018212
 21
282.1149368831309
 31
0.0
  0
ARC
  5
2B7
330
1F
100
AcDbEntity
  8
5
  6
Continuous
 62
     1
370
    25
100
AcDbCircle
 10
197.1730485018212
 20
275.1149358831308
 30
0.0
 40
1.0
100
AcDbArc
 50
179.9999999999998
 51
269.9999999999998
  0
LINE
  5
2B8
330
1F
100
AcDbEntity
  8
5
  6
Continuous
 62
     1
370
    25
100
AcDbLine
 10
197.4230385018212
 20
273.114959883131
 30
0.0
 11
197.4230385018212
 21
274.1149318831308
 31
0.0
  0
LINE
  5
2B9
330
1F
100
AcDbEntity
  8
5
  6
Continuous
 62
     1
370
    25
100
AcDbLine
 10
196.9230285018209
 20
273.114959883131
 30
0.0
 11
199.423048501821
 21
273.114959883131
 31
0.0
  0
LINE
  5
2BA
330
1F
100
AcDbEntity
  8
5
  6
Continuous
 62
     1
370
    25
100
AcDbLine
 10
197.1730485018212
 20
274.1149318831308
 30
0.0
 11
199.4230485018212
 21
274.1149318831308
 31
0.0
  0
LINE
  5
2BB
330
1F
100
AcDbEntity
  8
5
  6
Continuous
 62
     1
370
    25
100
AcDbLine
 10
197.4230385018212
 20
274.1149318831308
 30
0.0
 11
199.4230485018212
 21
274.1149318831308
 31
0.0
  0
LINE
  5
2BC
330
1F
100
AcDbEntity
  8
5
  6
Continuous
 62
     1
370
    25
100
AcDbLine
 10
206.6730685018211
 20
275.1149358831308
 30
0.0
 11
206.6730685018211
 21
282.1149368831309
 31
0.0
  0
LINE
  5
2BD
330
1F
100
AcDbEntity
  8
5
  6
Continuous
 62
     1
370
    25
100
AcDbLine
 10
205.4230785018212
 20
274.1149318831308
 30
0.0
 11
205.4230785018212
 21
273.114959883131
 31
0.0
  0
LINE
  5
2BE
330
1F
100
AcDbEntity
  8
5
  6
Continuous
 62
     1
370
    25
100
AcDbLine
 10
205.9230885018214
 20
273.114959883131
 30
0.0
 11
203.4230685018214
 21
273.114959883131
 31
0.0
  0
LINE
  5
2BF
330
1F
100
AcDbEntity
  8
5
  6
Continuous
 62
     1
370
    25
100
AcDbLine
 10
205.6730685018211
 20
274.1149318831308
 30
0.0
 11
203.4230585018212
 21
274.1149318831308
 31
0.0
  0
LINE
  5
2C0
330
1F
100
AcDbEntity
  8
5
  6
Continuous
 62
     1
370
    25
100
AcDbLine
 10
203.4230585018212
 20
274.1149318831308
 30
0.0
 11
205.4230785018212
 21
274.1149318831308
 31
0.0
  0
ARC
  5
2C1
330
1F
100
AcDbEntity
  8
5
  6
Continuous
 62
     1
370
    25
100
AcDbCircle
 10
205.6730685018211
 20
275.1149358831308
 30
0.0
 40
1.0
100
AcDbArc
 50
269.9999999999998
 51
0.0
  0
LINE
  5
2C2
330
1F
100
AcDbEntity
  8
5
  6
Continuous
 62
     1
370
    25
100
AcDbLine
 10
199.4230485018212
 20
279.1149328831309
 30
0.0
 11
203.4230585018212
 21
279.1149328831309
 31
0.0
  0
LINE
  5
2C3
330
1F
100
AcDbEntity
  8
5
  6
Continuous
 62
     1
370
    25
100
AcDbLine
 10
201.4230585018212
 20
282.1149368831309
 30
0.0
 11
206.6730685018211
 21
282.1149368831309
 31
0.0
  0
LINE
  5
2C4
330
1F
100
AcDbEntity
  8
5
  6
Continuous
 62
     1
370
    25
100
AcDbLine
 10
199.4230485018212
 20
281.1149278831308
 30
0.0
 11
203.4230585018212
 21
281.1149278831308
 31
0.0
  0
LINE
  5
2C5
330
1F
100
AcDbEntity
  8
5
  6
Continuous
 62
     1
370
    25
100
AcDbLine
 10
196.1730485018212
 20
275.1149358831308
 30
0.0
 11
196.1730485018212
 21
282.1149368831309
 31
0.0
  0
INSERT
  5
2C6
330
1F
100
AcDbEntity
  8
8
  6
Continuous
 62
     4
370
     9
100
AcDbBlockReference
  2
_OPEN
 10
207.9425328049424
 20
207.5201648202583
 30
0.0
 41
2.0
 42
2.0
 43
2.0
 50
240.7026069000999
  0
POLYLINE
  5
2C7
330
1F
100
AcDbEntity
  8
8
  6
Continuous
 62
     4
370
     9
100
AcDb2dPolyline
 66
     1
 10
0.0
 20
0.0
 30
0.0
  0
VERTEX
  5
2C8
330
2C7
100
AcDbEntity
  8
8
  6
Continuous
 62
     4
370
     9
100
AcDbVertex
100
AcDb2dVertex
 10
207.9425328049424
 20
207.5201648202583
 30
0.0
  0
VERTEX
  5
2C9
330
2C7
100
AcDbEntity
  8
8
  6
Continuous
 62
     4
370
     9
100
AcDbVertex
100
AcDb2dVertex
 10
218.0607255970808
 20
225.5524947137988
 30
0.0
  0
VERTEX
  5
2CA
330
2C7
100
AcDbEntity
  8
8
  6
Continuous
 62
     4
370
     9
100
AcDbVertex
100
AcDb2dVertex
 10
231.9207255970808
 20
225.5524947137988
 30
0.0
  0
SEQEND
  5
2CB
330
2C7
100
AcDbEntity
  8
8
  6
Continuous
 62
     4
370
     9
  0
MTEXT
  5
2CC
330
1F
100
AcDbEntity
  8
8
  6
Continuous
 62
     4
370
     9
100
AcDbMText
 10
220.4207255970808
 20
229.1524947137987
 30
0.0
 40
3.0
 41
16.30188327225
 46
3.0
 71
     1
 72
     1
  1
{\fＭＳ ゴシック;\T1.012235;4-Ø5.2}
 73
     1
 44
1.0
1001
ACAD
1000
ACAD_MTEXT_DEFINED_HEIGHT_BEGIN
1070
    46
1040
3.0
1000
ACAD_MTEXT_DEFINED_HEIGHT_END
  0
MTEXT
  5
2CD
330
1F
100
AcDbEntity
  8
2
  6
Continuous
 62
   151
370
     9
100
AcDbMText
 10
41.00001899999984
 20
32.49999500000024
 30
0.0
 40
2.0
 41
7.074996810400001
 46
2.0
 71
     4
 72
     1
  1
{\fＭＳ ゴシック;\T0.762970;Light}
 73
     1
 44
1.0
1001
ACAD
1000
ACAD_MTEXT_DEFINED_HEIGHT_BEGIN
1070
    46
1040
2.0
1000
ACAD_MTEXT_DEFINED_HEIGHT_END
  0
MTEXT
  5
2CE
330
1F
100
AcDbEntity
  8
2
  6
Continuous
 62
   151
370
     9
100
AcDbMText
 10
41.00001899999984
 20
27.50000499999999
 30
0.0
 40
2.0
 41
12.76366493344
 46
2.0
 71
     4
 72
     1
  1
{\fＭＳ ゴシック;\T0.757746;SMR-03V-B}
 73
     1
 44
1.0
1001
ACAD
1000
ACAD_MTEXT_DEFINED_HEIGHT_BEGIN
1070
    46
1040
2.0
1000
ACAD_MTEXT_DEFINED_HEIGHT_END
  0
MTEXT
  5
2CF
330
1F
100
AcDbEntity
  8
2
  6
Continuous
 62
   151
370
     9
100
AcDbMText
 10
41.00001899999984
 20
22.50000499999999
 30
0.0
 40
2.0
 41
18.42932199056
 46
2.0
 71
     4
 72
     1
  1
{\fＭＳ ゴシック;\T0.765486;BYM-001T-P0.6}
 73
     1
 44
1.0
1001
ACAD
1000
ACAD_MTEXT_DEFINED_HEIGHT_BEGIN
1070
    46
1040
2.0
1000
ACAD_MTEXT_DEFINED_HEIGHT_END
  0
MTEXT
  5
2D0
330
1F
100
AcDbEntity
  8
2
  6
Continuous
 62
   151
370
     9
100
AcDbMText
 10
65.00000899999986
 20
27.50000499999999
 30
0.0
 40
2.0
 41
14.18276867346
 46
2.0
 71
     4
 72
     1
  1
{\fＭＳ ゴシック;\T0.758093;SMP-03V-BC}
 73
     1
 44
1.0
1001
ACAD
1000
ACAD_MTEXT_DEFINED_HEIGHT_BEGIN
1070
    46
1040
2.0
1000
ACAD_MTEXT_DEFINED_HEIGHT_END
  0
MTEXT
  5
2D1
330
1F
100
AcDbEntity
  8
2
  6
Continuous
 62
   151
370
     9
100
AcDbMText
 10
65.00000899999986
 20
22.50000499999999
 30
0.0
 40
2.0
 41
19.85149346024
 46
2.0
 71
     4
 72
     1
  1
{\fＭＳ ゴシック;\T0.763956;BHF-001T-0.8SS}
 73
     1
 44
1.0
1001
ACAD
1000
ACAD_MTEXT_DEFINED_HEIGHT_BEGIN
1070
    46
1040
2.0
1000
ACAD_MTEXT_DEFINED_HEIGHT_END
  0
MTEXT
  5
2D2
330
1F
100
AcDbEntity
  8
2
  6
Continuous
 62
   151
370
     9
100
AcDbMText
 10
65.00000899999986
 20
32.49999500000024
 30
0.0
 40
2.0
 41
21.95462000000001
 46
2.0
 71
     4
 72
     1
  1
{\fＭＳ ゴシック;\T0.750000;Power　Supply　}
 73
     1
 44
1.0
1001
ACAD
1000
ACAD_MTEXT_DEFINED_HEIGHT_BEGIN
1070
    46
1040
2.0
1000
ACAD_MTEXT_DEFINED_HEIGHT_END
  0
MTEXT
  5
2D3
330
1F
100
AcDbEntity
  8
2
  6
Continuous
 62
   151
370
     9
100
AcDbMText
 10
21.00000899999986
 20
27.50000499999999
 30
0.0
 40
2.0
 41
12.738438872
 46
2.0
 71
     4
 72
     1
  1
{\fＭＳ ゴシック;\T0.773550;Connector}
 73
     1
 44
1.0
1001
ACAD
1000
ACAD_MTEXT_DEFINED_HEIGHT_BEGIN
1070
    46
1040
2.0
1000
ACAD_MTEXT_DEFINED_HEIGHT_END
  0
MTEXT
  5
2D4
330
1F
100
AcDbEntity
  8
2
  6
Continuous
 62
   151
370
     9
100
AcDbMText
 10
21.00000899999986
 20
22.50000499999999
 30
0.0
 40
2.0
 41
9.91740297768
 46
2.0
 71
     4
 72
     1
  1
{\fＭＳ ゴシック;\T0.761366;Contact}
 73
     1
 44
1.0
1001
ACAD
1000
ACAD_MTEXT_DEFINED_HEIGHT_BEGIN
1070
    46
1040
2.0
1000
ACAD_MTEXT_DEFINED_HEIGHT_END
  0
INSERT
  5
2D9
330
1F
100
AcDbEntity
  8
0
100
AcDbBlockReference
  2
*G27
 10
0.0
 20
0.0
 30
0.0
  0
INSERT
  5
2DF
330
1F
100
AcDbEntity
  8
0
100
AcDbBlockReference
  2
*G28
 10
0.0
 20
0.0
 30
0.0
  0
VIEWPORT
  5
6A
330
1B
100
AcDbEntity
 67
     1
  8
0
100
AcDbViewport
 10
210.0
 20
148.5
 30
0.0
 40
420.0
 41
297.0
 68
     1
 69
     1
 12
210.0
 22
148.5
 13
0.0
 23
0.0
 14
0.5
 24
0.5
 15
0.5
 25
0.5
 16
0.0
 26
0.0
 36
1.0
 17
0.0
 27
0.0
 37
0.0
 42
50.0
 43
0.0
 44
0.0
 45
9.0
 50
0.0
 51
0.0
 72
   100
 90
   557152
  1

281
     0
 71
     1
 74
     0
110
0.0
120
0.0
130
0.0
111
1.0
121
0.0
131
0.0
112
0.0
122
1.0
132
0.0
 79
     0
146
0.0
170
     0
 61
     5
292
     1
282
     1
141
0.0
142
0.0
 63
   256
  0
ENDSEC
  0
SECTION
  2
OBJECTS
  0
DICTIONARY
  5
C
330
0
100
AcDbDictionary
281
     1
  3
ACAD_DETAILVIEWSTYLE
350
2E4
  3
ACAD_GROUP
350
D
  3
ACAD_LAYOUT
350
1A
  3
ACAD_MATERIAL
350
43
  3
ACAD_MLEADERSTYLE
350
2E3
  3
ACAD_MLINESTYLE
350
17
  3
ACAD_PLOTSETTINGS
350
19
  3
ACAD_PLOTSTYLENAME
350
E
  3
ACAD_SCALELIST
350
47
  3
ACAD_SECTIONVIEWSTYLE
350
2E5
  3
ACAD_TABLESTYLE
350
2E2
  3
ACAD_VISUALSTYLE
350
2A
  3
AcDbVariableDictionary
350
2E0
  0
SUN
  5
69
330
29
100
AcDbSun
 90
        1
290
     0
 63
     7
421
 16777215
 40
1.0
291
     1
 91
  2455826
 92
 54000000
292
     0
 70
     2
 71
   256
280
     1
  0
DICTIONARY
  5
2E4
102
{ACAD_REACTORS
330
C
102
}
330
C
100
AcDbDictionary
281
     1
  0
DICTIONARY
  5
D
102
{ACAD_REACTORS
330
C
102
}
330
C
100
AcDbDictionary
281
     1
  0
DICTIONARY
  5
1A
102
{ACAD_REACTORS
330
C
102
}
330
C
100
AcDbDictionary
281
     1
  3
Layout1
350
1E
  3
Layout2
350
26
  3
Model
350
22
  0
DICTIONARY
  5
43
102
{ACAD_REACTORS
330
C
102
}
330
C
100
AcDbDictionary
281
     1
  3
ByBlock
350
45
  3
ByLayer
350
44
  3
Global
350
46
  0
DICTIONARY
  5
2E3
102
{ACAD_REACTORS
330
C
102
}
330
C
100
AcDbDictionary
281
     1
  0
DICTIONARY
  5
17
102
{ACAD_REACTORS
330
C
102
}
330
C
100
AcDbDictionary
281
     1
  3
Standard
350
18
  0
DICTIONARY
  5
19
102
{ACAD_REACTORS
330
C
102
}
330
C
100
AcDbDictionary
281
     1
  0
ACDBDICTIONARYWDFLT
  5
E
102
{ACAD_REACTORS
330
C
102
}
330
C
100
AcDbDictionary
281
     1
  3
Normal
350
F
100
AcDbDictionaryWithDefault
340
F
  0
DICTIONARY
  5
47
102
{ACAD_REACTORS
330
C
102
}
330
C
100
AcDbDictionary
281
     1
  3
A0
350
48
  3
A1
350
49
  3
A2
350
4A
  3
A3
350
4B
  3
A4
350
4C
  3
A5
350
4D
  3
A6
350
4E
  3
A7
350
4F
  3
A8
350
50
  3
A9
350
51
  3
B0
350
52
  3
B1
350
53
  3
B2
350
54
  3
B3
350
55
  3
B4
350
56
  3
B5
350
57
  3
B6
350
58
  3
B7
350
59
  3
B8
350
5A
  3
B9
350
5B
  3
C0
350
5C
  3
C1
350
5D
  3
C2
350
5E
  3
C3
350
5F
  3
C4
350
60
  3
C5
350
61
  3
C6
350
62
  3
C7
350
63
  3
C8
350
64
  3
C9
350
65
  3
D0
350
66
  3
D1
350
67
  3
D2
350
68
  0
DICTIONARY
  5
2E5
102
{ACAD_REACTORS
330
C
102
}
330
C
100
AcDbDictionary
281
     1
  0
DICTIONARY
  5
2E2
102
{ACAD_REACTORS
330
C
102
}
330
C
100
AcDbDictionary
281
     1
  0
DICTIONARY
  5
2A
102
{ACAD_REACTORS
330
C
102
}
330
C
100
AcDbDictionary
281
     1
  3
2dWireframe
350
2F
  3
Basic
350
32
  3
Brighten
350
36
  3
ColorChange
350
3A
  3
Conceptual
350
34
  3
Dim
350
35
  3
EdgeColorOff
350
3D
  3
Facepattern
350
39
  3
Flat
350
2B
  3
FlatWithEdges
350
2C
  3
Gouraud
350
2D
  3
GouraudWithEdges
350
2E
  3
Hidden
350
31
  3
JitterOff
350
3B
  3
Linepattern
350
38
  3
OverhangOff
350
3C
  3
Realistic
350
33
  3
Shaded
350
42
  3
Shaded with edges
350
41
  3
Shades of Gray
350
3E
  3
Sketchy
350
3F
  3
Thicken
350
37
  3
Wireframe
350
30
  3
X-Ray
350
40
  0
DICTIONARY
  5
2E0
102
{ACAD_REACTORS
330
C
102
}
330
C
100
AcDbDictionary
281
     1
  3
CANNOSCALE
350
2E1
  0
LAYOUT
  5
1E
102
{ACAD_REACTORS
330
1A
102
}
330
1A
100
AcDbPlotSettings
  1

  2
none_device
  4

  6

 40
0.0
 41
0.0
 42
0.0
 43
0.0
 44
0.0
 45
0.0
 46
0.0
 47
0.0
 48
0.0
 49
0.0
140
0.0
141
0.0
142
1.0
143
1.0
 70
   688
 72
     0
 73
     0
 74
     5
  7

 75
    16
 76
     0
 77
     2
 78
   300
147
1.0
148
0.0
149
0.0
100
AcDbLayout
  1
Layout1
 70
     1
 71
     1
 10
0.0
 20
0.0
 11
420.0
 21
297.0
 12
0.0
 22
0.0
 32
0.0
 14
0.0
 24
0.0
 34
0.0
 15
420.0
 25
297.0
 35
0.0
146
0.0
 13
0.0
 23
0.0
 33
0.0
 16
1.0
 26
0.0
 36
0.0
 17
0.0
 27
1.0
 37
0.0
 76
     0
330
1B
331
6A
  0
LAYOUT
  5
26
102
{ACAD_REACTORS
330
1A
102
}
330
1A
100
AcDbPlotSettings
  1

  2
none_device
  4

  6

 40
0.0
 41
0.0
 42
0.0
 43
0.0
 44
0.0
 45
0.0
 46
0.0
 47
0.0
 48
0.0
 49
0.0
140
0.0
141
0.0
142
1.0
143
1.0
 70
   688
 72
     0
 73
     0
 74
     5
  7

 75
    16
 76
     0
 77
     2
 78
   300
147
1.0
148
0.0
149
0.0
100
AcDbLayout
  1
Layout2
 70
     1
 71
     2
 10
0.0
 20
0.0
 11
0.0
 21
0.0
 12
0.0
 22
0.0
 32
0.0
 14
0.0
 24
0.0
 34
0.0
 15
0.0
 25
0.0
 35
0.0
146
0.0
 13
0.0
 23
0.0
 33
0.0
 16
1.0
 26
0.0
 36
0.0
 17
0.0
 27
1.0
 37
0.0
 76
     0
330
23
  0
LAYOUT
  5
22
102
{ACAD_REACTORS
330
1A
102
}
330
1A
100
AcDbPlotSettings
  1

  2
none_device
  4
Letter_(8.50_x_11.00_Inches)
  6

 40
6.35
 41
6.35
 42
6.35000508
 43
6.35000508
 44
215.9
 45
279.4
 46
0.0
 47
0.0
 48
0.0
 49
0.0
140
0.0
141
0.0
142
1.0
143
1.0
 70
  1712
 72
     0
 73
     0
 74
     0
  7

 75
     0
 76
     0
 77
     2
 78
   300
147
1.0
148
0.0
149
0.0
100
AcDbLayout
  1
Model
 70
     1
 71
     0
 10
0.0
 20
0.0
 11
420.0
 21
297.0
 12
0.0
 22
0.0
 32
0.0
 14
20.00000899999986
 24
20.00000000000011
 34
0.0
 15
360.6647529196562
 25
282.1149368831309
 35
0.0
146
0.0
 13
0.0
 23
0.0
 33
0.0
 16
1.0
 26
0.0
 36
0.0
 17
0.0
 27
1.0
 37
0.0
 76
     0
330
1F
331
29
  0
MATERIAL
  5
45
102
{ACAD_REACTORS
330
43
102
}
330
43
100
AcDbMaterial
  1
ByBlock
 72
     1
 94
      127
  0
MATERIAL
  5
44
102
{ACAD_REACTORS
330
43
102
}
330
43
100
AcDbMaterial
  1
ByLayer
 72
     1
 94
      127
  0
MATERIAL
  5
46
102
{ACAD_REACTORS
330
43
102
}
330
43
100
AcDbMaterial
  1
Global
 72
     1
 94
      127
  0
MLINESTYLE
  5
18
102
{ACAD_REACTORS
330
17
102
}
330
17
100
AcDbMlineStyle
  2
Standard
 70
     0
  3

 62
   256
 51
90.0
 52
90.0
 71
     2
 49
0.5
 62
   256
  6
BYLAYER
 49
-0.5
 62
   256
  6
BYLAYER
  0
ACDBPLACEHOLDER
  5
F
102
{ACAD_REACTORS
330
E
102
}
330
E
  0
SCALE
  5
48
102
{ACAD_REACTORS
330
47
102
}
330
47
100
AcDbScale
 70
     0
300
1:1
140
1.0
141
1.0
290
     1
  0
SCALE
  5
49
102
{ACAD_REACTORS
330
47
102
}
330
47
100
AcDbScale
 70
     0
300
1:2
140
1.0
141
2.0
290
     0
  0
SCALE
  5
4A
102
{ACAD_REACTORS
330
47
102
}
330
47
100
AcDbScale
 70
     0
300
1:4
140
1.0
141
4.0
290
     0
  0
SCALE
  5
4B
102
{ACAD_REACTORS
330
47
102
}
330
47
100
AcDbScale
 70
     0
300
1:5
140
1.0
141
5.0
290
     0
  0
SCALE
  5
4C
102
{ACAD_REACTORS
330
47
102
}
330
47
100
AcDbScale
 70
     0
300
1:8
140
1.0
141
8.0
290
     0
  0
SCALE
  5
4D
102
{ACAD_REACTORS
330
47
102
}
330
47
100
AcDbScale
 70
     0
300
1:10
140
1.0
141
10.0
290
     0
  0
SCALE
  5
4E
102
{ACAD_REACTORS
330
47
102
}
330
47
100
AcDbScale
 70
     0
300
1:16
140
1.0
141
16.0
290
     0
  0
SCALE
  5
4F
102
{ACAD_REACTORS
330
47
102
}
330
47
100
AcDbScale
 70
     0
300
1:20
140
1.0
141
20.0
290
     0
  0
SCALE
  5
50
102
{ACAD_REACTORS
330
47
102
}
330
47
100
AcDbScale
 70
     0
300
1:30
140
1.0
141
30.0
290
     0
  0
SCALE
  5
51
102
{ACAD_REACTORS
330
47
102
}
330
47
100
AcDbScale
 70
     0
300
1:40
140
1.0
141
40.0
290
     0
  0
SCALE
  5
52
102
{ACAD_REACTORS
330
47
102
}
330
47
100
AcDbScale
 70
     0
300
1:50
140
1.0
141
50.0
290
     0
  0
SCALE
  5
53
102
{ACAD_REACTORS
330
47
102
}
330
47
100
AcDbScale
 70
     0
300
1:100
140
1.0
141
100.0
290
     0
  0
SCALE
  5
54
102
{ACAD_REACTORS
330
47
102
}
330
47
100
AcDbScale
 70
     0
300
2:1
140
2.0
141
1.0
290
     0
  0
SCALE
  5
55
102
{ACAD_REACTORS
330
47
102
}
330
47
100
AcDbScale
 70
     0
300
4:1
140
4.0
141
1.0
290
     0
  0
SCALE
  5
56
102
{ACAD_REACTORS
330
47
102
}
330
47
100
AcDbScale
 70
     0
300
8:1
140
8.0
141
1.0
290
     0
  0
SCALE
  5
57
102
{ACAD_REACTORS
330
47
102
}
330
47
100
AcDbScale
 70
     0
300
10:1
140
10.0
141
1.0
290
     0
  0
SCALE
  5
58
102
{ACAD_REACTORS
330
47
102
}
330
47
100
AcDbScale
 70
     0
300
100:1
140
100.0
141
1.0
290
     0
  0
SCALE
  5
59
102
{ACAD_REACTORS
330
47
102
}
330
47
100
AcDbScale
 70
     0
300
1/128" = 1'-0"
140
0.0078125
141
12.0
290
     0
  0
SCALE
  5
5A
102
{ACAD_REACTORS
330
47
102
}
330
47
100
AcDbScale
 70
     0
300
1/64" = 1'-0"
140
0.015625
141
12.0
290
     0
  0
SCALE
  5
5B
102
{ACAD_REACTORS
330
47
102
}
330
47
100
AcDbScale
 70
     0
300
1/32" = 1'-0"
140
0.03125
141
12.0
290
     0
  0
SCALE
  5
5C
102
{ACAD_REACTORS
330
47
102
}
330
47
100
AcDbScale
 70
     0
300
1/16" = 1'-0"
140
0.0625
141
12.0
290
     0
  0
SCALE
  5
5D
102
{ACAD_REACTORS
330
47
102
}
330
47
100
AcDbScale
 70
     0
300
3/32" = 1'-0"
140
0.09375
141
12.0
290
     0
  0
SCALE
  5
5E
102
{ACAD_REACTORS
330
47
102
}
330
47
100
AcDbScale
 70
     0
300
1/8" = 1'-0"
140
0.125
141
12.0
290
     0
  0
SCALE
  5
5F
102
{ACAD_REACTORS
330
47
102
}
330
47
100
AcDbScale
 70
     0
300
3/16" = 1'-0"
140
0.1875
141
12.0
290
     0
  0
SCALE
  5
60
102
{ACAD_REACTORS
330
47
102
}
330
47
100
AcDbScale
 70
     0
300
1/4" = 1'-0"
140
0.25
141
12.0
290
     0
  0
SCALE
  5
61
102
{ACAD_REACTORS
330
47
102
}
330
47
100
AcDbScale
 70
     0
300
3/8" = 1'-0"
140
0.375
141
12.0
290
     0
  0
SCALE
  5
62
102
{ACAD_REACTORS
330
47
102
}
330
47
100
AcDbScale
 70
     0
300
1/2" = 1'-0"
140
0.5
141
12.0
290
     0
  0
SCALE
  5
63
102
{ACAD_REACTORS
330
47
102
}
330
47
100
AcDbScale
 70
     0
300
3/4" = 1'-0"
140
0.75
141
12.0
290
     0
  0
SCALE
  5
64
102
{ACAD_REACTORS
330
47
102
}
330
47
100
AcDbScale
 70
     0
300
1" = 1'-0"
140
1.0
141
12.0
290
     0
  0
SCALE
  5
65
102
{ACAD_REACTORS
330
47
102
}
330
47
100
AcDbScale
 70
     0
300
1-1/2" = 1'-0"
140
1.5
141
12.0
290
     0
  0
SCALE
  5
66
102
{ACAD_REACTORS
330
47
102
}
330
47
100
AcDbScale
 70
     0
300
3" = 1'-0"
140
3.0
141
12.0
290
     0
  0
SCALE
  5
67
102
{ACAD_REACTORS
330
47
102
}
330
47
100
AcDbScale
 70
     0
300
6" = 1'-0"
140
6.0
141
12.0
290
     0
  0
SCALE
  5
68
102
{ACAD_REACTORS
330
47
102
}
330
47
100
AcDbScale
 70
     0
300
1'-0" = 1'-0"
140
12.0
141
12.0
290
     0
  0
VISUALSTYLE
  5
2F
102
{ACAD_REACTORS
330
2A
102
}
330
2A
100
AcDbVisualStyle
  2
2dWireframe
 70
     4
177
     3
291
     0
 70
    58
 90
        0
176
     1
 90
        2
176
     1
 90
        0
176
     1
 90
        0
176
     1
 40
0.6
176
     1
 40
30.0
176
     1
 62
     7
420
 16777215
176
     1
 90
        1
176
     1
 90
        4
176
     1
 62
     7
176
     1
 62
   257
176
     1
 90
        1
176
     1
 90
        1
176
     1
 40
1.0
176
     1
 90
        0
176
     1
 62
   257
176
     1
 40
1.0
176
     1
 90
        1
176
     1
 90
        6
176
     1
 90
        2
176
     1
 62
     7
176
     1
 90
        5
176
     1
 90
        0
176
     1
 90
        0
176
     1
290
     0
176
     1
 90
        1
176
     1
 40
0.0
176
     1
 90
        0
176
     1
290
     1
176
     1
290
     1
176
     1
290
     0
176
     1
290
     0
176
     1
290
     0
176
     1
290
     0
176
     1
290
     0
176
     1
290
     0
176
     1
290
     0
176
     1
 90
       50
176
     1
 40
0.0
176
     1
 40
1.0
176
     1
 90
        0
176
     1
 62
    18
420
        0
176
     1
 90
       50
176
     1
 90
        3
176
     1
 62
     5
420
      255
176
     1
290
     0
176
     1
 90
       50
176
     1
 90
       50
176
     1
 90
       50
176
     1
290
     0
176
     1
 90
       50
176
     1
 62
   256
176
     0
 40
1.0
176
     0
 90
        2
176
     1
  1
strokes_ogs.tif
176
     1
290
     0
176
     1
 40
1.0
176
     1
 40
1.0
176
     1
  0
VISUALSTYLE
  5
32
102
{ACAD_REACTORS
330
2A
102
}
330
2A
100
AcDbVisualStyle
  2
Basic
 70
     7
177
     3
291
     1
 70
    58
 90
        1
176
     1
 90
        0
176
     1
 90
        1
176
     1
 90
        0
176
     1
 40
0.6
176
     1
 40
30.0
176
     1
 62
     7
420
 16777215
176
     1
 90
        0
176
     1
 90
        4
176
     1
 62
     7
176
     1
 62
   257
176
     1
 90
        1
176
     1
 90
        1
176
     1
 40
1.0
176
     1
 90
        8
176
     1
 62
     7
176
     1
 40
1.0
176
     1
 90
        1
176
     1
 90
        6
176
     1
 90
        2
176
     1
 62
     7
176
     1
 90
        5
176
     1
 90
        0
176
     1
 90
        0
176
     1
290
     0
176
     1
 90
        1
176
     1
 40
0.0
176
     1
 90
        0
176
     1
290
     0
176
     1
290
     1
176
     1
290
     1
176
     1
290
     0
176
     1
290
     0
176
     1
290
     0
176
     1
290
     0
176
     1
290
     0
176
     1
290
     0
176
     1
 90
       50
176
     1
 40
0.0
176
     1
 40
1.0
176
     1
 90
        0
176
     1
 62
    18
420
        0
176
     1
 90
       50
176
     1
 90
        3
176
     1
 62
     5
420
      255
176
     1
290
     0
176
     1
 90
       50
176
     1
 90
       50
176
     1
 90
       50
176
     1
290
     0
176
     1
 90
       50
176
     1
 62
   256
176
     0
 40
1.0
176
     0
 90
        2
176
     1
  1
strokes_ogs.tif
176
     1
290
     0
176
     1
 40
1.0
176
     1
 40
1.0
176
     1
  0
VISUALSTYLE
  5
36
102
{ACAD_REACTORS
330
2A
102
}
330
2A
100
AcDbVisualStyle
  2
Brighten
 70
    12
177
     3
291
     1
 70
    58
 90
        2
176
     1
 90
        2
176
     1
 90
        0
176
     1
 90
        0
176
     1
 40
0.6
176
     1
 40
30.0
176
     1
 62
     7
420
 16777215
176
     1
 90
        1
176
     1
 90
        4
176
     1
 62
     7
176
     1
 62
   257
176
     1
 90
        1
176
     1
 90
        1
176
     1
 40
1.0
176
     1
 90
        8
176
     1
 62
     7
176
     1
 40
1.0
176
     1
 90
        1
176
     1
 90
        6
176
     1
 90
        2
176
     1
 62
     7
176
     1
 90
        5
176
     1
 90
        0
176
     1
 90
        0
176
     1
290
     0
176
     1
 90
        1
176
     1
 40
50.0
176
     1
 90
        0
176
     1
290
     0
176
     1
290
     1
176
     1
290
     1
176
     1
290
     0
176
     1
290
     0
176
     1
290
     0
176
     1
290
     0
176
     1
290
     0
176
     1
290
     0
176
     1
 90
       50
176
     1
 40
0.0
176
     1
 40
1.0
176
     1
 90
        0
176
     1
 62
    18
420
        0
176
     1
 90
       50
176
     1
 90
        3
176
     1
 62
     5
420
      255
176
     1
290
     0
176
     1
 90
       50
176
     1
 90
       50
176
     1
 90
       50
176
     1
290
     0
176
     1
 90
       50
176
     1
 62
   256
176
     0
 40
1.0
176
     0
 90
        2
176
     1
  1
strokes_ogs.tif
176
     1
290
     0
176
     1
 40
1.0
176
     1
 40
1.0
176
     1
  0
VISUALSTYLE
  5
3A
102
{ACAD_REACTORS
330
2A
102
}
330
2A
100
AcDbVisualStyle
  2
ColorChange
 70
    16
177
     3
291
     1
 70
    58
 90
        2
176
     1
 90
        2
176
     1
 90
        3
176
     1
 90
        0
176
     1
 40
0.6
176
     1
 40
30.0
176
     1
 62
     8
420
  8421504
176
     1
 90
        1
176
     1
 90
        4
176
     1
 62
     7
176
     1
 62
   257
176
     1
 90
        1
176
     1
 90
        1
176
     1
 40
1.0
176
     1
 90
        8
176
     1
 62
     8
420
  8421504
176
     1
 40
1.0
176
     1
 90
        1
176
     1
 90
        6
176
     1
 90
        2
176
     1
 62
     7
176
     1
 90
        5
176
     1
 90
        0
176
     1
 90
        0
176
     1
290
     0
176
     1
 90
        1
176
     1
 40
0.0
176
     1
 90
        0
176
     1
290
     0
176
     1
290
     1
176
     1
290
     1
176
     1
290
     0
176
     1
290
     0
176
     1
290
     0
176
     1
290
     0
176
     1
290
     0
176
     1
290
     0
176
     1
 90
       50
176
     1
 40
0.0
176
     1
 40
1.0
176
     1
 90
        0
176
     1
 62
    18
420
        0
176
     1
 90
       50
176
     1
 90
        3
176
     1
 62
     5
420
      255
176
     1
290
     0
176
     1
 90
       50
176
     1
 90
       50
176
     1
 90
       50
176
     1
290
     0
176
     1
 90
       50
176
     1
 62
   256
176
     0
 40
1.0
176
     0
 90
        2
176
     1
  1
strokes_ogs.tif
176
     1
290
     0
176
     1
 40
1.0
176
     1
 40
1.0
176
     1
  0
VISUALSTYLE
  5
34
102
{ACAD_REACTORS
330
2A
102
}
330
2A
100
AcDbVisualStyle
  2
Conceptual
 70
     9
177
     3
291
     0
 70
    58
 90
        3
176
     1
 90
        2
176
     1
 90
        0
176
     1
 90
        0
176
     1
 40
0.6
176
     1
 40
30.0
176
     1
 62
     7
420
 16777215
176
     1
 90
        2
176
     1
 90
        2
176
     1
 62
     7
176
     1
 62
   257
176
     1
 90
        1
176
     1
 90
        1
176
     1
 40
179.0
176
     1
 90
        8
176
     1
 62
     7
176
     1
 40
1.0
176
     1
 90
        1
176
     1
 90
        6
176
     1
 90
        2
176
     1
 62
     7
176
     1
 90
        3
176
     1
 90
        0
176
     1
 90
        0
176
     1
290
     0
176
     1
 90
        1
176
     1
 40
0.0
176
     1
 90
        0
176
     1
290
     0
176
     1
290
     1
176
     1
290
     1
176
     1
290
     0
176
     1
290
     0
176
     1
290
     0
176
     1
290
     0
176
     1
290
     0
176
     1
290
     0
176
     1
 90
       50
176
     1
 40
0.0
176
     1
 40
1.0
176
     1
 90
        0
176
     1
 62
    18
420
        0
176
     1
 90
       50
176
     1
 90
        3
176
     1
 62
     5
420
      255
176
     1
290
     0
176
     1
 90
       50
176
     1
 90
       50
176
     1
 90
       50
176
     1
290
     0
176
     1
 90
       50
176
     1
 62
   256
176
     0
 40
1.0
176
     0
 90
        2
176
     1
  1
strokes_ogs.tif
176
     1
290
     0
176
     1
 40
1.0
176
     1
 40
1.0
176
     1
  0
VISUALSTYLE
  5
35
102
{ACAD_REACTORS
330
2A
102
}
330
2A
100
AcDbVisualStyle
  2
Dim
 70
    11
177
     3
291
     1
 70
    58
 90
        2
176
     1
 90
        2
176
     1
 90
        0
176
     1
 90
        0
176
     1
 40
0.6
176
     1
 40
30.0
176
     1
 62
     7
420
 16777215
176
     1
 90
        1
176
     1
 90
        4
176
     1
 62
     7
176
     1
 62
   257
176
     1
 90
        1
176
     1
 90
        1
176
     1
 40
1.0
176
     1
 90
        8
176
     1
 62
     7
176
     1
 40
1.0
176
     1
 90
        1
176
     1
 90
        6
176
     1
 90
        2
176
     1
 62
     7
176
     1
 90
        5
176
     1
 90
        0
176
     1
 90
        0
176
     1
290
     0
176
     1
 90
        1
176
     1
 40
-50.0
176
     1
 90
        0
176
     1
290
     0
176
     1
290
     1
176
     1
290
     1
176
     1
290
     0
176
     1
290
     0
176
     1
290
     0
176
     1
290
     0
176
     1
290
     0
176
     1
290
     0
176
     1
 90
       50
176
     1
 40
0.0
176
     1
 40
1.0
176
     1
 90
        0
176
     1
 62
    18
420
        0
176
     1
 90
       50
176
     1
 90
        3
176
     1
 62
     5
420
      255
176
     1
290
     0
176
     1
 90
       50
176
     1
 90
       50
176
     1
 90
       50
176
     1
290
     0
176
     1
 90
       50
176
     1
 62
   256
176
     0
 40
1.0
176
     0
 90
        2
176
     1
  1
strokes_ogs.tif
176
     1
290
     0
176
     1
 40
1.0
176
     1
 40
1.0
176
     1
  0
VISUALSTYLE
  5
3D
102
{ACAD_REACTORS
330
2A
102
}
330
2A
100
AcDbVisualStyle
  2
EdgeColorOff
 70
    22
177
     3
291
     1
 70
    58
 90
        2
176
     0
 90
        2
176
     0
 90
        0
176
     0
 90
        0
176
     0
 40
0.6
176
     0
 40
30.0
176
     0
 62
     7
420
 16777215
176
     0
 90
        1
176
     0
 90
        4
176
     0
 62
     7
176
     0
 62
   257
176
     0
 90
        1
176
     0
 90
        1
176
     0
 40
1.0
176
     0
 90
        8
176
     2
 62
     7
176
     0
 40
1.0
176
     0
 90
        1
176
     0
 90
        6
176
     0
 90
        2
176
     0
 62
     7
176
     0
 90
        5
176
     0
 90
        0
176
     0
 90
        0
176
     0
290
     0
176
     0
 90
        1
176
     0
 40
0.0
176
     0
 90
        0
176
     0
290
     0
176
     0
290
     1
176
     0
290
     1
176
     0
290
     0
176
     0
290
     0
176
     0
290
     0
176
     0
290
     0
176
     0
290
     0
176
     0
290
     0
176
     0
 90
       50
176
     0
 40
0.0
176
     0
 40
1.0
176
     0
 90
        0
176
     0
 62
    18
420
        0
176
     0
 90
       50
176
     0
 90
        3
176
     0
 62
     5
420
      255
176
     0
290
     0
176
     0
 90
       50
176
     0
 90
       50
176
     0
 90
       50
176
     0
290
     0
176
     0
 90
       50
176
     0
 62
   256
176
     0
 40
1.0
176
     0
 90
        2
176
     0
  1
strokes_ogs.tif
176
     0
290
     0
176
     0
 40
1.0
176
     0
 40
1.0
176
     0
  0
VISUALSTYLE
  5
39
102
{ACAD_REACTORS
330
2A
102
}
330
2A
100
AcDbVisualStyle
  2
Facepattern
 70
    15
177
     3
291
     1
 70
    58
 90
        2
176
     1
 90
        2
176
     1
 90
        0
176
     1
 90
        0
176
     1
 40
0.6
176
     1
 40
30.0
176
     1
 62
     7
420
 16777215
176
     1
 90
        1
176
     1
 90
        4
176
     1
 62
     7
176
     1
 62
   257
176
     1
 90
        1
176
     1
 90
        1
176
     1
 40
1.0
176
     1
 90
        8
176
     1
 62
     7
176
     1
 40
1.0
176
     1
 90
        1
176
     1
 90
        6
176
     1
 90
        2
176
     1
 62
     7
176
     1
 90
        5
176
     1
 90
        0
176
     1
 90
        0
176
     1
290
     0
176
     1
 90
        1
176
     1
 40
0.0
176
     1
 90
        0
176
     1
290
     0
176
     1
290
     1
176
     1
290
     1
176
     1
290
     0
176
     1
290
     0
176
     1
290
     0
176
     1
290
     0
176
     1
290
     0
176
     1
290
     0
176
     1
 90
       50
176
     1
 40
0.0
176
     1
 40
1.0
176
     1
 90
        0
176
     1
 62
    18
420
        0
176
     1
 90
       50
176
     1
 90
        3
176
     1
 62
     5
420
      255
176
     1
290
     0
176
     1
 90
       50
176
     1
 90
       50
176
     1
 90
       50
176
     1
290
     0
176
     1
 90
       50
176
     1
 62
   256
176
     0
 40
1.0
176
     0
 90
        2
176
     1
  1
strokes_ogs.tif
176
     1
290
     0
176
     1
 40
1.0
176
     1
 40
1.0
176
     1
  0
VISUALSTYLE
  5
2B
102
{ACAD_REACTORS
330
2A
102
}
330
2A
100
AcDbVisualStyle
  2
Flat
 70
     0
177
     3
291
     1
 70
    58
 90
        2
176
     1
 90
        1
176
     1
 90
        1
176
     1
 90
        2
176
     1
 40
0.6
176
     1
 40
30.0
176
     1
 62
     7
420
 16777215
176
     1
 90
        0
176
     1
 90
        0
176
     1
 62
     7
176
     1
 62
   257
176
     1
 90
        1
176
     1
 90
        1
176
     1
 40
1.0
176
     1
 90
        8
176
     1
 62
     7
176
     1
 40
1.0
176
     1
 90
        1
176
     1
 90
        6
176
     1
 90
        2
176
     1
 62
     7
176
     1
 90
        5
176
     1
 90
        0
176
     1
 90
        0
176
     1
290
     0
176
     1
 90
       13
176
     1
 40
0.0
176
     1
 90
        0
176
     1
290
     0
176
     1
290
     1
176
     1
290
     1
176
     1
290
     0
176
     1
290
     0
176
     1
290
     0
176
     1
290
     0
176
     1
290
     0
176
     1
290
     0
176
     1
 90
       50
176
     1
 40
0.0
176
     1
 40
1.0
176
     1
 90
        0
176
     1
 62
    18
420
        0
176
     1
 90
       50
176
     1
 90
        3
176
     1
 62
     5
420
      255
176
     1
290
     0
176
     1
 90
       50
176
     1
 90
       50
176
     1
 90
       50
176
     1
290
     0
176
     1
 90
       50
176
     1
 62
   256
176
     0
 40
1.0
176
     0
 90
        2
176
     1
  1
strokes_ogs.tif
176
     1
290
     0
176
     1
 40
1.0
176
     1
 40
1.0
176
     1
  0
VISUALSTYLE
  5
2C
102
{ACAD_REACTORS
330
2A
102
}
330
2A
100
AcDbVisualStyle
  2
FlatWithEdges
 70
     1
177
     3
291
     1
 70
    58
 90
        2
176
     1
 90
        1
176
     1
 90
        1
176
     1
 90
        2
176
     1
 40
0.6
176
     1
 40
30.0
176
     1
 62
     7
420
 16777215
176
     1
 90
        1
176
     1
 90
        0
176
     1
 62
     7
176
     1
 62
   257
176
     1
 90
        1
176
     1
 90
        1
176
     1
 40
1.0
176
     1
 90
        0
176
     1
 62
   257
176
     1
 40
1.0
176
     1
 90
        1
176
     1
 90
        6
176
     1
 90
        2
176
     1
 62
     7
176
     1
 90
        5
176
     1
 90
        0
176
     1
 90
        0
176
     1
290
     0
176
     1
 90
       13
176
     1
 40
0.0
176
     1
 90
        0
176
     1
290
     0
176
     1
290
     1
176
     1
290
     1
176
     1
290
     0
176
     1
290
     0
176
     1
290
     0
176
     1
290
     0
176
     1
290
     0
176
     1
290
     0
176
     1
 90
       50
176
     1
 40
0.0
176
     1
 40
1.0
176
     1
 90
        0
176
     1
 62
    18
420
        0
176
     1
 90
       50
176
     1
 90
        3
176
     1
 62
     5
420
      255
176
     1
290
     0
176
     1
 90
       50
176
     1
 90
       50
176
     1
 90
       50
176
     1
290
     0
176
     1
 90
       50
176
     1
 62
   256
176
     0
 40
1.0
176
     0
 90
        2
176
     1
  1
strokes_ogs.tif
176
     1
290
     0
176
     1
 40
1.0
176
     1
 40
1.0
176
     1
  0
VISUALSTYLE
  5
2D
102
{ACAD_REACTORS
330
2A
102
}
330
2A
100
AcDbVisualStyle
  2
Gouraud
 70
     2
177
     3
291
     1
 70
    58
 90
        2
176
     1
 90
        2
176
     1
 90
        1
176
     1
 90
        2
176
     1
 40
0.6
176
     1
 40
30.0
176
     1
 62
     7
420
 16777215
176
     1
 90
        0
176
     1
 90
        0
176
     1
 62
     7
176
     1
 62
   257
176
     1
 90
        1
176
     1
 90
        1
176
     1
 40
1.0
176
     1
 90
        0
176
     1
 62
     7
176
     1
 40
1.0
176
     1
 90
        1
176
     1
 90
        6
176
     1
 90
        2
176
     1
 62
     7
176
     1
 90
        5
176
     1
 90
        0
176
     1
 90
        0
176
     1
290
     0
176
     1
 90
       13
176
     1
 40
0.0
176
     1
 90
        0
176
     1
290
     0
176
     1
290
     1
176
     1
290
     1
176
     1
290
     0
176
     1
290
     0
176
     1
290
     0
176
     1
290
     0
176
     1
290
     0
176
     1
290
     0
176
     1
 90
       50
176
     1
 40
0.0
176
     1
 40
1.0
176
     1
 90
        0
176
     1
 62
    18
420
        0
176
     1
 90
       50
176
     1
 90
        3
176
     1
 62
     5
420
      255
176
     1
290
     0
176
     1
 90
       50
176
     1
 90
       50
176
     1
 90
       50
176
     1
290
     0
176
     1
 90
       50
176
     1
 62
   256
176
     0
 40
1.0
176
     0
 90
        2
176
     1
  1
strokes_ogs.tif
176
     1
290
     0
176
     1
 40
1.0
176
     1
 40
1.0
176
     1
  0
VISUALSTYLE
  5
2E
102
{ACAD_REACTORS
330
2A
102
}
330
2A
100
AcDbVisualStyle
  2
GouraudWithEdges
 70
     3
177
     3
291
     1
 70
    58
 90
        2
176
     1
 90
        2
176
     1
 90
        1
176
     1
 90
        2
176
     1
 40
0.6
176
     1
 40
30.0
176
     1
 62
     7
420
 16777215
176
     1
 90
        1
176
     1
 90
        0
176
     1
 62
     7
176
     1
 62
   257
176
     1
 90
        1
176
     1
 90
        1
176
     1
 40
1.0
176
     1
 90
        0
176
     1
 62
   257
176
     1
 40
1.0
176
     1
 90
        1
176
     1
 90
        6
176
     1
 90
        2
176
     1
 62
     7
176
     1
 90
        5
176
     1
 90
        0
176
     1
 90
        0
176
     1
290
     0
176
     1
 90
       13
176
     1
 40
0.0
176
     1
 90
        0
176
     1
290
     0
176
     1
290
     1
176
     1
290
     1
176
     1
290
     0
176
     1
290
     0
176
     1
290
     0
176
     1
290
     0
176
     1
290
     0
176
     1
290
     0
176
     1
 90
       50
176
     1
 40
0.0
176
     1
 40
1.0
176
     1
 90
        0
176
     1
 62
    18
420
        0
176
     1
 90
       50
176
     1
 90
        3
176
     1
 62
     5
420
      255
176
     1
290
     0
176
     1
 90
       50
176
     1
 90
       50
176
     1
 90
       50
176
     1
290
     0
176
     1
 90
       50
176
     1
 62
   256
176
     0
 40
1.0
176
     0
 90
        2
176
     1
  1
strokes_ogs.tif
176
     1
290
     0
176
     1
 40
1.0
176
     1
 40
1.0
176
     1
  0
VISUALSTYLE
  5
31
102
{ACAD_REACTORS
330
2A
102
}
330
2A
100
AcDbVisualStyle
  2
Hidden
 70
     6
177
     3
291
     0
 70
    58
 90
        1
176
     1
 90
        2
176
     1
 90
        2
176
     1
 90
        0
176
     1
 40
0.6
176
     1
 40
30.0
176
     1
 62
     7
420
 16777215
176
     1
 90
        2
176
     1
 90
        2
176
     1
 62
     7
176
     1
 62
   257
176
     1
 90
        2
176
     1
 90
        1
176
     1
 40
40.0
176
     1
 90
        0
176
     1
 62
   257
176
     1
 40
1.0
176
     1
 90
        1
176
     1
 90
        6
176
     1
 90
        2
176
     1
 62
     7
176
     1
 90
        3
176
     1
 90
        0
176
     1
 90
        0
176
     1
290
     0
176
     1
 90
        1
176
     1
 40
0.0
176
     1
 90
        0
176
     1
290
     0
176
     1
290
     1
176
     1
290
     1
176
     1
290
     0
176
     1
290
     0
176
     1
290
     0
176
     1
290
     0
176
     1
290
     0
176
     1
290
     0
176
     1
 90
       50
176
     1
 40
0.0
176
     1
 40
1.0
176
     1
 90
        0
176
     1
 62
    18
420
        0
176
     1
 90
       50
176
     1
 90
        3
176
     1
 62
     5
420
      255
176
     1
290
     0
176
     1
 90
       50
176
     1
 90
       50
176
     1
 90
       50
176
     1
290
     0
176
     1
 90
       50
176
     1
 62
   256
176
     0
 40
1.0
176
     0
 90
        2
176
     1
  1
strokes_ogs.tif
176
     1
290
     0
176
     1
 40
1.0
176
     1
 40
1.0
176
     1
  0
VISUALSTYLE
  5
3B
102
{ACAD_REACTORS
330
2A
102
}
330
2A
100
AcDbVisualStyle
  2
JitterOff
 70
    20
177
     3
291
     1
 70
    58
 90
        2
176
     0
 90
        2
176
     0
 90
        0
176
     0
 90
        0
176
     0
 40
0.6
176
     0
 40
30.0
176
     0
 62
     7
420
 16777215
176
     0
 90
        1
176
     0
 90
        4
176
     0
 62
     7
176
     0
 62
   257
176
     0
 90
        1
176
     0
 90
        1
176
     0
 40
1.0
176
     0
 90
       10
176
     2
 62
     7
176
     0
 40
1.0
176
     0
 90
        1
176
     0
 90
        6
176
     0
 90
        2
176
     0
 62
     7
176
     0
 90
        5
176
     0
 90
        0
176
     0
 90
        0
176
     0
290
     0
176
     0
 90
        1
176
     0
 40
0.0
176
     0
 90
        0
176
     0
290
     0
176
     0
290
     1
176
     0
290
     1
176
     0
290
     0
176
     0
290
     0
176
     0
290
     0
176
     0
290
     0
176
     0
290
     0
176
     0
290
     0
176
     0
 90
       50
176
     0
 40
0.0
176
     0
 40
1.0
176
     0
 90
        0
176
     0
 62
    18
420
        0
176
     0
 90
       50
176
     0
 90
        3
176
     0
 62
     5
420
      255
176
     0
290
     0
176
     0
 90
       50
176
     0
 90
       50
176
     0
 90
       50
176
     0
290
     0
176
     0
 90
       50
176
     0
 62
   256
176
     0
 40
1.0
176
     0
 90
        2
176
     0
  1
strokes_ogs.tif
176
     0
290
     0
176
     0
 40
1.0
176
     0
 40
1.0
176
     0
  0
VISUALSTYLE
  5
38
102
{ACAD_REACTORS
330
2A
102
}
330
2A
100
AcDbVisualStyle
  2
Linepattern
 70
    14
177
     3
291
     1
 70
    58
 90
        2
176
     1
 90
        2
176
     1
 90
        0
176
     1
 90
        0
176
     1
 40
0.6
176
     1
 40
30.0
176
     1
 62
     7
420
 16777215
176
     1
 90
        1
176
     1
 90
        4
176
     1
 62
     7
176
     1
 62
   257
176
     1
 90
        7
176
     1
 90
        7
176
     1
 40
1.0
176
     1
 90
        8
176
     1
 62
     7
176
     1
 40
1.0
176
     1
 90
        1
176
     1
 90
        6
176
     1
 90
        2
176
     1
 62
     7
176
     1
 90
        5
176
     1
 90
        0
176
     1
 90
        0
176
     1
290
     0
176
     1
 90
        1
176
     1
 40
0.0
176
     1
 90
        0
176
     1
290
     0
176
     1
290
     1
176
     1
290
     1
176
     1
290
     0
176
     1
290
     0
176
     1
290
     0
176
     1
290
     0
176
     1
290
     0
176
     1
290
     0
176
     1
 90
       50
176
     1
 40
0.0
176
     1
 40
1.0
176
     1
 90
        0
176
     1
 62
    18
420
        0
176
     1
 90
       50
176
     1
 90
        3
176
     1
 62
     5
420
      255
176
     1
290
     0
176
     1
 90
       50
176
     1
 90
       50
176
     1
 90
       50
176
     1
290
     0
176
     1
 90
       50
176
     1
 62
   256
176
     0
 40
1.0
176
     0
 90
        2
176
     1
  1
strokes_ogs.tif
176
     1
290
     0
176
     1
 40
1.0
176
     1
 40
1.0
176
     1
  0
VISUALSTYLE
  5
3C
102
{ACAD_REACTORS
330
2A
102
}
330
2A
100
AcDbVisualStyle
  2
OverhangOff
 70
    21
177
     3
291
     1
 70
    58
 90
        2
176
     0
 90
        2
176
     0
 90
        0
176
     0
 90
        0
176
     0
 40
0.6
176
     0
 40
30.0
176
     0
 62
     7
420
 16777215
176
     0
 90
        1
176
     0
 90
        4
176
     0
 62
     7
176
     0
 62
   257
176
     0
 90
        1
176
     0
 90
        1
176
     0
 40
1.0
176
     0
 90
        9
176
     2
 62
     7
176
     0
 40
1.0
176
     0
 90
        1
176
     0
 90
        6
176
     0
 90
        2
176
     0
 62
     7
176
     0
 90
        5
176
     0
 90
        0
176
     0
 90
        0
176
     0
290
     0
176
     0
 90
        1
176
     0
 40
0.0
176
     0
 90
        0
176
     0
290
     0
176
     0
290
     1
176
     0
290
     1
176
     0
290
     0
176
     0
290
     0
176
     0
290
     0
176
     0
290
     0
176
     0
290
     0
176
     0
290
     0
176
     0
 90
       50
176
     0
 40
0.0
176
     0
 40
1.0
176
     0
 90
        0
176
     0
 62
    18
420
        0
176
     0
 90
       50
176
     0
 90
        3
176
     0
 62
     5
420
      255
176
     0
290
     0
176
     0
 90
       50
176
     0
 90
       50
176
     0
 90
       50
176
     0
290
     0
176
     0
 90
       50
176
     0
 62
   256
176
     0
 40
1.0
176
     0
 90
        2
176
     0
  1
strokes_ogs.tif
176
     0
290
     0
176
     0
 40
1.0
176
     0
 40
1.0
176
     0
  0
VISUALSTYLE
  5
33
102
{ACAD_REACTORS
330
2A
102
}
330
2A
100
AcDbVisualStyle
  2
Realistic
 70
     8
177
     3
291
     0
 70
    58
 90
        2
176
     1
 90
        3
176
     1
 90
        0
176
     1
 90
        2
176
     1
 40
0.6
176
     1
 40
30.0
176
     1
 62
     7
420
 16777215
176
     1
 90
        0
176
     1
 90
        0
176
     1
 62
     7
176
     1
 62
   257
176
     1
 90
        1
176
     1
 90
        1
176
     1
 40
1.0
176
     1
 90
        8
176
     1
 62
   257
176
     1
 40
1.0
176
     1
 90
        1
176
     1
 90
        6
176
     1
 90
        2
176
     1
 62
     7
176
     1
 90
        3
176
     1
 90
        0
176
     1
 90
        0
176
     1
290
     0
176
     1
 90
       13
176
     1
 40
0.0
176
     1
 90
        0
176
     1
290
     0
176
     1
290
     1
176
     1
290
     1
176
     1
290
     0
176
     1
290
     0
176
     1
290
     0
176
     1
290
     0
176
     1
290
     0
176
     1
290
     0
176
     1
 90
       50
176
     1
 40
0.0
176
     1
 40
1.0
176
     1
 90
        0
176
     1
 62
    18
420
        0
176
     1
 90
       50
176
     1
 90
        3
176
     1
 62
     5
420
      255
176
     1
290
     0
176
     1
 90
       50
176
     1
 90
       50
176
     1
 90
       50
176
     1
290
     0
176
     1
 90
       50
176
     1
 62
   256
176
     0
 40
1.0
176
     0
 90
        2
176
     1
  1
strokes_ogs.tif
176
     1
290
     0
176
     1
 40
1.0
176
     1
 40
1.0
176
     1
  0
VISUALSTYLE
  5
42
102
{ACAD_REACTORS
330
2A
102
}
330
2A
100
AcDbVisualStyle
  2
Shaded
 70
    27
177
     3
291
     0
 70
    58
 90
        2
176
     1
 90
        2
176
     1
 90
        1
176
     1
 90
        2
176
     1
 40
0.6
176
     1
 40
30.0
176
     1
 62
     7
420
 16777215
176
     1
 90
        0
176
     1
 90
        4
176
     1
 62
     7
176
     1
 62
   257
176
     1
 90
        1
176
     1
 90
        1
176
     1
 40
1.0
176
     1
 90
        8
176
     1
 62
   257
176
     1
 40
1.0
176
     1
 90
        1
176
     1
 90
        6
176
     1
 90
        2
176
     1
 62
     8
420
  7895160
176
     1
 90
        3
176
     1
 90
        0
176
     1
 90
        0
176
     1
290
     0
176
     1
 90
        5
176
     1
 40
0.0
176
     1
 90
        0
176
     1
290
     0
176
     1
290
     1
176
     1
290
     1
176
     1
290
     0
176
     1
290
     0
176
     1
290
     0
176
     1
290
     0
176
     1
290
     0
176
     1
290
     0
176
     1
 90
       50
176
     1
 40
0.0
176
     1
 40
1.0
176
     1
 90
        0
176
     1
 62
    18
420
        0
176
     1
 90
       50
176
     1
 90
        3
176
     1
 62
     5
420
      255
176
     1
290
     0
176
     1
 90
       50
176
     1
 90
       50
176
     1
 90
       50
176
     1
290
     0
176
     1
 90
       50
176
     1
 62
   256
176
     0
 40
1.0
176
     0
 90
        2
176
     1
  1
strokes_ogs.tif
176
     1
290
     0
176
     1
 40
1.0
176
     1
 40
1.0
176
     1
  0
VISUALSTYLE
  5
41
102
{ACAD_REACTORS
330
2A
102
}
330
2A
100
AcDbVisualStyle
  2
Shaded with edges
 70
    26
177
     3
291
     0
 70
    58
 90
        2
176
     1
 90
        2
176
     1
 90
        1
176
     1
 90
        2
176
     1
 40
0.6
176
     1
 40
30.0
176
     1
 62
     7
420
 16777215
176
     1
 90
        1
176
     1
 90
       10
176
     1
 62
     7
176
     1
 62
   257
176
     1
 90
        2
176
     1
 90
        1
176
     1
 40
1.0
176
     1
 90
        8
176
     1
 62
   257
176
     1
 40
1.0
176
     1
 90
        1
176
     1
 90
        6
176
     1
 90
        2
176
     1
 62
     7
176
     1
 90
        3
176
     1
 90
        0
176
     1
 90
        0
176
     1
290
     0
176
     1
 90
        5
176
     1
 40
0.0
176
     1
 90
        0
176
     1
290
     0
176
     1
290
     1
176
     1
290
     1
176
     1
290
     0
176
     1
290
     0
176
     1
290
     0
176
     1
290
     0
176
     1
290
     0
176
     1
290
     0
176
     1
 90
       50
176
     1
 40
0.0
176
     1
 40
1.0
176
     1
 90
        0
176
     1
 62
    18
420
        0
176
     1
 90
       50
176
     1
 90
        3
176
     1
 62
     5
420
      255
176
     1
290
     0
176
     1
 90
       50
176
     1
 90
       50
176
     1
 90
       50
176
     1
290
     0
176
     1
 90
       50
176
     1
 62
   256
176
     0
 40
1.0
176
     0
 90
        2
176
     1
  1
strokes_ogs.tif
176
     1
290
     0
176
     1
 40
1.0
176
     1
 40
1.0
176
     1
  0
VISUALSTYLE
  5
3E
102
{ACAD_REACTORS
330
2A
102
}
330
2A
100
AcDbVisualStyle
  2
Shades of Gray
 70
    23
177
     3
291
     0
 70
    58
 90
        2
176
     1
 90
        2
176
     1
 90
        3
176
     1
 90
        0
176
     1
 40
0.6
176
     1
 40
30.0
176
     1
 62
     7
420
 16777215
176
     1
 90
        2
176
     1
 90
        2
176
     1
 62
     7
176
     1
 62
     7
176
     1
 90
        1
176
     1
 90
        1
176
     1
 40
40.0
176
     1
 90
        8
176
     1
 62
     7
176
     1
 40
1.0
176
     1
 90
        1
176
     1
 90
        6
176
     1
 90
        2
176
     1
 62
     7
176
     1
 90
        3
176
     1
 90
        0
176
     1
 90
        0
176
     1
290
     0
176
     1
 90
        1
176
     1
 40
0.0
176
     1
 90
        0
176
     1
290
     0
176
     1
290
     1
176
     1
290
     1
176
     1
290
     0
176
     1
290
     0
176
     1
290
     0
176
     1
290
     0
176
     1
290
     0
176
     1
290
     0
176
     1
 90
       50
176
     1
 40
0.0
176
     1
 40
1.0
176
     1
 90
        0
176
     1
 62
    18
420
        0
176
     1
 90
       50
176
     1
 90
        3
176
     1
 62
     5
420
      255
176
     1
290
     0
176
     1
 90
       50
176
     1
 90
       50
176
     1
 90
       50
176
     1
290
     0
176
     1
 90
       50
176
     1
 62
   256
176
     0
 40
1.0
176
     0
 90
        2
176
     1
  1
strokes_ogs.tif
176
     1
290
     0
176
     1
 40
1.0
176
     1
 40
1.0
176
     1
  0
VISUALSTYLE
  5
3F
102
{ACAD_REACTORS
330
2A
102
}
330
2A
100
AcDbVisualStyle
  2
Sketchy
 70
    24
177
     3
291
     0
 70
    58
 90
        1
176
     1
 90
        2
176
     1
 90
        2
176
     1
 90
        0
176
     1
 40
0.6
176
     1
 40
30.0
176
     1
 62
     7
420
 16777215
176
     1
 90
        2
176
     1
 90
        2
176
     1
 62
     7
176
     1
 62
     7
176
     1
 90
        1
176
     1
 90
        1
176
     1
 40
40.0
176
     1
 90
       11
176
     1
 62
     7
176
     1
 40
1.0
176
     1
 90
        1
176
     1
 90
        6
176
     1
 90
        2
176
     1
 62
     7
176
     1
 90
        6
176
     1
 90
        0
176
     1
 90
        0
176
     1
290
     0
176
     1
 90
        1
176
     1
 40
0.0
176
     1
 90
        0
176
     1
290
     0
176
     1
290
     1
176
     1
290
     1
176
     1
290
     0
176
     1
290
     0
176
     1
290
     0
176
     1
290
     0
176
     1
290
     0
176
     1
290
     0
176
     1
 90
       50
176
     1
 40
0.0
176
     1
 40
1.0
176
     1
 90
        0
176
     1
 62
    18
420
        0
176
     1
 90
       50
176
     1
 90
        3
176
     1
 62
     5
420
      255
176
     1
290
     0
176
     1
 90
       50
176
     1
 90
       50
176
     1
 90
       50
176
     1
290
     0
176
     1
 90
       50
176
     1
 62
   256
176
     0
 40
1.0
176
     0
 90
        2
176
     1
  1
strokes_ogs.tif
176
     1
290
     0
176
     1
 40
1.0
176
     1
 40
1.0
176
     1
  0
VISUALSTYLE
  5
37
102
{ACAD_REACTORS
330
2A
102
}
330
2A
100
AcDbVisualStyle
  2
Thicken
 70
    13
177
     3
291
     1
 70
    58
 90
        2
176
     1
 90
        2
176
     1
 90
        0
176
     1
 90
        0
176
     1
 40
0.6
176
     1
 40
30.0
176
     1
 62
     7
420
 16777215
176
     1
 90
        1
176
     1
 90
        4
176
     1
 62
     7
176
     1
 62
   257
176
     1
 90
        1
176
     1
 90
        1
176
     1
 40
1.0
176
     1
 90
       12
176
     1
 62
     7
176
     1
 40
1.0
176
     1
 90
        1
176
     1
 90
        6
176
     1
 90
        2
176
     1
 62
     7
176
     1
 90
        5
176
     1
 90
        0
176
     1
 90
        0
176
     1
290
     0
176
     1
 90
        1
176
     1
 40
0.0
176
     1
 90
        0
176
     1
290
     0
176
     1
290
     1
176
     1
290
     1
176
     1
290
     0
176
     1
290
     0
176
     1
290
     0
176
     1
290
     0
176
     1
290
     0
176
     1
290
     0
176
     1
 90
       50
176
     1
 40
0.0
176
     1
 40
1.0
176
     1
 90
        0
176
     1
 62
    18
420
        0
176
     1
 90
       50
176
     1
 90
        3
176
     1
 62
     5
420
      255
176
     1
290
     0
176
     1
 90
       50
176
     1
 90
       50
176
     1
 90
       50
176
     1
290
     0
176
     1
 90
       50
176
     1
 62
   256
176
     0
 40
1.0
176
     0
 90
        2
176
     1
  1
strokes_ogs.tif
176
     1
290
     0
176
     1
 40
1.0
176
     1
 40
1.0
176
     1
  0
VISUALSTYLE
  5
30
102
{ACAD_REACTORS
330
2A
102
}
330
2A
100
AcDbVisualStyle
  2
Wireframe
 70
     5
177
     3
291
     0
 70
    58
 90
        0
176
     1
 90
        2
176
     1
 90
        0
176
     1
 90
        0
176
     1
 40
0.6
176
     1
 40
30.0
176
     1
 62
     7
420
 16777215
176
     1
 90
        1
176
     1
 90
        4
176
     1
 62
     7
176
     1
 62
   257
176
     1
 90
        1
176
     1
 90
        1
176
     1
 40
1.0
176
     1
 90
        0
176
     1
 62
   257
176
     1
 40
1.0
176
     1
 90
        1
176
     1
 90
        6
176
     1
 90
        2
176
     1
 62
     7
176
     1
 90
        3
176
     1
 90
        0
176
     1
 90
        0
176
     1
290
     0
176
     1
 90
        1
176
     1
 40
0.0
176
     1
 90
        0
176
     1
290
     0
176
     1
290
     1
176
     1
290
     1
176
     1
290
     0
176
     1
290
     0
176
     1
290
     0
176
     1
290
     0
176
     1
290
     0
176
     1
290
     0
176
     1
 90
       50
176
     1
 40
0.0
176
     1
 40
1.0
176
     1
 90
        0
176
     1
 62
    18
420
        0
176
     1
 90
       50
176
     1
 90
        3
176
     1
 62
     5
420
      255
176
     1
290
     0
176
     1
 90
       50
176
     1
 90
       50
176
     1
 90
       50
176
     1
290
     0
176
     1
 90
       50
176
     1
 62
   256
176
     0
 40
1.0
176
     0
 90
        2
176
     1
  1
strokes_ogs.tif
176
     1
290
     0
176
     1
 40
1.0
176
     1
 40
1.0
176
     1
  0
VISUALSTYLE
  5
40
102
{ACAD_REACTORS
330
2A
102
}
330
2A
100
AcDbVisualStyle
  2
X-Ray
 70
    25
177
     3
291
     0
 70
    58
 90
        2
176
     1
 90
        2
176
     1
 90
        1
176
     1
 90
        1
176
     1
 40
0.5
176
     1
 40
30.0
176
     1
 62
     7
420
 16777215
176
     1
 90
        1
176
     1
 90
        0
176
     1
 62
     7
176
     1
 62
   257
176
     1
 90
        1
176
     1
 90
        1
176
     1
 40
1.0
176
     1
 90
        8
176
     1
 62
     7
176
     1
 40
1.0
176
     1
 90
        1
176
     1
 90
        6
176
     1
 90
        2
176
     1
 62
     7
176
     1
 90
        3
176
     1
 90
        0
176
     1
 90
        0
176
     1
290
     0
176
     1
 90
       13
176
     1
 40
0.0
176
     1
 90
        0
176
     1
290
     0
176
     1
290
     1
176
     1
290
     1
176
     1
290
     0
176
     1
290
     0
176
     1
290
     0
176
     1
290
     0
176
     1
290
     0
176
     1
290
     0
176
     1
 90
       50
176
     1
 40
0.0
176
     1
 40
1.0
176
     1
 90
        0
176
     1
 62
    18
420
        0
176
     1
 90
       50
176
     1
 90
        3
176
     1
 62
     5
420
      255
176
     1
290
     0
176
     1
 90
       50
176
     1
 90
       50
176
     1
 90
       50
176
     1
290
     0
176
     1
 90
       50
176
     1
 62
   256
176
     0
 40
1.0
176
     0
 90
        2
176
     1
  1
strokes_ogs.tif
176
     1
290
     0
176
     1
 40
1.0
176
     1
 40
1.0
176
     1
  0
DICTIONARYVAR
  5
2E1
102
{ACAD_REACTORS
330
2E0
102
}
330
2E0
100
DictionaryVariables
280
     0
  1
1:1
  0
ENDSEC
  0
EOF
