  0
SECTION
  2
HEADER
  9
$ACADVER
  1
AC1027
  9
$ACADMAINTVER
 70
     8
  9
$DWGCODEPAGE
  3
ANSI_932
  9
$REQUIREDVERSIONS
160
                 0
  9
$INSBASE
 10
0.0
 20
0.0
 30
0.0
  9
$EXTMIN
 10
30.00001350000002
 20
30.0
 30
0.0
  9
$EXTMAX
 10
546.1996944054081
 20
336.6529758417154
 30
0.0
  9
$LIMMIN
 10
0.0
 20
0.0
  9
$LIMMAX
 10
420.0
 20
297.0
  9
$ORTHOMODE
 70
     0
  9
$REGENMODE
 70
     1
  9
$FILLMODE
 70
     1
  9
$QTEXTMODE
 70
     0
  9
$MIRRTEXT
 70
     1
  9
$LTSCALE
 40
0.5
  9
$ATTMODE
 70
     1
  9
$TEXTSIZE
 40
5.6
  9
$TRACEWID
 40
0.05
  9
$TEXTSTYLE
  7
Standard
  9
$CLAYER
  8
0
  9
$CELTYPE
  6
ByLayer
  9
$CECOLOR
 62
   256
  9
$CELTSCALE
 40
1.0
  9
$DISPSILH
 70
     0
  9
$DIMSCALE
 40
1.0
  9
$DIMASZ
 40
1.55291427
  9
$DIMEXO
 40
2.0
  9
$DIMDLI
 40
30.0
  9
$DIMRND
 40
0.0
  9
$DIMDLE
 40
0.0
  9
$DIMEXE
 40
2.0
  9
$DIMTP
 40
0.0
  9
$DIMTM
 40
0.0
  9
$DIMTXT
 40
2.8
  9
$DIMCEN
 40
0.09
  9
$DIMTSZ
 40
0.0
  9
$DIMTOL
 70
     0
  9
$DIMLIM
 70
     0
  9
$DIMTIH
 70
     0
  9
$DIMTOH
 70
     0
  9
$DIMSE1
 70
     0
  9
$DIMSE2
 70
     0
  9
$DIMTAD
 70
     3
  9
$DIMZIN
 70
     8
  9
$DIMBLK
  1

  9
$DIMASO
 70
     1
  9
$DIMSHO
 70
     1
  9
$DIMPOST
  1

  9
$DIMAPOST
  1

  9
$DIMALT
 70
     0
  9
$DIMALTD
 70
     2
  9
$DIMALTF
 40
25.4
  9
$DIMLFAC
 40
1.0
  9
$DIMTOFL
 70
     1
  9
$DIMTVP
 40
0.7
  9
$DIMTIX
 70
     0
  9
$DIMSOXD
 70
     0
  9
$DIMSAH
 70
     0
  9
$DIMBLK1
  1

  9
$DIMBLK2
  1

  9
$DIMSTYLE
  2
Standard
  9
$DIMCLRD
 70
     0
  9
$DIMCLRE
 70
     0
  9
$DIMCLRT
 70
     0
  9
$DIMTFAC
 40
0.5
  9
$DIMGAP
 40
0.09
  9
$DIMJUST
 70
     0
  9
$DIMSD1
 70
     0
  9
$DIMSD2
 70
     0
  9
$DIMTOLJ
 70
     1
  9
$DIMTZIN
 70
     8
  9
$DIMALTZ
 70
     0
  9
$DIMALTTZ
 70
     0
  9
$DIMUPT
 70
     1
  9
$DIMDEC
 70
     2
  9
$DIMTDEC
 70
     4
  9
$DIMALTU
 70
     2
  9
$DIMALTTD
 70
     2
  9
$DIMTXSTY
  7
Standard
  9
$DIMAUNIT
 70
     0
  9
$DIMADEC
 70
     0
  9
$DIMALTRND
 40
0.0
  9
$DIMAZIN
 70
     0
  9
$DIMDSEP
 70
    46
  9
$DIMATFIT
 70
     2
  9
$DIMFRAC
 70
     0
  9
$DIMLDRBLK
  1

  9
$DIMLUNIT
 70
     2
  9
$DIMLWD
 70
    -2
  9
$DIMLWE
 70
    -2
  9
$DIMTMOVE
 70
     2
  9
$DIMFXL
 40
1.0
  9
$DIMFXLON
 70
     0
  9
$DIMJOGANG
 40
0.7853981633974483
  9
$DIMTFILL
 70
     0
  9
$DIMTFILLCLR
 70
     0
  9
$DIMARCSYM
 70
     0
  9
$DIMLTYPE
  6

  9
$DIMLTEX1
  6

  9
$DIMLTEX2
  6

  9
$DIMTXTDIRECTION
 70
     0
  9
$LUNITS
 70
     2
  9
$LUPREC
 70
     4
  9
$SKETCHINC
 40
0.1
  9
$FILLETRAD
 40
0.5
  9
$AUNITS
 70
     0
  9
$AUPREC
 70
     0
  9
$MENU
  1
.
  9
$ELEVATION
 40
0.0
  9
$PELEVATION
 40
0.0
  9
$THICKNESS
 40
0.0
  9
$LIMCHECK
 70
     0
  9
$CHAMFERA
 40
0.0
  9
$CHAMFERB
 40
0.0
  9
$CHAMFERC
 40
0.0
  9
$CHAMFERD
 40
0.0
  9
$SKPOLY
 70
     0
  9
$TDCREATE
 40
2460053.993425926
  9
$TDUCREATE
 40
2460053.618425926
  9
$TDUPDATE
 40
2460053.618432731
  9
$TDUUPDATE
 40
2460053.243432731
  9
$TDINDWG
 40
0.0000000116
  9
$TDUSRTIMER
 40
0.0000000116
  9
$USRTIMER
 70
     1
  9
$ANGBASE
 50
0.0
  9
$ANGDIR
 70
     0
  9
$PDMODE
 70
     0
  9
$PDSIZE
 40
0.0
  9
$PLINEWID
 40
0.0
  9
$SPLFRAME
 70
     0
  9
$SPLINETYPE
 70
     6
  9
$SPLINESEGS
 70
     8
  9
$HANDSEED
  5
2B1
  9
$SURFTAB1
 70
     6
  9
$SURFTAB2
 70
     6
  9
$SURFTYPE
 70
     6
  9
$SURFU
 70
     6
  9
$SURFV
 70
     6
  9
$UCSBASE
  2

  9
$UCSNAME
  2

  9
$UCSORG
 10
0.0
 20
0.0
 30
0.0
  9
$UCSXDIR
 10
1.0
 20
0.0
 30
0.0
  9
$UCSYDIR
 10
0.0
 20
1.0
 30
0.0
  9
$UCSORTHOREF
  2

  9
$UCSORTHOVIEW
 70
     0
  9
$UCSORGTOP
 10
0.0
 20
0.0
 30
0.0
  9
$UCSORGBOTTOM
 10
0.0
 20
0.0
 30
0.0
  9
$UCSORGLEFT
 10
0.0
 20
0.0
 30
0.0
  9
$UCSORGRIGHT
 10
0.0
 20
0.0
 30
0.0
  9
$UCSORGFRONT
 10
0.0
 20
0.0
 30
0.0
  9
$UCSORGBACK
 10
0.0
 20
0.0
 30
0.0
  9
$PUCSBASE
  2

  9
$PUCSNAME
  2

  9
$PUCSORG
 10
0.0
 20
0.0
 30
0.0
  9
$PUCSXDIR
 10
1.0
 20
0.0
 30
0.0
  9
$PUCSYDIR
 10
0.0
 20
1.0
 30
0.0
  9
$PUCSORTHOREF
  2

  9
$PUCSORTHOVIEW
 70
     0
  9
$PUCSORGTOP
 10
0.0
 20
0.0
 30
0.0
  9
$PUCSORGBOTTOM
 10
0.0
 20
0.0
 30
0.0
  9
$PUCSORGLEFT
 10
0.0
 20
0.0
 30
0.0
  9
$PUCSORGRIGHT
 10
0.0
 20
0.0
 30
0.0
  9
$PUCSORGFRONT
 10
0.0
 20
0.0
 30
0.0
  9
$PUCSORGBACK
 10
0.0
 20
0.0
 30
0.0
  9
$USERI1
 70
     0
  9
$USERI2
 70
     0
  9
$USERI3
 70
     0
  9
$USERI4
 70
     0
  9
$USERI5
 70
     0
  9
$USERR1
 40
0.0
  9
$USERR2
 40
0.0
  9
$USERR3
 40
0.0
  9
$USERR4
 40
0.0
  9
$USERR5
 40
0.0
  9
$WORLDVIEW
 70
     1
  9
$SHADEDGE
 70
     3
  9
$SHADEDIF
 70
    70
  9
$TILEMODE
 70
     1
  9
$MAXACTVP
 70
    64
  9
$PINSBASE
 10
0.0
 20
0.0
 30
0.0
  9
$PLIMCHECK
 70
     0
  9
$PEXTMIN
 10
0.0
 20
0.0
 30
0.0
  9
$PEXTMAX
 10
420.0
 20
297.0
 30
0.0
  9
$PLIMMIN
 10
0.0
 20
0.0
  9
$PLIMMAX
 10
420.0
 20
297.0
  9
$UNITMODE
 70
     0
  9
$VISRETAIN
 70
     1
  9
$PLINEGEN
 70
     0
  9
$PSLTSCALE
 70
     1
  9
$TREEDEPTH
 70
  3020
  9
$CMLSTYLE
  2
Standard
  9
$CMLJUST
 70
     0
  9
$CMLSCALE
 40
1.0
  9
$PROXYGRAPHICS
 70
     1
  9
$MEASUREMENT
 70
     1
  9
$CELWEIGHT
370
    -1
  9
$ENDCAPS
280
     0
  9
$JOINSTYLE
280
     0
  9
$LWDISPLAY
290
     0
  9
$INSUNITS
 70
     4
  9
$HYPERLINKBASE
  1

  9
$STYLESHEET
  1

  9
$XEDIT
290
     1
  9
$CEPSNTYPE
380
     0
  9
$PSTYLEMODE
290
     1
  9
$FINGERPRINTGUID
  2
{F58FBE0F-1C9F-4C85-9F27-83E05EBF3405}
  9
$VERSIONGUID
  2
{FAEB1C32-E019-11D5-929B-00C0DF256EC4}
  9
$EXTNAMES
290
     1
  9
$PSVPSCALE
 40
0.0
  9
$OLESTARTUP
290
     0
  9
$SORTENTS
280
   127
  9
$INDEXCTL
280
     0
  9
$HIDETEXT
280
     1
  9
$XCLIPFRAME
280
     2
  9
$HALOGAP
280
     0
  9
$OBSCOLOR
 70
   257
  9
$OBSLTYPE
280
     0
  9
$INTERSECTIONDISPLAY
280
     0
  9
$INTERSECTIONCOLOR
 70
   257
  9
$DIMASSOC
280
     1
  9
$PROJECTNAME
  1

  9
$CAMERADISPLAY
290
     0
  9
$LENSLENGTH
 40
50.0
  9
$CAMERAHEIGHT
 40
0.0
  9
$STEPSPERSEC
 40
2.0
  9
$STEPSIZE
 40
6.0
  9
$3DDWFPREC
 40
2.0
  9
$PSOLWIDTH
 40
0.25
  9
$PSOLHEIGHT
 40
4.0
  9
$LOFTANG1
 40
1.570796326794897
  9
$LOFTANG2
 40
1.570796326794897
  9
$LOFTMAG1
 40
0.0
  9
$LOFTMAG2
 40
0.0
  9
$LOFTPARAM
 70
     7
  9
$LOFTNORMALS
280
     1
  9
$LATITUDE
 40
37.795
  9
$LONGITUDE
 40
-122.394
  9
$NORTHDIRECTION
 40
0.0
  9
$TIMEZONE
 70
 -8000
  9
$LIGHTGLYPHDISPLAY
280
     1
  9
$TILEMODELIGHTSYNCH
280
     1
  9
$CMATERIAL
347
44
  9
$SOLIDHIST
280
     1
  9
$SHOWHIST
280
     1
  9
$DWFFRAME
280
     2
  9
$DGNFRAME
280
     2
  9
$REALWORLDSCALE
290
     1
  9
$INTERFERECOLOR
 62
   256
  9
$CSHADOW
280
     0
  9
$SHADOWPLANELOCATION
 40
0.0
  0
ENDSEC
  0
SECTION
  2
CLASSES
  0
CLASS
  1
ACDBDICTIONARYWDFLT
  2
AcDbDictionaryWithDefault
  3
ObjectDBX Classes
 90
        0
 91
        4
280
     0
281
     0
  0
CLASS
  1
VISUALSTYLE
  2
AcDbVisualStyle
  3
ObjectDBX Classes
 90
     4095
 91
        4
280
     0
281
     0
  0
CLASS
  1
MATERIAL
  2
AcDbMaterial
  3
ObjectDBX Classes
 90
     1153
 91
        4
280
     0
281
     0
  0
CLASS
  1
SCALE
  2
AcDbScale
  3
ObjectDBX Classes
 90
     1153
 91
        4
280
     0
281
     0
  0
CLASS
  1
SUN
  2
AcDbSun
  3
SCENEOE
 90
     1153
 91
        4
280
     0
281
     0
  0
CLASS
  1
DICTIONARYVAR
  2
AcDbDictionaryVar
  3
ObjectDBX Classes
 90
        0
 91
        4
280
     0
281
     0
  0
ENDSEC
  0
SECTION
  2
TABLES
  0
TABLE
  2
VPORT
  5
8
330
0
100
AcDbSymbolTable
 70
     1
  0
VPORT
  5
29
330
8
100
AcDbSymbolTableRecord
100
AcDbViewportTableRecord
  2
*Active
 70
     0
 10
0.0
 20
0.0
 11
1.0
 21
1.0
 12
10.42990654205607
 22
4.5
 13
0.0
 23
0.0
 14
0.5
 24
0.5
 15
0.5
 25
0.5
 16
0.0
 26
0.0
 36
1.0
 17
0.0
 27
0.0
 37
0.0
 40
9.0
 41
1.972972972850329
 42
50.0
 43
0.0
 44
0.0
 50
0.0
 51
0.0
 71
     0
 72
   100
 73
     1
 74
     3
 75
     0
 76
     0
 77
     0
 78
     0
281
     0
 65
     1
110
0.0
120
0.0
130
0.0
111
1.0
121
0.0
131
0.0
112
0.0
122
1.0
132
0.0
 79
     0
146
0.0
 60
     3
 61
     5
292
     1
282
     1
141
0.0
142
0.0
 63
   250
361
69
  0
ENDTAB
  0
TABLE
  2
LTYPE
  5
5
330
0
100
AcDbSymbolTable
 70
     9
  0
LTYPE
  5
14
330
5
100
AcDbSymbolTableRecord
100
AcDbLinetypeTableRecord
  2
ByBlock
 70
     0
  3

 72
    65
 73
     0
 40
0.0
  0
LTYPE
  5
15
330
5
100
AcDbSymbolTableRecord
100
AcDbLinetypeTableRecord
  2
ByLayer
 70
     0
  3

 72
    65
 73
     0
 40
0.0
  0
LTYPE
  5
16
330
5
100
AcDbSymbolTableRecord
100
AcDbLinetypeTableRecord
  2
Continuous
 70
     0
  3
Solid line
 72
    65
 73
     0
 40
0.0
  0
LTYPE
  5
B9
330
5
100
AcDbSymbolTableRecord
100
AcDbLinetypeTableRecord
  2
DOT
 70
     0
  3
DOT
 72
    65
 73
     2
 40
4.0
 49
6.0
 74
     0
 49
-2.0
 74
     0
  0
LTYPE
  5
BA
330
5
100
AcDbSymbolTableRecord
100
AcDbLinetypeTableRecord
  2
HIDDEN
 70
     0
  3
HIDDEN
 72
    65
 73
     2
 40
4.2
 49
8.4
 74
     0
 49
-4.2
 74
     0
  0
LTYPE
  5
BB
330
5
100
AcDbSymbolTableRecord
100
AcDbLinetypeTableRecord
  2
DASHDOT
 70
     0
  3
DASHDOT
 72
    65
 73
     4
 40
14.5
 49
30.0
 74
     0
 49
-9.0
 74
     0
 49
2.5
 74
     0
 49
-9.0
 74
     0
  0
LTYPE
  5
BC
330
5
100
AcDbSymbolTableRecord
100
AcDbLinetypeTableRecord
  2
PHANTOM
 70
     0
  3
PHANTOM
 72
    65
 73
     6
 40
12.0
 49
30.0
 74
     0
 49
-9.0
 74
     0
 49
2.5
 74
     0
 49
-5.0
 74
     0
 49
2.5
 74
     0
 49
-9.0
 74
     0
  0
LTYPE
  5
BD
330
5
100
AcDbSymbolTableRecord
100
AcDbLinetypeTableRecord
  2
ACAD_ISO14W100
 70
     0
  3
ACAD_ISO14W100
 72
    65
 73
     8
 40
1.5
 49
12.0
 74
     0
 49
-3.0
 74
     0
 49
0.5
 74
     0
 49
-3.0
 74
     0
 49
0.5
 74
     0
 49
-3.0
 74
     0
 49
0.5
 74
     0
 49
-3.0
 74
     0
  0
LTYPE
  5
BE
330
5
100
AcDbSymbolTableRecord
100
AcDbLinetypeTableRecord
  2
ACAD_ISO06W100
 70
     0
  3
ACAD_ISO06W100
 72
    65
 73
     8
 40
13.5
 49
24.0
 74
     0
 49
-3.0
 74
     0
 49
0.5
 74
     0
 49
-3.0
 74
     0
 49
0.5
 74
     0
 49
-3.0
 74
     0
 49
0.5
 74
     0
 49
-3.0
 74
     0
  0
LTYPE
  5
BF
330
5
100
AcDbSymbolTableRecord
100
AcDbLinetypeTableRecord
  2
ACAD_ISO11W100
 70
     0
  3
ACAD_ISO11W100
 72
    65
 73
     6
 40
15.5
 49
12.0
 74
     0
 49
-3.0
 74
     0
 49
12.0
 74
     0
 49
-3.0
 74
     0
 49
0.5
 74
     0
 49
-3.0
 74
     0
  0
LTYPE
  5
C0
330
5
100
AcDbSymbolTableRecord
100
AcDbLinetypeTableRecord
  2
ACAD_ISO13W100
 70
     0
  3
ACAD_ISO13W100
 72
    65
 73
     8
 40
13.0
 49
12.0
 74
     0
 49
-3.0
 74
     0
 49
12.0
 74
     0
 49
-3.0
 74
     0
 49
0.5
 74
     0
 49
-3.0
 74
     0
 49
0.5
 74
     0
 49
-3.0
 74
     0
  0
ENDTAB
  0
TABLE
  2
LAYER
  5
2
330
0
100
AcDbSymbolTable
 70
    12
  0
LAYER
  5
10
330
2
100
AcDbSymbolTableRecord
100
AcDbLayerTableRecord
  2
0
 70
     0
 62
     7
  6
Continuous
370
    -3
390
F
347
46
348
0
  0
LAYER
  5
C1
330
2
100
AcDbSymbolTableRecord
100
AcDbLayerTableRecord
  2
1
 70
     0
 62
     7
  6
Continuous
370
     9
390
F
347
46
348
0
  0
LAYER
  5
C2
330
2
100
AcDbSymbolTableRecord
100
AcDbLayerTableRecord
  2
2
 70
     0
 62
   151
  6
Continuous
370
    20
390
F
347
46
348
0
  0
LAYER
  5
C3
330
2
100
AcDbSymbolTableRecord
100
AcDbLayerTableRecord
  2
3
 70
     0
 62
     3
  6
HIDDEN
370
     9
390
F
347
46
348
0
  0
LAYER
  5
C4
330
2
100
AcDbSymbolTableRecord
100
AcDbLayerTableRecord
  2
4
 70
     0
 62
     1
  6
DASHDOT
370
     9
390
F
347
46
348
0
  0
LAYER
  5
C5
330
2
100
AcDbSymbolTableRecord
100
AcDbLayerTableRecord
  2
5
 70
     0
 62
     7
  6
Continuous
370
     9
390
F
347
46
348
0
  0
LAYER
  5
C6
330
2
100
AcDbSymbolTableRecord
100
AcDbLayerTableRecord
  2
6
 70
     0
 62
     1
  6
Continuous
370
    25
390
F
347
46
348
0
  0
LAYER
  5
C7
330
2
100
AcDbSymbolTableRecord
100
AcDbLayerTableRecord
  2
7
 70
     0
 62
     6
  6
Continuous
370
     9
390
F
347
46
348
0
  0
LAYER
  5
C8
330
2
100
AcDbSymbolTableRecord
100
AcDbLayerTableRecord
  2
8
 70
     0
 62
     3
  6
Continuous
370
    40
390
F
347
46
348
0
  0
LAYER
  5
C9
330
2
100
AcDbSymbolTableRecord
100
AcDbLayerTableRecord
  2
9
 70
     0
 62
     4
  6
Continuous
370
     9
390
F
347
46
348
0
  0
LAYER
  5
CA
330
2
100
AcDbSymbolTableRecord
100
AcDbLayerTableRecord
  2
10
 70
     0
 62
     7
  6
Continuous
370
    25
390
F
347
46
348
0
  0
LAYER
  5
CB
330
2
100
AcDbSymbolTableRecord
100
AcDbLayerTableRecord
  2
11
 70
     0
 62
     2
  6
Continuous
370
     9
390
F
347
46
348
0
  0
ENDTAB
  0
TABLE
  2
STYLE
  5
3
330
0
100
AcDbSymbolTable
 70
     3
  0
STYLE
  5
11
330
3
100
AcDbSymbolTableRecord
100
AcDbTextStyleTableRecord
  2
Standard
 70
     0
 40
0.0
 41
1.0
 50
0.0
 71
     0
 42
5.6
  3
txt
  4
bigfont
  0
STYLE
  5
6C
330
3
100
AcDbSymbolTableRecord
100
AcDbTextStyleTableRecord
  2
T_STANDARD
 70
     4
 40
10.0
 41
1.0
 50
0.0
 71
     0
 42
5.6
  3
txt
  4
bigfont
1001
ACAD
1000

1071
      256
  0
STYLE
  5
177
330
3
100
AcDbSymbolTableRecord
100
AcDbTextStyleTableRecord
  2
ＭＳ ゴシック
 70
     0
 40
0.0
 41
1.0
 50
0.0
 71
     0
 42
5.6
  3

  4

1001
ACAD
1000
ＭＳ ゴシック
1071
      256
  0
ENDTAB
  0
TABLE
  2
VIEW
  5
6
330
0
100
AcDbSymbolTable
 70
     0
  0
ENDTAB
  0
TABLE
  2
UCS
  5
7
330
0
100
AcDbSymbolTable
 70
     0
  0
ENDTAB
  0
TABLE
  2
APPID
  5
9
330
0
100
AcDbSymbolTable
 70
     2
  0
APPID
  5
12
330
9
100
AcDbSymbolTableRecord
100
AcDbRegAppTableRecord
  2
ACAD
 70
     0
  0
APPID
  5
6B
330
9
100
AcDbSymbolTableRecord
100
AcDbRegAppTableRecord
  2
ODA
 70
     0
  0
ENDTAB
  0
TABLE
  2
DIMSTYLE
  5
A
330
0
100
AcDbSymbolTable
 70
     1
100
AcDbDimStyleTable
  0
DIMSTYLE
105
27
102
{ACAD_REACTORS
330
181
330
1D7
330
1E1
330
22D
330
236
330
25A
330
264
330
26E
330
278
330
282
330
28C
330
296
330
2A0
330
2AA
102
}
330
A
100
AcDbSymbolTableRecord
100
AcDbDimStyleTableRecord
  2
Standard
 70
     0
178
     0
340
11
  0
ENDTAB
  0
TABLE
  2
BLOCK_RECORD
  5
1
330
0
100
AcDbSymbolTable
 70
    31
  0
BLOCK_RECORD
  5
1F
330
1
100
AcDbSymbolTableRecord
100
AcDbBlockTableRecord
  2
*Model_Space
340
22
 70
     0
280
     1
281
     0
  0
BLOCK_RECORD
  5
1B
330
1
100
AcDbSymbolTableRecord
100
AcDbBlockTableRecord
  2
*Paper_Space
340
1E
 70
     0
280
     1
281
     0
  0
BLOCK_RECORD
  5
23
330
1
100
AcDbSymbolTableRecord
100
AcDbBlockTableRecord
  2
*Paper_Space0
340
26
 70
     0
280
     1
281
     0
  0
BLOCK_RECORD
  5
6D
330
1
100
AcDbSymbolTableRecord
100
AcDbBlockTableRecord
  2
_ORIGIN
340
0
 70
     0
280
     1
281
     0
  0
BLOCK_RECORD
  5
72
330
1
100
AcDbSymbolTableRecord
100
AcDbBlockTableRecord
  2
_DOTBLANK
340
0
 70
     0
280
     1
281
     0
  0
BLOCK_RECORD
  5
77
330
1
100
AcDbSymbolTableRecord
100
AcDbBlockTableRecord
  2
_DOT
340
0
 70
     0
280
     1
281
     0
  0
BLOCK_RECORD
  5
7C
330
1
100
AcDbSymbolTableRecord
100
AcDbBlockTableRecord
  2
_OPEN
340
0
102
{BLKREFS
331
237
102
}
 70
     0
280
     1
281
     0
  0
BLOCK_RECORD
  5
82
330
1
100
AcDbSymbolTableRecord
100
AcDbBlockTableRecord
  2
_CLOSED
340
0
 70
     0
280
     1
281
     0
  0
BLOCK_RECORD
  5
89
330
1
100
AcDbSymbolTableRecord
100
AcDbBlockTableRecord
  2
_CLOSEDBLANK
340
0
 70
     0
280
     1
281
     0
  0
BLOCK_RECORD
  5
8F
330
1
100
AcDbSymbolTableRecord
100
AcDbBlockTableRecord
  2
_ARROWFILLED
340
0
102
{BLKREFS
331
17F
331
180
331
1D5
331
1D6
331
1DF
331
1E0
331
22B
331
22C
331
234
331
235
331
258
331
259
331
262
331
263
331
26C
331
26D
331
276
331
277
331
280
331
281
331
28A
331
28B
331
294
331
295
331
29E
331
29F
331
2A8
331
2A9
102
}
 70
     0
280
     1
281
     0
  0
BLOCK_RECORD
  5
93
330
1
100
AcDbSymbolTableRecord
100
AcDbBlockTableRecord
  2
_BOXBLANK
340
0
 70
     0
280
     1
281
     0
  0
BLOCK_RECORD
  5
9B
330
1
100
AcDbSymbolTableRecord
100
AcDbBlockTableRecord
  2
_BOXFILLED
340
0
 70
     0
280
     1
281
     0
  0
BLOCK_RECORD
  5
A0
330
1
100
AcDbSymbolTableRecord
100
AcDbBlockTableRecord
  2
_INTEGRAL
340
0
 70
     0
280
     1
281
     0
  0
BLOCK_RECORD
  5
A5
330
1
100
AcDbSymbolTableRecord
100
AcDbBlockTableRecord
  2
_OBLIQUE
340
0
 70
     0
280
     1
281
     0
  0
BLOCK_RECORD
  5
A9
330
1
100
AcDbSymbolTableRecord
100
AcDbBlockTableRecord
  2
_NONE
340
0
 70
     0
280
     1
281
     0
  0
BLOCK_RECORD
  5
AC
330
1
100
AcDbSymbolTableRecord
100
AcDbBlockTableRecord
  2
MARK_OPEN
340
0
 70
     0
280
     1
281
     0
  0
BLOCK_RECORD
  5
B1
330
1
100
AcDbSymbolTableRecord
100
AcDbBlockTableRecord
  2
MARK_ORIGIN
340
0
 70
     0
280
     1
281
     0
  0
BLOCK_RECORD
  5
B5
330
1
100
AcDbSymbolTableRecord
100
AcDbBlockTableRecord
  2
MARK_DOT
340
0
 70
     0
280
     1
281
     0
  0
BLOCK_RECORD
  5
178
330
1
100
AcDbSymbolTableRecord
100
AcDbBlockTableRecord
  2
Dim1
340
0
 70
     0
280
     1
281
     0
  0
BLOCK_RECORD
  5
1CE
330
1
100
AcDbSymbolTableRecord
100
AcDbBlockTableRecord
  2
Dim2
340
0
 70
     0
280
     1
281
     0
  0
BLOCK_RECORD
  5
1D8
330
1
100
AcDbSymbolTableRecord
100
AcDbBlockTableRecord
  2
Dim3
340
0
 70
     0
280
     1
281
     0
  0
BLOCK_RECORD
  5
226
330
1
100
AcDbSymbolTableRecord
100
AcDbBlockTableRecord
  2
Dim4
340
0
 70
     0
280
     1
281
     0
  0
BLOCK_RECORD
  5
22F
330
1
100
AcDbSymbolTableRecord
100
AcDbBlockTableRecord
  2
Dim5
340
0
 70
     0
280
     1
281
     0
  0
BLOCK_RECORD
  5
247
330
1
100
AcDbSymbolTableRecord
100
AcDbBlockTableRecord
  2
*G21
340
0
102
{BLKREFS
331
250
102
}
 70
     0
280
     1
281
     0
  0
BLOCK_RECORD
  5
251
330
1
100
AcDbSymbolTableRecord
100
AcDbBlockTableRecord
  2
Dim6
340
0
 70
     0
280
     1
281
     0
  0
BLOCK_RECORD
  5
25B
330
1
100
AcDbSymbolTableRecord
100
AcDbBlockTableRecord
  2
Dim7
340
0
 70
     0
280
     1
281
     0
  0
BLOCK_RECORD
  5
265
330
1
100
AcDbSymbolTableRecord
100
AcDbBlockTableRecord
  2
Dim8
340
0
 70
     0
280
     1
281
     0
  0
BLOCK_RECORD
  5
26F
330
1
100
AcDbSymbolTableRecord
100
AcDbBlockTableRecord
  2
Dim9
340
0
 70
     0
280
     1
281
     0
  0
BLOCK_RECORD
  5
279
330
1
100
AcDbSymbolTableRecord
100
AcDbBlockTableRecord
  2
Dim10
340
0
 70
     0
280
     1
281
     0
  0
BLOCK_RECORD
  5
283
330
1
100
AcDbSymbolTableRecord
100
AcDbBlockTableRecord
  2
Dim11
340
0
 70
     0
280
     1
281
     0
  0
BLOCK_RECORD
  5
28D
330
1
100
AcDbSymbolTableRecord
100
AcDbBlockTableRecord
  2
Dim12
340
0
 70
     0
280
     1
281
     0
  0
BLOCK_RECORD
  5
297
330
1
100
AcDbSymbolTableRecord
100
AcDbBlockTableRecord
  2
Dim13
340
0
 70
     0
280
     1
281
     0
  0
BLOCK_RECORD
  5
2A1
330
1
100
AcDbSymbolTableRecord
100
AcDbBlockTableRecord
  2
Dim14
340
0
 70
     0
280
     1
281
     0
  0
ENDTAB
  0
ENDSEC
  0
SECTION
  2
BLOCKS
  0
BLOCK
  5
20
330
1F
100
AcDbEntity
  8
0
100
AcDbBlockBegin
  2
*Model_Space
 70
     0
 10
0.0
 20
0.0
 30
0.0
  3
*Model_Space
  1
*Model_Space
  0
ENDBLK
  5
21
330
1F
100
AcDbEntity
  8
0
100
AcDbBlockEnd
  0
BLOCK
  5
1C
330
1B
100
AcDbEntity
 67
     1
  8
0
100
AcDbBlockBegin
  2
*Paper_Space
 70
     0
 10
0.0
 20
0.0
 30
0.0
  3
*Paper_Space
  1
*Paper_Space
  0
ENDBLK
  5
1D
330
1B
100
AcDbEntity
 67
     1
  8
0
100
AcDbBlockEnd
  0
BLOCK
  5
24
330
23
100
AcDbEntity
  8
0
100
AcDbBlockBegin
  2
*Paper_Space0
 70
     0
 10
0.0
 20
0.0
 30
0.0
  3
*Paper_Space0
  1
*Paper_Space0
  0
ENDBLK
  5
25
330
23
100
AcDbEntity
  8
0
100
AcDbBlockEnd
  0
BLOCK
  5
70
330
6D
100
AcDbEntity
  8
0
100
AcDbBlockBegin
  2
_ORIGIN
 70
     0
 10
0.0
 20
0.0
 30
0.0
  3
_ORIGIN
  1
_ORIGIN
  0
CIRCLE
  5
6E
330
6D
100
AcDbEntity
  8
0
 62
     0
100
AcDbCircle
 10
0.0
 20
0.0
 30
0.0
 40
0.5
  0
LINE
  5
6F
330
6D
100
AcDbEntity
  8
0
 62
     0
100
AcDbLine
 10
0.0
 20
0.0
 30
0.0
 11
-1.0
 21
0.0
 31
0.0
  0
ENDBLK
  5
71
330
6D
100
AcDbEntity
  8
0
100
AcDbBlockEnd
  0
BLOCK
  5
75
330
72
100
AcDbEntity
  8
0
100
AcDbBlockBegin
  2
_DOTBLANK
 70
     0
 10
0.0
 20
0.0
 30
0.0
  3
_DOTBLANK
  1
_DOTBLANK
  0
CIRCLE
  5
73
330
72
100
AcDbEntity
  8
0
 62
     0
100
AcDbCircle
 10
0.0
 20
0.0
 30
0.0
 40
0.5
  0
LINE
  5
74
330
72
100
AcDbEntity
  8
0
 62
     0
100
AcDbLine
 10
-0.5
 20
0.0
 30
0.0
 11
-1.0
 21
0.0
 31
0.0
  0
ENDBLK
  5
76
330
72
100
AcDbEntity
  8
0
100
AcDbBlockEnd
  0
BLOCK
  5
7A
330
77
100
AcDbEntity
  8
0
100
AcDbBlockBegin
  2
_DOT
 70
     0
 10
0.0
 20
0.0
 30
0.0
  3
_DOT
  1
_DOT
  0
LWPOLYLINE
  5
78
330
77
100
AcDbEntity
  8
0
 62
     0
100
AcDbPolyline
 90
        2
 70
     1
 43
0.5
 10
-0.25
 20
0.0
 42
1.0
 10
0.25
 20
0.0
 42
1.0
  0
LINE
  5
79
330
77
100
AcDbEntity
  8
0
 62
     0
100
AcDbLine
 10
-0.5
 20
0.0
 30
0.0
 11
-1.0
 21
0.0
 31
0.0
  0
ENDBLK
  5
7B
330
77
100
AcDbEntity
  8
0
100
AcDbBlockEnd
  0
BLOCK
  5
80
330
7C
100
AcDbEntity
  8
0
100
AcDbBlockBegin
  2
_OPEN
 70
     0
 10
0.0
 20
0.0
 30
0.0
  3
_OPEN
  1
_OPEN
  0
LINE
  5
7D
330
7C
100
AcDbEntity
  8
0
 62
     0
100
AcDbLine
 10
0.0
 20
0.0
 30
0.0
 11
-1.0
 21
0.1666666666666667
 31
0.0
  0
LINE
  5
7E
330
7C
100
AcDbEntity
  8
0
 62
     0
100
AcDbLine
 10
0.0
 20
0.0
 30
0.0
 11
-1.0
 21
-0.1666666666666667
 31
0.0
  0
LINE
  5
7F
330
7C
100
AcDbEntity
  8
0
 62
     0
100
AcDbLine
 10
0.0
 20
0.0
 30
0.0
 11
-1.0
 21
0.0
 31
0.0
  0
ENDBLK
  5
81
330
7C
100
AcDbEntity
  8
0
100
AcDbBlockEnd
  0
BLOCK
  5
87
330
82
100
AcDbEntity
  8
0
100
AcDbBlockBegin
  2
_CLOSED
 70
     0
 10
0.0
 20
0.0
 30
0.0
  3
_CLOSED
  1
_CLOSED
  0
LINE
  5
83
330
82
100
AcDbEntity
  8
0
 62
     0
100
AcDbLine
 10
0.0
 20
0.0
 30
0.0
 11
-1.0
 21
0.1666666666666667
 31
0.0
  0
LINE
  5
84
330
82
100
AcDbEntity
  8
0
 62
     0
100
AcDbLine
 10
0.0
 20
0.0
 30
0.0
 11
-1.0
 21
-0.1666666666666667
 31
0.0
  0
LINE
  5
85
330
82
100
AcDbEntity
  8
0
 62
     0
100
AcDbLine
 10
-1.0
 20
0.1666666666666667
 30
0.0
 11
-1.0
 21
-0.1666666666666667
 31
0.0
  0
LINE
  5
86
330
82
100
AcDbEntity
  8
0
 62
     0
100
AcDbLine
 10
0.0
 20
0.0
 30
0.0
 11
-1.0
 21
0.0
 31
0.0
  0
ENDBLK
  5
88
330
82
100
AcDbEntity
  8
0
100
AcDbBlockEnd
  0
BLOCK
  5
8D
330
89
100
AcDbEntity
  8
0
100
AcDbBlockBegin
  2
_CLOSEDBLANK
 70
     0
 10
0.0
 20
0.0
 30
0.0
  3
_CLOSEDBLANK
  1
_CLOSEDBLANK
  0
LINE
  5
8A
330
89
100
AcDbEntity
  8
0
 62
     0
100
AcDbLine
 10
0.0
 20
0.0
 30
0.0
 11
-1.0
 21
0.1666666666666667
 31
0.0
  0
LINE
  5
8B
330
89
100
AcDbEntity
  8
0
 62
     0
100
AcDbLine
 10
0.0
 20
0.0
 30
0.0
 11
-1.0
 21
-0.1666666666666667
 31
0.0
  0
LINE
  5
8C
330
89
100
AcDbEntity
  8
0
 62
     0
100
AcDbLine
 10
-1.0
 20
0.1666666666666667
 30
0.0
 11
-1.0
 21
-0.1666666666666667
 31
0.0
  0
ENDBLK
  5
8E
330
89
100
AcDbEntity
  8
0
100
AcDbBlockEnd
  0
BLOCK
  5
91
330
8F
100
AcDbEntity
  8
0
100
AcDbBlockBegin
  2
_ARROWFILLED
 70
     0
 10
0.0
 20
0.0
 30
0.0
  3
_ARROWFILLED
  1
_ARROWFILLED
  0
SOLID
  5
90
330
8F
100
AcDbEntity
  8
0
 62
     0
100
AcDbTrace
 10
0.0
 20
0.0
 30
0.0
 11
-1.0
 21
-0.1666666666666667
 31
0.0
 12
-1.0
 22
0.1666666666666667
 32
0.0
 13
0.0
 23
0.0
 33
0.0
  0
ENDBLK
  5
92
330
8F
100
AcDbEntity
  8
0
100
AcDbBlockEnd
  0
BLOCK
  5
99
330
93
100
AcDbEntity
  8
0
100
AcDbBlockBegin
  2
_BOXBLANK
 70
     0
 10
0.0
 20
0.0
 30
0.0
  3
_BOXBLANK
  1
_BOXBLANK
  0
LINE
  5
94
330
93
100
AcDbEntity
  8
0
 62
     0
100
AcDbLine
 10
-0.5
 20
-0.5
 30
0.0
 11
0.5
 21
-0.5
 31
0.0
  0
LINE
  5
95
330
93
100
AcDbEntity
  8
0
 62
     0
100
AcDbLine
 10
0.5
 20
-0.5
 30
0.0
 11
0.5
 21
0.5
 31
0.0
  0
LINE
  5
96
330
93
100
AcDbEntity
  8
0
 62
     0
100
AcDbLine
 10
0.5
 20
0.5
 30
0.0
 11
-0.5
 21
0.5
 31
0.0
  0
LINE
  5
97
330
93
100
AcDbEntity
  8
0
 62
     0
100
AcDbLine
 10
-0.5
 20
0.5
 30
0.0
 11
-0.5
 21
-0.5
 31
0.0
  0
LINE
  5
98
330
93
100
AcDbEntity
  8
0
 62
     0
100
AcDbLine
 10
-0.5
 20
0.0
 30
0.0
 11
-1.0
 21
0.0
 31
0.0
  0
ENDBLK
  5
9A
330
93
100
AcDbEntity
  8
0
100
AcDbBlockEnd
  0
BLOCK
  5
9E
330
9B
100
AcDbEntity
  8
0
100
AcDbBlockBegin
  2
_BOXFILLED
 70
     0
 10
0.0
 20
0.0
 30
0.0
  3
_BOXFILLED
  1
_BOXFILLED
  0
SOLID
  5
9C
330
9B
100
AcDbEntity
  8
0
 62
     0
100
AcDbTrace
 10
-0.5
 20
0.5
 30
0.0
 11
0.5
 21
0.5
 31
0.0
 12
-0.5
 22
-0.5
 32
0.0
 13
0.5
 23
-0.5
 33
0.0
  0
LINE
  5
9D
330
9B
100
AcDbEntity
  8
0
 62
     0
100
AcDbLine
 10
-0.5
 20
0.0
 30
0.0
 11
-1.0
 21
0.0
 31
0.0
  0
ENDBLK
  5
9F
330
9B
100
AcDbEntity
  8
0
100
AcDbBlockEnd
  0
BLOCK
  5
A3
330
A0
100
AcDbEntity
  8
0
100
AcDbBlockBegin
  2
_INTEGRAL
 70
     0
 10
0.0
 20
0.0
 30
0.0
  3
_INTEGRAL
  1
_INTEGRAL
  0
ARC
  5
A1
330
A0
100
AcDbEntity
  8
0
 62
     0
100
AcDbCircle
 10
0.444888
 20
-0.0913346
 30
0.0
 40
0.4541666
100
AcDbArc
 50
101.9999999999999
 51
167.9999999999998
  0
ARC
  5
A2
330
A0
100
AcDbEntity
  8
0
 62
     0
100
AcDbCircle
 10
-0.444888
 20
0.0913346
 30
0.0
 40
0.4541666
100
AcDbArc
 50
281.9999999999997
 51
347.9999999999997
  0
ENDBLK
  5
A4
330
A0
100
AcDbEntity
  8
0
100
AcDbBlockEnd
  0
BLOCK
  5
A7
330
A5
100
AcDbEntity
  8
0
100
AcDbBlockBegin
  2
_OBLIQUE
 70
     0
 10
0.0
 20
0.0
 30
0.0
  3
_OBLIQUE
  1
_OBLIQUE
  0
LINE
  5
A6
330
A5
100
AcDbEntity
  8
0
 62
     0
100
AcDbLine
 10
-0.5
 20
-0.5
 30
0.0
 11
0.5
 21
0.5
 31
0.0
  0
ENDBLK
  5
A8
330
A5
100
AcDbEntity
  8
0
100
AcDbBlockEnd
  0
BLOCK
  5
AA
330
A9
100
AcDbEntity
  8
0
100
AcDbBlockBegin
  2
_NONE
 70
     0
 10
0.0
 20
0.0
 30
0.0
  3
_NONE
  1
_NONE
  0
ENDBLK
  5
AB
330
A9
100
AcDbEntity
  8
0
100
AcDbBlockEnd
  0
BLOCK
  5
AF
330
AC
100
AcDbEntity
  8
0
100
AcDbBlockBegin
  2
MARK_OPEN
 70
     0
 10
0.0
 20
0.0
 30
0.0
  3
MARK_OPEN
  1
MARK_OPEN
  0
LINE
  5
AD
330
AC
100
AcDbEntity
  8
0
 62
     0
100
AcDbLine
 10
0.0
 20
0.0
 30
0.0
 11
-1.0
 21
0.1666666666666667
 31
0.0
  0
LINE
  5
AE
330
AC
100
AcDbEntity
  8
0
 62
     0
100
AcDbLine
 10
0.0
 20
0.0
 30
0.0
 11
-1.0
 21
-0.1666666666666667
 31
0.0
  0
ENDBLK
  5
B0
330
AC
100
AcDbEntity
  8
0
100
AcDbBlockEnd
  0
BLOCK
  5
B3
330
B1
100
AcDbEntity
  8
0
100
AcDbBlockBegin
  2
MARK_ORIGIN
 70
     0
 10
0.0
 20
0.0
 30
0.0
  3
MARK_ORIGIN
  1
MARK_ORIGIN
  0
CIRCLE
  5
B2
330
B1
100
AcDbEntity
  8
0
 62
     0
100
AcDbCircle
 10
0.0
 20
0.0
 30
0.0
 40
0.5
  0
ENDBLK
  5
B4
330
B1
100
AcDbEntity
  8
0
100
AcDbBlockEnd
  0
BLOCK
  5
B7
330
B5
100
AcDbEntity
  8
0
100
AcDbBlockBegin
  2
MARK_DOT
 70
     0
 10
0.0
 20
0.0
 30
0.0
  3
MARK_DOT
  1
MARK_DOT
  0
LWPOLYLINE
  5
B6
330
B5
100
AcDbEntity
  8
0
 62
     0
100
AcDbPolyline
 90
        2
 70
     1
 43
0.5
 10
-0.25
 20
0.0
 42
1.0
 10
0.25
 20
0.0
 42
1.0
  0
ENDBLK
  5
B8
330
B5
100
AcDbEntity
  8
0
100
AcDbBlockEnd
  0
BLOCK
  5
179
330
178
100
AcDbEntity
  8
0
100
AcDbBlockBegin
  2
Dim1
 70
     0
 10
0.0
 20
0.0
 30
0.0
  3
Dim1
  1
Dim1
  0
LINE
  5
17B
330
178
100
AcDbEntity
  8
9
  6
Continuous
 62
     4
370
     9
100
AcDbLine
 10
520.9496944054081
 20
147.0465021738396
 30
0.0
 11
520.9496944054081
 21
129.8616911977565
 31
0.0
  0
LINE
  5
17C
330
178
100
AcDbEntity
  8
9
  6
Continuous
 62
     4
370
     9
100
AcDbLine
 10
519.9496944054063
 20
147.0465021738396
 30
0.0
 11
519.9496944054063
 21
129.8616911977565
 31
0.0
  0
LINE
  5
17D
330
178
100
AcDbEntity
  8
9
  6
Continuous
 62
     4
370
     9
100
AcDbLine
 10
530.8246944054081
 20
132.1116911977565
 30
0.0
 11
513.9496944054063
 21
132.1116911977565
 31
0.0
  0
MTEXT
  5
17E
330
178
100
AcDbEntity
  8
9
  6
Continuous
 62
     4
370
     9
100
AcDbMText
 10
530.8246944054081
 20
132.1116911977565
 30
0.0
 40
4.5
 41
5.357142857142858
 46
4.5
 71
     4
 72
     1
  1
1
  7
ＭＳ ゴシック
 73
     1
 44
1.0
1001
ACAD
1000
ACAD_MTEXT_DEFINED_HEIGHT_BEGIN
1070
    46
1040
4.5
1000
ACAD_MTEXT_DEFINED_HEIGHT_END
  0
INSERT
  5
17F
330
178
100
AcDbEntity
  8
9
  6
Continuous
 62
     4
370
     9
100
AcDbBlockReference
  2
_ARROWFILLED
 10
520.9496944054081
 20
132.1116911977565
 30
0.0
 41
3.0
 42
3.0
 43
3.0
 50
179.9999999999995
  0
INSERT
  5
180
330
178
100
AcDbEntity
  8
9
  6
Continuous
 62
     4
370
     9
100
AcDbBlockReference
  2
_ARROWFILLED
 10
519.9496944054063
 20
132.1116911977565
 30
0.0
 41
3.0
 42
3.0
 43
3.0
 50
359.9999999999997
  0
ENDBLK
  5
17A
330
178
100
AcDbEntity
  8
0
100
AcDbBlockEnd
  0
BLOCK
  5
1CF
330
1CE
100
AcDbEntity
  8
0
100
AcDbBlockBegin
  2
Dim2
 70
     0
 10
0.0
 20
0.0
 30
0.0
  3
Dim2
  1
Dim2
  0
LINE
  5
1D1
330
1CE
100
AcDbEntity
  8
9
  6
Continuous
 62
     4
370
     9
100
AcDbLine
 10
404.2484875612881
 20
224.5465021738396
 30
0.0
 11
404.2484875612878
 21
87.51081968633616
 31
0.0
  0
LINE
  5
1D2
330
1CE
100
AcDbEntity
  8
9
  6
Continuous
 62
     4
370
     9
100
AcDbLine
 10
386.2484875612881
 20
162.0465021738396
 30
0.0
 11
386.248487561288
 21
87.51081968633616
 31
0.0
  0
LINE
  5
1D3
330
1CE
100
AcDbEntity
  8
9
  6
Continuous
 62
     4
370
     9
100
AcDbLine
 10
413.7484875612881
 20
89.76081968633616
 30
0.0
 11
386.248487561288
 21
89.76081968633616
 31
0.0
  0
MTEXT
  5
1D4
330
1CE
100
AcDbEntity
  8
9
  6
Continuous
 62
     4
370
     9
100
AcDbMText
 10
413.7484875612881
 20
89.76081968633616
 30
0.0
 40
4.5
 41
64.28571428571428
 46
4.5
 71
     4
 72
     1
  1
(18)
  7
ＭＳ ゴシック
 73
     1
 44
1.0
1001
ACAD
1000
ACAD_MTEXT_DEFINED_HEIGHT_BEGIN
1070
    46
1040
4.5
1000
ACAD_MTEXT_DEFINED_HEIGHT_END
  0
INSERT
  5
1D5
330
1CE
100
AcDbEntity
  8
9
  6
Continuous
 62
     4
370
     9
100
AcDbBlockReference
  2
_ARROWFILLED
 10
404.2484875612878
 20
89.76081968633616
 30
0.0
 41
3.0
 42
3.0
 43
3.0
 50
359.9999999999997
  0
INSERT
  5
1D6
330
1CE
100
AcDbEntity
  8
9
  6
Continuous
 62
     4
370
     9
100
AcDbBlockReference
  2
_ARROWFILLED
 10
386.248487561288
 20
89.76081968633616
 30
0.0
 41
3.0
 42
3.0
 43
3.0
 50
179.9999999999998
  0
ENDBLK
  5
1D0
330
1CE
100
AcDbEntity
  8
0
100
AcDbBlockEnd
  0
BLOCK
  5
1D9
330
1D8
100
AcDbEntity
  8
0
100
AcDbBlockBegin
  2
Dim3
 70
     0
 10
0.0
 20
0.0
 30
0.0
  3
Dim3
  1
Dim3
  0
LINE
  5
1DB
330
1D8
100
AcDbEntity
  8
9
  6
Continuous
 62
     4
370
     9
100
AcDbLine
 10
520.9496944054081
 20
147.0465021738396
 30
0.0
 11
520.9496944054081
 21
113.7042499930571
 31
0.0
  0
LINE
  5
1DC
330
1D8
100
AcDbEntity
  8
9
  6
Continuous
 62
     4
370
     9
100
AcDbLine
 10
500.5214911751245
 20
227.0465021738396
 30
0.0
 11
500.5214911751243
 21
113.7042499930571
 31
0.0
  0
LINE
  5
1DD
330
1D8
100
AcDbEntity
  8
9
  6
Continuous
 62
     4
370
     9
100
AcDbLine
 10
532.6996944054081
 20
115.9542499930571
 30
0.0
 11
500.5214911751243
 21
115.9542499930571
 31
0.0
  0
MTEXT
  5
1DE
330
1D8
100
AcDbEntity
  8
9
  6
Continuous
 62
     4
370
     9
100
AcDbMText
 10
532.6996944054081
 20
115.9542499930571
 30
0.0
 40
4.5
 41
96.42857142857142
 46
4.5
 71
     4
 72
     1
  1
(20.5)
  7
ＭＳ ゴシック
 73
     1
 44
1.0
1001
ACAD
1000
ACAD_MTEXT_DEFINED_HEIGHT_BEGIN
1070
    46
1040
4.5
1000
ACAD_MTEXT_DEFINED_HEIGHT_END
  0
INSERT
  5
1DF
330
1D8
100
AcDbEntity
  8
9
  6
Continuous
 62
     4
370
     9
100
AcDbBlockReference
  2
_ARROWFILLED
 10
520.9496944054081
 20
115.9542499930571
 30
0.0
 41
3.0
 42
3.0
 43
3.0
 50
359.9999999999997
  0
INSERT
  5
1E0
330
1D8
100
AcDbEntity
  8
9
  6
Continuous
 62
     4
370
     9
100
AcDbBlockReference
  2
_ARROWFILLED
 10
500.5214911751243
 20
115.9542499930571
 30
0.0
 41
3.0
 42
3.0
 43
3.0
 50
179.9999999999998
  0
ENDBLK
  5
1DA
330
1D8
100
AcDbEntity
  8
0
100
AcDbBlockEnd
  0
BLOCK
  5
227
330
226
100
AcDbEntity
  8
0
100
AcDbBlockBegin
  2
Dim4
 70
     0
 10
0.0
 20
0.0
 30
0.0
  3
Dim4
  1
Dim4
  0
LINE
  5
229
330
226
100
AcDbEntity
  8
9
  6
Continuous
 62
     4
370
     9
100
AcDbLine
 10
288.7492172167924
 20
199.9812354758856
 30
0.0
 11
213.5570771088229
 21
322.7123202965931
 31
0.0
  0
MTEXT
  5
22A
330
226
100
AcDbEntity
  8
9
  6
Continuous
 62
     4
370
     9
100
AcDbMText
 10
211.7939438972633
 20
325.5901643295969
 30
0.0
 40
4.5
 41
56.78571428571429
 46
4.5
 71
     5
 72
     1
  1
∅55
  7
ＭＳ ゴシック
 11
0.5224098404627692
 21
-0.8526945282970122
 31
0.0
 73
     1
 44
1.0
1001
ACAD
1000
ACAD_MTEXT_DEFINED_HEIGHT_BEGIN
1070
    46
1040
4.5
1000
ACAD_MTEXT_DEFINED_HEIGHT_END
  0
INSERT
  5
22B
330
226
100
AcDbEntity
  8
9
  6
Continuous
 62
     4
370
     9
100
AcDbBlockReference
  2
_ARROWFILLED
 10
285.6147581740158
 20
205.0974026456677
 30
0.0
 41
3.0
 42
3.0
 43
3.0
 50
121.4940380908622
  0
INSERT
  5
22C
330
226
100
AcDbEntity
  8
9
  6
Continuous
 62
     4
370
     9
100
AcDbBlockReference
  2
_ARROWFILLED
 10
256.8822169485637
 20
251.9956017020034
 30
0.0
 41
3.0
 42
3.0
 43
3.0
 50
301.4940380908622
  0
ENDBLK
  5
228
330
226
100
AcDbEntity
  8
0
100
AcDbBlockEnd
  0
BLOCK
  5
230
330
22F
100
AcDbEntity
  8
0
100
AcDbBlockBegin
  2
Dim5
 70
     0
 10
0.0
 20
0.0
 30
0.0
  3
Dim5
  1
Dim5
  0
LINE
  5
232
330
22F
100
AcDbEntity
  8
9
  6
Continuous
 62
     4
370
     9
100
AcDbLine
 10
296.5877285151469
 20
199.5607665805763
 30
0.0
 11
190.2855588876152
 21
321.1605645944543
 31
0.0
  0
MTEXT
  5
233
330
22F
100
AcDbEntity
  8
9
  6
Continuous
 62
     4
370
     9
100
AcDbMText
 10
188.0642617910091
 20
323.7015219354204
 30
0.0
 40
4.5
 41
56.78571428571429
 46
4.5
 71
     5
 72
     1
  1
∅65
  7
ＭＳ ゴシック
 11
0.658162102697527
 21
-0.7528762491756331
 31
0.0
 73
     1
 44
1.0
1001
ACAD
1000
ACAD_MTEXT_DEFINED_HEIGHT_BEGIN
1070
    46
1040
4.5
1000
ACAD_MTEXT_DEFINED_HEIGHT_END
  0
INSERT
  5
234
330
22F
100
AcDbEntity
  8
9
  6
Continuous
 62
     4
370
     9
100
AcDbBlockReference
  2
_ARROWFILLED
 10
292.6387558989617
 20
204.0780240756301
 30
0.0
 41
3.0
 42
3.0
 43
3.0
 50
131.1598544731639
  0
INSERT
  5
235
330
22F
100
AcDbEntity
  8
9
  6
Continuous
 62
     4
370
     9
100
AcDbBlockReference
  2
_ARROWFILLED
 10
249.8582192236203
 20
253.0149802720491
 30
0.0
 41
3.0
 42
3.0
 43
3.0
 50
311.1598544731639
  0
ENDBLK
  5
231
330
22F
100
AcDbEntity
  8
0
100
AcDbBlockEnd
  0
BLOCK
  5
248
330
247
100
AcDbEntity
  8
0
100
AcDbBlockBegin
  2
*G21
 70
     1
 10
0.0
 20
0.0
 30
0.0
  3
*G21
  1
*G21
  0
MTEXT
  5
24A
330
247
100
AcDbEntity
  8
2
  6
Continuous
 62
   151
370
     9
100
AcDbMText
 10
95.04294773091988
 20
67.28494999999938
 30
0.0
 40
0.72
 41
0.0
 46
0.72
 71
     4
 72
     1
  1
{\fＭＳ ゴシック;\T2.833333; }
 73
     1
 44
1.0
1001
ACAD
1000
ACAD_MTEXT_DEFINED_HEIGHT_BEGIN
1070
    46
1040
0.72
1000
ACAD_MTEXT_DEFINED_HEIGHT_END
  0
MTEXT
  5
24B
330
247
100
AcDbEntity
  8
2
  6
Continuous
 62
   151
370
     9
100
AcDbMText
 10
95.76294773091988
 20
68.12493799999939
 30
0.0
 40
2.399976
 41
0.91674283248
 46
2.399976
 71
     4
 72
     1
  1
{\fＭＳ ゴシック;\T4.000000;1 }
 73
     1
 44
1.0
1001
ACAD
1000
ACAD_MTEXT_DEFINED_HEIGHT_BEGIN
1070
    46
1040
2.399976
1000
ACAD_MTEXT_DEFINED_HEIGHT_END
  0
MTEXT
  5
24C
330
247
100
AcDbEntity
  8
2
  6
Continuous
 62
   151
370
     9
100
AcDbMText
 10
100.4486151594913
 20
67.22494699999939
 30
0.0
 40
0.5999939999999999
 41
0.0
 46
0.5999939999999999
 71
     4
 72
     1
  1
{\fＭＳ ゴシック;\T3.250025; }
 73
     1
 44
1.0
1001
ACAD
1000
ACAD_MTEXT_DEFINED_HEIGHT_BEGIN
1070
    46
1040
0.5999939999999999
1000
ACAD_MTEXT_DEFINED_HEIGHT_END
  0
MTEXT
  5
24D
330
247
100
AcDbEntity
  8
2
  6
Continuous
 62
   151
370
     9
100
AcDbMText
 10
101.0486091594913
 20
68.12493799999939
 30
0.0
 40
2.399976
 41
1.99025209728
 46
2.399976
 71
     4
 72
     1
  1
{\fＭＳ ゴシック;\T1.375006;+}
 73
     1
 44
1.0
1001
ACAD
1000
ACAD_MTEXT_DEFINED_HEIGHT_BEGIN
1070
    46
1040
2.399976
1000
ACAD_MTEXT_DEFINED_HEIGHT_END
  0
MTEXT
  5
24E
330
247
100
AcDbEntity
  8
2
  6
Continuous
 62
   151
370
     9
100
AcDbMText
 10
95.04294773091988
 20
64.1249699999994
 30
0.0
 40
2.399976
 41
11.00329680885957
 46
2.399976
 71
     4
 72
     1
  1
{\fＭＳ ゴシック;\T1.375006;2 NC}
 73
     1
 44
1.0
1001
ACAD
1000
ACAD_MTEXT_DEFINED_HEIGHT_BEGIN
1070
    46
1040
2.399976
1000
ACAD_MTEXT_DEFINED_HEIGHT_END
  0
MTEXT
  5
24F
330
247
100
AcDbEntity
  8
2
  6
Continuous
 62
   151
370
     9
100
AcDbMText
 10
95.04294773091988
 20
60.12500199999939
 30
0.0
 40
2.399976
 41
7.975092810226379
 46
2.399976
 71
     4
 72
     1
  1
{\fＭＳ ゴシック;\T1.375006;3 -}
 73
     1
 44
1.0
1001
ACAD
1000
ACAD_MTEXT_DEFINED_HEIGHT_BEGIN
1070
    46
1040
2.399976
1000
ACAD_MTEXT_DEFINED_HEIGHT_END
  0
ENDBLK
  5
249
330
247
100
AcDbEntity
  8
0
100
AcDbBlockEnd
  0
BLOCK
  5
252
330
251
100
AcDbEntity
  8
0
100
AcDbBlockBegin
  2
Dim6
 70
     0
 10
0.0
 20
0.0
 30
0.0
  3
Dim6
  1
Dim6
  0
LINE
  5
254
330
251
100
AcDbEntity
  8
9
  6
Continuous
 62
     4
370
     9
100
AcDbLine
 10
236.248487561289
 20
148.4465021738397
 30
0.0
 11
236.248487561289
 21
123.5108196863362
 31
0.0
  0
LINE
  5
255
330
251
100
AcDbEntity
  8
9
  6
Continuous
 62
     4
370
     9
100
AcDbLine
 10
306.2484875612872
 20
148.4465021738397
 30
0.0
 11
306.2484875612872
 21
123.5108196863362
 31
0.0
  0
LINE
  5
256
330
251
100
AcDbEntity
  8
9
  6
Continuous
 62
     4
370
     9
100
AcDbLine
 10
236.248487561289
 20
125.7608196863362
 30
0.0
 11
306.2484875612872
 21
125.7608196863362
 31
0.0
  0
MTEXT
  5
257
330
251
100
AcDbEntity
  8
9
  6
Continuous
 62
     4
370
     9
100
AcDbMText
 10
271.2484875612872
 20
125.7608196863362
 30
0.0
 40
4.5
 41
36.42857142857143
 46
4.5
 71
     8
 72
     1
  1
70
  7
ＭＳ ゴシック
 73
     1
 44
1.0
1001
ACAD
1000
ACAD_MTEXT_DEFINED_HEIGHT_BEGIN
1070
    46
1040
4.5
1000
ACAD_MTEXT_DEFINED_HEIGHT_END
  0
INSERT
  5
258
330
251
100
AcDbEntity
  8
9
  6
Continuous
 62
     4
370
     9
100
AcDbBlockReference
  2
_ARROWFILLED
 10
236.248487561289
 20
125.7608196863362
 30
0.0
 41
3.0
 42
3.0
 43
3.0
 50
179.9999999999998
  0
INSERT
  5
259
330
251
100
AcDbEntity
  8
9
  6
Continuous
 62
     4
370
     9
100
AcDbBlockReference
  2
_ARROWFILLED
 10
306.2484875612872
 20
125.7608196863362
 30
0.0
 41
3.0
 42
3.0
 43
3.0
 50
359.9999999999997
  0
ENDBLK
  5
253
330
251
100
AcDbEntity
  8
0
100
AcDbBlockEnd
  0
BLOCK
  5
25C
330
25B
100
AcDbEntity
  8
0
100
AcDbBlockBegin
  2
Dim7
 70
     0
 10
0.0
 20
0.0
 30
0.0
  3
Dim7
  1
Dim7
  0
LINE
  5
25E
330
25B
100
AcDbEntity
  8
9
  6
Continuous
 62
     4
370
     9
100
AcDbLine
 10
196.2484875612881
 20
148.4465021738397
 30
0.0
 11
196.248487561288
 21
111.5108196863362
 31
0.0
  0
LINE
  5
25F
330
25B
100
AcDbEntity
  8
9
  6
Continuous
 62
     4
370
     9
100
AcDbLine
 10
346.2484875612881
 20
148.4465021738397
 30
0.0
 11
346.248487561288
 21
111.5108196863362
 31
0.0
  0
LINE
  5
260
330
25B
100
AcDbEntity
  8
9
  6
Continuous
 62
     4
370
     9
100
AcDbLine
 10
196.248487561288
 20
113.7608196863362
 30
0.0
 11
346.248487561288
 21
113.7608196863362
 31
0.0
  0
MTEXT
  5
261
330
25B
100
AcDbEntity
  8
9
  6
Continuous
 62
     4
370
     9
100
AcDbMText
 10
271.2484875612881
 20
113.7608196863362
 30
0.0
 40
4.5
 41
54.64285714285714
 46
4.5
 71
     8
 72
     1
  1
150
  7
ＭＳ ゴシック
 73
     1
 44
1.0
1001
ACAD
1000
ACAD_MTEXT_DEFINED_HEIGHT_BEGIN
1070
    46
1040
4.5
1000
ACAD_MTEXT_DEFINED_HEIGHT_END
  0
INSERT
  5
262
330
25B
100
AcDbEntity
  8
9
  6
Continuous
 62
     4
370
     9
100
AcDbBlockReference
  2
_ARROWFILLED
 10
196.248487561288
 20
113.7608196863362
 30
0.0
 41
3.0
 42
3.0
 43
3.0
 50
179.9999999999998
  0
INSERT
  5
263
330
25B
100
AcDbEntity
  8
9
  6
Continuous
 62
     4
370
     9
100
AcDbBlockReference
  2
_ARROWFILLED
 10
346.248487561288
 20
113.7608196863362
 30
0.0
 41
3.0
 42
3.0
 43
3.0
 50
359.9999999999997
  0
ENDBLK
  5
25D
330
25B
100
AcDbEntity
  8
0
100
AcDbBlockEnd
  0
BLOCK
  5
266
330
265
100
AcDbEntity
  8
0
100
AcDbBlockBegin
  2
Dim8
 70
     0
 10
0.0
 20
0.0
 30
0.0
  3
Dim8
  1
Dim8
  0
LINE
  5
268
330
265
100
AcDbEntity
  8
9
  6
Continuous
 62
     4
370
     9
100
AcDbLine
 10
171.2484875612881
 20
177.0465021738396
 30
0.0
 11
171.248487561288
 21
99.5108196863362
 31
0.0
  0
LINE
  5
269
330
265
100
AcDbEntity
  8
9
  6
Continuous
 62
     4
370
     9
100
AcDbLine
 10
371.2484875612881
 20
177.0465021738396
 30
0.0
 11
371.248487561288
 21
99.5108196863362
 31
0.0
  0
LINE
  5
26A
330
265
100
AcDbEntity
  8
9
  6
Continuous
 62
     4
370
     9
100
AcDbLine
 10
171.248487561288
 20
101.7608196863362
 30
0.0
 11
371.248487561288
 21
101.7608196863362
 31
0.0
  0
MTEXT
  5
26B
330
265
100
AcDbEntity
  8
9
  6
Continuous
 62
     4
370
     9
100
AcDbMText
 10
271.2484875612881
 20
101.7608196863362
 30
0.0
 40
4.5
 41
57.85714285714285
 46
4.5
 71
     8
 72
     1
  1
200
  7
ＭＳ ゴシック
 73
     1
 44
1.0
1001
ACAD
1000
ACAD_MTEXT_DEFINED_HEIGHT_BEGIN
1070
    46
1040
4.5
1000
ACAD_MTEXT_DEFINED_HEIGHT_END
  0
INSERT
  5
26C
330
265
100
AcDbEntity
  8
9
  6
Continuous
 62
     4
370
     9
100
AcDbBlockReference
  2
_ARROWFILLED
 10
171.248487561288
 20
101.7608196863362
 30
0.0
 41
3.0
 42
3.0
 43
3.0
 50
179.9999999999998
  0
INSERT
  5
26D
330
265
100
AcDbEntity
  8
9
  6
Continuous
 62
     4
370
     9
100
AcDbBlockReference
  2
_ARROWFILLED
 10
371.248487561288
 20
101.7608196863362
 30
0.0
 41
3.0
 42
3.0
 43
3.0
 50
359.9999999999997
  0
ENDBLK
  5
267
330
265
100
AcDbEntity
  8
0
100
AcDbBlockEnd
  0
BLOCK
  5
270
330
26F
100
AcDbEntity
  8
0
100
AcDbBlockBegin
  2
Dim9
 70
     0
 10
0.0
 20
0.0
 30
0.0
  3
Dim9
  1
Dim9
  0
LINE
  5
272
330
26F
100
AcDbEntity
  8
9
  6
Continuous
 62
     4
370
     9
100
AcDbLine
 10
156.2484875612881
 20
162.0465021738387
 30
0.0
 11
156.248487561288
 21
87.51081968633616
 31
0.0
  0
LINE
  5
273
330
26F
100
AcDbEntity
  8
9
  6
Continuous
 62
     4
370
     9
100
AcDbLine
 10
386.2484875612881
 20
162.0465021738396
 30
0.0
 11
386.248487561288
 21
87.51081968633616
 31
0.0
  0
LINE
  5
274
330
26F
100
AcDbEntity
  8
9
  6
Continuous
 62
     4
370
     9
100
AcDbLine
 10
156.248487561288
 20
89.76081968633616
 30
0.0
 11
386.248487561288
 21
89.76081968633616
 31
0.0
  0
MTEXT
  5
275
330
26F
100
AcDbEntity
  8
9
  6
Continuous
 62
     4
370
     9
100
AcDbMText
 10
271.2484875612881
 20
89.76081968633616
 30
0.0
 40
4.5
 41
57.85714285714285
 46
4.5
 71
     8
 72
     1
  1
230
  7
ＭＳ ゴシック
 73
     1
 44
1.0
1001
ACAD
1000
ACAD_MTEXT_DEFINED_HEIGHT_BEGIN
1070
    46
1040
4.5
1000
ACAD_MTEXT_DEFINED_HEIGHT_END
  0
INSERT
  5
276
330
26F
100
AcDbEntity
  8
9
  6
Continuous
 62
     4
370
     9
100
AcDbBlockReference
  2
_ARROWFILLED
 10
156.248487561288
 20
89.76081968633616
 30
0.0
 41
3.0
 42
3.0
 43
3.0
 50
179.9999999999998
  0
INSERT
  5
277
330
26F
100
AcDbEntity
  8
9
  6
Continuous
 62
     4
370
     9
100
AcDbBlockReference
  2
_ARROWFILLED
 10
386.248487561288
 20
89.76081968633616
 30
0.0
 41
3.0
 42
3.0
 43
3.0
 50
359.9999999999997
  0
ENDBLK
  5
271
330
26F
100
AcDbEntity
  8
0
100
AcDbBlockEnd
  0
BLOCK
  5
27A
330
279
100
AcDbEntity
  8
0
100
AcDbBlockBegin
  2
Dim10
 70
     0
 10
0.0
 20
0.0
 30
0.0
  3
Dim10
  1
Dim10
  0
LINE
  5
27C
330
279
100
AcDbEntity
  8
9
  6
Continuous
 62
     4
370
     9
100
AcDbLine
 10
475.9496944054081
 20
162.0465021738396
 30
0.0
 11
475.949694405408
 21
97.21017950945816
 31
0.0
  0
LINE
  5
27D
330
279
100
AcDbEntity
  8
9
  6
Continuous
 62
     4
370
     9
100
AcDbLine
 10
520.9496944054081
 20
147.0465021738396
 30
0.0
 11
520.949694405408
 21
97.21017950945816
 31
0.0
  0
LINE
  5
27E
330
279
100
AcDbEntity
  8
9
  6
Continuous
 62
     4
370
     9
100
AcDbLine
 10
475.949694405408
 20
99.46017950945816
 30
0.0
 11
520.949694405408
 21
99.46017950945816
 31
0.0
  0
MTEXT
  5
27F
330
279
100
AcDbEntity
  8
9
  6
Continuous
 62
     4
370
     9
100
AcDbMText
 10
498.4496944054081
 20
99.46017950945816
 30
0.0
 40
4.5
 41
36.42857142857143
 46
4.5
 71
     8
 72
     1
  1
45
  7
ＭＳ ゴシック
 73
     1
 44
1.0
1001
ACAD
1000
ACAD_MTEXT_DEFINED_HEIGHT_BEGIN
1070
    46
1040
4.5
1000
ACAD_MTEXT_DEFINED_HEIGHT_END
  0
INSERT
  5
280
330
279
100
AcDbEntity
  8
9
  6
Continuous
 62
     4
370
     9
100
AcDbBlockReference
  2
_ARROWFILLED
 10
475.949694405408
 20
99.46017950945816
 30
0.0
 41
3.0
 42
3.0
 43
3.0
 50
179.9999999999998
  0
INSERT
  5
281
330
279
100
AcDbEntity
  8
9
  6
Continuous
 62
     4
370
     9
100
AcDbBlockReference
  2
_ARROWFILLED
 10
520.949694405408
 20
99.46017950945816
 30
0.0
 41
3.0
 42
3.0
 43
3.0
 50
359.9999999999997
  0
ENDBLK
  5
27B
330
279
100
AcDbEntity
  8
0
100
AcDbBlockEnd
  0
BLOCK
  5
284
330
283
100
AcDbEntity
  8
0
100
AcDbBlockBegin
  2
Dim11
 70
     0
 10
0.0
 20
0.0
 30
0.0
  3
Dim11
  1
Dim11
  0
LINE
  5
286
330
283
100
AcDbEntity
  8
9
  6
Continuous
 62
     4
370
     9
100
AcDbLine
 10
169.7484875612881
 20
178.5465021738396
 30
0.0
 11
134.693805778732
 21
178.5465021738397
 31
0.0
  0
LINE
  5
287
330
283
100
AcDbEntity
  8
9
  6
Continuous
 62
     4
370
     9
100
AcDbLine
 10
169.7484875612881
 20
278.5465021738396
 30
0.0
 11
134.693805778732
 21
278.5465021738397
 31
0.0
  0
LINE
  5
288
330
283
100
AcDbEntity
  8
9
  6
Continuous
 62
     4
370
     9
100
AcDbLine
 10
136.943805778732
 20
178.5465021738397
 30
0.0
 11
136.943805778732
 21
278.5465021738397
 31
0.0
  0
MTEXT
  5
289
330
283
100
AcDbEntity
  8
9
  6
Continuous
 62
     4
370
     9
100
AcDbMText
 10
136.943805778732
 20
228.5465021738396
 30
0.0
 40
4.5
 41
54.64285714285714
 46
4.5
 71
     8
 72
     1
  1
100
  7
ＭＳ ゴシック
 11
1.615544574432587E-15
 21
1.0
 31
0.0
 73
     1
 44
1.0
1001
ACAD
1000
ACAD_MTEXT_DEFINED_HEIGHT_BEGIN
1070
    46
1040
4.5
1000
ACAD_MTEXT_DEFINED_HEIGHT_END
  0
INSERT
  5
28A
330
283
100
AcDbEntity
  8
9
  6
Continuous
 62
     4
370
     9
100
AcDbBlockReference
  2
_ARROWFILLED
 10
136.943805778732
 20
178.5465021738397
 30
0.0
 41
3.0
 42
3.0
 43
3.0
 50
269.9999999999998
  0
INSERT
  5
28B
330
283
100
AcDbEntity
  8
9
  6
Continuous
 62
     4
370
     9
100
AcDbBlockReference
  2
_ARROWFILLED
 10
136.943805778732
 20
278.5465021738397
 30
0.0
 41
3.0
 42
3.0
 43
3.0
 50
89.99999999999991
  0
ENDBLK
  5
285
330
283
100
AcDbEntity
  8
0
100
AcDbBlockEnd
  0
BLOCK
  5
28E
330
28D
100
AcDbEntity
  8
0
100
AcDbBlockBegin
  2
Dim12
 70
     0
 10
0.0
 20
0.0
 30
0.0
  3
Dim12
  1
Dim12
  0
LINE
  5
290
330
28D
100
AcDbEntity
  8
9
  6
Continuous
 62
     4
370
     9
100
AcDbLine
 10
154.7484875612881
 20
163.5465021738396
 30
0.0
 11
122.693805778732
 21
163.5465021738397
 31
0.0
  0
LINE
  5
291
330
28D
100
AcDbEntity
  8
9
  6
Continuous
 62
     4
370
     9
100
AcDbLine
 10
154.7484875612881
 20
293.5465021738396
 30
0.0
 11
122.693805778732
 21
293.5465021738397
 31
0.0
  0
LINE
  5
292
330
28D
100
AcDbEntity
  8
9
  6
Continuous
 62
     4
370
     9
100
AcDbLine
 10
124.943805778732
 20
163.5465021738397
 30
0.0
 11
124.943805778732
 21
293.5465021738397
 31
0.0
  0
MTEXT
  5
293
330
28D
100
AcDbEntity
  8
9
  6
Continuous
 62
     4
370
     9
100
AcDbMText
 10
124.943805778732
 20
228.5465021738396
 30
0.0
 40
4.5
 41
54.64285714285714
 46
4.5
 71
     8
 72
     1
  1
130
  7
ＭＳ ゴシック
 11
1.615544574432587E-15
 21
1.0
 31
0.0
 73
     1
 44
1.0
1001
ACAD
1000
ACAD_MTEXT_DEFINED_HEIGHT_BEGIN
1070
    46
1040
4.5
1000
ACAD_MTEXT_DEFINED_HEIGHT_END
  0
INSERT
  5
294
330
28D
100
AcDbEntity
  8
9
  6
Continuous
 62
     4
370
     9
100
AcDbBlockReference
  2
_ARROWFILLED
 10
124.943805778732
 20
163.5465021738397
 30
0.0
 41
3.0
 42
3.0
 43
3.0
 50
269.9999999999998
  0
INSERT
  5
295
330
28D
100
AcDbEntity
  8
9
  6
Continuous
 62
     4
370
     9
100
AcDbBlockReference
  2
_ARROWFILLED
 10
124.943805778732
 20
293.5465021738397
 30
0.0
 41
3.0
 42
3.0
 43
3.0
 50
89.99999999999991
  0
ENDBLK
  5
28F
330
28D
100
AcDbEntity
  8
0
100
AcDbBlockEnd
  0
BLOCK
  5
298
330
297
100
AcDbEntity
  8
0
100
AcDbBlockBegin
  2
Dim13
 70
     0
 10
0.0
 20
0.0
 30
0.0
  3
Dim13
  1
Dim13
  0
LINE
  5
29A
330
297
100
AcDbEntity
  8
9
  6
Continuous
 62
     4
370
     9
100
AcDbLine
 10
189.1484875612878
 20
155.5465021738396
 30
0.0
 11
110.6938057787311
 21
155.5465021738399
 31
0.0
  0
LINE
  5
29B
330
297
100
AcDbEntity
  8
9
  6
Continuous
 62
     4
370
     9
100
AcDbLine
 10
189.1484875612878
 20
301.5465021738396
 30
0.0
 11
110.6938057787311
 21
301.5465021738398
 31
0.0
  0
LINE
  5
29C
330
297
100
AcDbEntity
  8
9
  6
Continuous
 62
     4
370
     9
100
AcDbLine
 10
112.9438057787311
 20
155.5465021738399
 30
0.0
 11
112.9438057787311
 21
301.5465021738398
 31
0.0
  0
MTEXT
  5
29D
330
297
100
AcDbEntity
  8
9
  6
Continuous
 62
     4
370
     9
100
AcDbMText
 10
112.9438057787311
 20
228.5465021738396
 30
0.0
 40
4.5
 41
54.64285714285714
 46
4.5
 71
     8
 72
     1
  1
146
  7
ＭＳ ゴシック
 11
1.615544574432587E-15
 21
1.0
 31
0.0
 73
     1
 44
1.0
1001
ACAD
1000
ACAD_MTEXT_DEFINED_HEIGHT_BEGIN
1070
    46
1040
4.5
1000
ACAD_MTEXT_DEFINED_HEIGHT_END
  0
INSERT
  5
29E
330
297
100
AcDbEntity
  8
9
  6
Continuous
 62
     4
370
     9
100
AcDbBlockReference
  2
_ARROWFILLED
 10
112.9438057787311
 20
155.5465021738399
 30
0.0
 41
3.0
 42
3.0
 43
3.0
 50
269.9999999999998
  0
INSERT
  5
29F
330
297
100
AcDbEntity
  8
9
  6
Continuous
 62
     4
370
     9
100
AcDbBlockReference
  2
_ARROWFILLED
 10
112.9438057787311
 20
301.5465021738398
 30
0.0
 41
3.0
 42
3.0
 43
3.0
 50
89.99999999999991
  0
ENDBLK
  5
299
330
297
100
AcDbEntity
  8
0
100
AcDbBlockEnd
  0
BLOCK
  5
2A2
330
2A1
100
AcDbEntity
  8
0
100
AcDbBlockBegin
  2
Dim14
 70
     0
 10
0.0
 20
0.0
 30
0.0
  3
Dim14
  1
Dim14
  0
LINE
  5
2A4
330
2A1
100
AcDbEntity
  8
9
  6
Continuous
 62
     4
370
     9
100
AcDbLine
 10
174.7484875612872
 20
308.5465021738396
 30
0.0
 11
98.6938057787302
 21
308.5465021738398
 31
0.0
  0
LINE
  5
2A5
330
2A1
100
AcDbEntity
  8
9
  6
Continuous
 62
     4
370
     9
100
AcDbLine
 10
174.7484875612872
 20
148.5465021738396
 30
0.0
 11
98.6938057787302
 21
148.5465021738399
 31
0.0
  0
LINE
  5
2A6
330
2A1
100
AcDbEntity
  8
9
  6
Continuous
 62
     4
370
     9
100
AcDbLine
 10
100.9438057787302
 20
308.5465021738398
 30
0.0
 11
100.9438057787302
 21
148.5465021738399
 31
0.0
  0
MTEXT
  5
2A7
330
2A1
100
AcDbEntity
  8
9
  6
Continuous
 62
     4
370
     9
100
AcDbMText
 10
100.9438057787302
 20
228.5465021738396
 30
0.0
 40
4.5
 41
54.64285714285714
 46
4.5
 71
     8
 72
     1
  1
160
  7
ＭＳ ゴシック
 11
1.615544574432587E-15
 21
1.0
 31
0.0
 73
     1
 44
1.0
1001
ACAD
1000
ACAD_MTEXT_DEFINED_HEIGHT_BEGIN
1070
    46
1040
4.5
1000
ACAD_MTEXT_DEFINED_HEIGHT_END
  0
INSERT
  5
2A8
330
2A1
100
AcDbEntity
  8
9
  6
Continuous
 62
     4
370
     9
100
AcDbBlockReference
  2
_ARROWFILLED
 10
100.9438057787302
 20
308.5465021738398
 30
0.0
 41
3.0
 42
3.0
 43
3.0
 50
89.99999999999991
  0
INSERT
  5
2A9
330
2A1
100
AcDbEntity
  8
9
  6
Continuous
 62
     4
370
     9
100
AcDbBlockReference
  2
_ARROWFILLED
 10
100.9438057787302
 20
148.5465021738399
 30
0.0
 41
3.0
 42
3.0
 43
3.0
 50
269.9999999999998
  0
ENDBLK
  5
2A3
330
2A1
100
AcDbEntity
  8
0
100
AcDbBlockEnd
  0
ENDSEC
  0
SECTION
  2
ENTITIES
  0
LINE
  5
CC
330
1F
100
AcDbEntity
  8
7
  6
Continuous
 62
     6
370
     9
100
AcDbLine
 10
30.00001350000002
 20
52.5
 30
0.0
 11
138.0000135
 21
52.5
 31
0.0
  0
LINE
  5
CD
330
1F
100
AcDbEntity
  8
7
  6
Continuous
 62
     6
370
     9
100
AcDbLine
 10
30.00001350000002
 20
44.99998499999992
 30
0.0
 11
138.0000135
 21
44.99998499999992
 31
0.0
  0
LINE
  5
CE
330
1F
100
AcDbEntity
  8
7
  6
Continuous
 62
     6
370
     9
100
AcDbLine
 10
30.00001350000002
 20
37.5
 30
0.0
 11
138.0000135
 21
37.5
 31
0.0
  0
LINE
  5
CF
330
1F
100
AcDbEntity
  8
7
  6
Continuous
 62
     6
370
     9
100
AcDbLine
 10
30.00001350000002
 20
30.0
 30
0.0
 11
138.0000135
 21
30.0
 31
0.0
  0
LINE
  5
D0
330
1F
100
AcDbEntity
  8
7
  6
Continuous
 62
     6
370
     9
100
AcDbLine
 10
96.00001350000002
 20
52.5
 30
0.0
 11
96.00001350000002
 21
30.0
 31
0.0
  0
LINE
  5
D1
330
1F
100
AcDbEntity
  8
7
  6
Continuous
 62
     6
370
     9
100
AcDbLine
 10
96.00001350000002
 20
52.5
 30
0.0
 11
96.00001350000002
 21
30.0
 31
0.0
  0
LINE
  5
D2
330
1F
100
AcDbEntity
  8
7
  6
Continuous
 62
     6
370
     9
100
AcDbLine
 10
60.00002849999964
 20
52.5
 30
0.0
 11
60.00002849999964
 21
30.0
 31
0.0
  0
LINE
  5
D3
330
1F
100
AcDbEntity
  8
7
  6
Continuous
 62
     6
370
     9
100
AcDbLine
 10
30.00001350000002
 20
52.5
 30
0.0
 11
30.00001350000002
 21
30.0
 31
0.0
  0
LINE
  5
D4
330
1F
100
AcDbEntity
  8
7
  6
Continuous
 62
     6
370
     9
100
AcDbLine
 10
30.00001350000002
 20
52.5
 30
0.0
 11
60.00002849999964
 21
44.99998499999992
 31
0.0
  0
LINE
  5
D5
330
1F
100
AcDbEntity
  8
7
  6
Continuous
 62
     6
370
     9
100
AcDbLine
 10
138.0000135
 20
52.5
 30
0.0
 11
138.0000135
 21
30.0
 31
0.0
  0
LINE
  5
D6
330
1F
100
AcDbEntity
  8
6
  6
Continuous
 62
     1
370
    25
100
AcDbLine
 10
82.76601209546334
 20
64.75495724999973
 30
0.0
 11
82.76601209546334
 21
66.01496775000032
 31
0.0
  0
LINE
  5
D7
330
1F
100
AcDbEntity
  8
6
  6
Continuous
 62
     1
370
    25
100
AcDbLine
 10
91.9010078954625
 20
59.66245724999999
 30
0.0
 11
91.9010078954625
 21
68.58747825
 31
0.0
  0
LINE
  5
D8
330
1F
100
AcDbEntity
  8
6
  6
Continuous
 62
     1
370
    25
100
AcDbLine
 10
91.37600579546324
 20
68.58747825
 30
0.0
 11
91.37600579546324
 21
59.66245724999999
 31
0.0
  0
LINE
  5
D9
330
1F
100
AcDbEntity
  8
6
  6
Continuous
 62
     1
370
    25
100
AcDbLine
 10
90.85101734546333
 20
68.27245724999966
 30
0.0
 11
90.85101734546333
 21
59.97747824999942
 31
0.0
  0
LINE
  5
DA
330
1F
100
AcDbEntity
  8
6
  6
Continuous
 62
     1
370
    25
100
AcDbLine
 10
85.07599844546257
 20
68.27245724999966
 30
0.0
 11
85.07599844546257
 21
59.97747824999942
 31
0.0
  0
LINE
  5
DB
330
1F
100
AcDbEntity
  8
6
  6
Continuous
 62
     1
370
    25
100
AcDbLine
 10
82.45100264546363
 20
65.90994675000047
 30
0.0
 11
82.45100264546363
 21
62.33997825000006
 31
0.0
  0
LINE
  5
DC
330
1F
100
AcDbEntity
  8
6
  6
Continuous
 62
     1
370
    25
100
AcDbLine
 10
88.48850999546266
 20
65.17496249999976
 30
0.0
 11
88.48850999546266
 21
63.07497300000023
 31
0.0
  0
LINE
  5
DD
330
1F
100
AcDbEntity
  8
6
  6
Continuous
 62
     1
370
    25
100
AcDbLine
 10
89.53851314546318
 20
63.07497300000023
 30
0.0
 11
89.53851314546318
 21
65.17496249999976
 31
0.0
  0
LINE
  5
DE
330
1F
100
AcDbEntity
  8
6
  6
Continuous
 62
     1
370
    25
100
AcDbLine
 10
85.39100684546338
 20
68.58747825
 30
0.0
 11
90.53600894546344
 21
68.58747825
 31
0.0
  0
LINE
  5
DF
330
1F
100
AcDbEntity
  8
6
  6
Continuous
 62
     1
370
    25
100
AcDbLine
 10
85.07601104546302
 20
69.11247825000055
 30
0.0
 11
90.85100474546289
 21
69.11247825000055
 31
0.0
  0
LINE
  5
E0
330
1F
100
AcDbEntity
  8
6
  6
Continuous
 62
     1
370
    25
100
AcDbLine
 10
90.85101734546333
 20
69.63745725000035
 30
0.0
 11
85.07599844546257
 21
69.63745725000035
 31
0.0
  0
LINE
  5
E1
330
1F
100
AcDbEntity
  8
6
  6
Continuous
 62
     1
370
    25
100
AcDbLine
 10
87.43851944546259
 20
67.53742049999983
 30
0.0
 11
86.38850894546249
 21
67.53742049999983
 31
0.0
  0
LINE
  5
E2
330
1F
100
AcDbEntity
  8
6
  6
Continuous
 62
     1
370
    25
100
AcDbLine
 10
86.38850894546249
 20
65.96241000000009
 30
0.0
 11
87.43851944546259
 21
65.96241000000009
 31
0.0
  0
LINE
  5
E3
330
1F
100
AcDbEntity
  8
6
  6
Continuous
 62
     1
370
    25
100
AcDbLine
 10
89.53851314546318
 20
65.17496249999976
 30
0.0
 11
88.48850999546266
 21
65.17496249999976
 31
0.0
  0
ARC
  5
E4
330
1F
100
AcDbEntity
  8
6
  6
Continuous
 62
     1
370
    25
100
AcDbCircle
 10
90.85101734546333
 20
68.58747825
 30
0.0
 40
1.049999999999997
100
AcDbArc
 50
0.0
 51
89.99999999999991
  0
ARC
  5
E5
330
1F
100
AcDbEntity
  8
6
  6
Continuous
 62
     1
370
    25
100
AcDbCircle
 10
90.53600894546344
 20
68.27245724999966
 30
0.0
 40
0.3149999999999977
100
AcDbArc
 50
0.0
 51
89.99999999999991
  0
ARC
  5
E6
330
1F
100
AcDbEntity
  8
6
  6
Continuous
 62
     1
370
    25
100
AcDbCircle
 10
90.85100474546289
 20
68.58747825
 30
0.0
 40
0.5250000000000057
100
AcDbArc
 50
0.0
 51
89.99999999999991
  0
LINE
  5
E7
330
1F
100
AcDbEntity
  8
6
  6
Continuous
 62
     1
370
    25
100
AcDbLine
 10
89.53851314546318
 20
67.79991000000064
 30
0.0
 11
88.48850999546266
 21
67.79991000000064
 31
0.0
  0
LINE
  5
E8
330
1F
100
AcDbEntity
  8
6
  6
Continuous
 62
     1
370
    25
100
AcDbLine
 10
87.43851944546259
 20
65.96241000000009
 30
0.0
 11
87.43851944546259
 21
67.53742049999983
 31
0.0
  0
LINE
  5
E9
330
1F
100
AcDbEntity
  8
6
  6
Continuous
 62
     1
370
    25
100
AcDbLine
 10
88.48850999546266
 20
67.79991000000064
 30
0.0
 11
88.48850999546266
 21
65.69992049999973
 31
0.0
  0
LINE
  5
EA
330
1F
100
AcDbEntity
  8
6
  6
Continuous
 62
     1
370
    25
100
AcDbLine
 10
89.53851314546318
 20
65.69992049999973
 30
0.0
 11
89.53851314546318
 21
67.79991000000064
 31
0.0
  0
LINE
  5
EB
330
1F
100
AcDbEntity
  8
6
  6
Continuous
 62
     1
370
    25
100
AcDbLine
 10
88.48850999546266
 20
65.69992049999973
 30
0.0
 11
89.53851314546318
 21
65.69992049999973
 31
0.0
  0
LINE
  5
EC
330
1F
100
AcDbEntity
  8
6
  6
Continuous
 62
     1
370
    25
100
AcDbLine
 10
83.50100579546324
 20
65.17496774999972
 30
0.0
 11
83.50100579546324
 21
66.22497825000028
 31
0.0
  0
ARC
  5
ED
330
1F
100
AcDbEntity
  8
6
  6
Continuous
 62
     1
370
    25
100
AcDbCircle
 10
82.76601209546334
 20
65.90994675000047
 30
0.0
 40
0.3149999999999977
100
AcDbArc
 50
89.99999999999991
 51
179.9999999999998
  0
LINE
  5
EE
330
1F
100
AcDbEntity
  8
6
  6
Continuous
 62
     1
370
    25
100
AcDbLine
 10
82.97600474546289
 20
66.01496775000032
 30
0.0
 11
82.97600474546289
 21
66.22497825000028
 31
0.0
  0
LINE
  5
EF
330
1F
100
AcDbEntity
  8
6
  6
Continuous
 62
     1
370
    25
100
AcDbLine
 10
82.76601209546334
 20
66.01496775000032
 30
0.0
 11
82.97600474546289
 21
66.01496775000032
 31
0.0
  0
LINE
  5
F0
330
1F
100
AcDbEntity
  8
6
  6
Continuous
 62
     1
370
    25
100
AcDbLine
 10
83.50100579546324
 20
65.17496774999972
 30
0.0
 11
85.07599844546257
 21
65.17496774999972
 31
0.0
  0
LINE
  5
F1
330
1F
100
AcDbEntity
  8
6
  6
Continuous
 62
     1
370
    25
100
AcDbLine
 10
82.76601209546334
 20
66.22497825000028
 30
0.0
 11
85.07599844546257
 21
66.22497825000028
 31
0.0
  0
ARC
  5
F2
330
1F
100
AcDbEntity
  8
6
  6
Continuous
 62
     1
370
    25
100
AcDbCircle
 10
85.39100684546338
 20
68.27245724999966
 30
0.0
 40
0.3149999999999977
100
AcDbArc
 50
89.99999999999991
 51
179.9999999999998
  0
ARC
  5
F3
330
1F
100
AcDbEntity
  8
6
  6
Continuous
 62
     1
370
    25
100
AcDbCircle
 10
85.07601104546302
 20
68.58747825
 30
0.0
 40
0.5250000000000057
100
AcDbArc
 50
89.99999999999991
 51
179.9999999999998
  0
ARC
  5
F4
330
1F
100
AcDbEntity
  8
6
  6
Continuous
 62
     1
370
    25
100
AcDbCircle
 10
85.07599844546257
 20
68.58747825
 30
0.0
 40
1.049999999999997
100
AcDbArc
 50
89.99999999999991
 51
179.9999999999998
  0
LINE
  5
F5
330
1F
100
AcDbEntity
  8
6
  6
Continuous
 62
     1
370
    25
100
AcDbLine
 10
86.38850894546249
 20
67.27491000000009
 30
0.0
 11
85.86351419546372
 21
67.27491000000009
 31
0.0
  0
LINE
  5
F6
330
1F
100
AcDbEntity
  8
6
  6
Continuous
 62
     1
370
    25
100
AcDbLine
 10
86.38850894546249
 20
67.53742049999983
 30
0.0
 11
86.38850894546249
 21
67.27491000000009
 31
0.0
  0
LINE
  5
F7
330
1F
100
AcDbEntity
  8
6
  6
Continuous
 62
     1
370
    25
100
AcDbLine
 10
85.86351419546372
 20
67.27491000000009
 30
0.0
 11
85.86351419546372
 21
66.2249310000002
 31
0.0
  0
LINE
  5
F8
330
1F
100
AcDbEntity
  8
6
  6
Continuous
 62
     1
370
    25
100
AcDbLine
 10
86.38850894546249
 20
66.2249310000002
 30
0.0
 11
86.38850894546249
 21
65.96241000000009
 31
0.0
  0
LINE
  5
F9
330
1F
100
AcDbEntity
  8
6
  6
Continuous
 62
     1
370
    25
100
AcDbLine
 10
85.86351419546372
 20
66.2249310000002
 30
0.0
 11
86.38850894546249
 21
66.2249310000002
 31
0.0
  0
LINE
  5
FA
330
1F
100
AcDbEntity
  8
6
  6
Continuous
 62
     1
370
    25
100
AcDbLine
 10
84.55100999546266
 20
68.58747825
 30
0.0
 11
84.55100999546266
 21
66.22497825000028
 31
0.0
  0
LINE
  5
FB
330
1F
100
AcDbEntity
  8
6
  6
Continuous
 62
     1
370
    25
100
AcDbLine
 10
84.0260078954625
 20
68.58747825
 30
0.0
 11
84.0260078954625
 21
66.22497825000028
 31
0.0
  0
LINE
  5
FC
330
1F
100
AcDbEntity
  8
6
  6
Continuous
 62
     1
370
    25
100
AcDbLine
 10
90.53600894546344
 20
59.66245724999999
 30
0.0
 11
85.39100684546338
 21
59.66245724999999
 31
0.0
  0
LINE
  5
FD
330
1F
100
AcDbEntity
  8
6
  6
Continuous
 62
     1
370
    25
100
AcDbLine
 10
90.85100474546289
 20
59.13745725000035
 30
0.0
 11
85.07601104546302
 21
59.13745725000035
 31
0.0
  0
LINE
  5
FE
330
1F
100
AcDbEntity
  8
6
  6
Continuous
 62
     1
370
    25
100
AcDbLine
 10
90.85101734546333
 20
58.61247825000055
 30
0.0
 11
85.07599844546257
 21
58.61247825000055
 31
0.0
  0
LINE
  5
FF
330
1F
100
AcDbEntity
  8
6
  6
Continuous
 62
     1
370
    25
100
AcDbLine
 10
86.38850894546249
 20
60.71251499999971
 30
0.0
 11
87.43851944546259
 21
60.71251499999971
 31
0.0
  0
LINE
  5
100
330
1F
100
AcDbEntity
  8
6
  6
Continuous
 62
     1
370
    25
100
AcDbLine
 10
87.43851944546259
 20
62.2875254999999
 30
0.0
 11
86.38850894546249
 21
62.2875254999999
 31
0.0
  0
LINE
  5
101
330
1F
100
AcDbEntity
  8
6
  6
Continuous
 62
     1
370
    25
100
AcDbLine
 10
86.38850894546249
 20
63.33746250000013
 30
0.0
 11
87.43851944546259
 21
63.33746250000013
 31
0.0
  0
LINE
  5
102
330
1F
100
AcDbEntity
  8
6
  6
Continuous
 62
     1
370
    25
100
AcDbLine
 10
87.43851944546259
 20
64.91247299999986
 30
0.0
 11
86.38850894546249
 21
64.91247299999986
 31
0.0
  0
ARC
  5
103
330
1F
100
AcDbEntity
  8
6
  6
Continuous
 62
     1
370
    25
100
AcDbCircle
 10
90.85101734546333
 20
59.66245724999999
 30
0.0
 40
1.049999999999997
100
AcDbArc
 50
269.9999999999998
 51
0.0
  0
ARC
  5
104
330
1F
100
AcDbEntity
  8
6
  6
Continuous
 62
     1
370
    25
100
AcDbCircle
 10
90.53600894546344
 20
59.97747824999942
 30
0.0
 40
0.3149999999999977
100
AcDbArc
 50
269.9999999999998
 51
0.0
  0
ARC
  5
105
330
1F
100
AcDbEntity
  8
6
  6
Continuous
 62
     1
370
    25
100
AcDbCircle
 10
90.85100474546289
 20
59.66245724999999
 30
0.0
 40
0.5250000000000057
100
AcDbArc
 50
269.9999999999998
 51
0.0
  0
LINE
  5
106
330
1F
100
AcDbEntity
  8
6
  6
Continuous
 62
     1
370
    25
100
AcDbLine
 10
88.48850999546266
 20
60.45002549999981
 30
0.0
 11
89.53851314546318
 21
60.45002549999981
 31
0.0
  0
LINE
  5
107
330
1F
100
AcDbEntity
  8
6
  6
Continuous
 62
     1
370
    25
100
AcDbLine
 10
89.53851314546318
 20
60.45002549999981
 30
0.0
 11
89.53851314546318
 21
62.55001499999935
 31
0.0
  0
LINE
  5
108
330
1F
100
AcDbEntity
  8
6
  6
Continuous
 62
     1
370
    25
100
AcDbLine
 10
88.48850999546266
 20
62.55001499999935
 30
0.0
 11
88.48850999546266
 21
60.45002549999981
 31
0.0
  0
LINE
  5
109
330
1F
100
AcDbEntity
  8
6
  6
Continuous
 62
     1
370
    25
100
AcDbLine
 10
87.43851944546259
 20
60.71251499999971
 30
0.0
 11
87.43851944546259
 21
62.2875254999999
 31
0.0
  0
LINE
  5
10A
330
1F
100
AcDbEntity
  8
6
  6
Continuous
 62
     1
370
    25
100
AcDbLine
 10
89.53851314546318
 20
62.55001499999935
 30
0.0
 11
88.48850999546266
 21
62.55001499999935
 31
0.0
  0
LINE
  5
10B
330
1F
100
AcDbEntity
  8
6
  6
Continuous
 62
     1
370
    25
100
AcDbLine
 10
88.48850999546266
 20
63.07497300000023
 30
0.0
 11
89.53851314546318
 21
63.07497300000023
 31
0.0
  0
LINE
  5
10C
330
1F
100
AcDbEntity
  8
6
  6
Continuous
 62
     1
370
    25
100
AcDbLine
 10
87.43851944546259
 20
63.33746250000013
 30
0.0
 11
87.43851944546259
 21
64.91247299999986
 31
0.0
  0
ARC
  5
10D
330
1F
100
AcDbEntity
  8
6
  6
Continuous
 62
     1
370
    25
100
AcDbCircle
 10
85.39100684546338
 20
59.97747824999942
 30
0.0
 40
0.3149999999999977
100
AcDbArc
 50
179.9999999999998
 51
269.9999999999998
  0
ARC
  5
10E
330
1F
100
AcDbEntity
  8
6
  6
Continuous
 62
     1
370
    25
100
AcDbCircle
 10
85.07601104546302
 20
59.66245724999999
 30
0.0
 40
0.5250000000000057
100
AcDbArc
 50
179.9999999999998
 51
269.9999999999998
  0
ARC
  5
10F
330
1F
100
AcDbEntity
  8
6
  6
Continuous
 62
     1
370
    25
100
AcDbCircle
 10
85.07599844546257
 20
59.66245724999999
 30
0.0
 40
1.049999999999997
100
AcDbArc
 50
179.9999999999998
 51
269.9999999999998
  0
LINE
  5
110
330
1F
100
AcDbEntity
  8
6
  6
Continuous
 62
     1
370
    25
100
AcDbLine
 10
85.86351419546372
 20
60.97503600000027
 30
0.0
 11
86.38850894546249
 21
60.97503600000027
 31
0.0
  0
LINE
  5
111
330
1F
100
AcDbEntity
  8
6
  6
Continuous
 62
     1
370
    25
100
AcDbLine
 10
86.38850894546249
 20
60.97503600000027
 30
0.0
 11
86.38850894546249
 21
60.71251499999971
 31
0.0
  0
LINE
  5
112
330
1F
100
AcDbEntity
  8
6
  6
Continuous
 62
     1
370
    25
100
AcDbLine
 10
85.86351419546372
 20
62.02501499999971
 30
0.0
 11
85.86351419546372
 21
60.97503600000027
 31
0.0
  0
LINE
  5
113
330
1F
100
AcDbEntity
  8
6
  6
Continuous
 62
     1
370
    25
100
AcDbLine
 10
86.38850894546249
 20
62.2875254999999
 30
0.0
 11
86.38850894546249
 21
62.02501499999971
 31
0.0
  0
LINE
  5
114
330
1F
100
AcDbEntity
  8
6
  6
Continuous
 62
     1
370
    25
100
AcDbLine
 10
86.38850894546249
 20
62.02501499999971
 30
0.0
 11
85.86351419546372
 21
62.02501499999971
 31
0.0
  0
LINE
  5
115
330
1F
100
AcDbEntity
  8
6
  6
Continuous
 62
     1
370
    25
100
AcDbLine
 10
82.76601209546334
 20
62.23496775000012
 30
0.0
 11
82.76601209546334
 21
63.49497825000026
 31
0.0
  0
LINE
  5
116
330
1F
100
AcDbEntity
  8
6
  6
Continuous
 62
     1
370
    25
100
AcDbLine
 10
83.50100579546324
 20
62.02495725000017
 30
0.0
 11
83.50100579546324
 21
63.07496775000027
 31
0.0
  0
LINE
  5
117
330
1F
100
AcDbEntity
  8
6
  6
Continuous
 62
     1
370
    25
100
AcDbLine
 10
82.97600474546289
 20
63.49497825000026
 30
0.0
 11
82.76601209546334
 21
63.49497825000026
 31
0.0
  0
LINE
  5
118
330
1F
100
AcDbEntity
  8
6
  6
Continuous
 62
     1
370
    25
100
AcDbLine
 10
85.07599844546257
 20
63.07496775000027
 30
0.0
 11
83.50100579546324
 21
63.07496775000027
 31
0.0
  0
ARC
  5
119
330
1F
100
AcDbEntity
  8
6
  6
Continuous
 62
     1
370
    25
100
AcDbCircle
 10
82.76601209546334
 20
62.33997825000006
 30
0.0
 40
0.3149999999999977
100
AcDbArc
 50
179.9999999999998
 51
269.9999999999998
  0
LINE
  5
11A
330
1F
100
AcDbEntity
  8
6
  6
Continuous
 62
     1
370
    25
100
AcDbLine
 10
82.97600474546289
 20
62.02495725000017
 30
0.0
 11
82.97600474546289
 21
62.23496775000012
 31
0.0
  0
LINE
  5
11B
330
1F
100
AcDbEntity
  8
6
  6
Continuous
 62
     1
370
    25
100
AcDbLine
 10
82.97600474546289
 20
62.23496775000012
 30
0.0
 11
82.76601209546334
 21
62.23496775000012
 31
0.0
  0
LINE
  5
11C
330
1F
100
AcDbEntity
  8
6
  6
Continuous
 62
     1
370
    25
100
AcDbLine
 10
82.76601209546334
 20
62.02495725000017
 30
0.0
 11
85.07599844546257
 21
62.02495725000017
 31
0.0
  0
LINE
  5
11D
330
1F
100
AcDbEntity
  8
6
  6
Continuous
 62
     1
370
    25
100
AcDbLine
 10
85.86351419546372
 20
63.59998349999978
 30
0.0
 11
86.38850894546249
 21
63.59998349999978
 31
0.0
  0
LINE
  5
11E
330
1F
100
AcDbEntity
  8
6
  6
Continuous
 62
     1
370
    25
100
AcDbLine
 10
86.38850894546249
 20
63.59998349999978
 30
0.0
 11
86.38850894546249
 21
63.33746250000013
 31
0.0
  0
LINE
  5
11F
330
1F
100
AcDbEntity
  8
6
  6
Continuous
 62
     1
370
    25
100
AcDbLine
 10
84.55100999546266
 20
59.66245724999999
 30
0.0
 11
84.55100999546266
 21
62.02495725000017
 31
0.0
  0
LINE
  5
120
330
1F
100
AcDbEntity
  8
6
  6
Continuous
 62
     1
370
    25
100
AcDbLine
 10
84.0260078954625
 20
59.66245724999999
 30
0.0
 11
84.0260078954625
 21
62.02495725000017
 31
0.0
  0
LINE
  5
121
330
1F
100
AcDbEntity
  8
6
  6
Continuous
 62
     1
370
    25
100
AcDbLine
 10
82.97600474546289
 20
64.75495724999973
 30
0.0
 11
82.76601209546334
 21
64.75495724999973
 31
0.0
  0
LINE
  5
122
330
1F
100
AcDbEntity
  8
6
  6
Continuous
 62
     1
370
    25
100
AcDbLine
 10
86.38850894546249
 20
64.91247299999986
 30
0.0
 11
86.38850894546249
 21
64.64996250000013
 31
0.0
  0
LINE
  5
123
330
1F
100
AcDbEntity
  8
6
  6
Continuous
 62
     1
370
    25
100
AcDbLine
 10
86.38850894546249
 20
64.64996250000013
 30
0.0
 11
85.86351419546372
 21
64.64996250000013
 31
0.0
  0
LINE
  5
124
330
1F
100
AcDbEntity
  8
6
  6
Continuous
 62
     1
370
    25
100
AcDbLine
 10
82.97600474546289
 20
63.49497825000026
 30
0.0
 11
82.97600474546289
 21
64.75495724999973
 31
0.0
  0
LINE
  5
125
330
1F
100
AcDbEntity
  8
6
  6
Continuous
 62
     1
370
    25
100
AcDbLine
 10
85.86351419546372
 20
64.64996250000013
 30
0.0
 11
85.86351419546372
 21
63.59998349999978
 31
0.0
  0
LINE
  5
126
330
1F
100
AcDbEntity
  8
6
  6
Continuous
 62
     1
370
    25
100
AcDbLine
 10
80.35019510957864
 20
66.22497299999986
 30
0.0
 11
66.70018565957889
 21
66.22497299999986
 31
0.0
  0
LINE
  5
127
330
1F
100
AcDbEntity
  8
6
  6
Continuous
 62
     1
370
    25
100
AcDbLine
 10
77.20019090957885
 20
64.54497300000003
 30
0.0
 11
67.75018985957831
 21
64.54497300000003
 31
0.0
  0
LINE
  5
128
330
1F
100
AcDbEntity
  8
6
  6
Continuous
 62
     1
370
    25
100
AcDbLine
 10
77.20019090957885
 20
62.86498349999965
 30
0.0
 11
67.75018985957831
 21
62.86498349999965
 31
0.0
  0
LINE
  5
129
330
1F
100
AcDbEntity
  8
6
  6
Continuous
 62
     1
370
    25
100
AcDbLine
 10
77.20019090957885
 20
63.70495199999959
 30
0.0
 11
67.75018985957831
 21
63.70495199999959
 31
0.0
  0
LINE
  5
12A
330
1F
100
AcDbEntity
  8
6
  6
Continuous
 62
     1
370
    25
100
AcDbLine
 10
77.20019090957885
 20
65.38495200000034
 30
0.0
 11
67.75018985957831
 21
65.38495200000034
 31
0.0
  0
LINE
  5
12B
330
1F
100
AcDbEntity
  8
6
  6
Continuous
 62
     1
370
    25
100
AcDbLine
 10
80.35019510957864
 20
62.02496250000013
 30
0.0
 11
66.70018565957889
 21
62.02496250000013
 31
0.0
  0
LINE
  5
12C
330
1F
100
AcDbEntity
  8
6
  6
Continuous
 62
     1
370
    25
100
AcDbLine
 10
53.10009969232397
 20
65.75247270691898
 30
0.0
 11
30.0000996923236
 21
65.75247270691898
 31
0.0
  0
LINE
  5
12D
330
1F
100
AcDbEntity
  8
6
  6
Continuous
 62
     1
370
    25
100
AcDbLine
 10
53.10003935769691
 20
62.49747271203933
 30
0.0
 11
30.00003935769655
 21
62.49747254367821
 31
0.0
  0
LINE
  5
12E
330
1F
100
AcDbEntity
  8
6
  6
Continuous
 62
     1
370
    25
100
AcDbLine
 10
53.10003935769691
 20
61.18496250000089
 30
0.0
 11
53.10003935769691
 21
67.064962500001
 31
0.0
  0
LINE
  5
12F
330
1F
100
AcDbEntity
  8
6
  6
Continuous
 62
     1
370
    25
100
AcDbLine
 10
66.70018565957889
 20
62.02496250000013
 30
0.0
 11
66.70018565957889
 21
66.22497299999986
 31
0.0
  0
LINE
  5
130
330
1F
100
AcDbEntity
  8
6
  6
Continuous
 62
     1
370
    25
100
AcDbLine
 10
67.75018985957831
 20
62.02496250000013
 30
0.0
 11
67.75018985957831
 21
66.22497299999986
 31
0.0
  0
LINE
  5
131
330
1F
100
AcDbEntity
  8
6
  6
Continuous
 62
     1
370
    25
100
AcDbLine
 10
80.35019510957864
 20
64.12496250000049
 30
0.0
 11
80.35019510957864
 21
69.63747300000023
 31
0.0
  0
ARC
  5
132
330
1F
100
AcDbEntity
  8
6
  6
Continuous
 62
     1
370
    25
100
AcDbCircle
 10
73.00019405957846
 20
68.58747299999959
 30
0.0
 40
1.049999999999997
100
AcDbArc
 50
89.99999999999991
 51
179.9999999999998
  0
LINE
  5
133
330
1F
100
AcDbEntity
  8
6
  6
Continuous
 62
     1
370
    25
100
AcDbLine
 10
70.90021925957899
 20
68.32498350000014
 30
0.0
 11
71.95018985957813
 21
68.32498350000014
 31
0.0
  0
LINE
  5
134
330
1F
100
AcDbEntity
  8
6
  6
Continuous
 62
     1
370
    25
100
AcDbLine
 10
70.90021925957899
 20
68.84999400000015
 30
0.0
 11
70.90021925957899
 21
66.22497299999986
 31
0.0
  0
LINE
  5
135
330
1F
100
AcDbEntity
  8
6
  6
Continuous
 62
     1
370
    25
100
AcDbLine
 10
71.95018985957813
 20
68.58747299999959
 30
0.0
 11
71.95018985957813
 21
66.22497299999986
 31
0.0
  0
LINE
  5
136
330
1F
100
AcDbEntity
  8
6
  6
Continuous
 62
     1
370
    25
100
AcDbLine
 10
71.95018985957813
 20
68.32498350000014
 30
0.0
 11
71.95018985957813
 21
66.22497299999986
 31
0.0
  0
LINE
  5
137
330
1F
100
AcDbEntity
  8
6
  6
Continuous
 62
     1
370
    25
100
AcDbLine
 10
73.00019405957846
 20
58.61245199999985
 30
0.0
 11
80.35019510957864
 21
58.61245199999985
 31
0.0
  0
LINE
  5
138
330
1F
100
AcDbEntity
  8
6
  6
Continuous
 62
     1
370
    25
100
AcDbLine
 10
71.95018985957813
 20
59.92494149999993
 30
0.0
 11
70.90021925957899
 21
59.92494149999993
 31
0.0
  0
LINE
  5
139
330
1F
100
AcDbEntity
  8
6
  6
Continuous
 62
     1
370
    25
100
AcDbLine
 10
70.90021925957899
 20
59.39993099999947
 30
0.0
 11
70.90021925957899
 21
62.02495200000021
 31
0.0
  0
LINE
  5
13A
330
1F
100
AcDbEntity
  8
6
  6
Continuous
 62
     1
370
    25
100
AcDbLine
 10
71.95018985957813
 20
59.66245199999958
 30
0.0
 11
71.95018985957813
 21
62.02496250000013
 31
0.0
  0
LINE
  5
13B
330
1F
100
AcDbEntity
  8
6
  6
Continuous
 62
     1
370
    25
100
AcDbLine
 10
71.95018985957813
 20
62.02496250000013
 30
0.0
 11
71.95018985957813
 21
59.92494149999993
 31
0.0
  0
ARC
  5
13C
330
1F
100
AcDbEntity
  8
6
  6
Continuous
 62
     1
370
    25
100
AcDbCircle
 10
73.00019405957846
 20
59.66245199999958
 30
0.0
 40
1.049999999999997
100
AcDbArc
 50
179.9999999999998
 51
269.9999999999998
  0
LINE
  5
13D
330
1F
100
AcDbEntity
  8
6
  6
Continuous
 62
     1
370
    25
100
AcDbLine
 10
77.20019090957885
 20
66.22497299999986
 30
0.0
 11
77.20019090957885
 21
62.02496250000013
 31
0.0
  0
LINE
  5
13E
330
1F
100
AcDbEntity
  8
6
  6
Continuous
 62
     1
370
    25
100
AcDbLine
 10
80.35019510957864
 20
64.12496250000049
 30
0.0
 11
80.35019510957864
 21
58.61245199999985
 31
0.0
  0
LINE
  5
13F
330
1F
100
AcDbEntity
  8
6
  6
Continuous
 62
     1
370
    25
100
AcDbLine
 10
79.30018565957926
 20
66.22497299999986
 30
0.0
 11
79.30018565957926
 21
62.02496250000013
 31
0.0
  0
LINE
  5
140
330
1F
100
AcDbEntity
  8
6
  6
Continuous
 62
     1
370
    25
100
AcDbLine
 10
73.00019405957846
 20
69.63747300000023
 30
0.0
 11
80.35019510957864
 21
69.63747300000023
 31
0.0
  0
LINE
  5
141
330
1F
100
AcDbEntity
  8
6
  6
Continuous
 62
     1
370
    25
100
AcDbLine
 10
70.90021925957899
 20
68.84999400000015
 30
0.0
 11
62.67372810940469
 21
68.84999400000015
 31
0.0
  0
LINE
  5
142
330
1F
100
AcDbEntity
  8
6
  6
Continuous
 62
     1
370
    25
100
AcDbLine
 10
57.45597944223027
 20
67.064962500001
 30
0.0
 11
53.10003935769691
 21
67.064962500001
 31
0.0
  0
ARC
  5
143
330
1F
100
AcDbEntity
  8
6
  6
Continuous
 62
     1
370
    25
100
AcDbCircle
 10
62.7262028793948
 20
66.35140855003783
 30
0.0
 40
2.499136421295923
100
AcDbArc
 50
91.20313712915755
 51
128.540704870497
  0
ARC
  5
144
330
1F
100
AcDbEntity
  8
6
  6
Continuous
 62
     1
370
    25
100
AcDbCircle
 10
57.2068266213173
 20
73.81807964076825
 30
0.0
 40
6.757711761025504
100
AcDbArc
 50
272.1129402668317
 51
301.7409359603869
  0
LINE
  5
145
330
1F
100
AcDbEntity
  8
6
  6
Continuous
 62
     1
370
    25
100
AcDbLine
 10
61.1690647724181
 20
68.30614734794699
 30
0.0
 11
60.76191952676436
 21
68.07108193076965
 31
0.0
  0
LINE
  5
146
330
1F
100
AcDbEntity
  8
6
  6
Continuous
 62
     1
370
    25
100
AcDbLine
 10
70.90021925957899
 20
59.39993100000174
 30
0.0
 11
62.67372810940469
 21
59.39993100000174
 31
0.0
  0
LINE
  5
147
330
1F
100
AcDbEntity
  8
6
  6
Continuous
 62
     1
370
    25
100
AcDbLine
 10
57.45597944223027
 20
61.18496250000089
 30
0.0
 11
53.10003935769691
 21
61.18496250000089
 31
0.0
  0
ARC
  5
148
330
1F
100
AcDbEntity
  8
6
  6
Continuous
 62
     1
370
    25
100
AcDbCircle
 10
62.7262028793948
 20
61.89851644996315
 30
0.0
 40
2.499136421295923
100
AcDbArc
 50
231.4592951295027
 51
268.7968628708421
  0
ARC
  5
149
330
1F
100
AcDbEntity
  8
6
  6
Continuous
 62
     1
370
    25
100
AcDbCircle
 10
57.2068266213173
 20
54.43184535923274
 30
0.0
 40
6.757711761025504
100
AcDbArc
 50
58.25906403961287
 51
87.88705973316802
  0
LINE
  5
14A
330
1F
100
AcDbEntity
  8
6
  6
Continuous
 62
     1
370
    25
100
AcDbLine
 10
61.1690647724181
 20
59.94377765205491
 30
0.0
 11
60.76191952676436
 21
60.17884306923224
 31
0.0
  0
LINE
  5
14B
330
1F
100
AcDbEntity
  8
10
  6
Continuous
 62
     7
370
    25
100
AcDbLine
 10
371.2484875612881
 20
178.5465021738396
 30
0.0
 11
371.2484875612881
 21
278.5465021738396
 31
0.0
  0
LINE
  5
14C
330
1F
100
AcDbEntity
  8
10
  6
Continuous
 62
     7
370
    25
100
AcDbLine
 10
371.2484875612881
 20
278.5465021738396
 30
0.0
 11
171.2484875612881
 21
278.5465021738396
 31
0.0
  0
LINE
  5
14D
330
1F
100
AcDbEntity
  8
10
  6
Continuous
 62
     7
370
    25
100
AcDbLine
 10
171.2484875612881
 20
278.5465021738396
 30
0.0
 11
171.2484875612881
 21
178.5465021738396
 31
0.0
  0
LINE
  5
14E
330
1F
100
AcDbEntity
  8
10
  6
Continuous
 62
     7
370
    25
100
AcDbLine
 10
386.2484875612881
 20
293.5465021738396
 30
0.0
 11
386.2484875612881
 21
163.5465021738396
 31
0.0
  0
LINE
  5
14F
330
1F
100
AcDbEntity
  8
10
  6
Continuous
 62
     7
370
    25
100
AcDbLine
 10
386.2484875612881
 20
163.5465021738396
 30
0.0
 11
156.2484875612881
 21
163.5465021738387
 31
0.0
  0
LINE
  5
150
330
1F
100
AcDbEntity
  8
10
  6
Continuous
 62
     7
370
    25
100
AcDbLine
 10
386.2484875612881
 20
293.5465021738396
 30
0.0
 11
156.2484875612881
 21
293.5465021738396
 31
0.0
  0
LINE
  5
151
330
1F
100
AcDbEntity
  8
10
  6
Continuous
 62
     7
370
    25
100
AcDbLine
 10
156.2484875612881
 20
293.5465021738396
 30
0.0
 11
156.2484875612881
 21
163.5465021738387
 31
0.0
  0
LINE
  5
152
330
1F
100
AcDbEntity
  8
10
  6
Continuous
 62
     7
370
    25
100
AcDbLine
 10
514.3996944054079
 20
163.229835507173
 30
0.0
 11
507.4996944054074
 21
163.229835507173
 31
0.0
  0
ARC
  5
153
330
1F
100
AcDbEntity
  8
10
  6
Continuous
 62
     7
370
    25
100
AcDbCircle
 10
510.9496944054081
 20
166.1968530510326
 30
0.0
 40
4.550350877192955
100
AcDbArc
 50
220.6956985254059
 51
319.3043014745929
  0
LINE
  5
154
330
1F
100
AcDbEntity
  8
10
  6
Continuous
 62
     7
370
    25
100
AcDbLine
 10
514.3996944054079
 20
163.5465021738396
 30
0.0
 11
514.3996944054079
 21
163.229835507173
 31
0.0
  0
LINE
  5
155
330
1F
100
AcDbEntity
  8
10
  6
Continuous
 62
     7
370
    25
100
AcDbLine
 10
507.4996944054074
 20
163.5465021738396
 30
0.0
 11
507.4996944054074
 21
163.229835507173
 31
0.0
  0
LINE
  5
156
330
1F
100
AcDbEntity
  8
10
  6
Continuous
 62
     7
370
    25
100
AcDbLine
 10
475.9496944054081
 20
293.5465021738396
 30
0.0
 11
475.9496944054081
 21
163.5465021738396
 31
0.0
  0
LINE
  5
157
330
1F
100
AcDbEntity
  8
10
  6
Continuous
 62
     7
370
    25
100
AcDbLine
 10
520.9496944054081
 20
308.5465021738396
 30
0.0
 11
520.9496944054081
 21
148.5465021738396
 31
0.0
  0
LINE
  5
158
330
1F
100
AcDbEntity
  8
10
  6
Continuous
 62
     7
370
    25
100
AcDbLine
 10
519.9496944054081
 20
308.5465021738396
 30
0.0
 11
519.9496944054072
 21
236.0465021738396
 31
0.0
  0
LINE
  5
159
330
1F
100
AcDbEntity
  8
10
  6
Continuous
 62
     7
370
    25
100
AcDbLine
 10
519.9496944054072
 20
221.0465021738428
 30
0.0
 11
519.9496944054063
 21
148.5465021738396
 31
0.0
  0
LINE
  5
15A
330
1F
100
AcDbEntity
  8
10
  6
Continuous
 62
     7
370
    25
100
AcDbLine
 10
475.9496944054081
 20
293.5465021738396
 30
0.0
 11
519.9496944054081
 21
293.5465021738378
 31
0.0
  0
LINE
  5
15B
330
1F
100
AcDbEntity
  8
10
  6
Continuous
 62
     7
370
    25
100
AcDbLine
 10
519.9496944054081
 20
292.5465021738378
 30
0.0
 11
520.9496944054081
 21
292.5465021738378
 31
0.0
  0
LINE
  5
15C
330
1F
100
AcDbEntity
  8
10
  6
Continuous
 62
     7
370
    25
100
AcDbLine
 10
519.9496944054081
 20
308.5465021738396
 30
0.0
 11
520.9496944054081
 21
308.5465021738396
 31
0.0
  0
LINE
  5
15D
330
1F
100
AcDbEntity
  8
10
  6
Continuous
 62
     7
370
    25
100
AcDbLine
 10
475.9496944054081
 20
163.5465021738396
 30
0.0
 11
519.9496944054063
 21
163.5465021738396
 31
0.0
  0
LINE
  5
15E
330
1F
100
AcDbEntity
  8
10
  6
Continuous
 62
     7
370
    25
100
AcDbLine
 10
519.9496944054063
 20
164.5465021738396
 30
0.0
 11
520.9496944054081
 21
164.5465021738396
 31
0.0
  0
LINE
  5
15F
330
1F
100
AcDbEntity
  8
10
  6
Continuous
 62
     7
370
    25
100
AcDbLine
 10
519.9496944054081
 20
148.5465021738396
 30
0.0
 11
520.9496944054081
 21
148.5465021738396
 31
0.0
  0
LINE
  5
160
330
1F
100
AcDbEntity
  8
10
  6
Continuous
 62
     7
370
    25
100
AcDbLine
 10
371.2484875612881
 20
153.5465021738396
 30
0.0
 11
371.2484875612881
 21
163.5465021738396
 31
0.0
  0
ARC
  5
161
330
1F
100
AcDbEntity
  8
10
  6
Continuous
 62
     7
370
    25
100
AcDbCircle
 10
366.248487561289
 20
153.5465021738396
 30
0.0
 40
5.0
100
AcDbArc
 50
269.9999999999998
 51
0.0
  0
LINE
  5
162
330
1F
100
AcDbEntity
  8
10
  6
Continuous
 62
     7
370
    25
100
AcDbLine
 10
176.2484875612881
 20
148.5465021738396
 30
0.0
 11
366.248487561289
 21
148.5465021738405
 31
0.0
  0
LINE
  5
163
330
1F
100
AcDbEntity
  8
10
  6
Continuous
 62
     7
370
    25
100
AcDbLine
 10
171.2484875612881
 20
153.5465021738396
 30
0.0
 11
171.2484875612881
 21
163.5465021738396
 31
0.0
  0
ARC
  5
164
330
1F
100
AcDbEntity
  8
10
  6
Continuous
 62
     7
370
    25
100
AcDbCircle
 10
176.2484875612872
 20
153.5465021738396
 30
0.0
 40
5.0
100
AcDbArc
 50
179.9999999999998
 51
269.9999999999998
  0
LINE
  5
165
330
1F
100
AcDbEntity
  8
10
  6
Continuous
 62
     7
370
    25
100
AcDbLine
 10
169.6984875612889
 20
163.229835507173
 30
0.0
 11
162.7984875612901
 21
163.229835507173
 31
0.0
  0
ARC
  5
166
330
1F
100
AcDbEntity
  8
10
  6
Continuous
 62
     7
370
    25
100
AcDbCircle
 10
166.2484875612899
 20
166.1968530510326
 30
0.0
 40
4.550350877192983
100
AcDbArc
 50
220.6956985254059
 51
319.3043014745933
  0
LINE
  5
167
330
1F
100
AcDbEntity
  8
10
  6
Continuous
 62
     7
370
    25
100
AcDbLine
 10
169.6984875612889
 20
163.5465021738396
 30
0.0
 11
169.6984875612889
 21
163.229835507173
 31
0.0
  0
LINE
  5
168
330
1F
100
AcDbEntity
  8
10
  6
Continuous
 62
     7
370
    25
100
AcDbLine
 10
162.7984875612901
 20
163.5465021738396
 30
0.0
 11
162.7984875612901
 21
163.229835507173
 31
0.0
  0
LINE
  5
169
330
1F
100
AcDbEntity
  8
10
  6
Continuous
 62
     7
370
    25
100
AcDbLine
 10
191.1984875612889
 20
163.229835507173
 30
0.0
 11
184.2984875612892
 21
163.229835507173
 31
0.0
  0
ARC
  5
16A
330
1F
100
AcDbEntity
  8
10
  6
Continuous
 62
     7
370
    25
100
AcDbCircle
 10
187.7484875612899
 20
166.1968530510326
 30
0.0
 40
4.550350877192983
100
AcDbArc
 50
220.6956985254059
 51
319.3043014745933
  0
LINE
  5
16B
330
1F
100
AcDbEntity
  8
10
  6
Continuous
 62
     7
370
    25
100
AcDbLine
 10
191.1984875612889
 20
163.5465021738396
 30
0.0
 11
191.1984875612889
 21
163.229835507173
 31
0.0
  0
LINE
  5
16C
330
1F
100
AcDbEntity
  8
10
  6
Continuous
 62
     7
370
    25
100
AcDbLine
 10
184.2984875612892
 20
163.5465021738396
 30
0.0
 11
184.2984875612892
 21
163.229835507173
 31
0.0
  0
LINE
  5
16D
330
1F
100
AcDbEntity
  8
10
  6
Continuous
 62
     7
370
    25
100
AcDbLine
 10
372.7984875612865
 20
163.229835507173
 30
0.0
 11
379.698487561287
 21
163.229835507173
 31
0.0
  0
ARC
  5
16E
330
1F
100
AcDbEntity
  8
10
  6
Continuous
 62
     7
370
    25
100
AcDbCircle
 10
376.2484875612863
 20
166.1968530510326
 30
0.0
 40
4.550350877192955
100
AcDbArc
 50
220.6956985254059
 51
319.3043014745933
  0
LINE
  5
16F
330
1F
100
AcDbEntity
  8
10
  6
Continuous
 62
     7
370
    25
100
AcDbLine
 10
372.7984875612865
 20
163.5465021738396
 30
0.0
 11
372.7984875612865
 21
163.229835507173
 31
0.0
  0
LINE
  5
170
330
1F
100
AcDbEntity
  8
10
  6
Continuous
 62
     7
370
    25
100
AcDbLine
 10
379.698487561287
 20
163.5465021738396
 30
0.0
 11
379.698487561287
 21
163.229835507173
 31
0.0
  0
LINE
  5
171
330
1F
100
AcDbEntity
  8
10
  6
Continuous
 62
     7
370
    25
100
AcDbLine
 10
351.2984875612874
 20
163.229835507173
 30
0.0
 11
358.198487561287
 21
163.229835507173
 31
0.0
  0
ARC
  5
172
330
1F
100
AcDbEntity
  8
10
  6
Continuous
 62
     7
370
    25
100
AcDbCircle
 10
354.7484875612872
 20
166.1968530510326
 30
0.0
 40
4.550350877192955
100
AcDbArc
 50
220.6956985254059
 51
319.3043014745933
  0
LINE
  5
173
330
1F
100
AcDbEntity
  8
10
  6
Continuous
 62
     7
370
    25
100
AcDbLine
 10
351.2984875612874
 20
163.5465021738396
 30
0.0
 11
351.2984875612874
 21
163.229835507173
 31
0.0
  0
LINE
  5
174
330
1F
100
AcDbEntity
  8
10
  6
Continuous
 62
     7
370
    25
100
AcDbLine
 10
358.198487561287
 20
163.5465021738396
 30
0.0
 11
358.198487561287
 21
163.229835507173
 31
0.0
  0
LINE
  5
175
330
1F
100
AcDbEntity
  8
4
  6
DASHDOT
 62
     1
370
     9
100
AcDbLine
 10
271.2484875612881
 20
141.0465021738401
 30
0.0
 11
271.2484875612881
 21
316.0465021738391
 31
0.0
  0
LINE
  5
176
330
1F
100
AcDbEntity
  8
4
  6
DASHDOT
 62
     1
370
     9
100
AcDbLine
 10
393.7484875612881
 20
228.5465021738396
 30
0.0
 11
148.7484875612881
 21
228.5465021738396
 31
0.0
  0
DIMENSION
  5
181
330
1F
100
AcDbEntity
  8
9
  6
Continuous
 62
     4
370
     9
100
AcDbDimension
280
     0
  2
Dim1
 10
519.9496944054063
 20
132.1116911977565
 30
0.0
 11
531.9496944054081
 21
132.1116911977565
 31
0.0
 70
   160
  1
<>
 71
     5
 42
-1.0
 73
     0
 74
     0
 75
     0
  3
Standard
100
AcDbAlignedDimension
 13
520.9496944054081
 23
148.5465021738396
 33
0.0
 14
519.9496944054063
 24
148.5465021738396
 34
0.0
 50
179.9999999999998
100
AcDbRotatedDimension
1001
ACAD
1000
DSTYLE
1002
{
1070
   279
1070
     2
1070
   340
1005
177
1070
   140
1040
4.5
1070
    40
1040
1.0
1070
   147
1040
0.0
1070
    76
1070
     0
1070
    75
1070
     0
1070
   344
1005
0
1070
   343
1005
0
1070
   173
1070
     1
1070
   289
1070
     2
1070
   288
1070
     1
1070
    77
1070
     1
1070
   172
1070
     1
1070
   174
1070
     0
1070
    74
1070
     0
1070
    73
1070
     0
1070
   284
1070
     8
1070
    78
1070
     8
1070
    42
1040
1.5
1070
    44
1040
2.25
1070
    43
1040
30.0
1070
   271
1070
     2
1070
    41
1040
3.0
1002
}
  0
LINE
  5
182
330
1F
100
AcDbEntity
  8
10
  6
Continuous
 62
     7
370
    25
100
AcDbLine
 10
514.3996944054079
 20
293.5465021738391
 30
0.0
 11
507.4996944054074
 21
293.5465021738391
 31
0.0
  0
LINE
  5
183
330
1F
100
AcDbEntity
  8
10
  6
Continuous
 62
     7
370
    25
100
AcDbLine
 10
514.3996944054079
 20
293.8631688405058
 30
0.0
 11
507.4996944054074
 21
293.8631688405058
 31
0.0
  0
ARC
  5
184
330
1F
100
AcDbEntity
  8
10
  6
Continuous
 62
     7
370
    25
100
AcDbCircle
 10
510.9496944054081
 20
290.8961512966462
 30
0.0
 40
4.550350877192955
100
AcDbArc
 50
40.69569852540582
 51
139.3043014745937
  0
LINE
  5
185
330
1F
100
AcDbEntity
  8
10
  6
Continuous
 62
     7
370
    25
100
AcDbLine
 10
514.3996944054079
 20
293.5465021738391
 30
0.0
 11
514.3996944054079
 21
293.8631688405058
 31
0.0
  0
LINE
  5
186
330
1F
100
AcDbEntity
  8
10
  6
Continuous
 62
     7
370
    25
100
AcDbLine
 10
507.4996944054074
 20
293.5465021738391
 30
0.0
 11
507.4996944054074
 21
293.8631688405058
 31
0.0
  0
LINE
  5
187
330
1F
100
AcDbEntity
  8
10
  6
Continuous
 62
     7
370
    25
100
AcDbLine
 10
507.6662537624034
 20
294.0465021738396
 30
0.0
 11
507.2331350484128
 21
294.0465021738396
 31
0.0
  0
CIRCLE
  5
188
330
1F
100
AcDbEntity
  8
10
  6
Continuous
 62
     7
370
    25
100
AcDbCircle
 10
346.2484875612881
 20
155.5465021738396
 30
0.0
 40
2.600000000000023
  0
CIRCLE
  5
189
330
1F
100
AcDbEntity
  8
10
  6
Continuous
 62
     7
370
    25
100
AcDbCircle
 10
306.2484875612872
 20
155.5465021738396
 30
0.0
 40
2.600000000000023
  0
CIRCLE
  5
18A
330
1F
100
AcDbEntity
  8
10
  6
Continuous
 62
     7
370
    25
100
AcDbCircle
 10
236.248487561289
 20
155.5465021738396
 30
0.0
 40
2.599999999999994
  0
CIRCLE
  5
18B
330
1F
100
AcDbEntity
  8
10
  6
Continuous
 62
     7
370
    25
100
AcDbCircle
 10
196.2484875612881
 20
155.5465021738396
 30
0.0
 40
2.599999999999994
  0
LINE
  5
18C
330
1F
100
AcDbEntity
  8
10
  6
Continuous
 62
     7
370
    25
100
AcDbLine
 10
371.2484875612881
 20
178.5465021738396
 30
0.0
 11
171.2484875612881
 21
178.5465021738396
 31
0.0
  0
LINE
  5
18D
330
1F
100
AcDbEntity
  8
10
  6
Continuous
 62
     7
370
    25
100
AcDbLine
 10
371.2484875612881
 20
303.5465021738396
 30
0.0
 11
371.2484875612881
 21
293.5465021738396
 31
0.0
  0
ARC
  5
18E
330
1F
100
AcDbEntity
  8
10
  6
Continuous
 62
     7
370
    25
100
AcDbCircle
 10
366.248487561289
 20
303.5465021738396
 30
0.0
 40
5.0
100
AcDbArc
 50
0.0
 51
89.99999999999991
  0
LINE
  5
18F
330
1F
100
AcDbEntity
  8
10
  6
Continuous
 62
     7
370
    25
100
AcDbLine
 10
176.2484875612881
 20
308.5465021738396
 30
0.0
 11
366.248487561289
 21
308.5465021738387
 31
0.0
  0
LINE
  5
190
330
1F
100
AcDbEntity
  8
10
  6
Continuous
 62
     7
370
    25
100
AcDbLine
 10
171.2484875612881
 20
303.5465021738396
 30
0.0
 11
171.2484875612881
 21
293.5465021738396
 31
0.0
  0
ARC
  5
191
330
1F
100
AcDbEntity
  8
10
  6
Continuous
 62
     7
370
    25
100
AcDbCircle
 10
176.2484875612872
 20
303.5465021738396
 30
0.0
 40
5.0
100
AcDbArc
 50
89.99999999999991
 51
179.9999999999998
  0
LINE
  5
192
330
1F
100
AcDbEntity
  8
10
  6
Continuous
 62
     7
370
    25
100
AcDbLine
 10
169.6984875612889
 20
293.8631688405062
 30
0.0
 11
162.7984875612901
 21
293.8631688405062
 31
0.0
  0
ARC
  5
193
330
1F
100
AcDbEntity
  8
10
  6
Continuous
 62
     7
370
    25
100
AcDbCircle
 10
166.2484875612899
 20
290.8961512966466
 30
0.0
 40
4.550350877192983
100
AcDbArc
 50
40.69569852540629
 51
139.3043014745937
  0
LINE
  5
194
330
1F
100
AcDbEntity
  8
10
  6
Continuous
 62
     7
370
    25
100
AcDbLine
 10
169.6984875612889
 20
293.5465021738396
 30
0.0
 11
169.6984875612889
 21
293.8631688405062
 31
0.0
  0
LINE
  5
195
330
1F
100
AcDbEntity
  8
10
  6
Continuous
 62
     7
370
    25
100
AcDbLine
 10
162.7984875612901
 20
293.5465021738396
 30
0.0
 11
162.7984875612901
 21
293.8631688405062
 31
0.0
  0
LINE
  5
196
330
1F
100
AcDbEntity
  8
10
  6
Continuous
 62
     7
370
    25
100
AcDbLine
 10
191.1984875612889
 20
293.8631688405062
 30
0.0
 11
184.2984875612892
 21
293.8631688405062
 31
0.0
  0
ARC
  5
197
330
1F
100
AcDbEntity
  8
10
  6
Continuous
 62
     7
370
    25
100
AcDbCircle
 10
187.7484875612899
 20
290.8961512966466
 30
0.0
 40
4.550350877192983
100
AcDbArc
 50
40.69569852540629
 51
139.3043014745937
  0
LINE
  5
198
330
1F
100
AcDbEntity
  8
10
  6
Continuous
 62
     7
370
    25
100
AcDbLine
 10
191.1984875612889
 20
293.5465021738396
 30
0.0
 11
191.1984875612889
 21
293.8631688405062
 31
0.0
  0
LINE
  5
199
330
1F
100
AcDbEntity
  8
10
  6
Continuous
 62
     7
370
    25
100
AcDbLine
 10
184.2984875612892
 20
293.5465021738396
 30
0.0
 11
184.2984875612892
 21
293.8631688405062
 31
0.0
  0
LINE
  5
19A
330
1F
100
AcDbEntity
  8
10
  6
Continuous
 62
     7
370
    25
100
AcDbLine
 10
372.7984875612865
 20
293.8631688405062
 30
0.0
 11
379.698487561287
 21
293.8631688405062
 31
0.0
  0
ARC
  5
19B
330
1F
100
AcDbEntity
  8
10
  6
Continuous
 62
     7
370
    25
100
AcDbCircle
 10
376.2484875612863
 20
290.8961512966466
 30
0.0
 40
4.550350877192955
100
AcDbArc
 50
40.69569852540629
 51
139.3043014745937
  0
LINE
  5
19C
330
1F
100
AcDbEntity
  8
10
  6
Continuous
 62
     7
370
    25
100
AcDbLine
 10
372.7984875612865
 20
293.5465021738396
 30
0.0
 11
372.7984875612865
 21
293.8631688405062
 31
0.0
  0
LINE
  5
19D
330
1F
100
AcDbEntity
  8
10
  6
Continuous
 62
     7
370
    25
100
AcDbLine
 10
379.698487561287
 20
293.5465021738396
 30
0.0
 11
379.698487561287
 21
293.8631688405062
 31
0.0
  0
LINE
  5
19E
330
1F
100
AcDbEntity
  8
10
  6
Continuous
 62
     7
370
    25
100
AcDbLine
 10
351.2984875612874
 20
293.8631688405062
 30
0.0
 11
358.198487561287
 21
293.8631688405062
 31
0.0
  0
ARC
  5
19F
330
1F
100
AcDbEntity
  8
10
  6
Continuous
 62
     7
370
    25
100
AcDbCircle
 10
354.7484875612872
 20
290.8961512966466
 30
0.0
 40
4.550350877192955
100
AcDbArc
 50
40.69569852540629
 51
139.3043014745937
  0
LINE
  5
1A0
330
1F
100
AcDbEntity
  8
10
  6
Continuous
 62
     7
370
    25
100
AcDbLine
 10
351.2984875612874
 20
293.5465021738396
 30
0.0
 11
351.2984875612874
 21
293.8631688405062
 31
0.0
  0
LINE
  5
1A1
330
1F
100
AcDbEntity
  8
10
  6
Continuous
 62
     7
370
    25
100
AcDbLine
 10
358.198487561287
 20
293.5465021738396
 30
0.0
 11
358.198487561287
 21
293.8631688405062
 31
0.0
  0
CIRCLE
  5
1A2
330
1F
100
AcDbEntity
  8
10
  6
Continuous
 62
     7
370
    25
100
AcDbCircle
 10
346.2484875612881
 20
301.5465021738396
 30
0.0
 40
2.600000000000023
  0
CIRCLE
  5
1A3
330
1F
100
AcDbEntity
  8
10
  6
Continuous
 62
     7
370
    25
100
AcDbCircle
 10
306.2484875612872
 20
301.5465021738396
 30
0.0
 40
2.600000000000023
  0
CIRCLE
  5
1A4
330
1F
100
AcDbEntity
  8
10
  6
Continuous
 62
     7
370
    25
100
AcDbCircle
 10
236.248487561289
 20
301.5465021738396
 30
0.0
 40
2.599999999999994
  0
CIRCLE
  5
1A5
330
1F
100
AcDbEntity
  8
10
  6
Continuous
 62
     7
370
    25
100
AcDbCircle
 10
196.2484875612881
 20
301.5465021738396
 30
0.0
 40
2.599999999999994
  0
POLYLINE
  5
1A6
330
1F
100
AcDbEntity
  8
10
  6
Continuous
 62
     7
370
    25
100
AcDb2dPolyline
 66
     1
 10
0.0
 20
0.0
 30
0.0
  0
VERTEX
  5
1A7
330
1A6
100
AcDbEntity
  8
10
  6
Continuous
 62
     7
370
    25
100
AcDbVertex
100
AcDb2dVertex
 10
510.9137960205371
 20
234.5465021738396
 30
0.0
  0
VERTEX
  5
1A8
330
1A6
100
AcDbEntity
  8
10
  6
Continuous
 62
     7
370
    25
100
AcDbVertex
100
AcDb2dVertex
 10
514.3778976356753
 20
228.5465021738396
 30
0.0
  0
VERTEX
  5
1A9
330
1A6
100
AcDbEntity
  8
10
  6
Continuous
 62
     7
370
    25
100
AcDbVertex
100
AcDb2dVertex
 10
510.9137960205371
 20
222.5465021738396
 30
0.0
  0
VERTEX
  5
1AA
330
1A6
100
AcDbEntity
  8
10
  6
Continuous
 62
     7
370
    25
100
AcDbVertex
100
AcDb2dVertex
 10
503.9855927902618
 20
222.5465021738396
 30
0.0
  0
VERTEX
  5
1AB
330
1A6
100
AcDbEntity
  8
10
  6
Continuous
 62
     7
370
    25
100
AcDbVertex
100
AcDb2dVertex
 10
500.5214911751245
 20
228.5465021738396
 30
0.0
  0
VERTEX
  5
1AC
330
1A6
100
AcDbEntity
  8
10
  6
Continuous
 62
     7
370
    25
100
AcDbVertex
100
AcDb2dVertex
 10
503.9855927902618
 20
234.5465021738396
 30
0.0
  0
VERTEX
  5
1AD
330
1A6
100
AcDbEntity
  8
10
  6
Continuous
 62
     7
370
    25
100
AcDbVertex
100
AcDb2dVertex
 10
510.9137960205371
 20
234.5465021738396
 30
0.0
  0
SEQEND
  5
1AE
330
1A6
100
AcDbEntity
  8
10
  6
Continuous
 62
     7
370
    25
  0
CIRCLE
  5
1AF
330
1F
100
AcDbEntity
  8
10
  6
Continuous
 62
     7
370
    25
100
AcDbCircle
 10
507.449694405399
 20
228.5465021738396
 30
0.0
 40
1.849999999990359
  0
CIRCLE
  5
1B0
330
1F
100
AcDbEntity
  8
10
  6
Continuous
 62
     7
370
    25
100
AcDbCircle
 10
507.449694405399
 20
228.5465021738396
 30
0.0
 40
5.0
  0
LINE
  5
1B1
330
1F
100
AcDbEntity
  8
10
  6
Continuous
 62
     7
370
    25
100
AcDbLine
 10
519.9496944054072
 20
236.0465021738396
 30
0.0
 11
507.449694405399
 21
236.0465021738396
 31
0.0
  0
LINE
  5
1B2
330
1F
100
AcDbEntity
  8
10
  6
Continuous
 62
     7
370
    25
100
AcDbLine
 10
519.9496944054072
 20
221.0465021738428
 30
0.0
 11
507.4496944054008
 21
221.0465021738396
 31
0.0
  0
ARC
  5
1B3
330
1F
100
AcDbEntity
  8
10
  6
Continuous
 62
     7
370
    25
100
AcDbCircle
 10
507.449694405399
 20
228.5465021738396
 30
0.0
 40
7.5
100
AcDbArc
 50
89.99999999999991
 51
270.0000000000274
  0
LINE
  5
1B4
330
1F
100
AcDbEntity
  8
10
  6
Continuous
 62
     7
370
    25
100
AcDbLine
 10
393.2484875612881
 20
234.5465021738396
 30
0.0
 11
393.2484875612881
 21
228.5465021738396
 31
0.0
  0
LINE
  5
1B5
330
1F
100
AcDbEntity
  8
10
  6
Continuous
 62
     7
370
    25
100
AcDbLine
 10
404.2484875612881
 20
231.0465021738396
 30
0.0
 11
404.2484875612881
 21
226.0465021738396
 31
0.0
  0
ARC
  5
1B6
330
1F
100
AcDbEntity
  8
10
  6
Continuous
 62
     7
370
    25
100
AcDbCircle
 10
401.2484875612881
 20
231.0465021738396
 30
0.0
 40
3.0
100
AcDbArc
 50
0.0
 51
89.99999999999991
  0
LINE
  5
1B7
330
1F
100
AcDbEntity
  8
10
  6
Continuous
 62
     7
370
    25
100
AcDbLine
 10
401.2484875612881
 20
234.5465021738396
 30
0.0
 11
401.2484875612881
 21
222.5465021738396
 31
0.0
  0
LINE
  5
1B8
330
1F
100
AcDbEntity
  8
10
  6
Continuous
 62
     7
370
    25
100
AcDbLine
 10
393.2484875612881
 20
234.5465021738396
 30
0.0
 11
401.2484875612881
 21
234.5465021738396
 31
0.0
  0
LINE
  5
1B9
330
1F
100
AcDbEntity
  8
10
  6
Continuous
 62
     7
370
    25
100
AcDbLine
 10
391.3484875612867
 20
233.5465021738396
 30
0.0
 11
393.2484875612881
 21
233.5465021738396
 31
0.0
  0
LINE
  5
1BA
330
1F
100
AcDbEntity
  8
10
  6
Continuous
 62
     7
370
    25
100
AcDbLine
 10
393.2484875612881
 20
222.5465021738396
 30
0.0
 11
393.2484875612881
 21
228.5465021738396
 31
0.0
  0
LINE
  5
1BB
330
1F
100
AcDbEntity
  8
10
  6
Continuous
 62
     7
370
    25
100
AcDbLine
 10
393.2484875612881
 20
228.5465021738396
 30
0.0
 11
401.2484875612881
 21
228.5465021738396
 31
0.0
  0
LINE
  5
1BC
330
1F
100
AcDbEntity
  8
10
  6
Continuous
 62
     7
370
    25
100
AcDbLine
 10
391.3484875612867
 20
223.5465021738396
 30
0.0
 11
393.2484875612881
 21
223.5465021738396
 31
0.0
  0
ARC
  5
1BD
330
1F
100
AcDbEntity
  8
10
  6
Continuous
 62
     7
370
    25
100
AcDbCircle
 10
401.2484875612881
 20
226.0465021738396
 30
0.0
 40
3.0
100
AcDbArc
 50
269.9999999999998
 51
0.0
  0
LINE
  5
1BE
330
1F
100
AcDbEntity
  8
10
  6
Continuous
 62
     7
370
    25
100
AcDbLine
 10
393.2484875612881
 20
222.5465021738396
 30
0.0
 11
401.2484875612881
 21
222.5465021738396
 31
0.0
  0
LINE
  5
1BF
330
1F
100
AcDbEntity
  8
6
  6
Continuous
 62
     1
370
    25
100
AcDbLine
 10
404.2484875612881
 20
230.3965021738391
 30
0.0
 11
422.9723960715673
 21
230.3964906256547
 31
0.0
  0
ARC
  5
1C0
330
1F
100
AcDbEntity
  8
6
  6
Continuous
 62
     1
370
    25
100
AcDbCircle
 10
424.0063134696493
 20
229.4714964899736
 30
0.0
 40
1.387299296151184
100
AcDbArc
 50
138.1825956442899
 51
221.8174143556944
  0
ARC
  5
1C1
330
1F
100
AcDbEntity
  8
6
  6
Continuous
 62
     1
370
    25
100
AcDbCircle
 10
421.9381941949114
 20
227.6215021738394
 30
0.0
 40
1.387515353286915
100
AcDbArc
 50
318.1902521645567
 51
41.80974783544295
  0
ARC
  5
1C2
330
1F
100
AcDbEntity
  8
6
  6
Continuous
 62
     1
370
    25
100
AcDbCircle
 10
421.9382095482188
 20
229.4714963094971
 30
0.0
 40
1.387499999999989
100
AcDbArc
 50
318.1900099999871
 51
41.81000000000818
  0
LINE
  5
1C3
330
1F
100
AcDbEntity
  8
6
  6
Continuous
 62
     1
370
    25
100
AcDbLine
 10
404.2484875612881
 20
226.6965021738392
 30
0.0
 11
422.972396233009
 21
226.6965021738392
 31
0.0
  0
LINE
  5
1C4
330
1F
100
AcDbEntity
  8
10
  6
Continuous
 62
     7
370
    25
100
AcDbLine
 10
386.7484875612881
 20
234.7965021738396
 30
0.0
 11
386.2484875612881
 21
234.7965021738396
 31
0.0
  0
LINE
  5
1C5
330
1F
100
AcDbEntity
  8
10
  6
Continuous
 62
     7
370
    25
100
AcDbLine
 10
386.7484875612881
 20
235.5465021738396
 30
0.0
 11
391.3484875612876
 21
235.5465021738396
 31
0.0
  0
LINE
  5
1C6
330
1F
100
AcDbEntity
  8
10
  6
Continuous
 62
     7
370
    25
100
AcDbLine
 10
386.7484875612881
 20
232.0465021738396
 30
0.0
 11
391.3484875612876
 21
232.0465021738396
 31
0.0
  0
LINE
  5
1C7
330
1F
100
AcDbEntity
  8
10
  6
Continuous
 62
     7
370
    25
100
AcDbLine
 10
386.7484875612881
 20
221.5465021738387
 30
0.0
 11
391.3484875612876
 21
221.5465021738396
 31
0.0
  0
LINE
  5
1C8
330
1F
100
AcDbEntity
  8
10
  6
Continuous
 62
     7
370
    25
100
AcDbLine
 10
386.7484875612872
 20
225.0465021738396
 30
0.0
 11
391.3484875612876
 21
225.0465021738396
 31
0.0
  0
LINE
  5
1C9
330
1F
100
AcDbEntity
  8
10
  6
Continuous
 62
     7
370
    25
100
AcDbLine
 10
391.3484875612876
 20
235.5465021738396
 30
0.0
 11
391.3484875612876
 21
228.5465021738396
 31
0.0
  0
LINE
  5
1CA
330
1F
100
AcDbEntity
  8
10
  6
Continuous
 62
     7
370
    25
100
AcDbLine
 10
391.3484875612876
 20
221.5465021738396
 30
0.0
 11
391.3484875612876
 21
228.5465021738396
 31
0.0
  0
LINE
  5
1CB
330
1F
100
AcDbEntity
  8
10
  6
Continuous
 62
     7
370
    25
100
AcDbLine
 10
386.7484875612881
 20
235.5465021738396
 30
0.0
 11
386.7484875612872
 21
221.5465021738387
 31
0.0
  0
LINE
  5
1CC
330
1F
100
AcDbEntity
  8
10
  6
Continuous
 62
     7
370
    25
100
AcDbLine
 10
386.7484875612881
 20
222.2965021738396
 30
0.0
 11
386.2484875612881
 21
222.2965021738396
 31
0.0
  0
LINE
  5
1CD
330
1F
100
AcDbEntity
  8
10
  6
Continuous
 62
     7
370
    25
100
AcDbLine
 10
386.2484875612881
 20
234.7965021738396
 30
0.0
 11
386.2484875612881
 21
222.2965021738396
 31
0.0
  0
DIMENSION
  5
1D7
330
1F
100
AcDbEntity
  8
9
  6
Continuous
 62
     4
370
     9
100
AcDbDimension
280
     0
  2
Dim2
 10
386.248487561288
 20
89.76081968633616
 30
0.0
 11
418.2484875612881
 21
89.76081968633616
 31
0.0
 70
   160
  1
(<>
 71
     5
 42
-1.0
 73
     0
 74
     0
 75
     0
  3
Standard
100
AcDbAlignedDimension
 13
404.2484875612881
 23
226.0465021738396
 33
0.0
 14
386.2484875612881
 24
163.5465021738396
 34
0.0
 50
179.9999999999998
100
AcDbRotatedDimension
1001
ACAD
1000
DSTYLE
1002
{
1070
   279
1070
     2
1070
   340
1005
177
1070
   140
1040
4.5
1070
    40
1040
1.0
1070
   147
1040
0.0
1070
    76
1070
     0
1070
    75
1070
     0
1070
   344
1005
0
1070
   343
1005
0
1070
   173
1070
     1
1070
   289
1070
     2
1070
   288
1070
     1
1070
    77
1070
     1
1070
   172
1070
     1
1070
   174
1070
     0
1070
    74
1070
     0
1070
    73
1070
     0
1070
   284
1070
     8
1070
    78
1070
     8
1070
    42
1040
1.5
1070
    44
1040
2.25
1070
    43
1040
30.0
1070
   271
1070
     2
1070
    41
1040
3.0
1002
}
  0
DIMENSION
  5
1E1
330
1F
100
AcDbEntity
  8
9
  6
Continuous
 62
     4
370
     9
100
AcDbDimension
280
     0
  2
Dim3
 10
500.5214911751243
 20
115.9542499930571
 30
0.0
 11
539.4496944054081
 21
115.9542499930571
 31
0.0
 70
   160
  1
(<>
 71
     5
 42
-1.0
 73
     0
 74
     0
 75
     0
  3
Standard
100
AcDbAlignedDimension
 13
520.9496944054081
 23
148.5465021738396
 33
0.0
 14
500.5214911751245
 24
228.5465021738396
 34
0.0
 50
179.9999999999998
100
AcDbRotatedDimension
1001
ACAD
1000
DSTYLE
1002
{
1070
   279
1070
     2
1070
   340
1005
177
1070
   140
1040
4.5
1070
    40
1040
1.0
1070
   147
1040
0.0
1070
    76
1070
     0
1070
    75
1070
     0
1070
   344
1005
0
1070
   343
1005
0
1070
   173
1070
     1
1070
   289
1070
     2
1070
   288
1070
     1
1070
    77
1070
     1
1070
   172
1070
     1
1070
   174
1070
     0
1070
    74
1070
     0
1070
    73
1070
     0
1070
   284
1070
     8
1070
    78
1070
     8
1070
    42
1040
1.5
1070
    44
1040
2.25
1070
    43
1040
30.0
1070
   271
1070
     2
1070
    41
1040
3.0
1002
}
  0
ARC
  5
1E2
330
1F
100
AcDbEntity
  8
6
  6
Continuous
 62
     1
370
    25
100
AcDbCircle
 10
425.4048667151073
 20
227.6447132447579
 30
0.0
 40
1.387515022395519
100
AcDbArc
 50
138.190239943625
 51
221.8097600563746
  0
ARC
  5
1E3
330
1F
100
AcDbEntity
  8
6
  6
Continuous
 62
     1
370
    25
100
AcDbCircle
 10
423.3367474402767
 20
227.6447190368799
 30
0.0
 40
1.387299627082427
100
AcDbArc
 50
318.1825978710949
 51
41.81739912886781
  0
LINE
  5
1E4
330
1F
100
AcDbEntity
  8
6
  6
Continuous
 62
     1
370
    25
100
AcDbLine
 10
424.3706651209413
 20
226.7197132447577
 30
0.0
 11
431.7280924214674
 21
226.7197132447573
 31
0.0
  0
ARC
  5
1E5
330
1F
100
AcDbEntity
  8
6
  6
Continuous
 62
     1
370
    25
100
AcDbCircle
 10
425.4048516927223
 20
229.4947075067662
 30
0.0
 40
1.387499999999989
100
AcDbArc
 50
138.1899999999918
 51
221.8099970000484
  0
LINE
  5
1E6
330
1F
100
AcDbEntity
  8
6
  6
Continuous
 62
     1
370
    25
100
AcDbLine
 10
424.3706651693747
 20
230.4197018229238
 30
0.0
 11
431.7280924214674
 21
230.4197018229233
 31
0.0
  0
MTEXT
  5
1E7
330
1F
100
AcDbEntity
  8
9
  6
Continuous
 62
     4
370
     9
100
AcDbMText
 10
419.9144755854586
 20
219.1861748980232
 30
0.0
 40
4.5
 41
29.24845499555999
 46
4.5
 71
     1
 72
     1
  1
{\fＭＳ ゴシック;\T1.555898;L=500}
 73
     1
 44
1.0
1001
ACAD
1000
ACAD_MTEXT_DEFINED_HEIGHT_BEGIN
1070
    46
1040
4.5
1000
ACAD_MTEXT_DEFINED_HEIGHT_END
  0
LINE
  5
1E8
330
1F
100
AcDbEntity
  8
6
  6
Continuous
 62
     1
370
    25
100
AcDbLine
 10
448.6806447089739
 20
233.0697432447573
 30
0.0
 11
440.8458912326178
 21
233.0697432447573
 31
0.0
  0
LINE
  5
1E9
330
1F
100
AcDbEntity
  8
6
  6
Continuous
 62
     1
370
    25
100
AcDbLine
 10
457.6806217089743
 20
230.5697232447569
 30
0.0
 11
444.680612708974
 21
230.5697232447569
 31
0.0
  0
LINE
  5
1EA
330
1F
100
AcDbEntity
  8
6
  6
Continuous
 62
     1
370
    25
100
AcDbLine
 10
454.6806177089738
 20
228.969723244757
 30
0.0
 11
445.6806167089744
 21
228.969723244757
 31
0.0
  0
LINE
  5
1EB
330
1F
100
AcDbEntity
  8
6
  6
Continuous
 62
     1
370
    25
100
AcDbLine
 10
454.6806177089738
 20
227.3697332447573
 30
0.0
 11
445.6806167089744
 21
227.3697332447573
 31
0.0
  0
LINE
  5
1EC
330
1F
100
AcDbEntity
  8
6
  6
Continuous
 62
     1
370
    25
100
AcDbLine
 10
454.6806177089738
 20
228.1697032447573
 30
0.0
 11
445.6806167089744
 21
228.1697032447573
 31
0.0
  0
LINE
  5
1ED
330
1F
100
AcDbEntity
  8
6
  6
Continuous
 62
     1
370
    25
100
AcDbLine
 10
454.6806177089738
 20
229.7697032447572
 30
0.0
 11
445.6806167089744
 21
229.7697032447572
 31
0.0
  0
LINE
  5
1EE
330
1F
100
AcDbEntity
  8
6
  6
Continuous
 62
     1
370
    25
100
AcDbLine
 10
448.6806447089739
 20
224.0696832447566
 30
0.0
 11
440.8458912326178
 21
224.0696832447566
 31
0.0
  0
LINE
  5
1EF
330
1F
100
AcDbEntity
  8
6
  6
Continuous
 62
     1
370
    25
100
AcDbLine
 10
457.6806217089743
 20
226.5697132447572
 30
0.0
 11
444.680612708974
 21
226.5697132447572
 31
0.0
  0
LINE
  5
1F0
330
1F
100
AcDbEntity
  8
6
  6
Continuous
 62
     1
370
    25
100
AcDbLine
 10
438.0251211539126
 20
232.0599730340114
 30
0.0
 11
431.7280924214683
 21
232.0599730340114
 31
0.0
  0
LINE
  5
1F1
330
1F
100
AcDbEntity
  8
6
  6
Continuous
 62
     1
370
    25
100
AcDbLine
 10
438.0251211539126
 20
225.0794534555043
 30
0.0
 11
431.7280924214674
 21
225.0794534555043
 31
0.0
  0
LINE
  5
1F2
330
1F
100
AcDbEntity
  8
6
  6
Continuous
 62
     1
370
    25
100
AcDbLine
 10
431.7280924214683
 20
225.0794534555043
 30
0.0
 11
431.7280924214674
 21
232.0599730340114
 31
0.0
  0
ARC
  5
1F3
330
1F
100
AcDbEntity
  8
6
  6
Continuous
 62
     1
370
    25
100
AcDbCircle
 10
440.8458912326178
 20
231.0697432447573
 30
0.0
 40
2.0
100
AcDbArc
 50
89.99999999999991
 51
120.0000000000264
  0
ARC
  5
1F4
330
1F
100
AcDbEntity
  8
6
  6
Continuous
 62
     1
370
    25
100
AcDbCircle
 10
438.0251211539126
 20
234.0599730340105
 30
0.0
 40
2.0
100
AcDbArc
 50
269.9999999999998
 51
300.000000000026
  0
LINE
  5
1F5
330
1F
100
AcDbEntity
  8
6
  6
Continuous
 62
     1
370
    25
100
AcDbLine
 10
439.8458912326178
 20
232.8017940523255
 30
0.0
 11
439.0251211539126
 21
232.3279222264423
 31
0.0
  0
ARC
  5
1F6
330
1F
100
AcDbEntity
  8
6
  6
Continuous
 62
     1
370
    25
100
AcDbCircle
 10
440.8458912326178
 20
226.0696832447566
 30
0.0
 40
2.0
100
AcDbArc
 50
240.0000000000017
 51
269.9999999999736
  0
ARC
  5
1F7
330
1F
100
AcDbEntity
  8
6
  6
Continuous
 62
     1
370
    25
100
AcDbCircle
 10
438.0251211539126
 20
223.0794534555034
 30
0.0
 40
2.0
100
AcDbArc
 50
59.99999999997361
 51
89.99999999999991
  0
LINE
  5
1F8
330
1F
100
AcDbEntity
  8
6
  6
Continuous
 62
     1
370
    25
100
AcDbLine
 10
439.8458912326178
 20
224.3376324371884
 30
0.0
 11
439.0251211539126
 21
224.8115042630716
 31
0.0
  0
LINE
  5
1F9
330
1F
100
AcDbEntity
  8
6
  6
Continuous
 62
     1
370
    25
100
AcDbLine
 10
444.680612708974
 20
226.5697132447572
 30
0.0
 11
444.680612708974
 21
230.5697232447569
 31
0.0
  0
LINE
  5
1FA
330
1F
100
AcDbEntity
  8
6
  6
Continuous
 62
     1
370
    25
100
AcDbLine
 10
445.6806167089744
 20
226.5697132447572
 30
0.0
 11
445.6806167089744
 21
230.5697232447569
 31
0.0
  0
LINE
  5
1FB
330
1F
100
AcDbEntity
  8
6
  6
Continuous
 62
     1
370
    25
100
AcDbLine
 10
457.6806217089743
 20
228.5697132447572
 30
0.0
 11
457.6806217089743
 21
233.8197232447569
 31
0.0
  0
ARC
  5
1FC
330
1F
100
AcDbEntity
  8
6
  6
Continuous
 62
     1
370
    25
100
AcDbCircle
 10
450.6806207089739
 20
232.8197232447569
 30
0.0
 40
1.0
100
AcDbArc
 50
89.99999999999991
 51
179.9999999999998
  0
LINE
  5
1FD
330
1F
100
AcDbEntity
  8
6
  6
Continuous
 62
     1
370
    25
100
AcDbLine
 10
448.6806447089739
 20
232.5697332447571
 30
0.0
 11
449.6806167089744
 21
232.5697332447571
 31
0.0
  0
LINE
  5
1FE
330
1F
100
AcDbEntity
  8
6
  6
Continuous
 62
     1
370
    25
100
AcDbLine
 10
448.6806447089739
 20
233.0697432447573
 30
0.0
 11
448.6806447089739
 21
230.5697232447574
 31
0.0
  0
LINE
  5
1FF
330
1F
100
AcDbEntity
  8
6
  6
Continuous
 62
     1
370
    25
100
AcDbLine
 10
449.6806167089744
 20
232.8197232447569
 30
0.0
 11
449.6806167089744
 21
230.5697232447569
 31
0.0
  0
LINE
  5
200
330
1F
100
AcDbEntity
  8
6
  6
Continuous
 62
     1
370
    25
100
AcDbLine
 10
449.6806167089744
 20
232.5697332447571
 30
0.0
 11
449.6806167089744
 21
230.5697232447569
 31
0.0
  0
LINE
  5
201
330
1F
100
AcDbEntity
  8
6
  6
Continuous
 62
     1
370
    25
100
AcDbLine
 10
450.6806207089739
 20
223.319703244757
 30
0.0
 11
457.6806217089743
 21
223.319703244757
 31
0.0
  0
LINE
  5
202
330
1F
100
AcDbEntity
  8
6
  6
Continuous
 62
     1
370
    25
100
AcDbLine
 10
449.6806167089744
 20
224.5696932447572
 30
0.0
 11
448.6806447089739
 21
224.5696932447572
 31
0.0
  0
LINE
  5
203
330
1F
100
AcDbEntity
  8
6
  6
Continuous
 62
     1
370
    25
100
AcDbLine
 10
448.6806447089739
 20
224.0696832447566
 30
0.0
 11
448.6806447089739
 21
226.569703244757
 31
0.0
  0
LINE
  5
204
330
1F
100
AcDbEntity
  8
6
  6
Continuous
 62
     1
370
    25
100
AcDbLine
 10
449.6806167089744
 20
224.319703244757
 30
0.0
 11
449.6806167089744
 21
226.5697132447572
 31
0.0
  0
LINE
  5
205
330
1F
100
AcDbEntity
  8
6
  6
Continuous
 62
     1
370
    25
100
AcDbLine
 10
449.6806167089744
 20
226.5697132447572
 30
0.0
 11
449.6806167089744
 21
224.5696932447572
 31
0.0
  0
ARC
  5
206
330
1F
100
AcDbEntity
  8
6
  6
Continuous
 62
     1
370
    25
100
AcDbCircle
 10
450.6806207089739
 20
224.319703244757
 30
0.0
 40
1.0
100
AcDbArc
 50
179.9999999999998
 51
269.9999999999998
  0
LINE
  5
207
330
1F
100
AcDbEntity
  8
6
  6
Continuous
 62
     1
370
    25
100
AcDbLine
 10
454.6806177089738
 20
230.5697232447569
 30
0.0
 11
454.6806177089738
 21
226.5697132447572
 31
0.0
  0
LINE
  5
208
330
1F
100
AcDbEntity
  8
6
  6
Continuous
 62
     1
370
    25
100
AcDbLine
 10
457.6806217089743
 20
228.5697132447572
 30
0.0
 11
457.6806217089743
 21
223.319703244757
 31
0.0
  0
LINE
  5
209
330
1F
100
AcDbEntity
  8
6
  6
Continuous
 62
     1
370
    25
100
AcDbLine
 10
456.680612708974
 20
230.5697232447569
 30
0.0
 11
456.680612708974
 21
226.5697132447572
 31
0.0
  0
LINE
  5
20A
330
1F
100
AcDbEntity
  8
6
  6
Continuous
 62
     1
370
    25
100
AcDbLine
 10
450.6806207089739
 20
233.8197232447569
 30
0.0
 11
457.6806217089743
 21
233.8197232447569
 31
0.0
  0
LINE
  5
20B
330
1F
100
AcDbEntity
  8
4
  6
DASHDOT
 62
     1
370
     9
100
AcDbLine
 10
190.6484875612878
 20
301.5465021738396
 30
0.0
 11
201.8484875612885
 21
301.5465021738396
 31
0.0
  0
LINE
  5
20C
330
1F
100
AcDbEntity
  8
4
  6
DASHDOT
 62
     1
370
     9
100
AcDbLine
 10
196.2484875612881
 20
307.1465021738395
 30
0.0
 11
196.2484875612881
 21
295.9465021738397
 31
0.0
  0
LINE
  5
20D
330
1F
100
AcDbEntity
  8
4
  6
DASHDOT
 62
     1
370
     9
100
AcDbLine
 10
230.6484875612896
 20
301.5465021738396
 30
0.0
 11
241.8484875612885
 21
301.5465021738396
 31
0.0
  0
LINE
  5
20E
330
1F
100
AcDbEntity
  8
4
  6
DASHDOT
 62
     1
370
     9
100
AcDbLine
 10
236.248487561289
 20
307.1465021738395
 30
0.0
 11
236.248487561289
 21
295.9465021738397
 31
0.0
  0
LINE
  5
20F
330
1F
100
AcDbEntity
  8
4
  6
DASHDOT
 62
     1
370
     9
100
AcDbLine
 10
300.6484875612878
 20
301.5465021738396
 30
0.0
 11
311.8484875612867
 21
301.5465021738396
 31
0.0
  0
LINE
  5
210
330
1F
100
AcDbEntity
  8
4
  6
DASHDOT
 62
     1
370
     9
100
AcDbLine
 10
306.2484875612872
 20
307.1465021738395
 30
0.0
 11
306.2484875612872
 21
295.9465021738397
 31
0.0
  0
LINE
  5
211
330
1F
100
AcDbEntity
  8
4
  6
DASHDOT
 62
     1
370
     9
100
AcDbLine
 10
340.6484875612878
 20
301.5465021738396
 30
0.0
 11
351.8484875612885
 21
301.5465021738396
 31
0.0
  0
LINE
  5
212
330
1F
100
AcDbEntity
  8
4
  6
DASHDOT
 62
     1
370
     9
100
AcDbLine
 10
346.2484875612881
 20
307.1465021738395
 30
0.0
 11
346.2484875612881
 21
295.9465021738397
 31
0.0
  0
LINE
  5
213
330
1F
100
AcDbEntity
  8
4
  6
DASHDOT
 62
     1
370
     9
100
AcDbLine
 10
340.6484875612878
 20
155.5465021738396
 30
0.0
 11
351.8484875612885
 21
155.5465021738396
 31
0.0
  0
LINE
  5
214
330
1F
100
AcDbEntity
  8
4
  6
DASHDOT
 62
     1
370
     9
100
AcDbLine
 10
346.2484875612881
 20
161.1465021738395
 30
0.0
 11
346.2484875612881
 21
149.9465021738397
 31
0.0
  0
LINE
  5
215
330
1F
100
AcDbEntity
  8
4
  6
DASHDOT
 62
     1
370
     9
100
AcDbLine
 10
300.6484875612878
 20
155.5465021738396
 30
0.0
 11
311.8484875612867
 21
155.5465021738396
 31
0.0
  0
LINE
  5
216
330
1F
100
AcDbEntity
  8
4
  6
DASHDOT
 62
     1
370
     9
100
AcDbLine
 10
306.2484875612872
 20
161.1465021738395
 30
0.0
 11
306.2484875612872
 21
149.9465021738397
 31
0.0
  0
LINE
  5
217
330
1F
100
AcDbEntity
  8
4
  6
DASHDOT
 62
     1
370
     9
100
AcDbLine
 10
230.6484875612896
 20
155.5465021738396
 30
0.0
 11
241.8484875612885
 21
155.5465021738396
 31
0.0
  0
LINE
  5
218
330
1F
100
AcDbEntity
  8
4
  6
DASHDOT
 62
     1
370
     9
100
AcDbLine
 10
236.248487561289
 20
161.1465021738395
 30
0.0
 11
236.248487561289
 21
149.9465021738397
 31
0.0
  0
LINE
  5
219
330
1F
100
AcDbEntity
  8
4
  6
DASHDOT
 62
     1
370
     9
100
AcDbLine
 10
190.6484875612878
 20
155.5465021738396
 30
0.0
 11
201.8484875612885
 21
155.5465021738396
 31
0.0
  0
LINE
  5
21A
330
1F
100
AcDbEntity
  8
4
  6
DASHDOT
 62
     1
370
     9
100
AcDbLine
 10
196.2484875612881
 20
161.1465021738395
 30
0.0
 11
196.2484875612881
 21
149.9465021738397
 31
0.0
  0
LINE
  5
21B
330
1F
100
AcDbEntity
  8
3
  6
HIDDEN
 62
     3
370
     9
100
AcDbLine
 10
476.9496944054081
 20
290.5465021738396
 30
0.0
 11
476.9496944054081
 21
166.5465021738396
 31
0.0
  0
LINE
  5
21C
330
1F
100
AcDbEntity
  8
3
  6
HIDDEN
 62
     3
370
     9
100
AcDbLine
 10
481.9496944054081
 20
290.5465021738396
 30
0.0
 11
481.9496944054081
 21
166.5465021738396
 31
0.0
  0
LINE
  5
21D
330
1F
100
AcDbEntity
  8
3
  6
HIDDEN
 62
     3
370
     9
100
AcDbLine
 10
476.9496944054081
 20
290.5465021738396
 30
0.0
 11
481.9496944054081
 21
290.5465021738396
 31
0.0
  0
LINE
  5
21E
330
1F
100
AcDbEntity
  8
3
  6
HIDDEN
 62
     3
370
     9
100
AcDbLine
 10
476.9496944054081
 20
166.5465021738396
 30
0.0
 11
481.9496944054081
 21
166.5465021738396
 31
0.0
  0
LINE
  5
21F
330
1F
100
AcDbEntity
  8
4
  6
DASHDOT
 62
     1
370
     9
100
AcDbLine
 10
528.4496944054081
 20
228.5465021738396
 30
0.0
 11
468.4496944054081
 21
228.5465021738396
 31
0.0
  0
LINE
  5
220
330
1F
100
AcDbEntity
  8
3
  6
HIDDEN
 62
     3
370
     9
100
AcDbLine
 10
520.9496944054081
 20
201.046502173841
 30
0.0
 11
475.9496944054081
 21
201.046502173841
 31
0.0
  0
LINE
  5
221
330
1F
100
AcDbEntity
  8
3
  6
HIDDEN
 62
     3
370
     9
100
AcDbLine
 10
519.9496944054072
 20
196.046502173841
 30
0.0
 11
481.9496944054081
 21
196.046502173841
 31
0.0
  0
LINE
  5
222
330
1F
100
AcDbEntity
  8
3
  6
HIDDEN
 62
     3
370
     9
100
AcDbLine
 10
475.9496944054081
 20
256.046502173841
 30
0.0
 11
520.9496944054081
 21
256.046502173841
 31
0.0
  0
LINE
  5
223
330
1F
100
AcDbEntity
  8
3
  6
HIDDEN
 62
     3
370
     9
100
AcDbLine
 10
481.9496944054081
 20
261.046502173841
 30
0.0
 11
519.9496944054072
 21
261.046502173841
 31
0.0
  0
CIRCLE
  5
224
330
1F
100
AcDbEntity
  8
10
  6
Continuous
 62
     7
370
    25
100
AcDbCircle
 10
271.2484875612854
 20
228.546502173841
 30
0.0
 40
27.5
  0
CIRCLE
  5
225
330
1F
100
AcDbEntity
  8
3
  6
HIDDEN
 62
     3
370
     9
100
AcDbCircle
 10
271.2484875612854
 20
228.546502173841
 30
0.0
 40
32.5
  0
DIMENSION
  5
22D
330
1F
100
AcDbEntity
  8
9
  6
Continuous
 62
     4
370
     9
100
AcDbDimension
280
     0
  2
Dim4
 10
285.6147581740158
 20
205.0974026456677
 30
0.0
 11
211.7939438972633
 21
325.5901643295969
 31
0.0
 70
   163
  1
∅<>
 71
     5
 42
-1.0
 73
     0
 74
     0
 75
     0
  3
Standard
100
AcDbDiametricDimension
 15
256.8822169485637
 25
251.9956017020034
 35
0.0
 40
0.0
1001
ACAD
1000
DSTYLE
1002
{
1070
   340
1005
177
1070
   140
1040
4.5
1070
    40
1040
1.0
1070
   147
1040
0.0
1070
    76
1070
     0
1070
    75
1070
     0
1070
   344
1005
0
1070
   343
1005
0
1070
   173
1070
     1
1070
   289
1070
     2
1070
   288
1070
     1
1070
    77
1070
     1
1070
   172
1070
     1
1070
   174
1070
     0
1070
    74
1070
     0
1070
    73
1070
     0
1070
   284
1070
     8
1070
    78
1070
     8
1070
    42
1040
1.5
1070
    44
1040
2.25
1070
    43
1040
30.0
1070
   271
1070
     2
1070
    41
1040
3.0
1002
}
  0
HATCH
  5
22E
330
1F
100
AcDbEntity
  8
11
  6
Continuous
 62
     2
370
     9
100
AcDbHatch
 10
0.0
 20
0.0
 30
0.0
210
0.0
220
0.0
230
1.0
  2

 70
     0
 71
     0
 91
        4
 92
        0
 93
        5
 72
     1
 10
271.2484875612881
 20
261.046502173841
 11
271.2484875612881
 21
278.5465021738396
 72
     1
 10
271.2484875612881
 20
278.5465021738396
 11
171.2484875612881
 21
278.5465021738396
 72
     1
 10
171.2484875612881
 20
278.5465021738396
 11
171.2484875612881
 21
228.5465021738396
 72
     1
 10
171.2484875612881
 20
228.5465021738396
 11
238.7484875612854
 21
228.5465021738396
 72
     2
 10
271.2484875612853
 20
228.5465021738411
 40
32.49999999999989
 50
89.9999999999999
 51
180.0000000000024
 73
     1
 97
        0
 92
        0
 93
        5
 72
     1
 10
238.7484875612854
 20
228.5465021738396
 11
171.2484875612881
 21
228.5465021738396
 72
     1
 10
171.2484875612881
 20
228.5465021738396
 11
171.2484875612881
 21
178.5465021738396
 72
     1
 10
171.2484875612881
 20
178.5465021738396
 11
271.2484875612881
 21
178.5465021738396
 72
     1
 10
271.2484875612881
 20
178.5465021738396
 11
271.2484875612881
 21
196.046502173841
 72
     2
 10
271.2484875612853
 20
228.546502173841
 40
32.5
 50
180.0000000000021
 51
269.9999999999997
 73
     1
 97
        0
 92
        0
 93
        5
 72
     1
 10
371.2484875612881
 20
278.5465021738396
 11
271.2484875612881
 21
278.5465021738396
 72
     1
 10
271.2484875612881
 20
278.5465021738396
 11
271.2484875612881
 21
261.046502173841
 72
     2
 10
271.2484875612849
 20
228.5465021738404
 40
32.50000000000065
 50
359.9999999999983
 51
449.9999999999999
 73
     1
 72
     1
 10
303.7484875612854
 20
228.5465021738396
 11
371.2484875612881
 21
228.5465021738396
 72
     1
 10
371.2484875612881
 20
228.5465021738396
 11
371.2484875612881
 21
278.5465021738396
 97
        0
 92
        0
 93
        5
 72
     1
 10
371.2484875612881
 20
228.5465021738396
 11
303.7484875612854
 21
228.5465021738396
 72
     2
 10
271.2484875612845
 20
228.5465021738418
 40
32.50000000000091
 50
269.9999999999997
 51
359.9999999999957
 73
     1
 72
     1
 10
271.2484875612881
 20
196.046502173841
 11
271.2484875612881
 21
178.5465021738396
 72
     1
 10
271.2484875612881
 20
178.5465021738396
 11
371.2484875612881
 21
178.5465021738396
 72
     1
 10
371.2484875612881
 20
178.5465021738396
 11
371.2484875612881
 21
228.5465021738396
 97
        0
 75
     0
 76
     2
 52
0.0
 41
0.5
 77
     0
 78
     2
 53
45.0
 43
-5837.448519137386
 44
2727.30836977462
 45
-3.367596045401115
 46
3.367596045401115
 79
     0
 53
135.0
 43
-5837.448519137386
 44
2727.30836977462
 45
-3.367596045401115
 46
-3.367596045401115
 79
     0
 98
        0
  0
DIMENSION
  5
236
330
1F
100
AcDbEntity
  8
9
  6
Continuous
 62
     4
370
     9
100
AcDbDimension
280
     0
  2
Dim5
 10
292.6387558989617
 20
204.0780240756301
 30
0.0
 11
188.0642617910091
 21
323.7015219354204
 31
0.0
 70
   163
  1
∅<>
 71
     5
 42
-1.0
 73
     0
 74
     0
 75
     0
  3
Standard
100
AcDbDiametricDimension
 15
249.8582192236203
 25
253.0149802720491
 35
0.0
 40
0.0
1001
ACAD
1000
DSTYLE
1002
{
1070
   340
1005
177
1070
   140
1040
4.5
1070
    40
1040
1.0
1070
   147
1040
0.0
1070
    76
1070
     0
1070
    75
1070
     0
1070
   344
1005
0
1070
   343
1005
0
1070
   173
1070
     1
1070
   289
1070
     2
1070
   288
1070
     1
1070
    77
1070
     1
1070
   172
1070
     1
1070
   174
1070
     0
1070
    74
1070
     0
1070
    73
1070
     0
1070
   284
1070
     8
1070
    78
1070
     8
1070
    42
1040
1.5
1070
    44
1040
2.25
1070
    43
1040
30.0
1070
   271
1070
     2
1070
    41
1040
3.0
1002
}
  0
INSERT
  5
237
330
1F
100
AcDbEntity
  8
9
  6
Continuous
 62
     4
370
     9
100
AcDbBlockReference
  2
_OPEN
 10
347.5484875612883
 20
303.7981682236796
 30
0.0
 41
3.0
 42
3.0
 43
3.0
 50
240.0000000000002
  0
POLYLINE
  5
238
330
1F
100
AcDbEntity
  8
9
  6
Continuous
 62
     4
370
     9
100
AcDb2dPolyline
 66
     1
 10
0.0
 20
0.0
 30
0.0
  0
VERTEX
  5
239
330
238
100
AcDbEntity
  8
9
  6
Continuous
 62
     4
370
     9
100
AcDbVertex
100
AcDb2dVertex
 10
347.5484875612883
 20
303.7981682236796
 30
0.0
  0
VERTEX
  5
23A
330
238
100
AcDbEntity
  8
9
  6
Continuous
 62
     4
370
     9
100
AcDbVertex
100
AcDb2dVertex
 10
363.3995281301104
 20
331.2529758417154
 30
0.0
  0
VERTEX
  5
23B
330
238
100
AcDbEntity
  8
9
  6
Continuous
 62
     4
370
     9
100
AcDbVertex
100
AcDb2dVertex
 10
383.0095281301104
 20
331.2529758417154
 30
0.0
  0
SEQEND
  5
23C
330
238
100
AcDbEntity
  8
9
  6
Continuous
 62
     4
370
     9
  0
MTEXT
  5
23D
330
1F
100
AcDbEntity
  8
9
  6
Continuous
 62
     4
370
     9
100
AcDbMText
 10
365.7595281301104
 20
336.6529758417154
 30
0.0
 40
4.5
 41
24.4404997965
 46
4.5
 71
     1
 72
     1
  1
{\fＭＳ ゴシック;\T1.016260;8-Ø5.2}
 73
     1
 44
1.0
1001
ACAD
1000
ACAD_MTEXT_DEFINED_HEIGHT_BEGIN
1070
    46
1040
4.5
1000
ACAD_MTEXT_DEFINED_HEIGHT_END
  0
MTEXT
  5
23E
330
1F
100
AcDbEntity
  8
2
  6
Continuous
 62
   151
370
     9
100
AcDbMText
 10
30.0000996923236
 20
78.33161846467556
 30
0.0
 40
3.9
 41
82.28784862225197
 46
3.9
 71
     4
 72
     1
  1
{\fＭＳ ゴシック;\T1.166668;Details of Connector}
 73
     1
 44
1.0
1001
ACAD
1000
ACAD_MTEXT_DEFINED_HEIGHT_BEGIN
1070
    46
1040
3.9
1000
ACAD_MTEXT_DEFINED_HEIGHT_END
  0
MTEXT
  5
23F
330
1F
100
AcDbEntity
  8
2
  6
Continuous
 62
   151
370
     9
100
AcDbMText
 10
61.50002849999964
 20
48.74999250000019
 30
0.0
 40
3.0
 41
16.28565226116
 46
3.0
 71
     4
 72
     1
  1
{\fＭＳ ゴシック;\T1.275567;Light}
 73
     1
 44
1.0
1001
ACAD
1000
ACAD_MTEXT_DEFINED_HEIGHT_BEGIN
1070
    46
1040
3.0
1000
ACAD_MTEXT_DEFINED_HEIGHT_END
  0
MTEXT
  5
240
330
1F
100
AcDbEntity
  8
2
  6
Continuous
 62
   151
370
     9
100
AcDbMText
 10
61.50002849999964
 20
41.25000749999981
 30
0.0
 40
3.0
 41
30.491413062
 46
3.0
 71
     4
 72
     1
  1
{\fＭＳ ゴシック;\T1.270325;SMR-03V-B}
 73
     1
 44
1.0
1001
ACAD
1000
ACAD_MTEXT_DEFINED_HEIGHT_BEGIN
1070
    46
1040
3.0
1000
ACAD_MTEXT_DEFINED_HEIGHT_END
  0
MTEXT
  5
241
330
1F
100
AcDbEntity
  8
2
  6
Continuous
 62
   151
370
     9
100
AcDbMText
 10
61.50002849999964
 20
33.75000749999981
 30
0.0
 40
3.0
 41
44.67909247175998
 46
3.0
 71
     4
 72
     1
  1
{\fＭＳ ゴシック;\T1.278554;BYM-001T-P0.6}
 73
     1
 44
1.0
1001
ACAD
1000
ACAD_MTEXT_DEFINED_HEIGHT_BEGIN
1070
    46
1040
3.0
1000
ACAD_MTEXT_DEFINED_HEIGHT_END
  0
MTEXT
  5
242
330
1F
100
AcDbEntity
  8
2
  6
Continuous
 62
   151
370
     9
100
AcDbMText
 10
97.50001350000002
 20
41.25000749999981
 30
0.0
 40
3.0
 41
34.04022557067
 46
3.0
 71
     4
 72
     1
  1
{\fＭＳ ゴシック;\T1.270749;SMP-03V-BC}
 73
     1
 44
1.0
1001
ACAD
1000
ACAD_MTEXT_DEFINED_HEIGHT_BEGIN
1070
    46
1040
3.0
1000
ACAD_MTEXT_DEFINED_HEIGHT_END
  0
MTEXT
  5
243
330
1F
100
AcDbEntity
  8
2
  6
Continuous
 62
   151
370
     9
100
AcDbMText
 10
97.50001350000002
 20
33.75000749999981
 30
0.0
 40
3.0
 41
48.23039545310999
 46
3.0
 71
     4
 72
     1
  1
{\fＭＳ ゴシック;\T1.276981;BHF-001T-0.8SS}
 73
     1
 44
1.0
1001
ACAD
1000
ACAD_MTEXT_DEFINED_HEIGHT_BEGIN
1070
    46
1040
3.0
1000
ACAD_MTEXT_DEFINED_HEIGHT_END
  0
MTEXT
  5
244
330
1F
100
AcDbEntity
  8
2
  6
Continuous
 62
   151
370
     9
100
AcDbMText
 10
97.50001350000002
 20
48.74999250000019
 30
0.0
 40
3.0
 41
49.07804415492001
 46
3.0
 71
     4
 72
     1
  1
{\fＭＳ ゴシック;\T1.236293;Power　Supply　}
 73
     1
 44
1.0
1001
ACAD
1000
ACAD_MTEXT_DEFINED_HEIGHT_BEGIN
1070
    46
1040
3.0
1000
ACAD_MTEXT_DEFINED_HEIGHT_END
  0
MTEXT
  5
245
330
1F
100
AcDbEntity
  8
2
  6
Continuous
 62
   151
370
     9
100
AcDbMText
 10
31.50001350000002
 20
41.25000749999981
 30
0.0
 40
3.0
 41
30.47134834272
 46
3.0
 71
     4
 72
     1
  1
{\fＭＳ ゴシック;\T1.286932;Connector}
 73
     1
 44
1.0
1001
ACAD
1000
ACAD_MTEXT_DEFINED_HEIGHT_BEGIN
1070
    46
1040
3.0
1000
ACAD_MTEXT_DEFINED_HEIGHT_END
  0
MTEXT
  5
246
330
1F
100
AcDbEntity
  8
2
  6
Continuous
 62
   151
370
     9
100
AcDbMText
 10
31.50001350000002
 20
33.75000749999981
 30
0.0
 40
3.0
 41
23.38700212026
 46
3.0
 71
     4
 72
     1
  1
{\fＭＳ ゴシック;\T1.274033;Contact}
 73
     1
 44
1.0
1001
ACAD
1000
ACAD_MTEXT_DEFINED_HEIGHT_BEGIN
1070
    46
1040
3.0
1000
ACAD_MTEXT_DEFINED_HEIGHT_END
  0
INSERT
  5
250
330
1F
100
AcDbEntity
  8
0
100
AcDbBlockReference
  2
*G21
 10
0.0
 20
0.0
 30
0.0
  0
DIMENSION
  5
25A
330
1F
100
AcDbEntity
  8
9
  6
Continuous
 62
     4
370
     9
100
AcDbDimension
280
     0
  2
Dim6
 10
306.2484875612872
 20
125.7608196863362
 30
0.0
 11
271.2484875612872
 21
125.7608196863362
 31
0.0
 70
   160
  1
<>
 71
     8
 42
-1.0
 73
     0
 74
     0
 75
     0
  3
Standard
100
AcDbAlignedDimension
 13
236.248487561289
 23
149.9465021738397
 33
0.0
 14
306.2484875612872
 24
149.9465021738397
 34
0.0
100
AcDbRotatedDimension
1001
ACAD
1000
DSTYLE
1002
{
1070
   279
1070
     1
1070
   340
1005
177
1070
   140
1040
4.5
1070
    40
1040
1.0
1070
   147
1040
0.0
1070
    76
1070
     0
1070
    75
1070
     0
1070
   344
1005
0
1070
   343
1005
0
1070
   173
1070
     1
1070
   289
1070
     2
1070
   288
1070
     1
1070
    77
1070
     1
1070
   172
1070
     1
1070
   174
1070
     0
1070
    74
1070
     0
1070
    73
1070
     0
1070
   284
1070
     8
1070
    78
1070
     8
1070
    42
1040
1.5
1070
    44
1040
2.25
1070
    43
1040
30.0
1070
   271
1070
     2
1070
    41
1040
3.0
1002
}
  0
DIMENSION
  5
264
330
1F
100
AcDbEntity
  8
9
  6
Continuous
 62
     4
370
     9
100
AcDbDimension
280
     0
  2
Dim7
 10
346.248487561288
 20
113.7608196863362
 30
0.0
 11
271.2484875612881
 21
113.7608196863362
 31
0.0
 70
   160
  1
<>
 71
     8
 42
-1.0
 73
     0
 74
     0
 75
     0
  3
Standard
100
AcDbAlignedDimension
 13
196.2484875612881
 23
149.9465021738397
 33
0.0
 14
346.2484875612881
 24
149.9465021738397
 34
0.0
100
AcDbRotatedDimension
1001
ACAD
1000
DSTYLE
1002
{
1070
   279
1070
     1
1070
   340
1005
177
1070
   140
1040
4.5
1070
    40
1040
1.0
1070
   147
1040
0.0
1070
    76
1070
     0
1070
    75
1070
     0
1070
   344
1005
0
1070
   343
1005
0
1070
   173
1070
     1
1070
   289
1070
     2
1070
   288
1070
     1
1070
    77
1070
     1
1070
   172
1070
     1
1070
   174
1070
     0
1070
    74
1070
     0
1070
    73
1070
     0
1070
   284
1070
     8
1070
    78
1070
     8
1070
    42
1040
1.5
1070
    44
1040
2.25
1070
    43
1040
30.0
1070
   271
1070
     2
1070
    41
1040
3.0
1002
}
  0
DIMENSION
  5
26E
330
1F
100
AcDbEntity
  8
9
  6
Continuous
 62
     4
370
     9
100
AcDbDimension
280
     0
  2
Dim8
 10
371.248487561288
 20
101.7608196863362
 30
0.0
 11
271.2484875612881
 21
101.7608196863362
 31
0.0
 70
   160
  1
<>
 71
     8
 42
-1.0
 73
     0
 74
     0
 75
     0
  3
Standard
100
AcDbAlignedDimension
 13
171.2484875612881
 23
178.5465021738396
 33
0.0
 14
371.2484875612881
 24
178.5465021738396
 34
0.0
100
AcDbRotatedDimension
1001
ACAD
1000
DSTYLE
1002
{
1070
   279
1070
     1
1070
   340
1005
177
1070
   140
1040
4.5
1070
    40
1040
1.0
1070
   147
1040
0.0
1070
    76
1070
     0
1070
    75
1070
     0
1070
   344
1005
0
1070
   343
1005
0
1070
   173
1070
     1
1070
   289
1070
     2
1070
   288
1070
     1
1070
    77
1070
     1
1070
   172
1070
     1
1070
   174
1070
     0
1070
    74
1070
     0
1070
    73
1070
     0
1070
   284
1070
     8
1070
    78
1070
     8
1070
    42
1040
1.5
1070
    44
1040
2.25
1070
    43
1040
30.0
1070
   271
1070
     2
1070
    41
1040
3.0
1002
}
  0
DIMENSION
  5
278
330
1F
100
AcDbEntity
  8
9
  6
Continuous
 62
     4
370
     9
100
AcDbDimension
280
     0
  2
Dim9
 10
386.248487561288
 20
89.76081968633616
 30
0.0
 11
271.2484875612881
 21
89.76081968633616
 31
0.0
 70
   160
  1
<>
 71
     8
 42
-1.0
 73
     0
 74
     0
 75
     0
  3
Standard
100
AcDbAlignedDimension
 13
156.2484875612881
 23
163.5465021738387
 33
0.0
 14
386.2484875612881
 24
163.5465021738396
 34
0.0
100
AcDbRotatedDimension
1001
ACAD
1000
DSTYLE
1002
{
1070
   279
1070
     1
1070
   340
1005
177
1070
   140
1040
4.5
1070
    40
1040
1.0
1070
   147
1040
0.0
1070
    76
1070
     0
1070
    75
1070
     0
1070
   344
1005
0
1070
   343
1005
0
1070
   173
1070
     1
1070
   289
1070
     2
1070
   288
1070
     1
1070
    77
1070
     1
1070
   172
1070
     1
1070
   174
1070
     0
1070
    74
1070
     0
1070
    73
1070
     0
1070
   284
1070
     8
1070
    78
1070
     8
1070
    42
1040
1.5
1070
    44
1040
2.25
1070
    43
1040
30.0
1070
   271
1070
     2
1070
    41
1040
3.0
1002
}
  0
DIMENSION
  5
282
330
1F
100
AcDbEntity
  8
9
  6
Continuous
 62
     4
370
     9
100
AcDbDimension
280
     0
  2
Dim10
 10
520.949694405408
 20
99.46017950945816
 30
0.0
 11
498.4496944054081
 21
99.46017950945816
 31
0.0
 70
   160
  1
<>
 71
     8
 42
-1.0
 73
     0
 74
     0
 75
     0
  3
Standard
100
AcDbAlignedDimension
 13
475.9496944054081
 23
163.5465021738396
 33
0.0
 14
520.9496944054081
 24
148.5465021738396
 34
0.0
100
AcDbRotatedDimension
1001
ACAD
1000
DSTYLE
1002
{
1070
   279
1070
     1
1070
   340
1005
177
1070
   140
1040
4.5
1070
    40
1040
1.0
1070
   147
1040
0.0
1070
    76
1070
     0
1070
    75
1070
     0
1070
   344
1005
0
1070
   343
1005
0
1070
   173
1070
     1
1070
   289
1070
     2
1070
   288
1070
     1
1070
    77
1070
     1
1070
   172
1070
     1
1070
   174
1070
     0
1070
    74
1070
     0
1070
    73
1070
     0
1070
   284
1070
     8
1070
    78
1070
     8
1070
    42
1040
1.5
1070
    44
1040
2.25
1070
    43
1040
30.0
1070
   271
1070
     2
1070
    41
1040
3.0
1002
}
  0
DIMENSION
  5
28C
330
1F
100
AcDbEntity
  8
9
  6
Continuous
 62
     4
370
     9
100
AcDbDimension
280
     0
  2
Dim11
 10
136.943805778732
 20
278.5465021738397
 30
0.0
 11
136.943805778732
 21
228.5465021738396
 31
0.0
 70
   160
  1
<>
 71
     8
 42
-1.0
 73
     0
 74
     0
 75
     0
  3
Standard
100
AcDbAlignedDimension
 13
171.2484875612881
 23
178.5465021738396
 33
0.0
 14
171.2484875612881
 24
278.5465021738396
 34
0.0
 50
89.99999999999991
100
AcDbRotatedDimension
1001
ACAD
1000
DSTYLE
1002
{
1070
   279
1070
     1
1070
   340
1005
177
1070
   140
1040
4.5
1070
    40
1040
1.0
1070
   147
1040
0.0
1070
    76
1070
     0
1070
    75
1070
     0
1070
   344
1005
0
1070
   343
1005
0
1070
   173
1070
     1
1070
   289
1070
     2
1070
   288
1070
     1
1070
    77
1070
     1
1070
   172
1070
     1
1070
   174
1070
     0
1070
    74
1070
     0
1070
    73
1070
     0
1070
   284
1070
     8
1070
    78
1070
     8
1070
    42
1040
1.5
1070
    44
1040
2.25
1070
    43
1040
30.0
1070
   271
1070
     2
1070
    41
1040
3.0
1002
}
  0
DIMENSION
  5
296
330
1F
100
AcDbEntity
  8
9
  6
Continuous
 62
     4
370
     9
100
AcDbDimension
280
     0
  2
Dim12
 10
124.943805778732
 20
293.5465021738397
 30
0.0
 11
124.943805778732
 21
228.5465021738396
 31
0.0
 70
   160
  1
<>
 71
     8
 42
-1.0
 73
     0
 74
     0
 75
     0
  3
Standard
100
AcDbAlignedDimension
 13
156.2484875612881
 23
163.5465021738396
 33
0.0
 14
156.2484875612881
 24
293.5465021738396
 34
0.0
 50
89.99999999999991
100
AcDbRotatedDimension
1001
ACAD
1000
DSTYLE
1002
{
1070
   279
1070
     1
1070
   340
1005
177
1070
   140
1040
4.5
1070
    40
1040
1.0
1070
   147
1040
0.0
1070
    76
1070
     0
1070
    75
1070
     0
1070
   344
1005
0
1070
   343
1005
0
1070
   173
1070
     1
1070
   289
1070
     2
1070
   288
1070
     1
1070
    77
1070
     1
1070
   172
1070
     1
1070
   174
1070
     0
1070
    74
1070
     0
1070
    73
1070
     0
1070
   284
1070
     8
1070
    78
1070
     8
1070
    42
1040
1.5
1070
    44
1040
2.25
1070
    43
1040
30.0
1070
   271
1070
     2
1070
    41
1040
3.0
1002
}
  0
DIMENSION
  5
2A0
330
1F
100
AcDbEntity
  8
9
  6
Continuous
 62
     4
370
     9
100
AcDbDimension
280
     0
  2
Dim13
 10
112.9438057787311
 20
301.5465021738398
 30
0.0
 11
112.9438057787311
 21
228.5465021738396
 31
0.0
 70
   160
  1
<>
 71
     8
 42
-1.0
 73
     0
 74
     0
 75
     0
  3
Standard
100
AcDbAlignedDimension
 13
190.6484875612878
 23
155.5465021738396
 33
0.0
 14
190.6484875612878
 24
301.5465021738396
 34
0.0
 50
89.99999999999991
100
AcDbRotatedDimension
1001
ACAD
1000
DSTYLE
1002
{
1070
   279
1070
     1
1070
   340
1005
177
1070
   140
1040
4.5
1070
    40
1040
1.0
1070
   147
1040
0.0
1070
    76
1070
     0
1070
    75
1070
     0
1070
   344
1005
0
1070
   343
1005
0
1070
   173
1070
     1
1070
   289
1070
     2
1070
   288
1070
     1
1070
    77
1070
     1
1070
   172
1070
     1
1070
   174
1070
     0
1070
    74
1070
     0
1070
    73
1070
     0
1070
   284
1070
     8
1070
    78
1070
     8
1070
    42
1040
1.5
1070
    44
1040
2.25
1070
    43
1040
30.0
1070
   271
1070
     2
1070
    41
1040
3.0
1002
}
  0
DIMENSION
  5
2AA
330
1F
100
AcDbEntity
  8
9
  6
Continuous
 62
     4
370
     9
100
AcDbDimension
280
     0
  2
Dim14
 10
100.9438057787302
 20
148.5465021738399
 30
0.0
 11
100.9438057787302
 21
228.5465021738396
 31
0.0
 70
   160
  1
<>
 71
     8
 42
-1.0
 73
     0
 74
     0
 75
     0
 53
89.99999999999991
  3
Standard
100
AcDbAlignedDimension
 13
176.2484875612872
 23
308.5465021738396
 33
0.0
 14
176.2484875612872
 24
148.5465021738396
 34
0.0
 50
-89.99999999999991
100
AcDbRotatedDimension
1001
ACAD
1000
DSTYLE
1002
{
1070
   279
1070
     1
1070
   340
1005
177
1070
   140
1040
4.5
1070
    40
1040
1.0
1070
   147
1040
0.0
1070
    76
1070
     0
1070
    75
1070
     0
1070
   344
1005
0
1070
   343
1005
0
1070
   173
1070
     1
1070
   289
1070
     2
1070
   288
1070
     1
1070
    77
1070
     1
1070
   172
1070
     1
1070
   174
1070
     0
1070
    74
1070
     0
1070
    73
1070
     0
1070
   284
1070
     8
1070
    78
1070
     8
1070
    42
1040
1.5
1070
    44
1040
2.25
1070
    43
1040
30.0
1070
   271
1070
     2
1070
    41
1040
3.0
1002
}
  0
VIEWPORT
  5
6A
330
1B
100
AcDbEntity
 67
     1
  8
0
100
AcDbViewport
 10
420.0
 20
297.0
 30
0.0
 40
840.0
 41
594.0
 68
     1
 69
     1
 12
420.0
 22
297.0
 13
0.0
 23
0.0
 14
0.5
 24
0.5
 15
0.5
 25
0.5
 16
0.0
 26
0.0
 36
1.0
 17
0.0
 27
0.0
 37
0.0
 42
50.0
 43
0.0
 44
0.0
 45
9.0
 50
0.0
 51
0.0
 72
   100
 90
   557152
  1

281
     0
 71
     1
 74
     0
110
0.0
120
0.0
130
0.0
111
1.0
121
0.0
131
0.0
112
0.0
122
1.0
132
0.0
 79
     0
146
0.0
170
     0
 61
     5
292
     1
282
     1
141
0.0
142
0.0
 63
   256
  0
ENDSEC
  0
SECTION
  2
OBJECTS
  0
DICTIONARY
  5
C
330
0
100
AcDbDictionary
281
     1
  3
ACAD_DETAILVIEWSTYLE
350
2AF
  3
ACAD_GROUP
350
D
  3
ACAD_LAYOUT
350
1A
  3
ACAD_MATERIAL
350
43
  3
ACAD_MLEADERSTYLE
350
2AE
  3
ACAD_MLINESTYLE
350
17
  3
ACAD_PLOTSETTINGS
350
19
  3
ACAD_PLOTSTYLENAME
350
E
  3
ACAD_SCALELIST
350
47
  3
ACAD_SECTIONVIEWSTYLE
350
2B0
  3
ACAD_TABLESTYLE
350
2AD
  3
ACAD_VISUALSTYLE
350
2A
  3
AcDbVariableDictionary
350
2AB
  0
SUN
  5
69
330
29
100
AcDbSun
 90
        1
290
     0
 63
     7
421
 16777215
 40
1.0
291
     1
 91
  2455826
 92
 54000000
292
     0
 70
     2
 71
   256
280
     1
  0
DICTIONARY
  5
2AF
102
{ACAD_REACTORS
330
C
102
}
330
C
100
AcDbDictionary
281
     1
  0
DICTIONARY
  5
D
102
{ACAD_REACTORS
330
C
102
}
330
C
100
AcDbDictionary
281
     1
  0
DICTIONARY
  5
1A
102
{ACAD_REACTORS
330
C
102
}
330
C
100
AcDbDictionary
281
     1
  3
Layout1
350
1E
  3
Layout2
350
26
  3
Model
350
22
  0
DICTIONARY
  5
43
102
{ACAD_REACTORS
330
C
102
}
330
C
100
AcDbDictionary
281
     1
  3
ByBlock
350
45
  3
ByLayer
350
44
  3
Global
350
46
  0
DICTIONARY
  5
2AE
102
{ACAD_REACTORS
330
C
102
}
330
C
100
AcDbDictionary
281
     1
  0
DICTIONARY
  5
17
102
{ACAD_REACTORS
330
C
102
}
330
C
100
AcDbDictionary
281
     1
  3
Standard
350
18
  0
DICTIONARY
  5
19
102
{ACAD_REACTORS
330
C
102
}
330
C
100
AcDbDictionary
281
     1
  0
ACDBDICTIONARYWDFLT
  5
E
102
{ACAD_REACTORS
330
C
102
}
330
C
100
AcDbDictionary
281
     1
  3
Normal
350
F
100
AcDbDictionaryWithDefault
340
F
  0
DICTIONARY
  5
47
102
{ACAD_REACTORS
330
C
102
}
330
C
100
AcDbDictionary
281
     1
  3
A0
350
48
  3
A1
350
49
  3
A2
350
4A
  3
A3
350
4B
  3
A4
350
4C
  3
A5
350
4D
  3
A6
350
4E
  3
A7
350
4F
  3
A8
350
50
  3
A9
350
51
  3
B0
350
52
  3
B1
350
53
  3
B2
350
54
  3
B3
350
55
  3
B4
350
56
  3
B5
350
57
  3
B6
350
58
  3
B7
350
59
  3
B8
350
5A
  3
B9
350
5B
  3
C0
350
5C
  3
C1
350
5D
  3
C2
350
5E
  3
C3
350
5F
  3
C4
350
60
  3
C5
350
61
  3
C6
350
62
  3
C7
350
63
  3
C8
350
64
  3
C9
350
65
  3
D0
350
66
  3
D1
350
67
  3
D2
350
68
  0
DICTIONARY
  5
2B0
102
{ACAD_REACTORS
330
C
102
}
330
C
100
AcDbDictionary
281
     1
  0
DICTIONARY
  5
2AD
102
{ACAD_REACTORS
330
C
102
}
330
C
100
AcDbDictionary
281
     1
  0
DICTIONARY
  5
2A
102
{ACAD_REACTORS
330
C
102
}
330
C
100
AcDbDictionary
281
     1
  3
2dWireframe
350
2F
  3
Basic
350
32
  3
Brighten
350
36
  3
ColorChange
350
3A
  3
Conceptual
350
34
  3
Dim
350
35
  3
EdgeColorOff
350
3D
  3
Facepattern
350
39
  3
Flat
350
2B
  3
FlatWithEdges
350
2C
  3
Gouraud
350
2D
  3
GouraudWithEdges
350
2E
  3
Hidden
350
31
  3
JitterOff
350
3B
  3
Linepattern
350
38
  3
OverhangOff
350
3C
  3
Realistic
350
33
  3
Shaded
350
42
  3
Shaded with edges
350
41
  3
Shades of Gray
350
3E
  3
Sketchy
350
3F
  3
Thicken
350
37
  3
Wireframe
350
30
  3
X-Ray
350
40
  0
DICTIONARY
  5
2AB
102
{ACAD_REACTORS
330
C
102
}
330
C
100
AcDbDictionary
281
     1
  3
CANNOSCALE
350
2AC
  0
LAYOUT
  5
1E
102
{ACAD_REACTORS
330
1A
102
}
330
1A
100
AcDbPlotSettings
  1

  2
none_device
  4

  6

 40
0.0
 41
0.0
 42
0.0
 43
0.0
 44
0.0
 45
0.0
 46
0.0
 47
0.0
 48
0.0
 49
0.0
140
0.0
141
0.0
142
1.0
143
1.0
 70
   688
 72
     0
 73
     0
 74
     5
  7

 75
    16
 76
     0
 77
     2
 78
   300
147
1.0
148
0.0
149
0.0
100
AcDbLayout
  1
Layout1
 70
     1
 71
     1
 10
0.0
 20
0.0
 11
420.0
 21
297.0
 12
0.0
 22
0.0
 32
0.0
 14
0.0
 24
0.0
 34
0.0
 15
420.0
 25
297.0
 35
0.0
146
0.0
 13
0.0
 23
0.0
 33
0.0
 16
1.0
 26
0.0
 36
0.0
 17
0.0
 27
1.0
 37
0.0
 76
     0
330
1B
331
6A
  0
LAYOUT
  5
26
102
{ACAD_REACTORS
330
1A
102
}
330
1A
100
AcDbPlotSettings
  1

  2
none_device
  4

  6

 40
0.0
 41
0.0
 42
0.0
 43
0.0
 44
0.0
 45
0.0
 46
0.0
 47
0.0
 48
0.0
 49
0.0
140
0.0
141
0.0
142
1.0
143
1.0
 70
   688
 72
     0
 73
     0
 74
     5
  7

 75
    16
 76
     0
 77
     2
 78
   300
147
1.0
148
0.0
149
0.0
100
AcDbLayout
  1
Layout2
 70
     1
 71
     2
 10
0.0
 20
0.0
 11
0.0
 21
0.0
 12
0.0
 22
0.0
 32
0.0
 14
0.0
 24
0.0
 34
0.0
 15
0.0
 25
0.0
 35
0.0
146
0.0
 13
0.0
 23
0.0
 33
0.0
 16
1.0
 26
0.0
 36
0.0
 17
0.0
 27
1.0
 37
0.0
 76
     0
330
23
  0
LAYOUT
  5
22
102
{ACAD_REACTORS
330
1A
102
}
330
1A
100
AcDbPlotSettings
  1

  2
none_device
  4
Letter_(8.50_x_11.00_Inches)
  6

 40
6.35
 41
6.35
 42
6.35000508
 43
6.35000508
 44
215.9
 45
279.4
 46
0.0
 47
0.0
 48
0.0
 49
0.0
140
0.0
141
0.0
142
1.0
143
1.0
 70
  1712
 72
     0
 73
     0
 74
     0
  7

 75
     0
 76
     0
 77
     2
 78
   300
147
1.0
148
0.0
149
0.0
100
AcDbLayout
  1
Model
 70
     1
 71
     0
 10
0.0
 20
0.0
 11
420.0
 21
297.0
 12
0.0
 22
0.0
 32
0.0
 14
30.00001350000002
 24
30.0
 34
0.0
 15
546.1996944054081
 25
336.6529758417154
 35
0.0
146
0.0
 13
0.0
 23
0.0
 33
0.0
 16
1.0
 26
0.0
 36
0.0
 17
0.0
 27
1.0
 37
0.0
 76
     0
330
1F
331
29
  0
MATERIAL
  5
45
102
{ACAD_REACTORS
330
43
102
}
330
43
100
AcDbMaterial
  1
ByBlock
 72
     1
 94
      127
  0
MATERIAL
  5
44
102
{ACAD_REACTORS
330
43
102
}
330
43
100
AcDbMaterial
  1
ByLayer
 72
     1
 94
      127
  0
MATERIAL
  5
46
102
{ACAD_REACTORS
330
43
102
}
330
43
100
AcDbMaterial
  1
Global
 72
     1
 94
      127
  0
MLINESTYLE
  5
18
102
{ACAD_REACTORS
330
17
102
}
330
17
100
AcDbMlineStyle
  2
Standard
 70
     0
  3

 62
   256
 51
90.0
 52
90.0
 71
     2
 49
0.5
 62
   256
  6
BYLAYER
 49
-0.5
 62
   256
  6
BYLAYER
  0
ACDBPLACEHOLDER
  5
F
102
{ACAD_REACTORS
330
E
102
}
330
E
  0
SCALE
  5
48
102
{ACAD_REACTORS
330
47
102
}
330
47
100
AcDbScale
 70
     0
300
1:1
140
1.0
141
1.0
290
     1
  0
SCALE
  5
49
102
{ACAD_REACTORS
330
47
102
}
330
47
100
AcDbScale
 70
     0
300
1:2
140
1.0
141
2.0
290
     0
  0
SCALE
  5
4A
102
{ACAD_REACTORS
330
47
102
}
330
47
100
AcDbScale
 70
     0
300
1:4
140
1.0
141
4.0
290
     0
  0
SCALE
  5
4B
102
{ACAD_REACTORS
330
47
102
}
330
47
100
AcDbScale
 70
     0
300
1:5
140
1.0
141
5.0
290
     0
  0
SCALE
  5
4C
102
{ACAD_REACTORS
330
47
102
}
330
47
100
AcDbScale
 70
     0
300
1:8
140
1.0
141
8.0
290
     0
  0
SCALE
  5
4D
102
{ACAD_REACTORS
330
47
102
}
330
47
100
AcDbScale
 70
     0
300
1:10
140
1.0
141
10.0
290
     0
  0
SCALE
  5
4E
102
{ACAD_REACTORS
330
47
102
}
330
47
100
AcDbScale
 70
     0
300
1:16
140
1.0
141
16.0
290
     0
  0
SCALE
  5
4F
102
{ACAD_REACTORS
330
47
102
}
330
47
100
AcDbScale
 70
     0
300
1:20
140
1.0
141
20.0
290
     0
  0
SCALE
  5
50
102
{ACAD_REACTORS
330
47
102
}
330
47
100
AcDbScale
 70
     0
300
1:30
140
1.0
141
30.0
290
     0
  0
SCALE
  5
51
102
{ACAD_REACTORS
330
47
102
}
330
47
100
AcDbScale
 70
     0
300
1:40
140
1.0
141
40.0
290
     0
  0
SCALE
  5
52
102
{ACAD_REACTORS
330
47
102
}
330
47
100
AcDbScale
 70
     0
300
1:50
140
1.0
141
50.0
290
     0
  0
SCALE
  5
53
102
{ACAD_REACTORS
330
47
102
}
330
47
100
AcDbScale
 70
     0
300
1:100
140
1.0
141
100.0
290
     0
  0
SCALE
  5
54
102
{ACAD_REACTORS
330
47
102
}
330
47
100
AcDbScale
 70
     0
300
2:1
140
2.0
141
1.0
290
     0
  0
SCALE
  5
55
102
{ACAD_REACTORS
330
47
102
}
330
47
100
AcDbScale
 70
     0
300
4:1
140
4.0
141
1.0
290
     0
  0
SCALE
  5
56
102
{ACAD_REACTORS
330
47
102
}
330
47
100
AcDbScale
 70
     0
300
8:1
140
8.0
141
1.0
290
     0
  0
SCALE
  5
57
102
{ACAD_REACTORS
330
47
102
}
330
47
100
AcDbScale
 70
     0
300
10:1
140
10.0
141
1.0
290
     0
  0
SCALE
  5
58
102
{ACAD_REACTORS
330
47
102
}
330
47
100
AcDbScale
 70
     0
300
100:1
140
100.0
141
1.0
290
     0
  0
SCALE
  5
59
102
{ACAD_REACTORS
330
47
102
}
330
47
100
AcDbScale
 70
     0
300
1/128" = 1'-0"
140
0.0078125
141
12.0
290
     0
  0
SCALE
  5
5A
102
{ACAD_REACTORS
330
47
102
}
330
47
100
AcDbScale
 70
     0
300
1/64" = 1'-0"
140
0.015625
141
12.0
290
     0
  0
SCALE
  5
5B
102
{ACAD_REACTORS
330
47
102
}
330
47
100
AcDbScale
 70
     0
300
1/32" = 1'-0"
140
0.03125
141
12.0
290
     0
  0
SCALE
  5
5C
102
{ACAD_REACTORS
330
47
102
}
330
47
100
AcDbScale
 70
     0
300
1/16" = 1'-0"
140
0.0625
141
12.0
290
     0
  0
SCALE
  5
5D
102
{ACAD_REACTORS
330
47
102
}
330
47
100
AcDbScale
 70
     0
300
3/32" = 1'-0"
140
0.09375
141
12.0
290
     0
  0
SCALE
  5
5E
102
{ACAD_REACTORS
330
47
102
}
330
47
100
AcDbScale
 70
     0
300
1/8" = 1'-0"
140
0.125
141
12.0
290
     0
  0
SCALE
  5
5F
102
{ACAD_REACTORS
330
47
102
}
330
47
100
AcDbScale
 70
     0
300
3/16" = 1'-0"
140
0.1875
141
12.0
290
     0
  0
SCALE
  5
60
102
{ACAD_REACTORS
330
47
102
}
330
47
100
AcDbScale
 70
     0
300
1/4" = 1'-0"
140
0.25
141
12.0
290
     0
  0
SCALE
  5
61
102
{ACAD_REACTORS
330
47
102
}
330
47
100
AcDbScale
 70
     0
300
3/8" = 1'-0"
140
0.375
141
12.0
290
     0
  0
SCALE
  5
62
102
{ACAD_REACTORS
330
47
102
}
330
47
100
AcDbScale
 70
     0
300
1/2" = 1'-0"
140
0.5
141
12.0
290
     0
  0
SCALE
  5
63
102
{ACAD_REACTORS
330
47
102
}
330
47
100
AcDbScale
 70
     0
300
3/4" = 1'-0"
140
0.75
141
12.0
290
     0
  0
SCALE
  5
64
102
{ACAD_REACTORS
330
47
102
}
330
47
100
AcDbScale
 70
     0
300
1" = 1'-0"
140
1.0
141
12.0
290
     0
  0
SCALE
  5
65
102
{ACAD_REACTORS
330
47
102
}
330
47
100
AcDbScale
 70
     0
300
1-1/2" = 1'-0"
140
1.5
141
12.0
290
     0
  0
SCALE
  5
66
102
{ACAD_REACTORS
330
47
102
}
330
47
100
AcDbScale
 70
     0
300
3" = 1'-0"
140
3.0
141
12.0
290
     0
  0
SCALE
  5
67
102
{ACAD_REACTORS
330
47
102
}
330
47
100
AcDbScale
 70
     0
300
6" = 1'-0"
140
6.0
141
12.0
290
     0
  0
SCALE
  5
68
102
{ACAD_REACTORS
330
47
102
}
330
47
100
AcDbScale
 70
     0
300
1'-0" = 1'-0"
140
12.0
141
12.0
290
     0
  0
VISUALSTYLE
  5
2F
102
{ACAD_REACTORS
330
2A
102
}
330
2A
100
AcDbVisualStyle
  2
2dWireframe
 70
     4
177
     3
291
     0
 70
    58
 90
        0
176
     1
 90
        2
176
     1
 90
        0
176
     1
 90
        0
176
     1
 40
0.6
176
     1
 40
30.0
176
     1
 62
     7
420
 16777215
176
     1
 90
        1
176
     1
 90
        4
176
     1
 62
     7
176
     1
 62
   257
176
     1
 90
        1
176
     1
 90
        1
176
     1
 40
1.0
176
     1
 90
        0
176
     1
 62
   257
176
     1
 40
1.0
176
     1
 90
        1
176
     1
 90
        6
176
     1
 90
        2
176
     1
 62
     7
176
     1
 90
        5
176
     1
 90
        0
176
     1
 90
        0
176
     1
290
     0
176
     1
 90
        1
176
     1
 40
0.0
176
     1
 90
        0
176
     1
290
     1
176
     1
290
     1
176
     1
290
     0
176
     1
290
     0
176
     1
290
     0
176
     1
290
     0
176
     1
290
     0
176
     1
290
     0
176
     1
290
     0
176
     1
 90
       50
176
     1
 40
0.0
176
     1
 40
1.0
176
     1
 90
        0
176
     1
 62
    18
420
        0
176
     1
 90
       50
176
     1
 90
        3
176
     1
 62
     5
420
      255
176
     1
290
     0
176
     1
 90
       50
176
     1
 90
       50
176
     1
 90
       50
176
     1
290
     0
176
     1
 90
       50
176
     1
 62
   256
176
     0
 40
1.0
176
     0
 90
        2
176
     1
  1
strokes_ogs.tif
176
     1
290
     0
176
     1
 40
1.0
176
     1
 40
1.0
176
     1
  0
VISUALSTYLE
  5
32
102
{ACAD_REACTORS
330
2A
102
}
330
2A
100
AcDbVisualStyle
  2
Basic
 70
     7
177
     3
291
     1
 70
    58
 90
        1
176
     1
 90
        0
176
     1
 90
        1
176
     1
 90
        0
176
     1
 40
0.6
176
     1
 40
30.0
176
     1
 62
     7
420
 16777215
176
     1
 90
        0
176
     1
 90
        4
176
     1
 62
     7
176
     1
 62
   257
176
     1
 90
        1
176
     1
 90
        1
176
     1
 40
1.0
176
     1
 90
        8
176
     1
 62
     7
176
     1
 40
1.0
176
     1
 90
        1
176
     1
 90
        6
176
     1
 90
        2
176
     1
 62
     7
176
     1
 90
        5
176
     1
 90
        0
176
     1
 90
        0
176
     1
290
     0
176
     1
 90
        1
176
     1
 40
0.0
176
     1
 90
        0
176
     1
290
     0
176
     1
290
     1
176
     1
290
     1
176
     1
290
     0
176
     1
290
     0
176
     1
290
     0
176
     1
290
     0
176
     1
290
     0
176
     1
290
     0
176
     1
 90
       50
176
     1
 40
0.0
176
     1
 40
1.0
176
     1
 90
        0
176
     1
 62
    18
420
        0
176
     1
 90
       50
176
     1
 90
        3
176
     1
 62
     5
420
      255
176
     1
290
     0
176
     1
 90
       50
176
     1
 90
       50
176
     1
 90
       50
176
     1
290
     0
176
     1
 90
       50
176
     1
 62
   256
176
     0
 40
1.0
176
     0
 90
        2
176
     1
  1
strokes_ogs.tif
176
     1
290
     0
176
     1
 40
1.0
176
     1
 40
1.0
176
     1
  0
VISUALSTYLE
  5
36
102
{ACAD_REACTORS
330
2A
102
}
330
2A
100
AcDbVisualStyle
  2
Brighten
 70
    12
177
     3
291
     1
 70
    58
 90
        2
176
     1
 90
        2
176
     1
 90
        0
176
     1
 90
        0
176
     1
 40
0.6
176
     1
 40
30.0
176
     1
 62
     7
420
 16777215
176
     1
 90
        1
176
     1
 90
        4
176
     1
 62
     7
176
     1
 62
   257
176
     1
 90
        1
176
     1
 90
        1
176
     1
 40
1.0
176
     1
 90
        8
176
     1
 62
     7
176
     1
 40
1.0
176
     1
 90
        1
176
     1
 90
        6
176
     1
 90
        2
176
     1
 62
     7
176
     1
 90
        5
176
     1
 90
        0
176
     1
 90
        0
176
     1
290
     0
176
     1
 90
        1
176
     1
 40
50.0
176
     1
 90
        0
176
     1
290
     0
176
     1
290
     1
176
     1
290
     1
176
     1
290
     0
176
     1
290
     0
176
     1
290
     0
176
     1
290
     0
176
     1
290
     0
176
     1
290
     0
176
     1
 90
       50
176
     1
 40
0.0
176
     1
 40
1.0
176
     1
 90
        0
176
     1
 62
    18
420
        0
176
     1
 90
       50
176
     1
 90
        3
176
     1
 62
     5
420
      255
176
     1
290
     0
176
     1
 90
       50
176
     1
 90
       50
176
     1
 90
       50
176
     1
290
     0
176
     1
 90
       50
176
     1
 62
   256
176
     0
 40
1.0
176
     0
 90
        2
176
     1
  1
strokes_ogs.tif
176
     1
290
     0
176
     1
 40
1.0
176
     1
 40
1.0
176
     1
  0
VISUALSTYLE
  5
3A
102
{ACAD_REACTORS
330
2A
102
}
330
2A
100
AcDbVisualStyle
  2
ColorChange
 70
    16
177
     3
291
     1
 70
    58
 90
        2
176
     1
 90
        2
176
     1
 90
        3
176
     1
 90
        0
176
     1
 40
0.6
176
     1
 40
30.0
176
     1
 62
     8
420
  8421504
176
     1
 90
        1
176
     1
 90
        4
176
     1
 62
     7
176
     1
 62
   257
176
     1
 90
        1
176
     1
 90
        1
176
     1
 40
1.0
176
     1
 90
        8
176
     1
 62
     8
420
  8421504
176
     1
 40
1.0
176
     1
 90
        1
176
     1
 90
        6
176
     1
 90
        2
176
     1
 62
     7
176
     1
 90
        5
176
     1
 90
        0
176
     1
 90
        0
176
     1
290
     0
176
     1
 90
        1
176
     1
 40
0.0
176
     1
 90
        0
176
     1
290
     0
176
     1
290
     1
176
     1
290
     1
176
     1
290
     0
176
     1
290
     0
176
     1
290
     0
176
     1
290
     0
176
     1
290
     0
176
     1
290
     0
176
     1
 90
       50
176
     1
 40
0.0
176
     1
 40
1.0
176
     1
 90
        0
176
     1
 62
    18
420
        0
176
     1
 90
       50
176
     1
 90
        3
176
     1
 62
     5
420
      255
176
     1
290
     0
176
     1
 90
       50
176
     1
 90
       50
176
     1
 90
       50
176
     1
290
     0
176
     1
 90
       50
176
     1
 62
   256
176
     0
 40
1.0
176
     0
 90
        2
176
     1
  1
strokes_ogs.tif
176
     1
290
     0
176
     1
 40
1.0
176
     1
 40
1.0
176
     1
  0
VISUALSTYLE
  5
34
102
{ACAD_REACTORS
330
2A
102
}
330
2A
100
AcDbVisualStyle
  2
Conceptual
 70
     9
177
     3
291
     0
 70
    58
 90
        3
176
     1
 90
        2
176
     1
 90
        0
176
     1
 90
        0
176
     1
 40
0.6
176
     1
 40
30.0
176
     1
 62
     7
420
 16777215
176
     1
 90
        2
176
     1
 90
        2
176
     1
 62
     7
176
     1
 62
   257
176
     1
 90
        1
176
     1
 90
        1
176
     1
 40
179.0
176
     1
 90
        8
176
     1
 62
     7
176
     1
 40
1.0
176
     1
 90
        1
176
     1
 90
        6
176
     1
 90
        2
176
     1
 62
     7
176
     1
 90
        3
176
     1
 90
        0
176
     1
 90
        0
176
     1
290
     0
176
     1
 90
        1
176
     1
 40
0.0
176
     1
 90
        0
176
     1
290
     0
176
     1
290
     1
176
     1
290
     1
176
     1
290
     0
176
     1
290
     0
176
     1
290
     0
176
     1
290
     0
176
     1
290
     0
176
     1
290
     0
176
     1
 90
       50
176
     1
 40
0.0
176
     1
 40
1.0
176
     1
 90
        0
176
     1
 62
    18
420
        0
176
     1
 90
       50
176
     1
 90
        3
176
     1
 62
     5
420
      255
176
     1
290
     0
176
     1
 90
       50
176
     1
 90
       50
176
     1
 90
       50
176
     1
290
     0
176
     1
 90
       50
176
     1
 62
   256
176
     0
 40
1.0
176
     0
 90
        2
176
     1
  1
strokes_ogs.tif
176
     1
290
     0
176
     1
 40
1.0
176
     1
 40
1.0
176
     1
  0
VISUALSTYLE
  5
35
102
{ACAD_REACTORS
330
2A
102
}
330
2A
100
AcDbVisualStyle
  2
Dim
 70
    11
177
     3
291
     1
 70
    58
 90
        2
176
     1
 90
        2
176
     1
 90
        0
176
     1
 90
        0
176
     1
 40
0.6
176
     1
 40
30.0
176
     1
 62
     7
420
 16777215
176
     1
 90
        1
176
     1
 90
        4
176
     1
 62
     7
176
     1
 62
   257
176
     1
 90
        1
176
     1
 90
        1
176
     1
 40
1.0
176
     1
 90
        8
176
     1
 62
     7
176
     1
 40
1.0
176
     1
 90
        1
176
     1
 90
        6
176
     1
 90
        2
176
     1
 62
     7
176
     1
 90
        5
176
     1
 90
        0
176
     1
 90
        0
176
     1
290
     0
176
     1
 90
        1
176
     1
 40
-50.0
176
     1
 90
        0
176
     1
290
     0
176
     1
290
     1
176
     1
290
     1
176
     1
290
     0
176
     1
290
     0
176
     1
290
     0
176
     1
290
     0
176
     1
290
     0
176
     1
290
     0
176
     1
 90
       50
176
     1
 40
0.0
176
     1
 40
1.0
176
     1
 90
        0
176
     1
 62
    18
420
        0
176
     1
 90
       50
176
     1
 90
        3
176
     1
 62
     5
420
      255
176
     1
290
     0
176
     1
 90
       50
176
     1
 90
       50
176
     1
 90
       50
176
     1
290
     0
176
     1
 90
       50
176
     1
 62
   256
176
     0
 40
1.0
176
     0
 90
        2
176
     1
  1
strokes_ogs.tif
176
     1
290
     0
176
     1
 40
1.0
176
     1
 40
1.0
176
     1
  0
VISUALSTYLE
  5
3D
102
{ACAD_REACTORS
330
2A
102
}
330
2A
100
AcDbVisualStyle
  2
EdgeColorOff
 70
    22
177
     3
291
     1
 70
    58
 90
        2
176
     0
 90
        2
176
     0
 90
        0
176
     0
 90
        0
176
     0
 40
0.6
176
     0
 40
30.0
176
     0
 62
     7
420
 16777215
176
     0
 90
        1
176
     0
 90
        4
176
     0
 62
     7
176
     0
 62
   257
176
     0
 90
        1
176
     0
 90
        1
176
     0
 40
1.0
176
     0
 90
        8
176
     2
 62
     7
176
     0
 40
1.0
176
     0
 90
        1
176
     0
 90
        6
176
     0
 90
        2
176
     0
 62
     7
176
     0
 90
        5
176
     0
 90
        0
176
     0
 90
        0
176
     0
290
     0
176
     0
 90
        1
176
     0
 40
0.0
176
     0
 90
        0
176
     0
290
     0
176
     0
290
     1
176
     0
290
     1
176
     0
290
     0
176
     0
290
     0
176
     0
290
     0
176
     0
290
     0
176
     0
290
     0
176
     0
290
     0
176
     0
 90
       50
176
     0
 40
0.0
176
     0
 40
1.0
176
     0
 90
        0
176
     0
 62
    18
420
        0
176
     0
 90
       50
176
     0
 90
        3
176
     0
 62
     5
420
      255
176
     0
290
     0
176
     0
 90
       50
176
     0
 90
       50
176
     0
 90
       50
176
     0
290
     0
176
     0
 90
       50
176
     0
 62
   256
176
     0
 40
1.0
176
     0
 90
        2
176
     0
  1
strokes_ogs.tif
176
     0
290
     0
176
     0
 40
1.0
176
     0
 40
1.0
176
     0
  0
VISUALSTYLE
  5
39
102
{ACAD_REACTORS
330
2A
102
}
330
2A
100
AcDbVisualStyle
  2
Facepattern
 70
    15
177
     3
291
     1
 70
    58
 90
        2
176
     1
 90
        2
176
     1
 90
        0
176
     1
 90
        0
176
     1
 40
0.6
176
     1
 40
30.0
176
     1
 62
     7
420
 16777215
176
     1
 90
        1
176
     1
 90
        4
176
     1
 62
     7
176
     1
 62
   257
176
     1
 90
        1
176
     1
 90
        1
176
     1
 40
1.0
176
     1
 90
        8
176
     1
 62
     7
176
     1
 40
1.0
176
     1
 90
        1
176
     1
 90
        6
176
     1
 90
        2
176
     1
 62
     7
176
     1
 90
        5
176
     1
 90
        0
176
     1
 90
        0
176
     1
290
     0
176
     1
 90
        1
176
     1
 40
0.0
176
     1
 90
        0
176
     1
290
     0
176
     1
290
     1
176
     1
290
     1
176
     1
290
     0
176
     1
290
     0
176
     1
290
     0
176
     1
290
     0
176
     1
290
     0
176
     1
290
     0
176
     1
 90
       50
176
     1
 40
0.0
176
     1
 40
1.0
176
     1
 90
        0
176
     1
 62
    18
420
        0
176
     1
 90
       50
176
     1
 90
        3
176
     1
 62
     5
420
      255
176
     1
290
     0
176
     1
 90
       50
176
     1
 90
       50
176
     1
 90
       50
176
     1
290
     0
176
     1
 90
       50
176
     1
 62
   256
176
     0
 40
1.0
176
     0
 90
        2
176
     1
  1
strokes_ogs.tif
176
     1
290
     0
176
     1
 40
1.0
176
     1
 40
1.0
176
     1
  0
VISUALSTYLE
  5
2B
102
{ACAD_REACTORS
330
2A
102
}
330
2A
100
AcDbVisualStyle
  2
Flat
 70
     0
177
     3
291
     1
 70
    58
 90
        2
176
     1
 90
        1
176
     1
 90
        1
176
     1
 90
        2
176
     1
 40
0.6
176
     1
 40
30.0
176
     1
 62
     7
420
 16777215
176
     1
 90
        0
176
     1
 90
        0
176
     1
 62
     7
176
     1
 62
   257
176
     1
 90
        1
176
     1
 90
        1
176
     1
 40
1.0
176
     1
 90
        8
176
     1
 62
     7
176
     1
 40
1.0
176
     1
 90
        1
176
     1
 90
        6
176
     1
 90
        2
176
     1
 62
     7
176
     1
 90
        5
176
     1
 90
        0
176
     1
 90
        0
176
     1
290
     0
176
     1
 90
       13
176
     1
 40
0.0
176
     1
 90
        0
176
     1
290
     0
176
     1
290
     1
176
     1
290
     1
176
     1
290
     0
176
     1
290
     0
176
     1
290
     0
176
     1
290
     0
176
     1
290
     0
176
     1
290
     0
176
     1
 90
       50
176
     1
 40
0.0
176
     1
 40
1.0
176
     1
 90
        0
176
     1
 62
    18
420
        0
176
     1
 90
       50
176
     1
 90
        3
176
     1
 62
     5
420
      255
176
     1
290
     0
176
     1
 90
       50
176
     1
 90
       50
176
     1
 90
       50
176
     1
290
     0
176
     1
 90
       50
176
     1
 62
   256
176
     0
 40
1.0
176
     0
 90
        2
176
     1
  1
strokes_ogs.tif
176
     1
290
     0
176
     1
 40
1.0
176
     1
 40
1.0
176
     1
  0
VISUALSTYLE
  5
2C
102
{ACAD_REACTORS
330
2A
102
}
330
2A
100
AcDbVisualStyle
  2
FlatWithEdges
 70
     1
177
     3
291
     1
 70
    58
 90
        2
176
     1
 90
        1
176
     1
 90
        1
176
     1
 90
        2
176
     1
 40
0.6
176
     1
 40
30.0
176
     1
 62
     7
420
 16777215
176
     1
 90
        1
176
     1
 90
        0
176
     1
 62
     7
176
     1
 62
   257
176
     1
 90
        1
176
     1
 90
        1
176
     1
 40
1.0
176
     1
 90
        0
176
     1
 62
   257
176
     1
 40
1.0
176
     1
 90
        1
176
     1
 90
        6
176
     1
 90
        2
176
     1
 62
     7
176
     1
 90
        5
176
     1
 90
        0
176
     1
 90
        0
176
     1
290
     0
176
     1
 90
       13
176
     1
 40
0.0
176
     1
 90
        0
176
     1
290
     0
176
     1
290
     1
176
     1
290
     1
176
     1
290
     0
176
     1
290
     0
176
     1
290
     0
176
     1
290
     0
176
     1
290
     0
176
     1
290
     0
176
     1
 90
       50
176
     1
 40
0.0
176
     1
 40
1.0
176
     1
 90
        0
176
     1
 62
    18
420
        0
176
     1
 90
       50
176
     1
 90
        3
176
     1
 62
     5
420
      255
176
     1
290
     0
176
     1
 90
       50
176
     1
 90
       50
176
     1
 90
       50
176
     1
290
     0
176
     1
 90
       50
176
     1
 62
   256
176
     0
 40
1.0
176
     0
 90
        2
176
     1
  1
strokes_ogs.tif
176
     1
290
     0
176
     1
 40
1.0
176
     1
 40
1.0
176
     1
  0
VISUALSTYLE
  5
2D
102
{ACAD_REACTORS
330
2A
102
}
330
2A
100
AcDbVisualStyle
  2
Gouraud
 70
     2
177
     3
291
     1
 70
    58
 90
        2
176
     1
 90
        2
176
     1
 90
        1
176
     1
 90
        2
176
     1
 40
0.6
176
     1
 40
30.0
176
     1
 62
     7
420
 16777215
176
     1
 90
        0
176
     1
 90
        0
176
     1
 62
     7
176
     1
 62
   257
176
     1
 90
        1
176
     1
 90
        1
176
     1
 40
1.0
176
     1
 90
        0
176
     1
 62
     7
176
     1
 40
1.0
176
     1
 90
        1
176
     1
 90
        6
176
     1
 90
        2
176
     1
 62
     7
176
     1
 90
        5
176
     1
 90
        0
176
     1
 90
        0
176
     1
290
     0
176
     1
 90
       13
176
     1
 40
0.0
176
     1
 90
        0
176
     1
290
     0
176
     1
290
     1
176
     1
290
     1
176
     1
290
     0
176
     1
290
     0
176
     1
290
     0
176
     1
290
     0
176
     1
290
     0
176
     1
290
     0
176
     1
 90
       50
176
     1
 40
0.0
176
     1
 40
1.0
176
     1
 90
        0
176
     1
 62
    18
420
        0
176
     1
 90
       50
176
     1
 90
        3
176
     1
 62
     5
420
      255
176
     1
290
     0
176
     1
 90
       50
176
     1
 90
       50
176
     1
 90
       50
176
     1
290
     0
176
     1
 90
       50
176
     1
 62
   256
176
     0
 40
1.0
176
     0
 90
        2
176
     1
  1
strokes_ogs.tif
176
     1
290
     0
176
     1
 40
1.0
176
     1
 40
1.0
176
     1
  0
VISUALSTYLE
  5
2E
102
{ACAD_REACTORS
330
2A
102
}
330
2A
100
AcDbVisualStyle
  2
GouraudWithEdges
 70
     3
177
     3
291
     1
 70
    58
 90
        2
176
     1
 90
        2
176
     1
 90
        1
176
     1
 90
        2
176
     1
 40
0.6
176
     1
 40
30.0
176
     1
 62
     7
420
 16777215
176
     1
 90
        1
176
     1
 90
        0
176
     1
 62
     7
176
     1
 62
   257
176
     1
 90
        1
176
     1
 90
        1
176
     1
 40
1.0
176
     1
 90
        0
176
     1
 62
   257
176
     1
 40
1.0
176
     1
 90
        1
176
     1
 90
        6
176
     1
 90
        2
176
     1
 62
     7
176
     1
 90
        5
176
     1
 90
        0
176
     1
 90
        0
176
     1
290
     0
176
     1
 90
       13
176
     1
 40
0.0
176
     1
 90
        0
176
     1
290
     0
176
     1
290
     1
176
     1
290
     1
176
     1
290
     0
176
     1
290
     0
176
     1
290
     0
176
     1
290
     0
176
     1
290
     0
176
     1
290
     0
176
     1
 90
       50
176
     1
 40
0.0
176
     1
 40
1.0
176
     1
 90
        0
176
     1
 62
    18
420
        0
176
     1
 90
       50
176
     1
 90
        3
176
     1
 62
     5
420
      255
176
     1
290
     0
176
     1
 90
       50
176
     1
 90
       50
176
     1
 90
       50
176
     1
290
     0
176
     1
 90
       50
176
     1
 62
   256
176
     0
 40
1.0
176
     0
 90
        2
176
     1
  1
strokes_ogs.tif
176
     1
290
     0
176
     1
 40
1.0
176
     1
 40
1.0
176
     1
  0
VISUALSTYLE
  5
31
102
{ACAD_REACTORS
330
2A
102
}
330
2A
100
AcDbVisualStyle
  2
Hidden
 70
     6
177
     3
291
     0
 70
    58
 90
        1
176
     1
 90
        2
176
     1
 90
        2
176
     1
 90
        0
176
     1
 40
0.6
176
     1
 40
30.0
176
     1
 62
     7
420
 16777215
176
     1
 90
        2
176
     1
 90
        2
176
     1
 62
     7
176
     1
 62
   257
176
     1
 90
        2
176
     1
 90
        1
176
     1
 40
40.0
176
     1
 90
        0
176
     1
 62
   257
176
     1
 40
1.0
176
     1
 90
        1
176
     1
 90
        6
176
     1
 90
        2
176
     1
 62
     7
176
     1
 90
        3
176
     1
 90
        0
176
     1
 90
        0
176
     1
290
     0
176
     1
 90
        1
176
     1
 40
0.0
176
     1
 90
        0
176
     1
290
     0
176
     1
290
     1
176
     1
290
     1
176
     1
290
     0
176
     1
290
     0
176
     1
290
     0
176
     1
290
     0
176
     1
290
     0
176
     1
290
     0
176
     1
 90
       50
176
     1
 40
0.0
176
     1
 40
1.0
176
     1
 90
        0
176
     1
 62
    18
420
        0
176
     1
 90
       50
176
     1
 90
        3
176
     1
 62
     5
420
      255
176
     1
290
     0
176
     1
 90
       50
176
     1
 90
       50
176
     1
 90
       50
176
     1
290
     0
176
     1
 90
       50
176
     1
 62
   256
176
     0
 40
1.0
176
     0
 90
        2
176
     1
  1
strokes_ogs.tif
176
     1
290
     0
176
     1
 40
1.0
176
     1
 40
1.0
176
     1
  0
VISUALSTYLE
  5
3B
102
{ACAD_REACTORS
330
2A
102
}
330
2A
100
AcDbVisualStyle
  2
JitterOff
 70
    20
177
     3
291
     1
 70
    58
 90
        2
176
     0
 90
        2
176
     0
 90
        0
176
     0
 90
        0
176
     0
 40
0.6
176
     0
 40
30.0
176
     0
 62
     7
420
 16777215
176
     0
 90
        1
176
     0
 90
        4
176
     0
 62
     7
176
     0
 62
   257
176
     0
 90
        1
176
     0
 90
        1
176
     0
 40
1.0
176
     0
 90
       10
176
     2
 62
     7
176
     0
 40
1.0
176
     0
 90
        1
176
     0
 90
        6
176
     0
 90
        2
176
     0
 62
     7
176
     0
 90
        5
176
     0
 90
        0
176
     0
 90
        0
176
     0
290
     0
176
     0
 90
        1
176
     0
 40
0.0
176
     0
 90
        0
176
     0
290
     0
176
     0
290
     1
176
     0
290
     1
176
     0
290
     0
176
     0
290
     0
176
     0
290
     0
176
     0
290
     0
176
     0
290
     0
176
     0
290
     0
176
     0
 90
       50
176
     0
 40
0.0
176
     0
 40
1.0
176
     0
 90
        0
176
     0
 62
    18
420
        0
176
     0
 90
       50
176
     0
 90
        3
176
     0
 62
     5
420
      255
176
     0
290
     0
176
     0
 90
       50
176
     0
 90
       50
176
     0
 90
       50
176
     0
290
     0
176
     0
 90
       50
176
     0
 62
   256
176
     0
 40
1.0
176
     0
 90
        2
176
     0
  1
strokes_ogs.tif
176
     0
290
     0
176
     0
 40
1.0
176
     0
 40
1.0
176
     0
  0
VISUALSTYLE
  5
38
102
{ACAD_REACTORS
330
2A
102
}
330
2A
100
AcDbVisualStyle
  2
Linepattern
 70
    14
177
     3
291
     1
 70
    58
 90
        2
176
     1
 90
        2
176
     1
 90
        0
176
     1
 90
        0
176
     1
 40
0.6
176
     1
 40
30.0
176
     1
 62
     7
420
 16777215
176
     1
 90
        1
176
     1
 90
        4
176
     1
 62
     7
176
     1
 62
   257
176
     1
 90
        7
176
     1
 90
        7
176
     1
 40
1.0
176
     1
 90
        8
176
     1
 62
     7
176
     1
 40
1.0
176
     1
 90
        1
176
     1
 90
        6
176
     1
 90
        2
176
     1
 62
     7
176
     1
 90
        5
176
     1
 90
        0
176
     1
 90
        0
176
     1
290
     0
176
     1
 90
        1
176
     1
 40
0.0
176
     1
 90
        0
176
     1
290
     0
176
     1
290
     1
176
     1
290
     1
176
     1
290
     0
176
     1
290
     0
176
     1
290
     0
176
     1
290
     0
176
     1
290
     0
176
     1
290
     0
176
     1
 90
       50
176
     1
 40
0.0
176
     1
 40
1.0
176
     1
 90
        0
176
     1
 62
    18
420
        0
176
     1
 90
       50
176
     1
 90
        3
176
     1
 62
     5
420
      255
176
     1
290
     0
176
     1
 90
       50
176
     1
 90
       50
176
     1
 90
       50
176
     1
290
     0
176
     1
 90
       50
176
     1
 62
   256
176
     0
 40
1.0
176
     0
 90
        2
176
     1
  1
strokes_ogs.tif
176
     1
290
     0
176
     1
 40
1.0
176
     1
 40
1.0
176
     1
  0
VISUALSTYLE
  5
3C
102
{ACAD_REACTORS
330
2A
102
}
330
2A
100
AcDbVisualStyle
  2
OverhangOff
 70
    21
177
     3
291
     1
 70
    58
 90
        2
176
     0
 90
        2
176
     0
 90
        0
176
     0
 90
        0
176
     0
 40
0.6
176
     0
 40
30.0
176
     0
 62
     7
420
 16777215
176
     0
 90
        1
176
     0
 90
        4
176
     0
 62
     7
176
     0
 62
   257
176
     0
 90
        1
176
     0
 90
        1
176
     0
 40
1.0
176
     0
 90
        9
176
     2
 62
     7
176
     0
 40
1.0
176
     0
 90
        1
176
     0
 90
        6
176
     0
 90
        2
176
     0
 62
     7
176
     0
 90
        5
176
     0
 90
        0
176
     0
 90
        0
176
     0
290
     0
176
     0
 90
        1
176
     0
 40
0.0
176
     0
 90
        0
176
     0
290
     0
176
     0
290
     1
176
     0
290
     1
176
     0
290
     0
176
     0
290
     0
176
     0
290
     0
176
     0
290
     0
176
     0
290
     0
176
     0
290
     0
176
     0
 90
       50
176
     0
 40
0.0
176
     0
 40
1.0
176
     0
 90
        0
176
     0
 62
    18
420
        0
176
     0
 90
       50
176
     0
 90
        3
176
     0
 62
     5
420
      255
176
     0
290
     0
176
     0
 90
       50
176
     0
 90
       50
176
     0
 90
       50
176
     0
290
     0
176
     0
 90
       50
176
     0
 62
   256
176
     0
 40
1.0
176
     0
 90
        2
176
     0
  1
strokes_ogs.tif
176
     0
290
     0
176
     0
 40
1.0
176
     0
 40
1.0
176
     0
  0
VISUALSTYLE
  5
33
102
{ACAD_REACTORS
330
2A
102
}
330
2A
100
AcDbVisualStyle
  2
Realistic
 70
     8
177
     3
291
     0
 70
    58
 90
        2
176
     1
 90
        3
176
     1
 90
        0
176
     1
 90
        2
176
     1
 40
0.6
176
     1
 40
30.0
176
     1
 62
     7
420
 16777215
176
     1
 90
        0
176
     1
 90
        0
176
     1
 62
     7
176
     1
 62
   257
176
     1
 90
        1
176
     1
 90
        1
176
     1
 40
1.0
176
     1
 90
        8
176
     1
 62
   257
176
     1
 40
1.0
176
     1
 90
        1
176
     1
 90
        6
176
     1
 90
        2
176
     1
 62
     7
176
     1
 90
        3
176
     1
 90
        0
176
     1
 90
        0
176
     1
290
     0
176
     1
 90
       13
176
     1
 40
0.0
176
     1
 90
        0
176
     1
290
     0
176
     1
290
     1
176
     1
290
     1
176
     1
290
     0
176
     1
290
     0
176
     1
290
     0
176
     1
290
     0
176
     1
290
     0
176
     1
290
     0
176
     1
 90
       50
176
     1
 40
0.0
176
     1
 40
1.0
176
     1
 90
        0
176
     1
 62
    18
420
        0
176
     1
 90
       50
176
     1
 90
        3
176
     1
 62
     5
420
      255
176
     1
290
     0
176
     1
 90
       50
176
     1
 90
       50
176
     1
 90
       50
176
     1
290
     0
176
     1
 90
       50
176
     1
 62
   256
176
     0
 40
1.0
176
     0
 90
        2
176
     1
  1
strokes_ogs.tif
176
     1
290
     0
176
     1
 40
1.0
176
     1
 40
1.0
176
     1
  0
VISUALSTYLE
  5
42
102
{ACAD_REACTORS
330
2A
102
}
330
2A
100
AcDbVisualStyle
  2
Shaded
 70
    27
177
     3
291
     0
 70
    58
 90
        2
176
     1
 90
        2
176
     1
 90
        1
176
     1
 90
        2
176
     1
 40
0.6
176
     1
 40
30.0
176
     1
 62
     7
420
 16777215
176
     1
 90
        0
176
     1
 90
        4
176
     1
 62
     7
176
     1
 62
   257
176
     1
 90
        1
176
     1
 90
        1
176
     1
 40
1.0
176
     1
 90
        8
176
     1
 62
   257
176
     1
 40
1.0
176
     1
 90
        1
176
     1
 90
        6
176
     1
 90
        2
176
     1
 62
     8
420
  7895160
176
     1
 90
        3
176
     1
 90
        0
176
     1
 90
        0
176
     1
290
     0
176
     1
 90
        5
176
     1
 40
0.0
176
     1
 90
        0
176
     1
290
     0
176
     1
290
     1
176
     1
290
     1
176
     1
290
     0
176
     1
290
     0
176
     1
290
     0
176
     1
290
     0
176
     1
290
     0
176
     1
290
     0
176
     1
 90
       50
176
     1
 40
0.0
176
     1
 40
1.0
176
     1
 90
        0
176
     1
 62
    18
420
        0
176
     1
 90
       50
176
     1
 90
        3
176
     1
 62
     5
420
      255
176
     1
290
     0
176
     1
 90
       50
176
     1
 90
       50
176
     1
 90
       50
176
     1
290
     0
176
     1
 90
       50
176
     1
 62
   256
176
     0
 40
1.0
176
     0
 90
        2
176
     1
  1
strokes_ogs.tif
176
     1
290
     0
176
     1
 40
1.0
176
     1
 40
1.0
176
     1
  0
VISUALSTYLE
  5
41
102
{ACAD_REACTORS
330
2A
102
}
330
2A
100
AcDbVisualStyle
  2
Shaded with edges
 70
    26
177
     3
291
     0
 70
    58
 90
        2
176
     1
 90
        2
176
     1
 90
        1
176
     1
 90
        2
176
     1
 40
0.6
176
     1
 40
30.0
176
     1
 62
     7
420
 16777215
176
     1
 90
        1
176
     1
 90
       10
176
     1
 62
     7
176
     1
 62
   257
176
     1
 90
        2
176
     1
 90
        1
176
     1
 40
1.0
176
     1
 90
        8
176
     1
 62
   257
176
     1
 40
1.0
176
     1
 90
        1
176
     1
 90
        6
176
     1
 90
        2
176
     1
 62
     7
176
     1
 90
        3
176
     1
 90
        0
176
     1
 90
        0
176
     1
290
     0
176
     1
 90
        5
176
     1
 40
0.0
176
     1
 90
        0
176
     1
290
     0
176
     1
290
     1
176
     1
290
     1
176
     1
290
     0
176
     1
290
     0
176
     1
290
     0
176
     1
290
     0
176
     1
290
     0
176
     1
290
     0
176
     1
 90
       50
176
     1
 40
0.0
176
     1
 40
1.0
176
     1
 90
        0
176
     1
 62
    18
420
        0
176
     1
 90
       50
176
     1
 90
        3
176
     1
 62
     5
420
      255
176
     1
290
     0
176
     1
 90
       50
176
     1
 90
       50
176
     1
 90
       50
176
     1
290
     0
176
     1
 90
       50
176
     1
 62
   256
176
     0
 40
1.0
176
     0
 90
        2
176
     1
  1
strokes_ogs.tif
176
     1
290
     0
176
     1
 40
1.0
176
     1
 40
1.0
176
     1
  0
VISUALSTYLE
  5
3E
102
{ACAD_REACTORS
330
2A
102
}
330
2A
100
AcDbVisualStyle
  2
Shades of Gray
 70
    23
177
     3
291
     0
 70
    58
 90
        2
176
     1
 90
        2
176
     1
 90
        3
176
     1
 90
        0
176
     1
 40
0.6
176
     1
 40
30.0
176
     1
 62
     7
420
 16777215
176
     1
 90
        2
176
     1
 90
        2
176
     1
 62
     7
176
     1
 62
     7
176
     1
 90
        1
176
     1
 90
        1
176
     1
 40
40.0
176
     1
 90
        8
176
     1
 62
     7
176
     1
 40
1.0
176
     1
 90
        1
176
     1
 90
        6
176
     1
 90
        2
176
     1
 62
     7
176
     1
 90
        3
176
     1
 90
        0
176
     1
 90
        0
176
     1
290
     0
176
     1
 90
        1
176
     1
 40
0.0
176
     1
 90
        0
176
     1
290
     0
176
     1
290
     1
176
     1
290
     1
176
     1
290
     0
176
     1
290
     0
176
     1
290
     0
176
     1
290
     0
176
     1
290
     0
176
     1
290
     0
176
     1
 90
       50
176
     1
 40
0.0
176
     1
 40
1.0
176
     1
 90
        0
176
     1
 62
    18
420
        0
176
     1
 90
       50
176
     1
 90
        3
176
     1
 62
     5
420
      255
176
     1
290
     0
176
     1
 90
       50
176
     1
 90
       50
176
     1
 90
       50
176
     1
290
     0
176
     1
 90
       50
176
     1
 62
   256
176
     0
 40
1.0
176
     0
 90
        2
176
     1
  1
strokes_ogs.tif
176
     1
290
     0
176
     1
 40
1.0
176
     1
 40
1.0
176
     1
  0
VISUALSTYLE
  5
3F
102
{ACAD_REACTORS
330
2A
102
}
330
2A
100
AcDbVisualStyle
  2
Sketchy
 70
    24
177
     3
291
     0
 70
    58
 90
        1
176
     1
 90
        2
176
     1
 90
        2
176
     1
 90
        0
176
     1
 40
0.6
176
     1
 40
30.0
176
     1
 62
     7
420
 16777215
176
     1
 90
        2
176
     1
 90
        2
176
     1
 62
     7
176
     1
 62
     7
176
     1
 90
        1
176
     1
 90
        1
176
     1
 40
40.0
176
     1
 90
       11
176
     1
 62
     7
176
     1
 40
1.0
176
     1
 90
        1
176
     1
 90
        6
176
     1
 90
        2
176
     1
 62
     7
176
     1
 90
        6
176
     1
 90
        0
176
     1
 90
        0
176
     1
290
     0
176
     1
 90
        1
176
     1
 40
0.0
176
     1
 90
        0
176
     1
290
     0
176
     1
290
     1
176
     1
290
     1
176
     1
290
     0
176
     1
290
     0
176
     1
290
     0
176
     1
290
     0
176
     1
290
     0
176
     1
290
     0
176
     1
 90
       50
176
     1
 40
0.0
176
     1
 40
1.0
176
     1
 90
        0
176
     1
 62
    18
420
        0
176
     1
 90
       50
176
     1
 90
        3
176
     1
 62
     5
420
      255
176
     1
290
     0
176
     1
 90
       50
176
     1
 90
       50
176
     1
 90
       50
176
     1
290
     0
176
     1
 90
       50
176
     1
 62
   256
176
     0
 40
1.0
176
     0
 90
        2
176
     1
  1
strokes_ogs.tif
176
     1
290
     0
176
     1
 40
1.0
176
     1
 40
1.0
176
     1
  0
VISUALSTYLE
  5
37
102
{ACAD_REACTORS
330
2A
102
}
330
2A
100
AcDbVisualStyle
  2
Thicken
 70
    13
177
     3
291
     1
 70
    58
 90
        2
176
     1
 90
        2
176
     1
 90
        0
176
     1
 90
        0
176
     1
 40
0.6
176
     1
 40
30.0
176
     1
 62
     7
420
 16777215
176
     1
 90
        1
176
     1
 90
        4
176
     1
 62
     7
176
     1
 62
   257
176
     1
 90
        1
176
     1
 90
        1
176
     1
 40
1.0
176
     1
 90
       12
176
     1
 62
     7
176
     1
 40
1.0
176
     1
 90
        1
176
     1
 90
        6
176
     1
 90
        2
176
     1
 62
     7
176
     1
 90
        5
176
     1
 90
        0
176
     1
 90
        0
176
     1
290
     0
176
     1
 90
        1
176
     1
 40
0.0
176
     1
 90
        0
176
     1
290
     0
176
     1
290
     1
176
     1
290
     1
176
     1
290
     0
176
     1
290
     0
176
     1
290
     0
176
     1
290
     0
176
     1
290
     0
176
     1
290
     0
176
     1
 90
       50
176
     1
 40
0.0
176
     1
 40
1.0
176
     1
 90
        0
176
     1
 62
    18
420
        0
176
     1
 90
       50
176
     1
 90
        3
176
     1
 62
     5
420
      255
176
     1
290
     0
176
     1
 90
       50
176
     1
 90
       50
176
     1
 90
       50
176
     1
290
     0
176
     1
 90
       50
176
     1
 62
   256
176
     0
 40
1.0
176
     0
 90
        2
176
     1
  1
strokes_ogs.tif
176
     1
290
     0
176
     1
 40
1.0
176
     1
 40
1.0
176
     1
  0
VISUALSTYLE
  5
30
102
{ACAD_REACTORS
330
2A
102
}
330
2A
100
AcDbVisualStyle
  2
Wireframe
 70
     5
177
     3
291
     0
 70
    58
 90
        0
176
     1
 90
        2
176
     1
 90
        0
176
     1
 90
        0
176
     1
 40
0.6
176
     1
 40
30.0
176
     1
 62
     7
420
 16777215
176
     1
 90
        1
176
     1
 90
        4
176
     1
 62
     7
176
     1
 62
   257
176
     1
 90
        1
176
     1
 90
        1
176
     1
 40
1.0
176
     1
 90
        0
176
     1
 62
   257
176
     1
 40
1.0
176
     1
 90
        1
176
     1
 90
        6
176
     1
 90
        2
176
     1
 62
     7
176
     1
 90
        3
176
     1
 90
        0
176
     1
 90
        0
176
     1
290
     0
176
     1
 90
        1
176
     1
 40
0.0
176
     1
 90
        0
176
     1
290
     0
176
     1
290
     1
176
     1
290
     1
176
     1
290
     0
176
     1
290
     0
176
     1
290
     0
176
     1
290
     0
176
     1
290
     0
176
     1
290
     0
176
     1
 90
       50
176
     1
 40
0.0
176
     1
 40
1.0
176
     1
 90
        0
176
     1
 62
    18
420
        0
176
     1
 90
       50
176
     1
 90
        3
176
     1
 62
     5
420
      255
176
     1
290
     0
176
     1
 90
       50
176
     1
 90
       50
176
     1
 90
       50
176
     1
290
     0
176
     1
 90
       50
176
     1
 62
   256
176
     0
 40
1.0
176
     0
 90
        2
176
     1
  1
strokes_ogs.tif
176
     1
290
     0
176
     1
 40
1.0
176
     1
 40
1.0
176
     1
  0
VISUALSTYLE
  5
40
102
{ACAD_REACTORS
330
2A
102
}
330
2A
100
AcDbVisualStyle
  2
X-Ray
 70
    25
177
     3
291
     0
 70
    58
 90
        2
176
     1
 90
        2
176
     1
 90
        1
176
     1
 90
        1
176
     1
 40
0.5
176
     1
 40
30.0
176
     1
 62
     7
420
 16777215
176
     1
 90
        1
176
     1
 90
        0
176
     1
 62
     7
176
     1
 62
   257
176
     1
 90
        1
176
     1
 90
        1
176
     1
 40
1.0
176
     1
 90
        8
176
     1
 62
     7
176
     1
 40
1.0
176
     1
 90
        1
176
     1
 90
        6
176
     1
 90
        2
176
     1
 62
     7
176
     1
 90
        3
176
     1
 90
        0
176
     1
 90
        0
176
     1
290
     0
176
     1
 90
       13
176
     1
 40
0.0
176
     1
 90
        0
176
     1
290
     0
176
     1
290
     1
176
     1
290
     1
176
     1
290
     0
176
     1
290
     0
176
     1
290
     0
176
     1
290
     0
176
     1
290
     0
176
     1
290
     0
176
     1
 90
       50
176
     1
 40
0.0
176
     1
 40
1.0
176
     1
 90
        0
176
     1
 62
    18
420
        0
176
     1
 90
       50
176
     1
 90
        3
176
     1
 62
     5
420
      255
176
     1
290
     0
176
     1
 90
       50
176
     1
 90
       50
176
     1
 90
       50
176
     1
290
     0
176
     1
 90
       50
176
     1
 62
   256
176
     0
 40
1.0
176
     0
 90
        2
176
     1
  1
strokes_ogs.tif
176
     1
290
     0
176
     1
 40
1.0
176
     1
 40
1.0
176
     1
  0
DICTIONARYVAR
  5
2AC
102
{ACAD_REACTORS
330
2AB
102
}
330
2AB
100
DictionaryVariables
280
     0
  1
1:1
  0
ENDSEC
  0
EOF
