  0
SECTION
  2
HEADER
  9
$ACADVER
  1
AC1027
  9
$ACADMAINTVER
 70
     8
  9
$DWGCODEPAGE
  3
ANSI_932
  9
$REQUIREDVERSIONS
160
                 0
  9
$INSBASE
 10
0.0
 20
0.0
 30
0.0
  9
$EXTMIN
 10
205.0169462623079
 20
41.67630057803461
 30
0.0
  9
$EXTMAX
 10
805.2993054292695
 20
300.2439208035362
 30
0.0
  9
$LIMMIN
 10
0.0
 20
0.0
  9
$LIMMAX
 10
1189.0
 20
841.0
  9
$ORTHOMODE
 70
     0
  9
$REGENMODE
 70
     1
  9
$FILLMODE
 70
     1
  9
$QTEXTMODE
 70
     0
  9
$MIRRTEXT
 70
     1
  9
$LTSCALE
 40
0.25
  9
$ATTMODE
 70
     1
  9
$TEXTSIZE
 40
2.8
  9
$TRACEWID
 40
0.05
  9
$TEXTSTYLE
  7
Standard
  9
$CLAYER
  8
0
  9
$CELTYPE
  6
ByLayer
  9
$CECOLOR
 62
   256
  9
$CELTSCALE
 40
1.0
  9
$DISPSILH
 70
     0
  9
$DIMSCALE
 40
1.0
  9
$DIMASZ
 40
1.55291427
  9
$DIMEXO
 40
2.0
  9
$DIMDLI
 40
30.0
  9
$DIMRND
 40
0.0
  9
$DIMDLE
 40
0.0
  9
$DIMEXE
 40
2.0
  9
$DIMTP
 40
0.0
  9
$DIMTM
 40
0.0
  9
$DIMTXT
 40
2.8
  9
$DIMCEN
 40
0.09
  9
$DIMTSZ
 40
0.0
  9
$DIMTOL
 70
     0
  9
$DIMLIM
 70
     0
  9
$DIMTIH
 70
     0
  9
$DIMTOH
 70
     0
  9
$DIMSE1
 70
     0
  9
$DIMSE2
 70
     0
  9
$DIMTAD
 70
     3
  9
$DIMZIN
 70
     8
  9
$DIMBLK
  1

  9
$DIMASO
 70
     1
  9
$DIMSHO
 70
     1
  9
$DIMPOST
  1

  9
$DIMAPOST
  1

  9
$DIMALT
 70
     0
  9
$DIMALTD
 70
     2
  9
$DIMALTF
 40
25.4
  9
$DIMLFAC
 40
1.0
  9
$DIMTOFL
 70
     1
  9
$DIMTVP
 40
0.7
  9
$DIMTIX
 70
     0
  9
$DIMSOXD
 70
     0
  9
$DIMSAH
 70
     0
  9
$DIMBLK1
  1

  9
$DIMBLK2
  1

  9
$DIMSTYLE
  2
Standard
  9
$DIMCLRD
 70
     0
  9
$DIMCLRE
 70
     0
  9
$DIMCLRT
 70
     0
  9
$DIMTFAC
 40
0.5
  9
$DIMGAP
 40
0.09
  9
$DIMJUST
 70
     0
  9
$DIMSD1
 70
     0
  9
$DIMSD2
 70
     0
  9
$DIMTOLJ
 70
     1
  9
$DIMTZIN
 70
     8
  9
$DIMALTZ
 70
     0
  9
$DIMALTTZ
 70
     0
  9
$DIMUPT
 70
     1
  9
$DIMDEC
 70
     2
  9
$DIMTDEC
 70
     4
  9
$DIMALTU
 70
     2
  9
$DIMALTTD
 70
     2
  9
$DIMTXSTY
  7
Standard
  9
$DIMAUNIT
 70
     0
  9
$DIMADEC
 70
     0
  9
$DIMALTRND
 40
0.0
  9
$DIMAZIN
 70
     0
  9
$DIMDSEP
 70
    46
  9
$DIMATFIT
 70
     2
  9
$DIMFRAC
 70
     0
  9
$DIMLDRBLK
  1

  9
$DIMLUNIT
 70
     2
  9
$DIMLWD
 70
    -2
  9
$DIMLWE
 70
    -2
  9
$DIMTMOVE
 70
     2
  9
$DIMFXL
 40
1.0
  9
$DIMFXLON
 70
     0
  9
$DIMJOGANG
 40
0.7853981633974483
  9
$DIMTFILL
 70
     0
  9
$DIMTFILLCLR
 70
     0
  9
$DIMARCSYM
 70
     0
  9
$DIMLTYPE
  6

  9
$DIMLTEX1
  6

  9
$DIMLTEX2
  6

  9
$DIMTXTDIRECTION
 70
     0
  9
$LUNITS
 70
     2
  9
$LUPREC
 70
     4
  9
$SKETCHINC
 40
0.1
  9
$FILLETRAD
 40
0.5
  9
$AUNITS
 70
     0
  9
$AUPREC
 70
     0
  9
$MENU
  1
.
  9
$ELEVATION
 40
0.0
  9
$PELEVATION
 40
0.0
  9
$THICKNESS
 40
0.0
  9
$LIMCHECK
 70
     0
  9
$CHAMFERA
 40
0.0
  9
$CHAMFERB
 40
0.0
  9
$CHAMFERC
 40
0.0
  9
$CHAMFERD
 40
0.0
  9
$SKPOLY
 70
     0
  9
$TDCREATE
 40
2460053.929224537
  9
$TDUCREATE
 40
2460053.554224537
  9
$TDUPDATE
 40
2460053.554234548
  9
$TDUUPDATE
 40
2460053.179234548
  9
$TDINDWG
 40
0.0000000116
  9
$TDUSRTIMER
 40
0.0000000116
  9
$USRTIMER
 70
     1
  9
$ANGBASE
 50
0.0
  9
$ANGDIR
 70
     0
  9
$PDMODE
 70
     0
  9
$PDSIZE
 40
0.0
  9
$PLINEWID
 40
0.0
  9
$SPLFRAME
 70
     0
  9
$SPLINETYPE
 70
     6
  9
$SPLINESEGS
 70
     8
  9
$HANDSEED
  5
352
  9
$SURFTAB1
 70
     6
  9
$SURFTAB2
 70
     6
  9
$SURFTYPE
 70
     6
  9
$SURFU
 70
     6
  9
$SURFV
 70
     6
  9
$UCSBASE
  2

  9
$UCSNAME
  2

  9
$UCSORG
 10
0.0
 20
0.0
 30
0.0
  9
$UCSXDIR
 10
1.0
 20
0.0
 30
0.0
  9
$UCSYDIR
 10
0.0
 20
1.0
 30
0.0
  9
$UCSORTHOREF
  2

  9
$UCSORTHOVIEW
 70
     0
  9
$UCSORGTOP
 10
0.0
 20
0.0
 30
0.0
  9
$UCSORGBOTTOM
 10
0.0
 20
0.0
 30
0.0
  9
$UCSORGLEFT
 10
0.0
 20
0.0
 30
0.0
  9
$UCSORGRIGHT
 10
0.0
 20
0.0
 30
0.0
  9
$UCSORGFRONT
 10
0.0
 20
0.0
 30
0.0
  9
$UCSORGBACK
 10
0.0
 20
0.0
 30
0.0
  9
$PUCSBASE
  2

  9
$PUCSNAME
  2

  9
$PUCSORG
 10
0.0
 20
0.0
 30
0.0
  9
$PUCSXDIR
 10
1.0
 20
0.0
 30
0.0
  9
$PUCSYDIR
 10
0.0
 20
1.0
 30
0.0
  9
$PUCSORTHOREF
  2

  9
$PUCSORTHOVIEW
 70
     0
  9
$PUCSORGTOP
 10
0.0
 20
0.0
 30
0.0
  9
$PUCSORGBOTTOM
 10
0.0
 20
0.0
 30
0.0
  9
$PUCSORGLEFT
 10
0.0
 20
0.0
 30
0.0
  9
$PUCSORGRIGHT
 10
0.0
 20
0.0
 30
0.0
  9
$PUCSORGFRONT
 10
0.0
 20
0.0
 30
0.0
  9
$PUCSORGBACK
 10
0.0
 20
0.0
 30
0.0
  9
$USERI1
 70
     0
  9
$USERI2
 70
     0
  9
$USERI3
 70
     0
  9
$USERI4
 70
     0
  9
$USERI5
 70
     0
  9
$USERR1
 40
0.0
  9
$USERR2
 40
0.0
  9
$USERR3
 40
0.0
  9
$USERR4
 40
0.0
  9
$USERR5
 40
0.0
  9
$WORLDVIEW
 70
     1
  9
$SHADEDGE
 70
     3
  9
$SHADEDIF
 70
    70
  9
$TILEMODE
 70
     1
  9
$MAXACTVP
 70
    64
  9
$PINSBASE
 10
0.0
 20
0.0
 30
0.0
  9
$PLIMCHECK
 70
     0
  9
$PEXTMIN
 10
0.0
 20
0.0
 30
0.0
  9
$PEXTMAX
 10
1189.0
 20
841.0
 30
0.0
  9
$PLIMMIN
 10
0.0
 20
0.0
  9
$PLIMMAX
 10
1189.0
 20
841.0
  9
$UNITMODE
 70
     0
  9
$VISRETAIN
 70
     1
  9
$PLINEGEN
 70
     0
  9
$PSLTSCALE
 70
     1
  9
$TREEDEPTH
 70
  3020
  9
$CMLSTYLE
  2
Standard
  9
$CMLJUST
 70
     0
  9
$CMLSCALE
 40
1.0
  9
$PROXYGRAPHICS
 70
     1
  9
$MEASUREMENT
 70
     1
  9
$CELWEIGHT
370
    -1
  9
$ENDCAPS
280
     0
  9
$JOINSTYLE
280
     0
  9
$LWDISPLAY
290
     0
  9
$INSUNITS
 70
     4
  9
$HYPERLINKBASE
  1

  9
$STYLESHEET
  1

  9
$XEDIT
290
     1
  9
$CEPSNTYPE
380
     0
  9
$PSTYLEMODE
290
     1
  9
$FINGERPRINTGUID
  2
{43131E0C-C2D3-4087-9103-42755B2E5711}
  9
$VERSIONGUID
  2
{FAEB1C32-E019-11D5-929B-00C0DF256EC4}
  9
$EXTNAMES
290
     1
  9
$PSVPSCALE
 40
0.0
  9
$OLESTARTUP
290
     0
  9
$SORTENTS
280
   127
  9
$INDEXCTL
280
     0
  9
$HIDETEXT
280
     1
  9
$XCLIPFRAME
280
     2
  9
$HALOGAP
280
     0
  9
$OBSCOLOR
 70
   257
  9
$OBSLTYPE
280
     0
  9
$INTERSECTIONDISPLAY
280
     0
  9
$INTERSECTIONCOLOR
 70
   257
  9
$DIMASSOC
280
     1
  9
$PROJECTNAME
  1

  9
$CAMERADISPLAY
290
     0
  9
$LENSLENGTH
 40
50.0
  9
$CAMERAHEIGHT
 40
0.0
  9
$STEPSPERSEC
 40
2.0
  9
$STEPSIZE
 40
6.0
  9
$3DDWFPREC
 40
2.0
  9
$PSOLWIDTH
 40
0.25
  9
$PSOLHEIGHT
 40
4.0
  9
$LOFTANG1
 40
1.570796326794897
  9
$LOFTANG2
 40
1.570796326794897
  9
$LOFTMAG1
 40
0.0
  9
$LOFTMAG2
 40
0.0
  9
$LOFTPARAM
 70
     7
  9
$LOFTNORMALS
280
     1
  9
$LATITUDE
 40
37.795
  9
$LONGITUDE
 40
-122.394
  9
$NORTHDIRECTION
 40
0.0
  9
$TIMEZONE
 70
 -8000
  9
$LIGHTGLYPHDISPLAY
280
     1
  9
$TILEMODELIGHTSYNCH
280
     1
  9
$CMATERIAL
347
44
  9
$SOLIDHIST
280
     1
  9
$SHOWHIST
280
     1
  9
$DWFFRAME
280
     2
  9
$DGNFRAME
280
     2
  9
$REALWORLDSCALE
290
     1
  9
$INTERFERECOLOR
 62
   256
  9
$CSHADOW
280
     0
  9
$SHADOWPLANELOCATION
 40
0.0
  0
ENDSEC
  0
SECTION
  2
CLASSES
  0
CLASS
  1
ACDBDICTIONARYWDFLT
  2
AcDbDictionaryWithDefault
  3
ObjectDBX Classes
 90
        0
 91
        4
280
     0
281
     0
  0
CLASS
  1
VISUALSTYLE
  2
AcDbVisualStyle
  3
ObjectDBX Classes
 90
     4095
 91
        4
280
     0
281
     0
  0
CLASS
  1
MATERIAL
  2
AcDbMaterial
  3
ObjectDBX Classes
 90
     1153
 91
        4
280
     0
281
     0
  0
CLASS
  1
SCALE
  2
AcDbScale
  3
ObjectDBX Classes
 90
     1153
 91
        4
280
     0
281
     0
  0
CLASS
  1
SUN
  2
AcDbSun
  3
SCENEOE
 90
     1153
 91
        4
280
     0
281
     0
  0
CLASS
  1
DICTIONARYVAR
  2
AcDbDictionaryVar
  3
ObjectDBX Classes
 90
        0
 91
        4
280
     0
281
     0
  0
ENDSEC
  0
SECTION
  2
TABLES
  0
TABLE
  2
VPORT
  5
8
330
0
100
AcDbSymbolTable
 70
     1
  0
VPORT
  5
29
330
8
100
AcDbSymbolTableRecord
100
AcDbViewportTableRecord
  2
*Active
 70
     0
 10
0.0
 20
0.0
 11
1.0
 21
1.0
 12
10.42990654205607
 22
4.5
 13
0.0
 23
0.0
 14
0.5
 24
0.5
 15
0.5
 25
0.5
 16
0.0
 26
0.0
 36
1.0
 17
0.0
 27
0.0
 37
0.0
 40
9.0
 41
1.972972972850329
 42
50.0
 43
0.0
 44
0.0
 50
0.0
 51
0.0
 71
     0
 72
   100
 73
     1
 74
     3
 75
     0
 76
     0
 77
     0
 78
     0
281
     0
 65
     1
110
0.0
120
0.0
130
0.0
111
1.0
121
0.0
131
0.0
112
0.0
122
1.0
132
0.0
 79
     0
146
0.0
 60
     3
 61
     5
292
     1
282
     1
141
0.0
142
0.0
 63
   250
361
69
  0
ENDTAB
  0
TABLE
  2
LTYPE
  5
5
330
0
100
AcDbSymbolTable
 70
     9
  0
LTYPE
  5
14
330
5
100
AcDbSymbolTableRecord
100
AcDbLinetypeTableRecord
  2
ByBlock
 70
     0
  3

 72
    65
 73
     0
 40
0.0
  0
LTYPE
  5
15
330
5
100
AcDbSymbolTableRecord
100
AcDbLinetypeTableRecord
  2
ByLayer
 70
     0
  3

 72
    65
 73
     0
 40
0.0
  0
LTYPE
  5
16
330
5
100
AcDbSymbolTableRecord
100
AcDbLinetypeTableRecord
  2
Continuous
 70
     0
  3
Solid line
 72
    65
 73
     0
 40
0.0
  0
LTYPE
  5
B9
330
5
100
AcDbSymbolTableRecord
100
AcDbLinetypeTableRecord
  2
DOT
 70
     0
  3
DOT
 72
    65
 73
     2
 40
4.0
 49
6.0
 74
     0
 49
-2.0
 74
     0
  0
LTYPE
  5
BA
330
5
100
AcDbSymbolTableRecord
100
AcDbLinetypeTableRecord
  2
HIDDEN
 70
     0
  3
HIDDEN
 72
    65
 73
     2
 40
4.2
 49
8.4
 74
     0
 49
-4.2
 74
     0
  0
LTYPE
  5
BB
330
5
100
AcDbSymbolTableRecord
100
AcDbLinetypeTableRecord
  2
DASHDOT
 70
     0
  3
DASHDOT
 72
    65
 73
     4
 40
14.5
 49
30.0
 74
     0
 49
-9.0
 74
     0
 49
2.5
 74
     0
 49
-9.0
 74
     0
  0
LTYPE
  5
BC
330
5
100
AcDbSymbolTableRecord
100
AcDbLinetypeTableRecord
  2
PHANTOM
 70
     0
  3
PHANTOM
 72
    65
 73
     6
 40
12.0
 49
30.0
 74
     0
 49
-9.0
 74
     0
 49
2.5
 74
     0
 49
-5.0
 74
     0
 49
2.5
 74
     0
 49
-9.0
 74
     0
  0
LTYPE
  5
BD
330
5
100
AcDbSymbolTableRecord
100
AcDbLinetypeTableRecord
  2
ACAD_ISO14W100
 70
     0
  3
ACAD_ISO14W100
 72
    65
 73
     8
 40
1.5
 49
12.0
 74
     0
 49
-3.0
 74
     0
 49
0.5
 74
     0
 49
-3.0
 74
     0
 49
0.5
 74
     0
 49
-3.0
 74
     0
 49
0.5
 74
     0
 49
-3.0
 74
     0
  0
LTYPE
  5
BE
330
5
100
AcDbSymbolTableRecord
100
AcDbLinetypeTableRecord
  2
ACAD_ISO06W100
 70
     0
  3
ACAD_ISO06W100
 72
    65
 73
     8
 40
13.5
 49
24.0
 74
     0
 49
-3.0
 74
     0
 49
0.5
 74
     0
 49
-3.0
 74
     0
 49
0.5
 74
     0
 49
-3.0
 74
     0
 49
0.5
 74
     0
 49
-3.0
 74
     0
  0
LTYPE
  5
BF
330
5
100
AcDbSymbolTableRecord
100
AcDbLinetypeTableRecord
  2
ACAD_ISO11W100
 70
     0
  3
ACAD_ISO11W100
 72
    65
 73
     6
 40
15.5
 49
12.0
 74
     0
 49
-3.0
 74
     0
 49
12.0
 74
     0
 49
-3.0
 74
     0
 49
0.5
 74
     0
 49
-3.0
 74
     0
  0
LTYPE
  5
C0
330
5
100
AcDbSymbolTableRecord
100
AcDbLinetypeTableRecord
  2
ACAD_ISO13W100
 70
     0
  3
ACAD_ISO13W100
 72
    65
 73
     8
 40
13.0
 49
12.0
 74
     0
 49
-3.0
 74
     0
 49
12.0
 74
     0
 49
-3.0
 74
     0
 49
0.5
 74
     0
 49
-3.0
 74
     0
 49
0.5
 74
     0
 49
-3.0
 74
     0
  0
ENDTAB
  0
TABLE
  2
LAYER
  5
2
330
0
100
AcDbSymbolTable
 70
    22
  0
LAYER
  5
10
330
2
100
AcDbSymbolTableRecord
100
AcDbLayerTableRecord
  2
0
 70
     0
 62
     7
  6
Continuous
370
    -3
390
F
347
46
348
0
  0
LAYER
  5
C1
330
2
100
AcDbSymbolTableRecord
100
AcDbLayerTableRecord
  2
1
 70
     0
 62
     7
  6
Continuous
370
    35
390
F
347
46
348
0
  0
LAYER
  5
C2
330
2
100
AcDbSymbolTableRecord
100
AcDbLayerTableRecord
  2
2
 70
     0
 62
    70
  6
Continuous
370
     9
390
F
347
46
348
0
  0
LAYER
  5
C3
330
2
100
AcDbSymbolTableRecord
100
AcDbLayerTableRecord
  2
3
 70
     0
 62
     1
  6
DASHDOT
370
    13
390
F
347
46
348
0
  0
LAYER
  5
C4
330
2
100
AcDbSymbolTableRecord
100
AcDbLayerTableRecord
  2
4
 70
     0
 62
     2
  6
Continuous
370
     9
390
F
347
46
348
0
  0
LAYER
  5
C5
330
2
100
AcDbSymbolTableRecord
100
AcDbLayerTableRecord
  2
5
 70
     0
 62
    30
  6
Continuous
370
     9
390
F
347
46
348
0
  0
LAYER
  5
C6
330
2
100
AcDbSymbolTableRecord
100
AcDbLayerTableRecord
  2
6
 70
     0
 62
    14
  6
Continuous
370
     9
390
F
347
46
348
0
  0
LAYER
  5
C7
330
2
100
AcDbSymbolTableRecord
100
AcDbLayerTableRecord
  2
7
 70
     0
 62
     4
  6
Continuous
370
    18
390
F
347
46
348
0
  0
LAYER
  5
C8
330
2
100
AcDbSymbolTableRecord
100
AcDbLayerTableRecord
  2
8
 70
     0
 62
     6
  6
Continuous
370
     9
390
F
347
46
348
0
  0
LAYER
  5
C9
330
2
100
AcDbSymbolTableRecord
100
AcDbLayerTableRecord
  2
9
 70
     0
 62
     2
  6
Continuous
370
     9
390
F
347
46
348
0
  0
LAYER
  5
CA
330
2
100
AcDbSymbolTableRecord
100
AcDbLayerTableRecord
  2
10
 70
     0
 62
     3
  6
Continuous
370
     9
390
F
347
46
348
0
  0
LAYER
  5
CB
330
2
100
AcDbSymbolTableRecord
100
AcDbLayerTableRecord
  2
11
 70
     0
 62
   251
  6
Continuous
370
     9
390
F
347
46
348
0
  0
LAYER
  5
CC
330
2
100
AcDbSymbolTableRecord
100
AcDbLayerTableRecord
  2
12
 70
     0
 62
   136
  6
Continuous
370
     9
390
F
347
46
348
0
  0
LAYER
  5
CD
330
2
100
AcDbSymbolTableRecord
100
AcDbLayerTableRecord
  2
13
 70
     0
 62
   216
  6
Continuous
370
     9
390
F
347
46
348
0
  0
LAYER
  5
CE
330
2
100
AcDbSymbolTableRecord
100
AcDbLayerTableRecord
  2
14
 70
     0
 62
    56
  6
Continuous
370
     9
390
F
347
46
348
0
  0
LAYER
  5
CF
330
2
100
AcDbSymbolTableRecord
100
AcDbLayerTableRecord
  2
15
 70
     0
 62
    96
  6
Continuous
370
     9
390
F
347
46
348
0
  0
LAYER
  5
D0
330
2
100
AcDbSymbolTableRecord
100
AcDbLayerTableRecord
  2
16
 70
     0
 62
    16
  6
Continuous
370
     9
390
F
347
46
348
0
  0
LAYER
  5
D1
330
2
100
AcDbSymbolTableRecord
100
AcDbLayerTableRecord
  2
17
 70
     0
 62
   132
  6
Continuous
370
     9
390
F
347
46
348
0
  0
LAYER
  5
D2
330
2
100
AcDbSymbolTableRecord
100
AcDbLayerTableRecord
  2
18
 70
     0
 62
   212
  6
Continuous
370
     9
390
F
347
46
348
0
  0
LAYER
  5
D3
330
2
100
AcDbSymbolTableRecord
100
AcDbLayerTableRecord
  2
19
 70
     0
 62
    52
  6
Continuous
370
     9
390
F
347
46
348
0
  0
LAYER
  5
D4
330
2
100
AcDbSymbolTableRecord
100
AcDbLayerTableRecord
  2
20
 70
     0
 62
   250
  6
Continuous
370
     9
390
F
347
46
348
0
  0
LAYER
  5
D5
330
2
100
AcDbSymbolTableRecord
100
AcDbLayerTableRecord
  2
21
 70
     0
 62
     7
  6
Continuous
370
     9
390
F
347
46
348
0
  0
ENDTAB
  0
TABLE
  2
STYLE
  5
3
330
0
100
AcDbSymbolTable
 70
     3
  0
STYLE
  5
11
330
3
100
AcDbSymbolTableRecord
100
AcDbTextStyleTableRecord
  2
Standard
 70
     0
 40
0.0
 41
1.0
 50
0.0
 71
     0
 42
2.8
  3
txt
  4
bigfont
  0
STYLE
  5
6C
330
3
100
AcDbSymbolTableRecord
100
AcDbTextStyleTableRecord
  2
T_STANDARD
 70
     4
 40
10.0
 41
1.0
 50
0.0
 71
     0
 42
2.8
  3
txt
  4
bigfont
1001
ACAD
1000

1071
      256
  0
STYLE
  5
196
330
3
100
AcDbSymbolTableRecord
100
AcDbTextStyleTableRecord
  2
ＭＳ ゴシック
 70
     0
 40
0.0
 41
1.0
 50
0.0
 71
     0
 42
2.8
  3

  4

1001
ACAD
1000
ＭＳ ゴシック
1071
      256
  0
ENDTAB
  0
TABLE
  2
VIEW
  5
6
330
0
100
AcDbSymbolTable
 70
     0
  0
ENDTAB
  0
TABLE
  2
UCS
  5
7
330
0
100
AcDbSymbolTable
 70
     0
  0
ENDTAB
  0
TABLE
  2
APPID
  5
9
330
0
100
AcDbSymbolTable
 70
     2
  0
APPID
  5
12
330
9
100
AcDbSymbolTableRecord
100
AcDbRegAppTableRecord
  2
ACAD
 70
     0
  0
APPID
  5
6B
330
9
100
AcDbSymbolTableRecord
100
AcDbRegAppTableRecord
  2
ODA
 70
     0
  0
ENDTAB
  0
TABLE
  2
DIMSTYLE
  5
A
330
0
100
AcDbSymbolTable
 70
     1
100
AcDbDimStyleTable
  0
DIMSTYLE
105
27
102
{ACAD_REACTORS
330
1A0
330
1F6
330
200
330
2FB
330
305
330
30F
330
319
330
323
330
32D
330
337
330
341
330
34B
102
}
330
A
100
AcDbSymbolTableRecord
100
AcDbDimStyleTableRecord
  2
Standard
 70
     0
178
     0
340
11
  0
ENDTAB
  0
TABLE
  2
BLOCK_RECORD
  5
1
330
0
100
AcDbSymbolTable
 70
    70
  0
BLOCK_RECORD
  5
1F
330
1
100
AcDbSymbolTableRecord
100
AcDbBlockTableRecord
  2
*Model_Space
340
22
 70
     0
280
     1
281
     0
  0
BLOCK_RECORD
  5
1B
330
1
100
AcDbSymbolTableRecord
100
AcDbBlockTableRecord
  2
*Paper_Space
340
1E
 70
     0
280
     1
281
     0
  0
BLOCK_RECORD
  5
23
330
1
100
AcDbSymbolTableRecord
100
AcDbBlockTableRecord
  2
*Paper_Space0
340
26
 70
     0
280
     1
281
     0
  0
BLOCK_RECORD
  5
6D
330
1
100
AcDbSymbolTableRecord
100
AcDbBlockTableRecord
  2
_ORIGIN
340
0
 70
     0
280
     1
281
     0
  0
BLOCK_RECORD
  5
72
330
1
100
AcDbSymbolTableRecord
100
AcDbBlockTableRecord
  2
_DOTBLANK
340
0
 70
     0
280
     1
281
     0
  0
BLOCK_RECORD
  5
77
330
1
100
AcDbSymbolTableRecord
100
AcDbBlockTableRecord
  2
_DOT
340
0
 70
     0
280
     1
281
     0
  0
BLOCK_RECORD
  5
7C
330
1
100
AcDbSymbolTableRecord
100
AcDbBlockTableRecord
  2
_OPEN
340
0
102
{BLKREFS
331
207
102
}
 70
     0
280
     1
281
     0
  0
BLOCK_RECORD
  5
82
330
1
100
AcDbSymbolTableRecord
100
AcDbBlockTableRecord
  2
_CLOSED
340
0
 70
     0
280
     1
281
     0
  0
BLOCK_RECORD
  5
89
330
1
100
AcDbSymbolTableRecord
100
AcDbBlockTableRecord
  2
_CLOSEDBLANK
340
0
 70
     0
280
     1
281
     0
  0
BLOCK_RECORD
  5
8F
330
1
100
AcDbSymbolTableRecord
100
AcDbBlockTableRecord
  2
_ARROWFILLED
340
0
102
{BLKREFS
331
19E
331
19F
331
1F4
331
1F5
331
1FE
331
1FF
331
2F9
331
2FA
331
303
331
304
331
30D
331
30E
331
317
331
318
331
321
331
322
331
32B
331
32C
331
335
331
336
331
33F
331
340
331
349
331
34A
102
}
 70
     0
280
     1
281
     0
  0
BLOCK_RECORD
  5
93
330
1
100
AcDbSymbolTableRecord
100
AcDbBlockTableRecord
  2
_BOXBLANK
340
0
 70
     0
280
     1
281
     0
  0
BLOCK_RECORD
  5
9B
330
1
100
AcDbSymbolTableRecord
100
AcDbBlockTableRecord
  2
_BOXFILLED
340
0
 70
     0
280
     1
281
     0
  0
BLOCK_RECORD
  5
A0
330
1
100
AcDbSymbolTableRecord
100
AcDbBlockTableRecord
  2
_INTEGRAL
340
0
 70
     0
280
     1
281
     0
  0
BLOCK_RECORD
  5
A5
330
1
100
AcDbSymbolTableRecord
100
AcDbBlockTableRecord
  2
_OBLIQUE
340
0
 70
     0
280
     1
281
     0
  0
BLOCK_RECORD
  5
A9
330
1
100
AcDbSymbolTableRecord
100
AcDbBlockTableRecord
  2
_NONE
340
0
 70
     0
280
     1
281
     0
  0
BLOCK_RECORD
  5
AC
330
1
100
AcDbSymbolTableRecord
100
AcDbBlockTableRecord
  2
MARK_OPEN
340
0
 70
     0
280
     1
281
     0
  0
BLOCK_RECORD
  5
B1
330
1
100
AcDbSymbolTableRecord
100
AcDbBlockTableRecord
  2
MARK_ORIGIN
340
0
 70
     0
280
     1
281
     0
  0
BLOCK_RECORD
  5
B5
330
1
100
AcDbSymbolTableRecord
100
AcDbBlockTableRecord
  2
MARK_DOT
340
0
 70
     0
280
     1
281
     0
  0
BLOCK_RECORD
  5
15E
330
1
100
AcDbSymbolTableRecord
100
AcDbBlockTableRecord
  2
*G16
340
0
102
{BLKREFS
331
163
102
}
 70
     0
280
     1
281
     0
  0
BLOCK_RECORD
  5
164
330
1
100
AcDbSymbolTableRecord
100
AcDbBlockTableRecord
  2
*G17
340
0
102
{BLKREFS
331
168
102
}
 70
     0
280
     1
281
     0
  0
BLOCK_RECORD
  5
197
330
1
100
AcDbSymbolTableRecord
100
AcDbBlockTableRecord
  2
Dim1
340
0
 70
     0
280
     1
281
     0
  0
BLOCK_RECORD
  5
1ED
330
1
100
AcDbSymbolTableRecord
100
AcDbBlockTableRecord
  2
Dim2
340
0
 70
     0
280
     1
281
     0
  0
BLOCK_RECORD
  5
1F7
330
1
100
AcDbSymbolTableRecord
100
AcDbBlockTableRecord
  2
Dim3
340
0
 70
     0
280
     1
281
     0
  0
BLOCK_RECORD
  5
232
330
1
100
AcDbSymbolTableRecord
100
AcDbBlockTableRecord
  2
*G21
340
0
102
{BLKREFS
331
249
102
}
 70
     0
280
     1
281
     0
  0
BLOCK_RECORD
  5
235
330
1
100
AcDbSymbolTableRecord
100
AcDbBlockTableRecord
  2
*G22
340
0
102
{BLKREFS
331
239
102
}
 70
     0
280
     1
281
     0
  0
BLOCK_RECORD
  5
23A
330
1
100
AcDbSymbolTableRecord
100
AcDbBlockTableRecord
  2
*G23
340
0
102
{BLKREFS
331
23E
102
}
 70
     0
280
     1
281
     0
  0
BLOCK_RECORD
  5
23F
330
1
100
AcDbSymbolTableRecord
100
AcDbBlockTableRecord
  2
*G24
340
0
102
{BLKREFS
331
243
102
}
 70
     0
280
     1
281
     0
  0
BLOCK_RECORD
  5
244
330
1
100
AcDbSymbolTableRecord
100
AcDbBlockTableRecord
  2
*G25
340
0
102
{BLKREFS
331
248
102
}
 70
     0
280
     1
281
     0
  0
BLOCK_RECORD
  5
24A
330
1
100
AcDbSymbolTableRecord
100
AcDbBlockTableRecord
  2
*G26
340
0
102
{BLKREFS
331
261
102
}
 70
     0
280
     1
281
     0
  0
BLOCK_RECORD
  5
24D
330
1
100
AcDbSymbolTableRecord
100
AcDbBlockTableRecord
  2
*G27
340
0
102
{BLKREFS
331
251
102
}
 70
     0
280
     1
281
     0
  0
BLOCK_RECORD
  5
252
330
1
100
AcDbSymbolTableRecord
100
AcDbBlockTableRecord
  2
*G28
340
0
102
{BLKREFS
331
256
102
}
 70
     0
280
     1
281
     0
  0
BLOCK_RECORD
  5
257
330
1
100
AcDbSymbolTableRecord
100
AcDbBlockTableRecord
  2
*G29
340
0
102
{BLKREFS
331
25B
102
}
 70
     0
280
     1
281
     0
  0
BLOCK_RECORD
  5
25C
330
1
100
AcDbSymbolTableRecord
100
AcDbBlockTableRecord
  2
*G30
340
0
102
{BLKREFS
331
260
102
}
 70
     0
280
     1
281
     0
  0
BLOCK_RECORD
  5
262
330
1
100
AcDbSymbolTableRecord
100
AcDbBlockTableRecord
  2
*G31
340
0
102
{BLKREFS
331
279
102
}
 70
     0
280
     1
281
     0
  0
BLOCK_RECORD
  5
265
330
1
100
AcDbSymbolTableRecord
100
AcDbBlockTableRecord
  2
*G32
340
0
102
{BLKREFS
331
269
102
}
 70
     0
280
     1
281
     0
  0
BLOCK_RECORD
  5
26A
330
1
100
AcDbSymbolTableRecord
100
AcDbBlockTableRecord
  2
*G33
340
0
102
{BLKREFS
331
26E
102
}
 70
     0
280
     1
281
     0
  0
BLOCK_RECORD
  5
26F
330
1
100
AcDbSymbolTableRecord
100
AcDbBlockTableRecord
  2
*G34
340
0
102
{BLKREFS
331
273
102
}
 70
     0
280
     1
281
     0
  0
BLOCK_RECORD
  5
274
330
1
100
AcDbSymbolTableRecord
100
AcDbBlockTableRecord
  2
*G35
340
0
102
{BLKREFS
331
278
102
}
 70
     0
280
     1
281
     0
  0
BLOCK_RECORD
  5
27A
330
1
100
AcDbSymbolTableRecord
100
AcDbBlockTableRecord
  2
*G36
340
0
102
{BLKREFS
331
291
102
}
 70
     0
280
     1
281
     0
  0
BLOCK_RECORD
  5
27D
330
1
100
AcDbSymbolTableRecord
100
AcDbBlockTableRecord
  2
*G37
340
0
102
{BLKREFS
331
281
102
}
 70
     0
280
     1
281
     0
  0
BLOCK_RECORD
  5
282
330
1
100
AcDbSymbolTableRecord
100
AcDbBlockTableRecord
  2
*G38
340
0
102
{BLKREFS
331
286
102
}
 70
     0
280
     1
281
     0
  0
BLOCK_RECORD
  5
287
330
1
100
AcDbSymbolTableRecord
100
AcDbBlockTableRecord
  2
*G39
340
0
102
{BLKREFS
331
28B
102
}
 70
     0
280
     1
281
     0
  0
BLOCK_RECORD
  5
28C
330
1
100
AcDbSymbolTableRecord
100
AcDbBlockTableRecord
  2
*G40
340
0
102
{BLKREFS
331
290
102
}
 70
     0
280
     1
281
     0
  0
BLOCK_RECORD
  5
292
330
1
100
AcDbSymbolTableRecord
100
AcDbBlockTableRecord
  2
*G41
340
0
102
{BLKREFS
331
2A9
102
}
 70
     0
280
     1
281
     0
  0
BLOCK_RECORD
  5
295
330
1
100
AcDbSymbolTableRecord
100
AcDbBlockTableRecord
  2
*G42
340
0
102
{BLKREFS
331
299
102
}
 70
     0
280
     1
281
     0
  0
BLOCK_RECORD
  5
29A
330
1
100
AcDbSymbolTableRecord
100
AcDbBlockTableRecord
  2
*G43
340
0
102
{BLKREFS
331
29E
102
}
 70
     0
280
     1
281
     0
  0
BLOCK_RECORD
  5
29F
330
1
100
AcDbSymbolTableRecord
100
AcDbBlockTableRecord
  2
*G44
340
0
102
{BLKREFS
331
2A3
102
}
 70
     0
280
     1
281
     0
  0
BLOCK_RECORD
  5
2A4
330
1
100
AcDbSymbolTableRecord
100
AcDbBlockTableRecord
  2
*G45
340
0
102
{BLKREFS
331
2A8
102
}
 70
     0
280
     1
281
     0
  0
BLOCK_RECORD
  5
2AA
330
1
100
AcDbSymbolTableRecord
100
AcDbBlockTableRecord
  2
*G46
340
0
102
{BLKREFS
331
2C1
102
}
 70
     0
280
     1
281
     0
  0
BLOCK_RECORD
  5
2AD
330
1
100
AcDbSymbolTableRecord
100
AcDbBlockTableRecord
  2
*G47
340
0
102
{BLKREFS
331
2B1
102
}
 70
     0
280
     1
281
     0
  0
BLOCK_RECORD
  5
2B2
330
1
100
AcDbSymbolTableRecord
100
AcDbBlockTableRecord
  2
*G48
340
0
102
{BLKREFS
331
2B6
102
}
 70
     0
280
     1
281
     0
  0
BLOCK_RECORD
  5
2B7
330
1
100
AcDbSymbolTableRecord
100
AcDbBlockTableRecord
  2
*G49
340
0
102
{BLKREFS
331
2BB
102
}
 70
     0
280
     1
281
     0
  0
BLOCK_RECORD
  5
2BC
330
1
100
AcDbSymbolTableRecord
100
AcDbBlockTableRecord
  2
*G50
340
0
102
{BLKREFS
331
2C0
102
}
 70
     0
280
     1
281
     0
  0
BLOCK_RECORD
  5
2C2
330
1
100
AcDbSymbolTableRecord
100
AcDbBlockTableRecord
  2
*G51
340
0
102
{BLKREFS
331
2D9
102
}
 70
     0
280
     1
281
     0
  0
BLOCK_RECORD
  5
2C5
330
1
100
AcDbSymbolTableRecord
100
AcDbBlockTableRecord
  2
*G52
340
0
102
{BLKREFS
331
2C9
102
}
 70
     0
280
     1
281
     0
  0
BLOCK_RECORD
  5
2CA
330
1
100
AcDbSymbolTableRecord
100
AcDbBlockTableRecord
  2
*G53
340
0
102
{BLKREFS
331
2CE
102
}
 70
     0
280
     1
281
     0
  0
BLOCK_RECORD
  5
2CF
330
1
100
AcDbSymbolTableRecord
100
AcDbBlockTableRecord
  2
*G54
340
0
102
{BLKREFS
331
2D3
102
}
 70
     0
280
     1
281
     0
  0
BLOCK_RECORD
  5
2D4
330
1
100
AcDbSymbolTableRecord
100
AcDbBlockTableRecord
  2
*G55
340
0
102
{BLKREFS
331
2D8
102
}
 70
     0
280
     1
281
     0
  0
BLOCK_RECORD
  5
2DA
330
1
100
AcDbSymbolTableRecord
100
AcDbBlockTableRecord
  2
*G56
340
0
102
{BLKREFS
331
2F1
102
}
 70
     0
280
     1
281
     0
  0
BLOCK_RECORD
  5
2DD
330
1
100
AcDbSymbolTableRecord
100
AcDbBlockTableRecord
  2
*G57
340
0
102
{BLKREFS
331
2E1
102
}
 70
     0
280
     1
281
     0
  0
BLOCK_RECORD
  5
2E2
330
1
100
AcDbSymbolTableRecord
100
AcDbBlockTableRecord
  2
*G58
340
0
102
{BLKREFS
331
2E6
102
}
 70
     0
280
     1
281
     0
  0
BLOCK_RECORD
  5
2E7
330
1
100
AcDbSymbolTableRecord
100
AcDbBlockTableRecord
  2
*G59
340
0
102
{BLKREFS
331
2EB
102
}
 70
     0
280
     1
281
     0
  0
BLOCK_RECORD
  5
2EC
330
1
100
AcDbSymbolTableRecord
100
AcDbBlockTableRecord
  2
*G60
340
0
102
{BLKREFS
331
2F0
102
}
 70
     0
280
     1
281
     0
  0
BLOCK_RECORD
  5
2F2
330
1
100
AcDbSymbolTableRecord
100
AcDbBlockTableRecord
  2
Dim4
340
0
 70
     0
280
     1
281
     0
  0
BLOCK_RECORD
  5
2FC
330
1
100
AcDbSymbolTableRecord
100
AcDbBlockTableRecord
  2
Dim5
340
0
 70
     0
280
     1
281
     0
  0
BLOCK_RECORD
  5
306
330
1
100
AcDbSymbolTableRecord
100
AcDbBlockTableRecord
  2
Dim6
340
0
 70
     0
280
     1
281
     0
  0
BLOCK_RECORD
  5
310
330
1
100
AcDbSymbolTableRecord
100
AcDbBlockTableRecord
  2
Dim7
340
0
 70
     0
280
     1
281
     0
  0
BLOCK_RECORD
  5
31A
330
1
100
AcDbSymbolTableRecord
100
AcDbBlockTableRecord
  2
Dim8
340
0
 70
     0
280
     1
281
     0
  0
BLOCK_RECORD
  5
324
330
1
100
AcDbSymbolTableRecord
100
AcDbBlockTableRecord
  2
Dim9
340
0
 70
     0
280
     1
281
     0
  0
BLOCK_RECORD
  5
32E
330
1
100
AcDbSymbolTableRecord
100
AcDbBlockTableRecord
  2
Dim10
340
0
 70
     0
280
     1
281
     0
  0
BLOCK_RECORD
  5
338
330
1
100
AcDbSymbolTableRecord
100
AcDbBlockTableRecord
  2
Dim11
340
0
 70
     0
280
     1
281
     0
  0
BLOCK_RECORD
  5
342
330
1
100
AcDbSymbolTableRecord
100
AcDbBlockTableRecord
  2
Dim12
340
0
 70
     0
280
     1
281
     0
  0
ENDTAB
  0
ENDSEC
  0
SECTION
  2
BLOCKS
  0
BLOCK
  5
20
330
1F
100
AcDbEntity
  8
0
100
AcDbBlockBegin
  2
*Model_Space
 70
     0
 10
0.0
 20
0.0
 30
0.0
  3
*Model_Space
  1
*Model_Space
  0
ENDBLK
  5
21
330
1F
100
AcDbEntity
  8
0
100
AcDbBlockEnd
  0
BLOCK
  5
1C
330
1B
100
AcDbEntity
 67
     1
  8
0
100
AcDbBlockBegin
  2
*Paper_Space
 70
     0
 10
0.0
 20
0.0
 30
0.0
  3
*Paper_Space
  1
*Paper_Space
  0
ENDBLK
  5
1D
330
1B
100
AcDbEntity
 67
     1
  8
0
100
AcDbBlockEnd
  0
BLOCK
  5
24
330
23
100
AcDbEntity
  8
0
100
AcDbBlockBegin
  2
*Paper_Space0
 70
     0
 10
0.0
 20
0.0
 30
0.0
  3
*Paper_Space0
  1
*Paper_Space0
  0
ENDBLK
  5
25
330
23
100
AcDbEntity
  8
0
100
AcDbBlockEnd
  0
BLOCK
  5
70
330
6D
100
AcDbEntity
  8
0
100
AcDbBlockBegin
  2
_ORIGIN
 70
     0
 10
0.0
 20
0.0
 30
0.0
  3
_ORIGIN
  1
_ORIGIN
  0
CIRCLE
  5
6E
330
6D
100
AcDbEntity
  8
0
 62
     0
100
AcDbCircle
 10
0.0
 20
0.0
 30
0.0
 40
0.5
  0
LINE
  5
6F
330
6D
100
AcDbEntity
  8
0
 62
     0
100
AcDbLine
 10
0.0
 20
0.0
 30
0.0
 11
-1.0
 21
0.0
 31
0.0
  0
ENDBLK
  5
71
330
6D
100
AcDbEntity
  8
0
100
AcDbBlockEnd
  0
BLOCK
  5
75
330
72
100
AcDbEntity
  8
0
100
AcDbBlockBegin
  2
_DOTBLANK
 70
     0
 10
0.0
 20
0.0
 30
0.0
  3
_DOTBLANK
  1
_DOTBLANK
  0
CIRCLE
  5
73
330
72
100
AcDbEntity
  8
0
 62
     0
100
AcDbCircle
 10
0.0
 20
0.0
 30
0.0
 40
0.5
  0
LINE
  5
74
330
72
100
AcDbEntity
  8
0
 62
     0
100
AcDbLine
 10
-0.5
 20
0.0
 30
0.0
 11
-1.0
 21
0.0
 31
0.0
  0
ENDBLK
  5
76
330
72
100
AcDbEntity
  8
0
100
AcDbBlockEnd
  0
BLOCK
  5
7A
330
77
100
AcDbEntity
  8
0
100
AcDbBlockBegin
  2
_DOT
 70
     0
 10
0.0
 20
0.0
 30
0.0
  3
_DOT
  1
_DOT
  0
LWPOLYLINE
  5
78
330
77
100
AcDbEntity
  8
0
 62
     0
100
AcDbPolyline
 90
        2
 70
     1
 43
0.5
 10
-0.25
 20
0.0
 42
1.0
 10
0.25
 20
0.0
 42
1.0
  0
LINE
  5
79
330
77
100
AcDbEntity
  8
0
 62
     0
100
AcDbLine
 10
-0.5
 20
0.0
 30
0.0
 11
-1.0
 21
0.0
 31
0.0
  0
ENDBLK
  5
7B
330
77
100
AcDbEntity
  8
0
100
AcDbBlockEnd
  0
BLOCK
  5
80
330
7C
100
AcDbEntity
  8
0
100
AcDbBlockBegin
  2
_OPEN
 70
     0
 10
0.0
 20
0.0
 30
0.0
  3
_OPEN
  1
_OPEN
  0
LINE
  5
7D
330
7C
100
AcDbEntity
  8
0
 62
     0
100
AcDbLine
 10
0.0
 20
0.0
 30
0.0
 11
-1.0
 21
0.1666666666666667
 31
0.0
  0
LINE
  5
7E
330
7C
100
AcDbEntity
  8
0
 62
     0
100
AcDbLine
 10
0.0
 20
0.0
 30
0.0
 11
-1.0
 21
-0.1666666666666667
 31
0.0
  0
LINE
  5
7F
330
7C
100
AcDbEntity
  8
0
 62
     0
100
AcDbLine
 10
0.0
 20
0.0
 30
0.0
 11
-1.0
 21
0.0
 31
0.0
  0
ENDBLK
  5
81
330
7C
100
AcDbEntity
  8
0
100
AcDbBlockEnd
  0
BLOCK
  5
87
330
82
100
AcDbEntity
  8
0
100
AcDbBlockBegin
  2
_CLOSED
 70
     0
 10
0.0
 20
0.0
 30
0.0
  3
_CLOSED
  1
_CLOSED
  0
LINE
  5
83
330
82
100
AcDbEntity
  8
0
 62
     0
100
AcDbLine
 10
0.0
 20
0.0
 30
0.0
 11
-1.0
 21
0.1666666666666667
 31
0.0
  0
LINE
  5
84
330
82
100
AcDbEntity
  8
0
 62
     0
100
AcDbLine
 10
0.0
 20
0.0
 30
0.0
 11
-1.0
 21
-0.1666666666666667
 31
0.0
  0
LINE
  5
85
330
82
100
AcDbEntity
  8
0
 62
     0
100
AcDbLine
 10
-1.0
 20
0.1666666666666667
 30
0.0
 11
-1.0
 21
-0.1666666666666667
 31
0.0
  0
LINE
  5
86
330
82
100
AcDbEntity
  8
0
 62
     0
100
AcDbLine
 10
0.0
 20
0.0
 30
0.0
 11
-1.0
 21
0.0
 31
0.0
  0
ENDBLK
  5
88
330
82
100
AcDbEntity
  8
0
100
AcDbBlockEnd
  0
BLOCK
  5
8D
330
89
100
AcDbEntity
  8
0
100
AcDbBlockBegin
  2
_CLOSEDBLANK
 70
     0
 10
0.0
 20
0.0
 30
0.0
  3
_CLOSEDBLANK
  1
_CLOSEDBLANK
  0
LINE
  5
8A
330
89
100
AcDbEntity
  8
0
 62
     0
100
AcDbLine
 10
0.0
 20
0.0
 30
0.0
 11
-1.0
 21
0.1666666666666667
 31
0.0
  0
LINE
  5
8B
330
89
100
AcDbEntity
  8
0
 62
     0
100
AcDbLine
 10
0.0
 20
0.0
 30
0.0
 11
-1.0
 21
-0.1666666666666667
 31
0.0
  0
LINE
  5
8C
330
89
100
AcDbEntity
  8
0
 62
     0
100
AcDbLine
 10
-1.0
 20
0.1666666666666667
 30
0.0
 11
-1.0
 21
-0.1666666666666667
 31
0.0
  0
ENDBLK
  5
8E
330
89
100
AcDbEntity
  8
0
100
AcDbBlockEnd
  0
BLOCK
  5
91
330
8F
100
AcDbEntity
  8
0
100
AcDbBlockBegin
  2
_ARROWFILLED
 70
     0
 10
0.0
 20
0.0
 30
0.0
  3
_ARROWFILLED
  1
_ARROWFILLED
  0
SOLID
  5
90
330
8F
100
AcDbEntity
  8
0
 62
     0
100
AcDbTrace
 10
0.0
 20
0.0
 30
0.0
 11
-1.0
 21
-0.1666666666666667
 31
0.0
 12
-1.0
 22
0.1666666666666667
 32
0.0
 13
0.0
 23
0.0
 33
0.0
  0
ENDBLK
  5
92
330
8F
100
AcDbEntity
  8
0
100
AcDbBlockEnd
  0
BLOCK
  5
99
330
93
100
AcDbEntity
  8
0
100
AcDbBlockBegin
  2
_BOXBLANK
 70
     0
 10
0.0
 20
0.0
 30
0.0
  3
_BOXBLANK
  1
_BOXBLANK
  0
LINE
  5
94
330
93
100
AcDbEntity
  8
0
 62
     0
100
AcDbLine
 10
-0.5
 20
-0.5
 30
0.0
 11
0.5
 21
-0.5
 31
0.0
  0
LINE
  5
95
330
93
100
AcDbEntity
  8
0
 62
     0
100
AcDbLine
 10
0.5
 20
-0.5
 30
0.0
 11
0.5
 21
0.5
 31
0.0
  0
LINE
  5
96
330
93
100
AcDbEntity
  8
0
 62
     0
100
AcDbLine
 10
0.5
 20
0.5
 30
0.0
 11
-0.5
 21
0.5
 31
0.0
  0
LINE
  5
97
330
93
100
AcDbEntity
  8
0
 62
     0
100
AcDbLine
 10
-0.5
 20
0.5
 30
0.0
 11
-0.5
 21
-0.5
 31
0.0
  0
LINE
  5
98
330
93
100
AcDbEntity
  8
0
 62
     0
100
AcDbLine
 10
-0.5
 20
0.0
 30
0.0
 11
-1.0
 21
0.0
 31
0.0
  0
ENDBLK
  5
9A
330
93
100
AcDbEntity
  8
0
100
AcDbBlockEnd
  0
BLOCK
  5
9E
330
9B
100
AcDbEntity
  8
0
100
AcDbBlockBegin
  2
_BOXFILLED
 70
     0
 10
0.0
 20
0.0
 30
0.0
  3
_BOXFILLED
  1
_BOXFILLED
  0
SOLID
  5
9C
330
9B
100
AcDbEntity
  8
0
 62
     0
100
AcDbTrace
 10
-0.5
 20
0.5
 30
0.0
 11
0.5
 21
0.5
 31
0.0
 12
-0.5
 22
-0.5
 32
0.0
 13
0.5
 23
-0.5
 33
0.0
  0
LINE
  5
9D
330
9B
100
AcDbEntity
  8
0
 62
     0
100
AcDbLine
 10
-0.5
 20
0.0
 30
0.0
 11
-1.0
 21
0.0
 31
0.0
  0
ENDBLK
  5
9F
330
9B
100
AcDbEntity
  8
0
100
AcDbBlockEnd
  0
BLOCK
  5
A3
330
A0
100
AcDbEntity
  8
0
100
AcDbBlockBegin
  2
_INTEGRAL
 70
     0
 10
0.0
 20
0.0
 30
0.0
  3
_INTEGRAL
  1
_INTEGRAL
  0
ARC
  5
A1
330
A0
100
AcDbEntity
  8
0
 62
     0
100
AcDbCircle
 10
0.444888
 20
-0.0913346
 30
0.0
 40
0.4541666
100
AcDbArc
 50
101.9999999999999
 51
167.9999999999998
  0
ARC
  5
A2
330
A0
100
AcDbEntity
  8
0
 62
     0
100
AcDbCircle
 10
-0.444888
 20
0.0913346
 30
0.0
 40
0.4541666
100
AcDbArc
 50
281.9999999999997
 51
347.9999999999997
  0
ENDBLK
  5
A4
330
A0
100
AcDbEntity
  8
0
100
AcDbBlockEnd
  0
BLOCK
  5
A7
330
A5
100
AcDbEntity
  8
0
100
AcDbBlockBegin
  2
_OBLIQUE
 70
     0
 10
0.0
 20
0.0
 30
0.0
  3
_OBLIQUE
  1
_OBLIQUE
  0
LINE
  5
A6
330
A5
100
AcDbEntity
  8
0
 62
     0
100
AcDbLine
 10
-0.5
 20
-0.5
 30
0.0
 11
0.5
 21
0.5
 31
0.0
  0
ENDBLK
  5
A8
330
A5
100
AcDbEntity
  8
0
100
AcDbBlockEnd
  0
BLOCK
  5
AA
330
A9
100
AcDbEntity
  8
0
100
AcDbBlockBegin
  2
_NONE
 70
     0
 10
0.0
 20
0.0
 30
0.0
  3
_NONE
  1
_NONE
  0
ENDBLK
  5
AB
330
A9
100
AcDbEntity
  8
0
100
AcDbBlockEnd
  0
BLOCK
  5
AF
330
AC
100
AcDbEntity
  8
0
100
AcDbBlockBegin
  2
MARK_OPEN
 70
     0
 10
0.0
 20
0.0
 30
0.0
  3
MARK_OPEN
  1
MARK_OPEN
  0
LINE
  5
AD
330
AC
100
AcDbEntity
  8
0
 62
     0
100
AcDbLine
 10
0.0
 20
0.0
 30
0.0
 11
-1.0
 21
0.1666666666666667
 31
0.0
  0
LINE
  5
AE
330
AC
100
AcDbEntity
  8
0
 62
     0
100
AcDbLine
 10
0.0
 20
0.0
 30
0.0
 11
-1.0
 21
-0.1666666666666667
 31
0.0
  0
ENDBLK
  5
B0
330
AC
100
AcDbEntity
  8
0
100
AcDbBlockEnd
  0
BLOCK
  5
B3
330
B1
100
AcDbEntity
  8
0
100
AcDbBlockBegin
  2
MARK_ORIGIN
 70
     0
 10
0.0
 20
0.0
 30
0.0
  3
MARK_ORIGIN
  1
MARK_ORIGIN
  0
CIRCLE
  5
B2
330
B1
100
AcDbEntity
  8
0
 62
     0
100
AcDbCircle
 10
0.0
 20
0.0
 30
0.0
 40
0.5
  0
ENDBLK
  5
B4
330
B1
100
AcDbEntity
  8
0
100
AcDbBlockEnd
  0
BLOCK
  5
B7
330
B5
100
AcDbEntity
  8
0
100
AcDbBlockBegin
  2
MARK_DOT
 70
     0
 10
0.0
 20
0.0
 30
0.0
  3
MARK_DOT
  1
MARK_DOT
  0
LWPOLYLINE
  5
B6
330
B5
100
AcDbEntity
  8
0
 62
     0
100
AcDbPolyline
 90
        2
 70
     1
 43
0.5
 10
-0.25
 20
0.0
 42
1.0
 10
0.25
 20
0.0
 42
1.0
  0
ENDBLK
  5
B8
330
B5
100
AcDbEntity
  8
0
100
AcDbBlockEnd
  0
BLOCK
  5
15F
330
15E
100
AcDbEntity
  8
0
100
AcDbBlockBegin
  2
*G16
 70
     1
 10
0.0
 20
0.0
 30
0.0
  3
*G16
  1
*G16
  0
MTEXT
  5
161
330
15E
100
AcDbEntity
  8
2
  6
Continuous
 62
    70
370
     9
100
AcDbMText
 10
270.059880493228
 20
75.801270578034
 30
0.0
 40
2.399976
 41
6.852993469379999
 46
2.399976
 71
     4
 72
     1
  1
{\fＭＳ ゴシック;\T0.750000;2 NC}
 73
     1
 44
1.0
1001
ACAD
1000
ACAD_MTEXT_DEFINED_HEIGHT_BEGIN
1070
    46
1040
2.399976
1000
ACAD_MTEXT_DEFINED_HEIGHT_END
  0
MTEXT
  5
162
330
15E
100
AcDbEntity
  8
2
  6
Continuous
 62
    70
370
     9
100
AcDbMText
 10
270.059880493228
 20
71.80130257803401
 30
0.0
 40
2.399976
 41
5.20822391724
 46
2.399976
 71
     4
 72
     1
  1
{\fＭＳ ゴシック;\T0.750000;3 -}
 73
     1
 44
1.0
1001
ACAD
1000
ACAD_MTEXT_DEFINED_HEIGHT_BEGIN
1070
    46
1040
2.399976
1000
ACAD_MTEXT_DEFINED_HEIGHT_END
  0
ENDBLK
  5
160
330
15E
100
AcDbEntity
  8
0
100
AcDbBlockEnd
  0
BLOCK
  5
165
330
164
100
AcDbEntity
  8
0
100
AcDbBlockBegin
  2
*G17
 70
     1
 10
0.0
 20
0.0
 30
0.0
  3
*G17
  1
*G17
  0
MTEXT
  5
167
330
164
100
AcDbEntity
  8
2
  6
Continuous
 62
    70
370
     9
100
AcDbMText
 10
270.1697188641159
 20
80.4201918142712
 30
0.0
 40
2.399976
 41
5.069012728469809
 46
2.399976
 71
     4
 72
     1
  1
{\fＭＳ ゴシック;\T0.769362;1 +}
 73
     1
 44
1.0
1001
ACAD
1000
ACAD_MTEXT_DEFINED_HEIGHT_BEGIN
1070
    46
1040
2.399976
1000
ACAD_MTEXT_DEFINED_HEIGHT_END
  0
ENDBLK
  5
166
330
164
100
AcDbEntity
  8
0
100
AcDbBlockEnd
  0
BLOCK
  5
198
330
197
100
AcDbEntity
  8
0
100
AcDbBlockBegin
  2
Dim1
 70
     0
 10
0.0
 20
0.0
 30
0.0
  3
Dim1
  1
Dim1
  0
LINE
  5
19A
330
197
100
AcDbEntity
  8
7
  6
Continuous
 62
     4
370
    18
100
AcDbLine
 10
783.4243054292695
 20
114.5374471356604
 30
0.0
 11
783.4243054292695
 21
97.72763615957734
 31
0.0
  0
LINE
  5
19B
330
197
100
AcDbEntity
  8
7
  6
Continuous
 62
     4
370
    18
100
AcDbLine
 10
782.4243054292679
 20
114.5374471356604
 30
0.0
 11
782.4243054292679
 21
97.72763615957734
 31
0.0
  0
LINE
  5
19C
330
197
100
AcDbEntity
  8
7
  6
Continuous
 62
     4
370
    18
100
AcDbLine
 10
793.8618054292695
 20
98.85263615957734
 30
0.0
 11
779.4243054292679
 21
98.85263615957734
 31
0.0
  0
MTEXT
  5
19D
330
197
100
AcDbEntity
  8
7
  6
Continuous
 62
     4
370
     9
100
AcDbMText
 10
793.8618054292695
 20
98.85263615957734
 30
0.0
 40
2.25
 41
2.678571428571429
 46
2.25
 71
     4
 72
     1
  1
1
  7
ＭＳ ゴシック
 73
     1
 44
1.0
1001
ACAD
1000
ACAD_MTEXT_DEFINED_HEIGHT_BEGIN
1070
    46
1040
2.25
1000
ACAD_MTEXT_DEFINED_HEIGHT_END
  0
INSERT
  5
19E
330
197
100
AcDbEntity
  8
7
  6
Continuous
 62
     4
370
    18
100
AcDbBlockReference
  2
_ARROWFILLED
 10
783.4243054292695
 20
98.85263615957734
 30
0.0
 41
1.5
 42
1.5
 43
1.5
 50
179.9999999999995
  0
INSERT
  5
19F
330
197
100
AcDbEntity
  8
7
  6
Continuous
 62
     4
370
    18
100
AcDbBlockReference
  2
_ARROWFILLED
 10
782.4243054292679
 20
98.85263615957734
 30
0.0
 41
1.5
 42
1.5
 43
1.5
 50
359.9999999999997
  0
ENDBLK
  5
199
330
197
100
AcDbEntity
  8
0
100
AcDbBlockEnd
  0
BLOCK
  5
1EE
330
1ED
100
AcDbEntity
  8
0
100
AcDbBlockBegin
  2
Dim2
 70
     0
 10
0.0
 20
0.0
 30
0.0
  3
Dim2
  1
Dim2
  0
LINE
  5
1F0
330
1ED
100
AcDbEntity
  8
7
  6
Continuous
 62
     4
370
    18
100
AcDbLine
 10
666.7230985851495
 20
192.0374471356604
 30
0.0
 11
666.7230985851493
 21
49.25529865125241
 31
0.0
  0
LINE
  5
1F1
330
1ED
100
AcDbEntity
  8
7
  6
Continuous
 62
     4
370
    18
100
AcDbLine
 10
648.7230985851497
 20
129.5374471356604
 30
0.0
 11
648.7230985851495
 21
49.25529865125241
 31
0.0
  0
LINE
  5
1F2
330
1ED
100
AcDbEntity
  8
7
  6
Continuous
 62
     4
370
    18
100
AcDbLine
 10
678.4730985851497
 20
50.38029865125241
 30
0.0
 11
648.7230985851495
 21
50.38029865125241
 31
0.0
  0
MTEXT
  5
1F3
330
1ED
100
AcDbEntity
  8
7
  6
Continuous
 62
     4
370
     9
100
AcDbMText
 10
678.4730985851497
 20
50.38029865125241
 30
0.0
 40
2.25
 41
32.14285714285714
 46
2.25
 71
     4
 72
     1
  1
(18)
  7
ＭＳ ゴシック
 73
     1
 44
1.0
1001
ACAD
1000
ACAD_MTEXT_DEFINED_HEIGHT_BEGIN
1070
    46
1040
2.25
1000
ACAD_MTEXT_DEFINED_HEIGHT_END
  0
INSERT
  5
1F4
330
1ED
100
AcDbEntity
  8
7
  6
Continuous
 62
     4
370
    18
100
AcDbBlockReference
  2
_ARROWFILLED
 10
666.7230985851493
 20
50.38029865125241
 30
0.0
 41
1.5
 42
1.5
 43
1.5
 50
359.9999999999997
  0
INSERT
  5
1F5
330
1ED
100
AcDbEntity
  8
7
  6
Continuous
 62
     4
370
    18
100
AcDbBlockReference
  2
_ARROWFILLED
 10
648.7230985851495
 20
50.38029865125241
 30
0.0
 41
1.5
 42
1.5
 43
1.5
 50
179.9999999999998
  0
ENDBLK
  5
1EF
330
1ED
100
AcDbEntity
  8
0
100
AcDbBlockEnd
  0
BLOCK
  5
1F8
330
1F7
100
AcDbEntity
  8
0
100
AcDbBlockBegin
  2
Dim3
 70
     0
 10
0.0
 20
0.0
 30
0.0
  3
Dim3
  1
Dim3
  0
LINE
  5
1FA
330
1F7
100
AcDbEntity
  8
7
  6
Continuous
 62
     4
370
    18
100
AcDbLine
 10
783.4243054292695
 20
114.5374471356604
 30
0.0
 11
783.4243054292695
 21
81.57019495487799
 31
0.0
  0
LINE
  5
1FB
330
1F7
100
AcDbEntity
  8
7
  6
Continuous
 62
     4
370
    18
100
AcDbLine
 10
762.9961021989859
 20
194.5374471356604
 30
0.0
 11
762.9961021989857
 21
81.57019495487799
 31
0.0
  0
LINE
  5
1FC
330
1F7
100
AcDbEntity
  8
7
  6
Continuous
 62
     4
370
    18
100
AcDbLine
 10
798.5493054292695
 20
82.69519495487799
 30
0.0
 11
762.9961021989857
 21
82.69519495487799
 31
0.0
  0
MTEXT
  5
1FD
330
1F7
100
AcDbEntity
  8
7
  6
Continuous
 62
     4
370
     9
100
AcDbMText
 10
798.5493054292695
 20
82.69519495487799
 30
0.0
 40
2.25
 41
48.21428571428571
 46
2.25
 71
     4
 72
     1
  1
(20.5)
  7
ＭＳ ゴシック
 73
     1
 44
1.0
1001
ACAD
1000
ACAD_MTEXT_DEFINED_HEIGHT_BEGIN
1070
    46
1040
2.25
1000
ACAD_MTEXT_DEFINED_HEIGHT_END
  0
INSERT
  5
1FE
330
1F7
100
AcDbEntity
  8
7
  6
Continuous
 62
     4
370
    18
100
AcDbBlockReference
  2
_ARROWFILLED
 10
783.4243054292695
 20
82.69519495487799
 30
0.0
 41
1.5
 42
1.5
 43
1.5
 50
359.9999999999997
  0
INSERT
  5
1FF
330
1F7
100
AcDbEntity
  8
7
  6
Continuous
 62
     4
370
    18
100
AcDbBlockReference
  2
_ARROWFILLED
 10
762.9961021989857
 20
82.69519495487799
 30
0.0
 41
1.5
 42
1.5
 43
1.5
 50
179.9999999999998
  0
ENDBLK
  5
1F9
330
1F7
100
AcDbEntity
  8
0
100
AcDbBlockEnd
  0
BLOCK
  5
233
330
232
100
AcDbEntity
  8
0
100
AcDbBlockBegin
  2
*G21
 70
     1
 10
0.0
 20
0.0
 30
0.0
  3
*G21
  1
*G21
  0
INSERT
  5
239
330
232
100
AcDbEntity
  8
0
100
AcDbBlockReference
  2
*G22
 10
0.0
 20
0.0
 30
0.0
  0
INSERT
  5
23E
330
232
100
AcDbEntity
  8
0
100
AcDbBlockReference
  2
*G23
 10
0.0
 20
0.0
 30
0.0
  0
INSERT
  5
243
330
232
100
AcDbEntity
  8
0
100
AcDbBlockReference
  2
*G24
 10
0.0
 20
0.0
 30
0.0
  0
INSERT
  5
248
330
232
100
AcDbEntity
  8
0
100
AcDbBlockReference
  2
*G25
 10
0.0
 20
0.0
 30
0.0
  0
ENDBLK
  5
234
330
232
100
AcDbEntity
  8
0
100
AcDbBlockEnd
  0
BLOCK
  5
236
330
235
100
AcDbEntity
  8
0
100
AcDbBlockBegin
  2
*G22
 70
     1
 10
0.0
 20
0.0
 30
0.0
  3
*G22
  1
*G22
  0
LINE
  5
238
330
235
100
AcDbEntity
  8
9
  6
DASHDOT
 62
     2
370
     9
100
AcDbLine
 10
458.7230985851498
 20
268.2874471356604
 30
0.0
 11
458.7230985851498
 21
271.8874471356606
 31
0.0
  0
ENDBLK
  5
237
330
235
100
AcDbEntity
  8
0
100
AcDbBlockEnd
  0
BLOCK
  5
23B
330
23A
100
AcDbEntity
  8
0
100
AcDbBlockBegin
  2
*G23
 70
     1
 10
0.0
 20
0.0
 30
0.0
  3
*G23
  1
*G23
  0
LINE
  5
23D
330
23A
100
AcDbEntity
  8
9
  6
DASHDOT
 62
     2
370
     9
100
AcDbLine
 10
458.7230985851498
 20
268.2874471356604
 30
0.0
 11
455.1230985851499
 21
268.2874471356604
 31
0.0
  0
ENDBLK
  5
23C
330
23A
100
AcDbEntity
  8
0
100
AcDbBlockEnd
  0
BLOCK
  5
240
330
23F
100
AcDbEntity
  8
0
100
AcDbBlockBegin
  2
*G24
 70
     1
 10
0.0
 20
0.0
 30
0.0
  3
*G24
  1
*G24
  0
LINE
  5
242
330
23F
100
AcDbEntity
  8
9
  6
DASHDOT
 62
     2
370
     9
100
AcDbLine
 10
458.7230985851498
 20
268.2874471356604
 30
0.0
 11
458.7230985851498
 21
264.6874471356605
 31
0.0
  0
ENDBLK
  5
241
330
23F
100
AcDbEntity
  8
0
100
AcDbBlockEnd
  0
BLOCK
  5
245
330
244
100
AcDbEntity
  8
0
100
AcDbBlockBegin
  2
*G25
 70
     1
 10
0.0
 20
0.0
 30
0.0
  3
*G25
  1
*G25
  0
LINE
  5
247
330
244
100
AcDbEntity
  8
9
  6
DASHDOT
 62
     2
370
     9
100
AcDbLine
 10
458.7230985851498
 20
268.2874471356604
 30
0.0
 11
462.3230985851498
 21
268.2874471356604
 31
0.0
  0
ENDBLK
  5
246
330
244
100
AcDbEntity
  8
0
100
AcDbBlockEnd
  0
BLOCK
  5
24B
330
24A
100
AcDbEntity
  8
0
100
AcDbBlockBegin
  2
*G26
 70
     1
 10
0.0
 20
0.0
 30
0.0
  3
*G26
  1
*G26
  0
INSERT
  5
251
330
24A
100
AcDbEntity
  8
0
100
AcDbBlockReference
  2
*G27
 10
0.0
 20
0.0
 30
0.0
  0
INSERT
  5
256
330
24A
100
AcDbEntity
  8
0
100
AcDbBlockReference
  2
*G28
 10
0.0
 20
0.0
 30
0.0
  0
INSERT
  5
25B
330
24A
100
AcDbEntity
  8
0
100
AcDbBlockReference
  2
*G29
 10
0.0
 20
0.0
 30
0.0
  0
INSERT
  5
260
330
24A
100
AcDbEntity
  8
0
100
AcDbBlockReference
  2
*G30
 10
0.0
 20
0.0
 30
0.0
  0
ENDBLK
  5
24C
330
24A
100
AcDbEntity
  8
0
100
AcDbBlockEnd
  0
BLOCK
  5
24E
330
24D
100
AcDbEntity
  8
0
100
AcDbBlockBegin
  2
*G27
 70
     1
 10
0.0
 20
0.0
 30
0.0
  3
*G27
  1
*G27
  0
LINE
  5
250
330
24D
100
AcDbEntity
  8
9
  6
DASHDOT
 62
     2
370
     9
100
AcDbLine
 10
498.7230985851507
 20
268.2874471356604
 30
0.0
 11
498.7230985851507
 21
271.8874471356606
 31
0.0
  0
ENDBLK
  5
24F
330
24D
100
AcDbEntity
  8
0
100
AcDbBlockEnd
  0
BLOCK
  5
253
330
252
100
AcDbEntity
  8
0
100
AcDbBlockBegin
  2
*G28
 70
     1
 10
0.0
 20
0.0
 30
0.0
  3
*G28
  1
*G28
  0
LINE
  5
255
330
252
100
AcDbEntity
  8
9
  6
DASHDOT
 62
     2
370
     9
100
AcDbLine
 10
498.7230985851507
 20
268.2874471356604
 30
0.0
 11
495.1230985851508
 21
268.2874471356604
 31
0.0
  0
ENDBLK
  5
254
330
252
100
AcDbEntity
  8
0
100
AcDbBlockEnd
  0
BLOCK
  5
258
330
257
100
AcDbEntity
  8
0
100
AcDbBlockBegin
  2
*G29
 70
     1
 10
0.0
 20
0.0
 30
0.0
  3
*G29
  1
*G29
  0
LINE
  5
25A
330
257
100
AcDbEntity
  8
9
  6
DASHDOT
 62
     2
370
     9
100
AcDbLine
 10
498.7230985851507
 20
268.2874471356604
 30
0.0
 11
498.7230985851507
 21
264.6874471356605
 31
0.0
  0
ENDBLK
  5
259
330
257
100
AcDbEntity
  8
0
100
AcDbBlockEnd
  0
BLOCK
  5
25D
330
25C
100
AcDbEntity
  8
0
100
AcDbBlockBegin
  2
*G30
 70
     1
 10
0.0
 20
0.0
 30
0.0
  3
*G30
  1
*G30
  0
LINE
  5
25F
330
25C
100
AcDbEntity
  8
9
  6
DASHDOT
 62
     2
370
     9
100
AcDbLine
 10
498.7230985851507
 20
268.2874471356604
 30
0.0
 11
502.3230985851506
 21
268.2874471356604
 31
0.0
  0
ENDBLK
  5
25E
330
25C
100
AcDbEntity
  8
0
100
AcDbBlockEnd
  0
BLOCK
  5
263
330
262
100
AcDbEntity
  8
0
100
AcDbBlockBegin
  2
*G31
 70
     1
 10
0.0
 20
0.0
 30
0.0
  3
*G31
  1
*G31
  0
INSERT
  5
269
330
262
100
AcDbEntity
  8
0
100
AcDbBlockReference
  2
*G32
 10
0.0
 20
0.0
 30
0.0
  0
INSERT
  5
26E
330
262
100
AcDbEntity
  8
0
100
AcDbBlockReference
  2
*G33
 10
0.0
 20
0.0
 30
0.0
  0
INSERT
  5
273
330
262
100
AcDbEntity
  8
0
100
AcDbBlockReference
  2
*G34
 10
0.0
 20
0.0
 30
0.0
  0
INSERT
  5
278
330
262
100
AcDbEntity
  8
0
100
AcDbBlockReference
  2
*G35
 10
0.0
 20
0.0
 30
0.0
  0
ENDBLK
  5
264
330
262
100
AcDbEntity
  8
0
100
AcDbBlockEnd
  0
BLOCK
  5
266
330
265
100
AcDbEntity
  8
0
100
AcDbBlockBegin
  2
*G32
 70
     1
 10
0.0
 20
0.0
 30
0.0
  3
*G32
  1
*G32
  0
LINE
  5
268
330
265
100
AcDbEntity
  8
9
  6
DASHDOT
 62
     2
370
     9
100
AcDbLine
 10
568.7230985851489
 20
268.2874471356604
 30
0.0
 11
568.7230985851489
 21
271.8874471356606
 31
0.0
  0
ENDBLK
  5
267
330
265
100
AcDbEntity
  8
0
100
AcDbBlockEnd
  0
BLOCK
  5
26B
330
26A
100
AcDbEntity
  8
0
100
AcDbBlockBegin
  2
*G33
 70
     1
 10
0.0
 20
0.0
 30
0.0
  3
*G33
  1
*G33
  0
LINE
  5
26D
330
26A
100
AcDbEntity
  8
9
  6
DASHDOT
 62
     2
370
     9
100
AcDbLine
 10
568.7230985851489
 20
268.2874471356604
 30
0.0
 11
565.123098585149
 21
268.2874471356604
 31
0.0
  0
ENDBLK
  5
26C
330
26A
100
AcDbEntity
  8
0
100
AcDbBlockEnd
  0
BLOCK
  5
270
330
26F
100
AcDbEntity
  8
0
100
AcDbBlockBegin
  2
*G34
 70
     1
 10
0.0
 20
0.0
 30
0.0
  3
*G34
  1
*G34
  0
LINE
  5
272
330
26F
100
AcDbEntity
  8
9
  6
DASHDOT
 62
     2
370
     9
100
AcDbLine
 10
568.7230985851489
 20
268.2874471356604
 30
0.0
 11
568.7230985851489
 21
264.6874471356605
 31
0.0
  0
ENDBLK
  5
271
330
26F
100
AcDbEntity
  8
0
100
AcDbBlockEnd
  0
BLOCK
  5
275
330
274
100
AcDbEntity
  8
0
100
AcDbBlockBegin
  2
*G35
 70
     1
 10
0.0
 20
0.0
 30
0.0
  3
*G35
  1
*G35
  0
LINE
  5
277
330
274
100
AcDbEntity
  8
9
  6
DASHDOT
 62
     2
370
     9
100
AcDbLine
 10
568.7230985851489
 20
268.2874471356604
 30
0.0
 11
572.3230985851491
 21
268.2874471356604
 31
0.0
  0
ENDBLK
  5
276
330
274
100
AcDbEntity
  8
0
100
AcDbBlockEnd
  0
BLOCK
  5
27B
330
27A
100
AcDbEntity
  8
0
100
AcDbBlockBegin
  2
*G36
 70
     1
 10
0.0
 20
0.0
 30
0.0
  3
*G36
  1
*G36
  0
INSERT
  5
281
330
27A
100
AcDbEntity
  8
0
100
AcDbBlockReference
  2
*G37
 10
0.0
 20
0.0
 30
0.0
  0
INSERT
  5
286
330
27A
100
AcDbEntity
  8
0
100
AcDbBlockReference
  2
*G38
 10
0.0
 20
0.0
 30
0.0
  0
INSERT
  5
28B
330
27A
100
AcDbEntity
  8
0
100
AcDbBlockReference
  2
*G39
 10
0.0
 20
0.0
 30
0.0
  0
INSERT
  5
290
330
27A
100
AcDbEntity
  8
0
100
AcDbBlockReference
  2
*G40
 10
0.0
 20
0.0
 30
0.0
  0
ENDBLK
  5
27C
330
27A
100
AcDbEntity
  8
0
100
AcDbBlockEnd
  0
BLOCK
  5
27E
330
27D
100
AcDbEntity
  8
0
100
AcDbBlockBegin
  2
*G37
 70
     1
 10
0.0
 20
0.0
 30
0.0
  3
*G37
  1
*G37
  0
LINE
  5
280
330
27D
100
AcDbEntity
  8
9
  6
DASHDOT
 62
     2
370
     9
100
AcDbLine
 10
608.7230985851498
 20
268.2874471356604
 30
0.0
 11
608.7230985851498
 21
271.8874471356606
 31
0.0
  0
ENDBLK
  5
27F
330
27D
100
AcDbEntity
  8
0
100
AcDbBlockEnd
  0
BLOCK
  5
283
330
282
100
AcDbEntity
  8
0
100
AcDbBlockBegin
  2
*G38
 70
     1
 10
0.0
 20
0.0
 30
0.0
  3
*G38
  1
*G38
  0
LINE
  5
285
330
282
100
AcDbEntity
  8
9
  6
DASHDOT
 62
     2
370
     9
100
AcDbLine
 10
608.7230985851498
 20
268.2874471356604
 30
0.0
 11
605.1230985851499
 21
268.2874471356604
 31
0.0
  0
ENDBLK
  5
284
330
282
100
AcDbEntity
  8
0
100
AcDbBlockEnd
  0
BLOCK
  5
288
330
287
100
AcDbEntity
  8
0
100
AcDbBlockBegin
  2
*G39
 70
     1
 10
0.0
 20
0.0
 30
0.0
  3
*G39
  1
*G39
  0
LINE
  5
28A
330
287
100
AcDbEntity
  8
9
  6
DASHDOT
 62
     2
370
     9
100
AcDbLine
 10
608.7230985851498
 20
268.2874471356604
 30
0.0
 11
608.7230985851498
 21
264.6874471356605
 31
0.0
  0
ENDBLK
  5
289
330
287
100
AcDbEntity
  8
0
100
AcDbBlockEnd
  0
BLOCK
  5
28D
330
28C
100
AcDbEntity
  8
0
100
AcDbBlockBegin
  2
*G40
 70
     1
 10
0.0
 20
0.0
 30
0.0
  3
*G40
  1
*G40
  0
LINE
  5
28F
330
28C
100
AcDbEntity
  8
9
  6
DASHDOT
 62
     2
370
     9
100
AcDbLine
 10
608.7230985851498
 20
268.2874471356604
 30
0.0
 11
612.3230985851496
 21
268.2874471356604
 31
0.0
  0
ENDBLK
  5
28E
330
28C
100
AcDbEntity
  8
0
100
AcDbBlockEnd
  0
BLOCK
  5
293
330
292
100
AcDbEntity
  8
0
100
AcDbBlockBegin
  2
*G41
 70
     1
 10
0.0
 20
0.0
 30
0.0
  3
*G41
  1
*G41
  0
INSERT
  5
299
330
292
100
AcDbEntity
  8
0
100
AcDbBlockReference
  2
*G42
 10
0.0
 20
0.0
 30
0.0
  0
INSERT
  5
29E
330
292
100
AcDbEntity
  8
0
100
AcDbBlockReference
  2
*G43
 10
0.0
 20
0.0
 30
0.0
  0
INSERT
  5
2A3
330
292
100
AcDbEntity
  8
0
100
AcDbBlockReference
  2
*G44
 10
0.0
 20
0.0
 30
0.0
  0
INSERT
  5
2A8
330
292
100
AcDbEntity
  8
0
100
AcDbBlockReference
  2
*G45
 10
0.0
 20
0.0
 30
0.0
  0
ENDBLK
  5
294
330
292
100
AcDbEntity
  8
0
100
AcDbBlockEnd
  0
BLOCK
  5
296
330
295
100
AcDbEntity
  8
0
100
AcDbBlockBegin
  2
*G42
 70
     1
 10
0.0
 20
0.0
 30
0.0
  3
*G42
  1
*G42
  0
LINE
  5
298
330
295
100
AcDbEntity
  8
9
  6
DASHDOT
 62
     2
370
     9
100
AcDbLine
 10
458.7230985851498
 20
122.2874471356604
 30
0.0
 11
458.7230985851498
 21
125.8874471356604
 31
0.0
  0
ENDBLK
  5
297
330
295
100
AcDbEntity
  8
0
100
AcDbBlockEnd
  0
BLOCK
  5
29B
330
29A
100
AcDbEntity
  8
0
100
AcDbBlockBegin
  2
*G43
 70
     1
 10
0.0
 20
0.0
 30
0.0
  3
*G43
  1
*G43
  0
LINE
  5
29D
330
29A
100
AcDbEntity
  8
9
  6
DASHDOT
 62
     2
370
     9
100
AcDbLine
 10
458.7230985851498
 20
122.2874471356604
 30
0.0
 11
455.1230985851499
 21
122.2874471356604
 31
0.0
  0
ENDBLK
  5
29C
330
29A
100
AcDbEntity
  8
0
100
AcDbBlockEnd
  0
BLOCK
  5
2A0
330
29F
100
AcDbEntity
  8
0
100
AcDbBlockBegin
  2
*G44
 70
     1
 10
0.0
 20
0.0
 30
0.0
  3
*G44
  1
*G44
  0
LINE
  5
2A2
330
29F
100
AcDbEntity
  8
9
  6
DASHDOT
 62
     2
370
     9
100
AcDbLine
 10
458.7230985851498
 20
122.2874471356604
 30
0.0
 11
458.7230985851498
 21
118.6874471356603
 31
0.0
  0
ENDBLK
  5
2A1
330
29F
100
AcDbEntity
  8
0
100
AcDbBlockEnd
  0
BLOCK
  5
2A5
330
2A4
100
AcDbEntity
  8
0
100
AcDbBlockBegin
  2
*G45
 70
     1
 10
0.0
 20
0.0
 30
0.0
  3
*G45
  1
*G45
  0
LINE
  5
2A7
330
2A4
100
AcDbEntity
  8
9
  6
DASHDOT
 62
     2
370
     9
100
AcDbLine
 10
458.7230985851498
 20
122.2874471356604
 30
0.0
 11
462.3230985851498
 21
122.2874471356604
 31
0.0
  0
ENDBLK
  5
2A6
330
2A4
100
AcDbEntity
  8
0
100
AcDbBlockEnd
  0
BLOCK
  5
2AB
330
2AA
100
AcDbEntity
  8
0
100
AcDbBlockBegin
  2
*G46
 70
     1
 10
0.0
 20
0.0
 30
0.0
  3
*G46
  1
*G46
  0
INSERT
  5
2B1
330
2AA
100
AcDbEntity
  8
0
100
AcDbBlockReference
  2
*G47
 10
0.0
 20
0.0
 30
0.0
  0
INSERT
  5
2B6
330
2AA
100
AcDbEntity
  8
0
100
AcDbBlockReference
  2
*G48
 10
0.0
 20
0.0
 30
0.0
  0
INSERT
  5
2BB
330
2AA
100
AcDbEntity
  8
0
100
AcDbBlockReference
  2
*G49
 10
0.0
 20
0.0
 30
0.0
  0
INSERT
  5
2C0
330
2AA
100
AcDbEntity
  8
0
100
AcDbBlockReference
  2
*G50
 10
0.0
 20
0.0
 30
0.0
  0
ENDBLK
  5
2AC
330
2AA
100
AcDbEntity
  8
0
100
AcDbBlockEnd
  0
BLOCK
  5
2AE
330
2AD
100
AcDbEntity
  8
0
100
AcDbBlockBegin
  2
*G47
 70
     1
 10
0.0
 20
0.0
 30
0.0
  3
*G47
  1
*G47
  0
LINE
  5
2B0
330
2AD
100
AcDbEntity
  8
9
  6
DASHDOT
 62
     2
370
     9
100
AcDbLine
 10
498.7230985851498
 20
122.2874471356604
 30
0.0
 11
498.7230985851498
 21
125.8874471356604
 31
0.0
  0
ENDBLK
  5
2AF
330
2AD
100
AcDbEntity
  8
0
100
AcDbBlockEnd
  0
BLOCK
  5
2B3
330
2B2
100
AcDbEntity
  8
0
100
AcDbBlockBegin
  2
*G48
 70
     1
 10
0.0
 20
0.0
 30
0.0
  3
*G48
  1
*G48
  0
LINE
  5
2B5
330
2B2
100
AcDbEntity
  8
9
  6
DASHDOT
 62
     2
370
     9
100
AcDbLine
 10
498.7230985851498
 20
122.2874471356604
 30
0.0
 11
495.1230985851499
 21
122.2874471356604
 31
0.0
  0
ENDBLK
  5
2B4
330
2B2
100
AcDbEntity
  8
0
100
AcDbBlockEnd
  0
BLOCK
  5
2B8
330
2B7
100
AcDbEntity
  8
0
100
AcDbBlockBegin
  2
*G49
 70
     1
 10
0.0
 20
0.0
 30
0.0
  3
*G49
  1
*G49
  0
LINE
  5
2BA
330
2B7
100
AcDbEntity
  8
9
  6
DASHDOT
 62
     2
370
     9
100
AcDbLine
 10
498.7230985851498
 20
122.2874471356604
 30
0.0
 11
498.7230985851498
 21
118.6874471356603
 31
0.0
  0
ENDBLK
  5
2B9
330
2B7
100
AcDbEntity
  8
0
100
AcDbBlockEnd
  0
BLOCK
  5
2BD
330
2BC
100
AcDbEntity
  8
0
100
AcDbBlockBegin
  2
*G50
 70
     1
 10
0.0
 20
0.0
 30
0.0
  3
*G50
  1
*G50
  0
LINE
  5
2BF
330
2BC
100
AcDbEntity
  8
9
  6
DASHDOT
 62
     2
370
     9
100
AcDbLine
 10
498.7230985851498
 20
122.2874471356604
 30
0.0
 11
502.3230985851497
 21
122.2874471356604
 31
0.0
  0
ENDBLK
  5
2BE
330
2BC
100
AcDbEntity
  8
0
100
AcDbBlockEnd
  0
BLOCK
  5
2C3
330
2C2
100
AcDbEntity
  8
0
100
AcDbBlockBegin
  2
*G51
 70
     1
 10
0.0
 20
0.0
 30
0.0
  3
*G51
  1
*G51
  0
INSERT
  5
2C9
330
2C2
100
AcDbEntity
  8
0
100
AcDbBlockReference
  2
*G52
 10
0.0
 20
0.0
 30
0.0
  0
INSERT
  5
2CE
330
2C2
100
AcDbEntity
  8
0
100
AcDbBlockReference
  2
*G53
 10
0.0
 20
0.0
 30
0.0
  0
INSERT
  5
2D3
330
2C2
100
AcDbEntity
  8
0
100
AcDbBlockReference
  2
*G54
 10
0.0
 20
0.0
 30
0.0
  0
INSERT
  5
2D8
330
2C2
100
AcDbEntity
  8
0
100
AcDbBlockReference
  2
*G55
 10
0.0
 20
0.0
 30
0.0
  0
ENDBLK
  5
2C4
330
2C2
100
AcDbEntity
  8
0
100
AcDbBlockEnd
  0
BLOCK
  5
2C6
330
2C5
100
AcDbEntity
  8
0
100
AcDbBlockBegin
  2
*G52
 70
     1
 10
0.0
 20
0.0
 30
0.0
  3
*G52
  1
*G52
  0
LINE
  5
2C8
330
2C5
100
AcDbEntity
  8
9
  6
DASHDOT
 62
     2
370
     9
100
AcDbLine
 10
568.7230985851489
 20
122.2874471356604
 30
0.0
 11
568.7230985851489
 21
125.8874471356604
 31
0.0
  0
ENDBLK
  5
2C7
330
2C5
100
AcDbEntity
  8
0
100
AcDbBlockEnd
  0
BLOCK
  5
2CB
330
2CA
100
AcDbEntity
  8
0
100
AcDbBlockBegin
  2
*G53
 70
     1
 10
0.0
 20
0.0
 30
0.0
  3
*G53
  1
*G53
  0
LINE
  5
2CD
330
2CA
100
AcDbEntity
  8
9
  6
DASHDOT
 62
     2
370
     9
100
AcDbLine
 10
568.7230985851489
 20
122.2874471356604
 30
0.0
 11
565.123098585149
 21
122.2874471356604
 31
0.0
  0
ENDBLK
  5
2CC
330
2CA
100
AcDbEntity
  8
0
100
AcDbBlockEnd
  0
BLOCK
  5
2D0
330
2CF
100
AcDbEntity
  8
0
100
AcDbBlockBegin
  2
*G54
 70
     1
 10
0.0
 20
0.0
 30
0.0
  3
*G54
  1
*G54
  0
LINE
  5
2D2
330
2CF
100
AcDbEntity
  8
9
  6
DASHDOT
 62
     2
370
     9
100
AcDbLine
 10
568.7230985851489
 20
122.2874471356604
 30
0.0
 11
568.7230985851489
 21
118.6874471356603
 31
0.0
  0
ENDBLK
  5
2D1
330
2CF
100
AcDbEntity
  8
0
100
AcDbBlockEnd
  0
BLOCK
  5
2D5
330
2D4
100
AcDbEntity
  8
0
100
AcDbBlockBegin
  2
*G55
 70
     1
 10
0.0
 20
0.0
 30
0.0
  3
*G55
  1
*G55
  0
LINE
  5
2D7
330
2D4
100
AcDbEntity
  8
9
  6
DASHDOT
 62
     2
370
     9
100
AcDbLine
 10
568.7230985851489
 20
122.2874471356604
 30
0.0
 11
572.3230985851491
 21
122.2874471356604
 31
0.0
  0
ENDBLK
  5
2D6
330
2D4
100
AcDbEntity
  8
0
100
AcDbBlockEnd
  0
BLOCK
  5
2DB
330
2DA
100
AcDbEntity
  8
0
100
AcDbBlockBegin
  2
*G56
 70
     1
 10
0.0
 20
0.0
 30
0.0
  3
*G56
  1
*G56
  0
INSERT
  5
2E1
330
2DA
100
AcDbEntity
  8
0
100
AcDbBlockReference
  2
*G57
 10
0.0
 20
0.0
 30
0.0
  0
INSERT
  5
2E6
330
2DA
100
AcDbEntity
  8
0
100
AcDbBlockReference
  2
*G58
 10
0.0
 20
0.0
 30
0.0
  0
INSERT
  5
2EB
330
2DA
100
AcDbEntity
  8
0
100
AcDbBlockReference
  2
*G59
 10
0.0
 20
0.0
 30
0.0
  0
INSERT
  5
2F0
330
2DA
100
AcDbEntity
  8
0
100
AcDbBlockReference
  2
*G60
 10
0.0
 20
0.0
 30
0.0
  0
ENDBLK
  5
2DC
330
2DA
100
AcDbEntity
  8
0
100
AcDbBlockEnd
  0
BLOCK
  5
2DE
330
2DD
100
AcDbEntity
  8
0
100
AcDbBlockBegin
  2
*G57
 70
     1
 10
0.0
 20
0.0
 30
0.0
  3
*G57
  1
*G57
  0
LINE
  5
2E0
330
2DD
100
AcDbEntity
  8
9
  6
DASHDOT
 62
     2
370
     9
100
AcDbLine
 10
608.7230985851498
 20
122.2874471356604
 30
0.0
 11
608.7230985851498
 21
125.8874471356604
 31
0.0
  0
ENDBLK
  5
2DF
330
2DD
100
AcDbEntity
  8
0
100
AcDbBlockEnd
  0
BLOCK
  5
2E3
330
2E2
100
AcDbEntity
  8
0
100
AcDbBlockBegin
  2
*G58
 70
     1
 10
0.0
 20
0.0
 30
0.0
  3
*G58
  1
*G58
  0
LINE
  5
2E5
330
2E2
100
AcDbEntity
  8
9
  6
DASHDOT
 62
     2
370
     9
100
AcDbLine
 10
608.7230985851498
 20
122.2874471356604
 30
0.0
 11
605.1230985851499
 21
122.2874471356604
 31
0.0
  0
ENDBLK
  5
2E4
330
2E2
100
AcDbEntity
  8
0
100
AcDbBlockEnd
  0
BLOCK
  5
2E8
330
2E7
100
AcDbEntity
  8
0
100
AcDbBlockBegin
  2
*G59
 70
     1
 10
0.0
 20
0.0
 30
0.0
  3
*G59
  1
*G59
  0
LINE
  5
2EA
330
2E7
100
AcDbEntity
  8
9
  6
DASHDOT
 62
     2
370
     9
100
AcDbLine
 10
608.7230985851498
 20
122.2874471356604
 30
0.0
 11
608.7230985851498
 21
118.6874471356603
 31
0.0
  0
ENDBLK
  5
2E9
330
2E7
100
AcDbEntity
  8
0
100
AcDbBlockEnd
  0
BLOCK
  5
2ED
330
2EC
100
AcDbEntity
  8
0
100
AcDbBlockBegin
  2
*G60
 70
     1
 10
0.0
 20
0.0
 30
0.0
  3
*G60
  1
*G60
  0
LINE
  5
2EF
330
2EC
100
AcDbEntity
  8
9
  6
DASHDOT
 62
     2
370
     9
100
AcDbLine
 10
608.7230985851498
 20
122.2874471356604
 30
0.0
 11
612.3230985851496
 21
122.2874471356604
 31
0.0
  0
ENDBLK
  5
2EE
330
2EC
100
AcDbEntity
  8
0
100
AcDbBlockEnd
  0
BLOCK
  5
2F3
330
2F2
100
AcDbEntity
  8
0
100
AcDbBlockBegin
  2
Dim4
 70
     0
 10
0.0
 20
0.0
 30
0.0
  3
Dim4
  1
Dim4
  0
LINE
  5
2F5
330
2F2
100
AcDbEntity
  8
7
  6
Continuous
 62
     4
370
    18
100
AcDbLine
 10
498.7230985851498
 20
117.9374471356603
 30
0.0
 11
498.7230985851498
 21
95.7896427620239
 31
0.0
  0
LINE
  5
2F6
330
2F2
100
AcDbEntity
  8
7
  6
Continuous
 62
     4
370
    18
100
AcDbLine
 10
568.7230985851489
 20
117.9374471356603
 30
0.0
 11
568.7230985851489
 21
95.7896427620239
 31
0.0
  0
LINE
  5
2F7
330
2F2
100
AcDbEntity
  8
7
  6
Continuous
 62
     4
370
    18
100
AcDbLine
 10
498.7230985851498
 20
96.9146427620239
 30
0.0
 11
568.7230985851489
 21
96.9146427620239
 31
0.0
  0
MTEXT
  5
2F8
330
2F2
100
AcDbEntity
  8
7
  6
Continuous
 62
     4
370
     9
100
AcDbMText
 10
533.7230985851493
 20
96.9146427620239
 30
0.0
 40
2.25
 41
18.21428571428572
 46
2.25
 71
     8
 72
     1
  1
70
  7
ＭＳ ゴシック
 73
     1
 44
1.0
1001
ACAD
1000
ACAD_MTEXT_DEFINED_HEIGHT_BEGIN
1070
    46
1040
2.25
1000
ACAD_MTEXT_DEFINED_HEIGHT_END
  0
INSERT
  5
2F9
330
2F2
100
AcDbEntity
  8
7
  6
Continuous
 62
     4
370
    18
100
AcDbBlockReference
  2
_ARROWFILLED
 10
498.7230985851498
 20
96.9146427620239
 30
0.0
 41
1.5
 42
1.5
 43
1.5
 50
179.9999999999998
  0
INSERT
  5
2FA
330
2F2
100
AcDbEntity
  8
7
  6
Continuous
 62
     4
370
    18
100
AcDbBlockReference
  2
_ARROWFILLED
 10
568.7230985851489
 20
96.9146427620239
 30
0.0
 41
1.5
 42
1.5
 43
1.5
 50
359.9999999999997
  0
ENDBLK
  5
2F4
330
2F2
100
AcDbEntity
  8
0
100
AcDbBlockEnd
  0
BLOCK
  5
2FD
330
2FC
100
AcDbEntity
  8
0
100
AcDbBlockBegin
  2
Dim5
 70
     0
 10
0.0
 20
0.0
 30
0.0
  3
Dim5
  1
Dim5
  0
LINE
  5
2FF
330
2FC
100
AcDbEntity
  8
7
  6
Continuous
 62
     4
370
    18
100
AcDbLine
 10
458.7230985851498
 20
117.9374471356603
 30
0.0
 11
458.7230985851498
 21
81.57019495487799
 31
0.0
  0
LINE
  5
300
330
2FC
100
AcDbEntity
  8
7
  6
Continuous
 62
     4
370
    18
100
AcDbLine
 10
608.7230985851498
 20
117.9374471356603
 30
0.0
 11
608.7230985851498
 21
81.57019495487799
 31
0.0
  0
LINE
  5
301
330
2FC
100
AcDbEntity
  8
7
  6
Continuous
 62
     4
370
    18
100
AcDbLine
 10
458.7230985851498
 20
82.69519495487799
 30
0.0
 11
608.7230985851498
 21
82.69519495487799
 31
0.0
  0
MTEXT
  5
302
330
2FC
100
AcDbEntity
  8
7
  6
Continuous
 62
     4
370
     9
100
AcDbMText
 10
533.7230985851498
 20
84.94519495487799
 30
0.0
 40
2.25
 41
27.32142857142857
 46
2.25
 71
     8
 72
     1
  1
150
  7
ＭＳ ゴシック
 73
     1
 44
1.0
1001
ACAD
1000
ACAD_MTEXT_DEFINED_HEIGHT_BEGIN
1070
    46
1040
2.25
1000
ACAD_MTEXT_DEFINED_HEIGHT_END
  0
INSERT
  5
303
330
2FC
100
AcDbEntity
  8
7
  6
Continuous
 62
     4
370
    18
100
AcDbBlockReference
  2
_ARROWFILLED
 10
458.7230985851498
 20
82.69519495487799
 30
0.0
 41
1.5
 42
1.5
 43
1.5
 50
179.9999999999998
  0
INSERT
  5
304
330
2FC
100
AcDbEntity
  8
7
  6
Continuous
 62
     4
370
    18
100
AcDbBlockReference
  2
_ARROWFILLED
 10
608.7230985851498
 20
82.69519495487799
 30
0.0
 41
1.5
 42
1.5
 43
1.5
 50
359.9999999999997
  0
ENDBLK
  5
2FE
330
2FC
100
AcDbEntity
  8
0
100
AcDbBlockEnd
  0
BLOCK
  5
307
330
306
100
AcDbEntity
  8
0
100
AcDbBlockBegin
  2
Dim6
 70
     0
 10
0.0
 20
0.0
 30
0.0
  3
Dim6
  1
Dim6
  0
LINE
  5
309
330
306
100
AcDbEntity
  8
7
  6
Continuous
 62
     4
370
    18
100
AcDbLine
 10
433.7230985851498
 20
144.5374471356604
 30
0.0
 11
433.7230985851498
 21
65.07612447127889
 31
0.0
  0
LINE
  5
30A
330
306
100
AcDbEntity
  8
7
  6
Continuous
 62
     4
370
    18
100
AcDbLine
 10
633.7230985851495
 20
144.5374471356604
 30
0.0
 11
633.7230985851495
 21
65.07612447127889
 31
0.0
  0
LINE
  5
30B
330
306
100
AcDbEntity
  8
7
  6
Continuous
 62
     4
370
    18
100
AcDbLine
 10
433.7230985851498
 20
66.20112447127889
 30
0.0
 11
633.7230985851495
 21
66.20112447127889
 31
0.0
  0
MTEXT
  5
30C
330
306
100
AcDbEntity
  8
7
  6
Continuous
 62
     4
370
     9
100
AcDbMText
 10
533.72309858515
 20
68.45112447127889
 30
0.0
 40
2.25
 41
28.92857142857143
 46
2.25
 71
     8
 72
     1
  1
200
  7
ＭＳ ゴシック
 73
     1
 44
1.0
1001
ACAD
1000
ACAD_MTEXT_DEFINED_HEIGHT_BEGIN
1070
    46
1040
2.25
1000
ACAD_MTEXT_DEFINED_HEIGHT_END
  0
INSERT
  5
30D
330
306
100
AcDbEntity
  8
7
  6
Continuous
 62
     4
370
    18
100
AcDbBlockReference
  2
_ARROWFILLED
 10
433.7230985851498
 20
66.20112447127889
 30
0.0
 41
1.5
 42
1.5
 43
1.5
 50
179.9999999999998
  0
INSERT
  5
30E
330
306
100
AcDbEntity
  8
7
  6
Continuous
 62
     4
370
    18
100
AcDbBlockReference
  2
_ARROWFILLED
 10
633.7230985851495
 20
66.20112447127889
 30
0.0
 41
1.5
 42
1.5
 43
1.5
 50
359.9999999999997
  0
ENDBLK
  5
308
330
306
100
AcDbEntity
  8
0
100
AcDbBlockEnd
  0
BLOCK
  5
311
330
310
100
AcDbEntity
  8
0
100
AcDbBlockBegin
  2
Dim7
 70
     0
 10
0.0
 20
0.0
 30
0.0
  3
Dim7
  1
Dim7
  0
LINE
  5
313
330
310
100
AcDbEntity
  8
7
  6
Continuous
 62
     4
370
    18
100
AcDbLine
 10
418.7230985851498
 20
129.5374471356593
 30
0.0
 11
418.7230985851497
 21
49.25529865125241
 31
0.0
  0
LINE
  5
314
330
310
100
AcDbEntity
  8
7
  6
Continuous
 62
     4
370
    18
100
AcDbLine
 10
648.7230985851497
 20
129.5374471356604
 30
0.0
 11
648.7230985851495
 21
49.25529865125241
 31
0.0
  0
LINE
  5
315
330
310
100
AcDbEntity
  8
7
  6
Continuous
 62
     4
370
    18
100
AcDbLine
 10
418.7230985851497
 20
50.38029865125241
 30
0.0
 11
648.7230985851495
 21
50.38029865125241
 31
0.0
  0
MTEXT
  5
316
330
310
100
AcDbEntity
  8
7
  6
Continuous
 62
     4
370
     9
100
AcDbMText
 10
533.7230985851501
 20
52.63029865125241
 30
0.0
 40
2.25
 41
28.92857142857143
 46
2.25
 71
     8
 72
     1
  1
230
  7
ＭＳ ゴシック
 73
     1
 44
1.0
1001
ACAD
1000
ACAD_MTEXT_DEFINED_HEIGHT_BEGIN
1070
    46
1040
2.25
1000
ACAD_MTEXT_DEFINED_HEIGHT_END
  0
INSERT
  5
317
330
310
100
AcDbEntity
  8
7
  6
Continuous
 62
     4
370
    18
100
AcDbBlockReference
  2
_ARROWFILLED
 10
418.7230985851497
 20
50.38029865125241
 30
0.0
 41
1.5
 42
1.5
 43
1.5
 50
179.9999999999998
  0
INSERT
  5
318
330
310
100
AcDbEntity
  8
7
  6
Continuous
 62
     4
370
    18
100
AcDbBlockReference
  2
_ARROWFILLED
 10
648.7230985851495
 20
50.38029865125241
 30
0.0
 41
1.5
 42
1.5
 43
1.5
 50
359.9999999999997
  0
ENDBLK
  5
312
330
310
100
AcDbEntity
  8
0
100
AcDbBlockEnd
  0
BLOCK
  5
31B
330
31A
100
AcDbEntity
  8
0
100
AcDbBlockBegin
  2
Dim8
 70
     0
 10
0.0
 20
0.0
 30
0.0
  3
Dim8
  1
Dim8
  0
LINE
  5
31D
330
31A
100
AcDbEntity
  8
7
  6
Continuous
 62
     4
370
    18
100
AcDbLine
 10
738.4243054292695
 20
129.5374471356604
 30
0.0
 11
738.4243054292695
 21
65.07612447127889
 31
0.0
  0
LINE
  5
31E
330
31A
100
AcDbEntity
  8
7
  6
Continuous
 62
     4
370
    18
100
AcDbLine
 10
783.4243054292695
 20
114.5374471356604
 30
0.0
 11
783.4243054292695
 21
65.07612447127889
 31
0.0
  0
LINE
  5
31F
330
31A
100
AcDbEntity
  8
7
  6
Continuous
 62
     4
370
    18
100
AcDbLine
 10
738.4243054292695
 20
66.20112447127889
 30
0.0
 11
783.4243054292695
 21
66.20112447127889
 31
0.0
  0
MTEXT
  5
320
330
31A
100
AcDbEntity
  8
7
  6
Continuous
 62
     4
370
     9
100
AcDbMText
 10
760.9243054292695
 20
68.45112447127889
 30
0.0
 40
2.25
 41
18.21428571428572
 46
2.25
 71
     8
 72
     1
  1
45
  7
ＭＳ ゴシック
 73
     1
 44
1.0
1001
ACAD
1000
ACAD_MTEXT_DEFINED_HEIGHT_BEGIN
1070
    46
1040
2.25
1000
ACAD_MTEXT_DEFINED_HEIGHT_END
  0
INSERT
  5
321
330
31A
100
AcDbEntity
  8
7
  6
Continuous
 62
     4
370
    18
100
AcDbBlockReference
  2
_ARROWFILLED
 10
738.4243054292695
 20
66.20112447127889
 30
0.0
 41
1.5
 42
1.5
 43
1.5
 50
179.9999999999998
  0
INSERT
  5
322
330
31A
100
AcDbEntity
  8
7
  6
Continuous
 62
     4
370
    18
100
AcDbBlockReference
  2
_ARROWFILLED
 10
783.4243054292695
 20
66.20112447127889
 30
0.0
 41
1.5
 42
1.5
 43
1.5
 50
359.9999999999997
  0
ENDBLK
  5
31C
330
31A
100
AcDbEntity
  8
0
100
AcDbBlockEnd
  0
BLOCK
  5
325
330
324
100
AcDbEntity
  8
0
100
AcDbBlockBegin
  2
Dim9
 70
     0
 10
0.0
 20
0.0
 30
0.0
  3
Dim9
  1
Dim9
  0
LINE
  5
327
330
324
100
AcDbEntity
  8
7
  6
Continuous
 62
     4
370
    18
100
AcDbLine
 10
432.9730985851498
 20
145.2874471356604
 30
0.0
 11
398.2934168025941
 21
145.2874471356604
 31
0.0
  0
LINE
  5
328
330
324
100
AcDbEntity
  8
7
  6
Continuous
 62
     4
370
    18
100
AcDbLine
 10
432.9730985851498
 20
245.2874471356607
 30
0.0
 11
398.2934168025941
 21
245.2874471356607
 31
0.0
  0
LINE
  5
329
330
324
100
AcDbEntity
  8
7
  6
Continuous
 62
     4
370
    18
100
AcDbLine
 10
399.4184168025941
 20
145.2874471356604
 30
0.0
 11
399.4184168025941
 21
245.2874471356607
 31
0.0
  0
MTEXT
  5
32A
330
324
100
AcDbEntity
  8
7
  6
Continuous
 62
     4
370
     9
100
AcDbMText
 10
399.4184168025941
 20
195.2874471356605
 30
0.0
 40
2.25
 41
27.32142857142857
 46
2.25
 71
     8
 72
     1
  1
100
  7
ＭＳ ゴシック
 11
1.615544574432587E-15
 21
1.0
 31
0.0
 73
     1
 44
1.0
1001
ACAD
1000
ACAD_MTEXT_DEFINED_HEIGHT_BEGIN
1070
    46
1040
2.25
1000
ACAD_MTEXT_DEFINED_HEIGHT_END
  0
INSERT
  5
32B
330
324
100
AcDbEntity
  8
7
  6
Continuous
 62
     4
370
    18
100
AcDbBlockReference
  2
_ARROWFILLED
 10
399.4184168025941
 20
145.2874471356604
 30
0.0
 41
1.5
 42
1.5
 43
1.5
 50
269.9999999999998
  0
INSERT
  5
32C
330
324
100
AcDbEntity
  8
7
  6
Continuous
 62
     4
370
    18
100
AcDbBlockReference
  2
_ARROWFILLED
 10
399.4184168025941
 20
245.2874471356607
 30
0.0
 41
1.5
 42
1.5
 43
1.5
 50
89.99999999999991
  0
ENDBLK
  5
326
330
324
100
AcDbEntity
  8
0
100
AcDbBlockEnd
  0
BLOCK
  5
32F
330
32E
100
AcDbEntity
  8
0
100
AcDbBlockBegin
  2
Dim10
 70
     0
 10
0.0
 20
0.0
 30
0.0
  3
Dim10
  1
Dim10
  0
LINE
  5
331
330
32E
100
AcDbEntity
  8
7
  6
Continuous
 62
     4
370
    18
100
AcDbLine
 10
417.9730985851498
 20
130.2874471356604
 30
0.0
 11
382.7597486457299
 21
130.2874471356604
 31
0.0
  0
LINE
  5
332
330
32E
100
AcDbEntity
  8
7
  6
Continuous
 62
     4
370
    18
100
AcDbLine
 10
417.9730985851498
 20
260.2874471356604
 30
0.0
 11
382.7597486457299
 21
260.2874471356607
 31
0.0
  0
LINE
  5
333
330
32E
100
AcDbEntity
  8
7
  6
Continuous
 62
     4
370
    18
100
AcDbLine
 10
383.8847486457299
 20
130.2874471356604
 30
0.0
 11
383.8847486457299
 21
260.2874471356607
 31
0.0
  0
MTEXT
  5
334
330
32E
100
AcDbEntity
  8
7
  6
Continuous
 62
     4
370
     9
100
AcDbMText
 10
383.8847486457299
 20
195.2874471356604
 30
0.0
 40
2.25
 41
27.32142857142857
 46
2.25
 71
     8
 72
     1
  1
130
  7
ＭＳ ゴシック
 11
1.615544574432587E-15
 21
1.0
 31
0.0
 73
     1
 44
1.0
1001
ACAD
1000
ACAD_MTEXT_DEFINED_HEIGHT_BEGIN
1070
    46
1040
2.25
1000
ACAD_MTEXT_DEFINED_HEIGHT_END
  0
INSERT
  5
335
330
32E
100
AcDbEntity
  8
7
  6
Continuous
 62
     4
370
    18
100
AcDbBlockReference
  2
_ARROWFILLED
 10
383.8847486457299
 20
130.2874471356604
 30
0.0
 41
1.5
 42
1.5
 43
1.5
 50
269.9999999999998
  0
INSERT
  5
336
330
32E
100
AcDbEntity
  8
7
  6
Continuous
 62
     4
370
    18
100
AcDbBlockReference
  2
_ARROWFILLED
 10
383.8847486457299
 20
260.2874471356607
 30
0.0
 41
1.5
 42
1.5
 43
1.5
 50
89.99999999999991
  0
ENDBLK
  5
330
330
32E
100
AcDbEntity
  8
0
100
AcDbBlockEnd
  0
BLOCK
  5
339
330
338
100
AcDbEntity
  8
0
100
AcDbBlockBegin
  2
Dim11
 70
     0
 10
0.0
 20
0.0
 30
0.0
  3
Dim11
  1
Dim11
  0
LINE
  5
33B
330
338
100
AcDbEntity
  8
7
  6
Continuous
 62
     4
370
    18
100
AcDbLine
 10
454.3730985851499
 20
122.2874471356604
 30
0.0
 11
368.2632910070116
 21
122.2874471356607
 31
0.0
  0
LINE
  5
33C
330
338
100
AcDbEntity
  8
7
  6
Continuous
 62
     4
370
    18
100
AcDbLine
 10
454.3730985851499
 20
268.2874471356604
 30
0.0
 11
368.2632910070116
 21
268.2874471356607
 31
0.0
  0
LINE
  5
33D
330
338
100
AcDbEntity
  8
7
  6
Continuous
 62
     4
370
    18
100
AcDbLine
 10
369.3882910070116
 20
122.2874471356607
 30
0.0
 11
369.3882910070116
 21
268.2874471356607
 31
0.0
  0
MTEXT
  5
33E
330
338
100
AcDbEntity
  8
7
  6
Continuous
 62
     4
370
     9
100
AcDbMText
 10
369.3882910070116
 20
195.2874471356604
 30
0.0
 40
2.25
 41
27.32142857142857
 46
2.25
 71
     8
 72
     1
  1
146
  7
ＭＳ ゴシック
 11
1.615544574432587E-15
 21
1.0
 31
0.0
 73
     1
 44
1.0
1001
ACAD
1000
ACAD_MTEXT_DEFINED_HEIGHT_BEGIN
1070
    46
1040
2.25
1000
ACAD_MTEXT_DEFINED_HEIGHT_END
  0
INSERT
  5
33F
330
338
100
AcDbEntity
  8
7
  6
Continuous
 62
     4
370
    18
100
AcDbBlockReference
  2
_ARROWFILLED
 10
369.3882910070116
 20
122.2874471356607
 30
0.0
 41
1.5
 42
1.5
 43
1.5
 50
269.9999999999998
  0
INSERT
  5
340
330
338
100
AcDbEntity
  8
7
  6
Continuous
 62
     4
370
    18
100
AcDbBlockReference
  2
_ARROWFILLED
 10
369.3882910070116
 20
268.2874471356607
 30
0.0
 41
1.5
 42
1.5
 43
1.5
 50
89.99999999999991
  0
ENDBLK
  5
33A
330
338
100
AcDbEntity
  8
0
100
AcDbBlockEnd
  0
BLOCK
  5
343
330
342
100
AcDbEntity
  8
0
100
AcDbBlockBegin
  2
Dim12
 70
     0
 10
0.0
 20
0.0
 30
0.0
  3
Dim12
  1
Dim12
  0
LINE
  5
345
330
342
100
AcDbEntity
  8
7
  6
Continuous
 62
     4
370
    18
100
AcDbLine
 10
437.9730985851489
 20
275.2874471356604
 30
0.0
 11
353.9303949903661
 21
275.2874471356607
 31
0.0
  0
LINE
  5
346
330
342
100
AcDbEntity
  8
7
  6
Continuous
 62
     4
370
    18
100
AcDbLine
 10
437.9730985851489
 20
115.2874471356604
 30
0.0
 11
353.9303949903661
 21
115.2874471356607
 31
0.0
  0
LINE
  5
347
330
342
100
AcDbEntity
  8
7
  6
Continuous
 62
     4
370
    18
100
AcDbLine
 10
355.0553949903661
 20
275.2874471356607
 30
0.0
 11
355.0553949903661
 21
115.2874471356607
 31
0.0
  0
MTEXT
  5
348
330
342
100
AcDbEntity
  8
7
  6
Continuous
 62
     4
370
     9
100
AcDbMText
 10
355.0553949903661
 20
195.2874471356605
 30
0.0
 40
2.25
 41
27.32142857142857
 46
2.25
 71
     8
 72
     1
  1
160
  7
ＭＳ ゴシック
 11
1.615544574432587E-15
 21
1.0
 31
0.0
 73
     1
 44
1.0
1001
ACAD
1000
ACAD_MTEXT_DEFINED_HEIGHT_BEGIN
1070
    46
1040
2.25
1000
ACAD_MTEXT_DEFINED_HEIGHT_END
  0
INSERT
  5
349
330
342
100
AcDbEntity
  8
7
  6
Continuous
 62
     4
370
    18
100
AcDbBlockReference
  2
_ARROWFILLED
 10
355.0553949903661
 20
275.2874471356607
 30
0.0
 41
1.5
 42
1.5
 43
1.5
 50
89.99999999999991
  0
INSERT
  5
34A
330
342
100
AcDbEntity
  8
7
  6
Continuous
 62
     4
370
    18
100
AcDbBlockReference
  2
_ARROWFILLED
 10
355.0553949903661
 20
115.2874471356607
 30
0.0
 41
1.5
 42
1.5
 43
1.5
 50
269.9999999999998
  0
ENDBLK
  5
344
330
342
100
AcDbEntity
  8
0
100
AcDbBlockEnd
  0
ENDSEC
  0
SECTION
  2
ENTITIES
  0
LINE
  5
D6
330
1F
100
AcDbEntity
  8
5
  6
Continuous
 62
    30
370
     9
100
AcDbLine
 10
205.0169462623079
 20
64.17630057803461
 30
0.0
 11
313.0169462623079
 21
64.17630057803461
 31
0.0
  0
LINE
  5
D7
330
1F
100
AcDbEntity
  8
5
  6
Continuous
 62
    30
370
     9
100
AcDbLine
 10
205.0169462623079
 20
56.67628557803431
 30
0.0
 11
313.0169462623079
 21
56.67628557803431
 31
0.0
  0
LINE
  5
D8
330
1F
100
AcDbEntity
  8
5
  6
Continuous
 62
    30
370
     9
100
AcDbLine
 10
205.0169462623079
 20
49.17630057803461
 30
0.0
 11
313.0169462623079
 21
49.17630057803461
 31
0.0
  0
LINE
  5
D9
330
1F
100
AcDbEntity
  8
5
  6
Continuous
 62
    30
370
     9
100
AcDbLine
 10
205.0169462623079
 20
41.67630057803461
 30
0.0
 11
313.0169462623079
 21
41.67630057803461
 31
0.0
  0
LINE
  5
DA
330
1F
100
AcDbEntity
  8
5
  6
Continuous
 62
    30
370
     9
100
AcDbLine
 10
271.0169462623079
 20
64.17630057803461
 30
0.0
 11
271.0169462623079
 21
41.67630057803461
 31
0.0
  0
LINE
  5
DB
330
1F
100
AcDbEntity
  8
5
  6
Continuous
 62
    30
370
     9
100
AcDbLine
 10
271.0169462623079
 20
64.17630057803461
 30
0.0
 11
271.0169462623079
 21
41.67630057803461
 31
0.0
  0
LINE
  5
DC
330
1F
100
AcDbEntity
  8
5
  6
Continuous
 62
    30
370
     9
100
AcDbLine
 10
235.0169612623078
 20
64.17630057803461
 30
0.0
 11
235.0169612623078
 21
41.67630057803461
 31
0.0
  0
LINE
  5
DD
330
1F
100
AcDbEntity
  8
5
  6
Continuous
 62
    30
370
     9
100
AcDbLine
 10
205.0169462623079
 20
64.17630057803461
 30
0.0
 11
205.0169462623079
 21
41.67630057803461
 31
0.0
  0
LINE
  5
DE
330
1F
100
AcDbEntity
  8
5
  6
Continuous
 62
    30
370
     9
100
AcDbLine
 10
205.0169462623079
 20
64.17630057803461
 30
0.0
 11
235.0169612623078
 21
56.67628557803431
 31
0.0
  0
LINE
  5
DF
330
1F
100
AcDbEntity
  8
5
  6
Continuous
 62
    30
370
     9
100
AcDbLine
 10
313.0169462623079
 20
64.17630057803461
 30
0.0
 11
313.0169462623079
 21
41.67630057803461
 31
0.0
  0
LINE
  5
E0
330
1F
100
AcDbEntity
  8
4
  6
Continuous
 62
     2
370
     9
100
AcDbLine
 10
257.7829448577712
 20
76.43125782803457
 30
0.0
 11
257.7829448577712
 21
77.6912683280346
 31
0.0
  0
LINE
  5
E1
330
1F
100
AcDbEntity
  8
4
  6
Continuous
 62
     2
370
     9
100
AcDbLine
 10
266.9179406577712
 20
71.3387578280346
 30
0.0
 11
266.9179406577712
 21
80.26377882803462
 31
0.0
  0
LINE
  5
E2
330
1F
100
AcDbEntity
  8
4
  6
Continuous
 62
     2
370
     9
100
AcDbLine
 10
266.3929385577713
 20
80.26377882803462
 30
0.0
 11
266.3929385577713
 21
71.3387578280346
 31
0.0
  0
LINE
  5
E3
330
1F
100
AcDbEntity
  8
4
  6
Continuous
 62
     2
370
     9
100
AcDbLine
 10
265.8679501077711
 20
79.94875782803462
 30
0.0
 11
265.8679501077711
 21
71.65377882803426
 31
0.0
  0
LINE
  5
E4
330
1F
100
AcDbEntity
  8
4
  6
Continuous
 62
     2
370
     9
100
AcDbLine
 10
260.0929312077712
 20
79.94875782803462
 30
0.0
 11
260.0929312077712
 21
71.65377882803426
 31
0.0
  0
LINE
  5
E5
330
1F
100
AcDbEntity
  8
4
  6
Continuous
 62
     2
370
     9
100
AcDbLine
 10
257.4679354077712
 20
77.58624732803474
 30
0.0
 11
257.4679354077712
 21
74.01627882803433
 31
0.0
  0
LINE
  5
E6
330
1F
100
AcDbEntity
  8
4
  6
Continuous
 62
     2
370
     9
100
AcDbLine
 10
263.5054427577713
 20
76.85126307803426
 30
0.0
 11
263.5054427577713
 21
74.75127357803427
 31
0.0
  0
LINE
  5
E7
330
1F
100
AcDbEntity
  8
4
  6
Continuous
 62
     2
370
     9
100
AcDbLine
 10
264.5554459077712
 20
74.75127357803427
 30
0.0
 11
264.5554459077712
 21
76.85126307803426
 31
0.0
  0
LINE
  5
E8
330
1F
100
AcDbEntity
  8
4
  6
Continuous
 62
     2
370
     9
100
AcDbLine
 10
260.4079396077711
 20
80.26377882803462
 30
0.0
 11
265.5529417077712
 21
80.26377882803462
 31
0.0
  0
LINE
  5
E9
330
1F
100
AcDbEntity
  8
4
  6
Continuous
 62
     2
370
     9
100
AcDbLine
 10
260.0929438077713
 20
80.78877882803482
 30
0.0
 11
265.8679375077713
 21
80.78877882803482
 31
0.0
  0
LINE
  5
EA
330
1F
100
AcDbEntity
  8
4
  6
Continuous
 62
     2
370
     9
100
AcDbLine
 10
265.8679501077711
 20
81.3137578280344
 30
0.0
 11
260.0929312077712
 21
81.3137578280344
 31
0.0
  0
LINE
  5
EB
330
1F
100
AcDbEntity
  8
4
  6
Continuous
 62
     2
370
     9
100
AcDbLine
 10
262.4554522077713
 20
79.21372107803478
 30
0.0
 11
261.405441707771
 21
79.21372107803478
 31
0.0
  0
LINE
  5
EC
330
1F
100
AcDbEntity
  8
4
  6
Continuous
 62
     2
370
     9
100
AcDbLine
 10
261.405441707771
 20
77.63871057803505
 30
0.0
 11
262.4554522077713
 21
77.63871057803505
 31
0.0
  0
LINE
  5
ED
330
1F
100
AcDbEntity
  8
4
  6
Continuous
 62
     2
370
     9
100
AcDbLine
 10
264.5554459077712
 20
76.85126307803426
 30
0.0
 11
263.5054427577713
 21
76.85126307803426
 31
0.0
  0
ARC
  5
EE
330
1F
100
AcDbEntity
  8
4
  6
Continuous
 62
     2
370
     9
100
AcDbCircle
 10
265.8679501077711
 20
80.26377882803462
 30
0.0
 40
1.049999999999997
100
AcDbArc
 50
0.0
 51
89.99999999999991
  0
ARC
  5
EF
330
1F
100
AcDbEntity
  8
4
  6
Continuous
 62
     2
370
     9
100
AcDbCircle
 10
265.5529417077712
 20
79.94875782803462
 30
0.0
 40
0.3149999999999977
100
AcDbArc
 50
0.0
 51
89.99999999999991
  0
ARC
  5
F0
330
1F
100
AcDbEntity
  8
4
  6
Continuous
 62
     2
370
     9
100
AcDbCircle
 10
265.8679375077713
 20
80.26377882803462
 30
0.0
 40
0.5250000000000057
100
AcDbArc
 50
0.0
 51
89.99999999999991
  0
LINE
  5
F1
330
1F
100
AcDbEntity
  8
4
  6
Continuous
 62
     2
370
     9
100
AcDbLine
 10
264.5554459077712
 20
79.47621057803491
 30
0.0
 11
263.5054427577713
 21
79.47621057803491
 31
0.0
  0
LINE
  5
F2
330
1F
100
AcDbEntity
  8
4
  6
Continuous
 62
     2
370
     9
100
AcDbLine
 10
262.4554522077713
 20
77.63871057803505
 30
0.0
 11
262.4554522077713
 21
79.21372107803478
 31
0.0
  0
LINE
  5
F3
330
1F
100
AcDbEntity
  8
4
  6
Continuous
 62
     2
370
     9
100
AcDbLine
 10
263.5054427577713
 20
79.47621057803491
 30
0.0
 11
263.5054427577713
 21
77.37622107803458
 31
0.0
  0
LINE
  5
F4
330
1F
100
AcDbEntity
  8
4
  6
Continuous
 62
     2
370
     9
100
AcDbLine
 10
264.5554459077712
 20
77.37622107803458
 30
0.0
 11
264.5554459077712
 21
79.47621057803491
 31
0.0
  0
LINE
  5
F5
330
1F
100
AcDbEntity
  8
4
  6
Continuous
 62
     2
370
     9
100
AcDbLine
 10
263.5054427577713
 20
77.37622107803458
 30
0.0
 11
264.5554459077712
 21
77.37622107803458
 31
0.0
  0
LINE
  5
F6
330
1F
100
AcDbEntity
  8
4
  6
Continuous
 62
     2
370
     9
100
AcDbLine
 10
258.5179385577713
 20
76.85126832803434
 30
0.0
 11
258.5179385577713
 21
77.90127882803455
 31
0.0
  0
ARC
  5
F7
330
1F
100
AcDbEntity
  8
4
  6
Continuous
 62
     2
370
     9
100
AcDbCircle
 10
257.7829448577712
 20
77.58624732803474
 30
0.0
 40
0.3149999999999977
100
AcDbArc
 50
89.99999999999991
 51
179.9999999999998
  0
LINE
  5
F8
330
1F
100
AcDbEntity
  8
4
  6
Continuous
 62
     2
370
     9
100
AcDbLine
 10
257.9929375077713
 20
77.6912683280346
 30
0.0
 11
257.9929375077713
 21
77.90127882803455
 31
0.0
  0
LINE
  5
F9
330
1F
100
AcDbEntity
  8
4
  6
Continuous
 62
     2
370
     9
100
AcDbLine
 10
257.7829448577712
 20
77.6912683280346
 30
0.0
 11
257.9929375077713
 21
77.6912683280346
 31
0.0
  0
LINE
  5
FA
330
1F
100
AcDbEntity
  8
4
  6
Continuous
 62
     2
370
     9
100
AcDbLine
 10
258.5179385577713
 20
76.85126832803434
 30
0.0
 11
260.0929312077712
 21
76.85126832803434
 31
0.0
  0
LINE
  5
FB
330
1F
100
AcDbEntity
  8
4
  6
Continuous
 62
     2
370
     9
100
AcDbLine
 10
257.7829448577712
 20
77.90127882803455
 30
0.0
 11
260.0929312077712
 21
77.90127882803455
 31
0.0
  0
ARC
  5
FC
330
1F
100
AcDbEntity
  8
4
  6
Continuous
 62
     2
370
     9
100
AcDbCircle
 10
260.4079396077711
 20
79.94875782803462
 30
0.0
 40
0.3149999999999977
100
AcDbArc
 50
89.99999999999991
 51
179.9999999999998
  0
ARC
  5
FD
330
1F
100
AcDbEntity
  8
4
  6
Continuous
 62
     2
370
     9
100
AcDbCircle
 10
260.0929438077713
 20
80.26377882803462
 30
0.0
 40
0.5250000000000057
100
AcDbArc
 50
89.99999999999991
 51
179.9999999999998
  0
ARC
  5
FE
330
1F
100
AcDbEntity
  8
4
  6
Continuous
 62
     2
370
     9
100
AcDbCircle
 10
260.0929312077712
 20
80.26377882803462
 30
0.0
 40
1.049999999999997
100
AcDbArc
 50
89.99999999999991
 51
179.9999999999998
  0
LINE
  5
FF
330
1F
100
AcDbEntity
  8
4
  6
Continuous
 62
     2
370
     9
100
AcDbLine
 10
261.405441707771
 20
78.95121057803505
 30
0.0
 11
260.8804469577713
 21
78.95121057803505
 31
0.0
  0
LINE
  5
100
330
1F
100
AcDbEntity
  8
4
  6
Continuous
 62
     2
370
     9
100
AcDbLine
 10
261.405441707771
 20
79.21372107803478
 30
0.0
 11
261.405441707771
 21
78.95121057803505
 31
0.0
  0
LINE
  5
101
330
1F
100
AcDbEntity
  8
4
  6
Continuous
 62
     2
370
     9
100
AcDbLine
 10
260.8804469577713
 20
78.95121057803505
 30
0.0
 11
260.8804469577713
 21
77.90123157803424
 31
0.0
  0
LINE
  5
102
330
1F
100
AcDbEntity
  8
4
  6
Continuous
 62
     2
370
     9
100
AcDbLine
 10
261.405441707771
 20
77.90123157803424
 30
0.0
 11
261.405441707771
 21
77.63871057803505
 31
0.0
  0
LINE
  5
103
330
1F
100
AcDbEntity
  8
4
  6
Continuous
 62
     2
370
     9
100
AcDbLine
 10
260.8804469577713
 20
77.90123157803424
 30
0.0
 11
261.405441707771
 21
77.90123157803424
 31
0.0
  0
LINE
  5
104
330
1F
100
AcDbEntity
  8
4
  6
Continuous
 62
     2
370
     9
100
AcDbLine
 10
259.5679427577713
 20
80.26377882803462
 30
0.0
 11
259.5679427577713
 21
77.90127882803455
 31
0.0
  0
LINE
  5
105
330
1F
100
AcDbEntity
  8
4
  6
Continuous
 62
     2
370
     9
100
AcDbLine
 10
259.0429406577712
 20
80.26377882803462
 30
0.0
 11
259.0429406577712
 21
77.90127882803455
 31
0.0
  0
LINE
  5
106
330
1F
100
AcDbEntity
  8
4
  6
Continuous
 62
     2
370
     9
100
AcDbLine
 10
265.5529417077712
 20
71.3387578280346
 30
0.0
 11
260.4079396077711
 21
71.3387578280346
 31
0.0
  0
LINE
  5
107
330
1F
100
AcDbEntity
  8
4
  6
Continuous
 62
     2
370
     9
100
AcDbLine
 10
265.8679375077713
 20
70.8137578280344
 30
0.0
 11
260.0929438077713
 21
70.8137578280344
 31
0.0
  0
LINE
  5
108
330
1F
100
AcDbEntity
  8
4
  6
Continuous
 62
     2
370
     9
100
AcDbLine
 10
265.8679501077711
 20
70.28877882803482
 30
0.0
 11
260.0929312077712
 21
70.28877882803482
 31
0.0
  0
LINE
  5
109
330
1F
100
AcDbEntity
  8
4
  6
Continuous
 62
     2
370
     9
100
AcDbLine
 10
261.405441707771
 20
72.3888155780341
 30
0.0
 11
262.4554522077713
 21
72.3888155780341
 31
0.0
  0
LINE
  5
10A
330
1F
100
AcDbEntity
  8
4
  6
Continuous
 62
     2
370
     9
100
AcDbLine
 10
262.4554522077713
 20
73.96382607803419
 30
0.0
 11
261.405441707771
 21
73.96382607803419
 31
0.0
  0
LINE
  5
10B
330
1F
100
AcDbEntity
  8
4
  6
Continuous
 62
     2
370
     9
100
AcDbLine
 10
261.405441707771
 20
75.0137630780344
 30
0.0
 11
262.4554522077713
 21
75.0137630780344
 31
0.0
  0
LINE
  5
10C
330
1F
100
AcDbEntity
  8
4
  6
Continuous
 62
     2
370
     9
100
AcDbLine
 10
262.4554522077713
 20
76.58877357803414
 30
0.0
 11
261.405441707771
 21
76.58877357803414
 31
0.0
  0
ARC
  5
10D
330
1F
100
AcDbEntity
  8
4
  6
Continuous
 62
     2
370
     9
100
AcDbCircle
 10
265.8679501077711
 20
71.3387578280346
 30
0.0
 40
1.049999999999997
100
AcDbArc
 50
269.9999999999998
 51
0.0
  0
ARC
  5
10E
330
1F
100
AcDbEntity
  8
4
  6
Continuous
 62
     2
370
     9
100
AcDbCircle
 10
265.5529417077712
 20
71.65377882803426
 30
0.0
 40
0.3149999999999977
100
AcDbArc
 50
269.9999999999998
 51
0.0
  0
ARC
  5
10F
330
1F
100
AcDbEntity
  8
4
  6
Continuous
 62
     2
370
     9
100
AcDbCircle
 10
265.8679375077713
 20
71.3387578280346
 30
0.0
 40
0.5250000000000057
100
AcDbArc
 50
269.9999999999998
 51
0.0
  0
LINE
  5
110
330
1F
100
AcDbEntity
  8
4
  6
Continuous
 62
     2
370
     9
100
AcDbLine
 10
263.5054427577713
 20
72.12632607803431
 30
0.0
 11
264.5554459077712
 21
72.12632607803431
 31
0.0
  0
LINE
  5
111
330
1F
100
AcDbEntity
  8
4
  6
Continuous
 62
     2
370
     9
100
AcDbLine
 10
264.5554459077712
 20
72.12632607803431
 30
0.0
 11
264.5554459077712
 21
74.2263155780343
 31
0.0
  0
LINE
  5
112
330
1F
100
AcDbEntity
  8
4
  6
Continuous
 62
     2
370
     9
100
AcDbLine
 10
263.5054427577713
 20
74.2263155780343
 30
0.0
 11
263.5054427577713
 21
72.12632607803431
 31
0.0
  0
LINE
  5
113
330
1F
100
AcDbEntity
  8
4
  6
Continuous
 62
     2
370
     9
100
AcDbLine
 10
262.4554522077713
 20
72.3888155780341
 30
0.0
 11
262.4554522077713
 21
73.96382607803419
 31
0.0
  0
LINE
  5
114
330
1F
100
AcDbEntity
  8
4
  6
Continuous
 62
     2
370
     9
100
AcDbLine
 10
264.5554459077712
 20
74.2263155780343
 30
0.0
 11
263.5054427577713
 21
74.2263155780343
 31
0.0
  0
LINE
  5
115
330
1F
100
AcDbEntity
  8
4
  6
Continuous
 62
     2
370
     9
100
AcDbLine
 10
263.5054427577713
 20
74.75127357803427
 30
0.0
 11
264.5554459077712
 21
74.75127357803427
 31
0.0
  0
LINE
  5
116
330
1F
100
AcDbEntity
  8
4
  6
Continuous
 62
     2
370
     9
100
AcDbLine
 10
262.4554522077713
 20
75.0137630780344
 30
0.0
 11
262.4554522077713
 21
76.58877357803414
 31
0.0
  0
ARC
  5
117
330
1F
100
AcDbEntity
  8
4
  6
Continuous
 62
     2
370
     9
100
AcDbCircle
 10
260.4079396077711
 20
71.65377882803426
 30
0.0
 40
0.3149999999999977
100
AcDbArc
 50
179.9999999999998
 51
269.9999999999998
  0
ARC
  5
118
330
1F
100
AcDbEntity
  8
4
  6
Continuous
 62
     2
370
     9
100
AcDbCircle
 10
260.0929438077713
 20
71.3387578280346
 30
0.0
 40
0.5250000000000057
100
AcDbArc
 50
179.9999999999998
 51
269.9999999999998
  0
ARC
  5
119
330
1F
100
AcDbEntity
  8
4
  6
Continuous
 62
     2
370
     9
100
AcDbCircle
 10
260.0929312077712
 20
71.3387578280346
 30
0.0
 40
1.049999999999997
100
AcDbArc
 50
179.9999999999998
 51
269.9999999999998
  0
LINE
  5
11A
330
1F
100
AcDbEntity
  8
4
  6
Continuous
 62
     2
370
     9
100
AcDbLine
 10
260.8804469577713
 20
72.65133657803432
 30
0.0
 11
261.405441707771
 21
72.65133657803432
 31
0.0
  0
LINE
  5
11B
330
1F
100
AcDbEntity
  8
4
  6
Continuous
 62
     2
370
     9
100
AcDbLine
 10
261.405441707771
 20
72.65133657803432
 30
0.0
 11
261.405441707771
 21
72.3888155780341
 31
0.0
  0
LINE
  5
11C
330
1F
100
AcDbEntity
  8
4
  6
Continuous
 62
     2
370
     9
100
AcDbLine
 10
260.8804469577713
 20
73.7013155780341
 30
0.0
 11
260.8804469577713
 21
72.65133657803432
 31
0.0
  0
LINE
  5
11D
330
1F
100
AcDbEntity
  8
4
  6
Continuous
 62
     2
370
     9
100
AcDbLine
 10
261.405441707771
 20
73.96382607803419
 30
0.0
 11
261.405441707771
 21
73.7013155780341
 31
0.0
  0
LINE
  5
11E
330
1F
100
AcDbEntity
  8
4
  6
Continuous
 62
     2
370
     9
100
AcDbLine
 10
261.405441707771
 20
73.7013155780341
 30
0.0
 11
260.8804469577713
 21
73.7013155780341
 31
0.0
  0
LINE
  5
11F
330
1F
100
AcDbEntity
  8
4
  6
Continuous
 62
     2
370
     9
100
AcDbLine
 10
257.7829448577712
 20
73.91126832803462
 30
0.0
 11
257.7829448577712
 21
75.17127882803466
 31
0.0
  0
LINE
  5
120
330
1F
100
AcDbEntity
  8
4
  6
Continuous
 62
     2
370
     9
100
AcDbLine
 10
258.5179385577713
 20
73.70125782803467
 30
0.0
 11
258.5179385577713
 21
74.75126832803454
 31
0.0
  0
LINE
  5
121
330
1F
100
AcDbEntity
  8
4
  6
Continuous
 62
     2
370
     9
100
AcDbLine
 10
257.9929375077713
 20
75.17127882803466
 30
0.0
 11
257.7829448577712
 21
75.17127882803466
 31
0.0
  0
LINE
  5
122
330
1F
100
AcDbEntity
  8
4
  6
Continuous
 62
     2
370
     9
100
AcDbLine
 10
260.0929312077712
 20
74.75126832803454
 30
0.0
 11
258.5179385577713
 21
74.75126832803454
 31
0.0
  0
ARC
  5
123
330
1F
100
AcDbEntity
  8
4
  6
Continuous
 62
     2
370
     9
100
AcDbCircle
 10
257.7829448577712
 20
74.01627882803433
 30
0.0
 40
0.3149999999999977
100
AcDbArc
 50
179.9999999999998
 51
269.9999999999998
  0
LINE
  5
124
330
1F
100
AcDbEntity
  8
4
  6
Continuous
 62
     2
370
     9
100
AcDbLine
 10
257.9929375077713
 20
73.70125782803467
 30
0.0
 11
257.9929375077713
 21
73.91126832803462
 31
0.0
  0
LINE
  5
125
330
1F
100
AcDbEntity
  8
4
  6
Continuous
 62
     2
370
     9
100
AcDbLine
 10
257.9929375077713
 20
73.91126832803462
 30
0.0
 11
257.7829448577712
 21
73.91126832803462
 31
0.0
  0
LINE
  5
126
330
1F
100
AcDbEntity
  8
4
  6
Continuous
 62
     2
370
     9
100
AcDbLine
 10
257.7829448577712
 20
73.70125782803467
 30
0.0
 11
260.0929312077712
 21
73.70125782803467
 31
0.0
  0
LINE
  5
127
330
1F
100
AcDbEntity
  8
4
  6
Continuous
 62
     2
370
     9
100
AcDbLine
 10
260.8804469577713
 20
75.27628407803428
 30
0.0
 11
261.405441707771
 21
75.27628407803428
 31
0.0
  0
LINE
  5
128
330
1F
100
AcDbEntity
  8
4
  6
Continuous
 62
     2
370
     9
100
AcDbLine
 10
261.405441707771
 20
75.27628407803428
 30
0.0
 11
261.405441707771
 21
75.0137630780344
 31
0.0
  0
LINE
  5
129
330
1F
100
AcDbEntity
  8
4
  6
Continuous
 62
     2
370
     9
100
AcDbLine
 10
259.5679427577713
 20
71.3387578280346
 30
0.0
 11
259.5679427577713
 21
73.70125782803467
 31
0.0
  0
LINE
  5
12A
330
1F
100
AcDbEntity
  8
4
  6
Continuous
 62
     2
370
     9
100
AcDbLine
 10
259.0429406577712
 20
71.3387578280346
 30
0.0
 11
259.0429406577712
 21
73.70125782803467
 31
0.0
  0
LINE
  5
12B
330
1F
100
AcDbEntity
  8
4
  6
Continuous
 62
     2
370
     9
100
AcDbLine
 10
257.9929375077713
 20
76.43125782803457
 30
0.0
 11
257.7829448577712
 21
76.43125782803457
 31
0.0
  0
LINE
  5
12C
330
1F
100
AcDbEntity
  8
4
  6
Continuous
 62
     2
370
     9
100
AcDbLine
 10
261.405441707771
 20
76.58877357803414
 30
0.0
 11
261.405441707771
 21
76.3262630780344
 31
0.0
  0
LINE
  5
12D
330
1F
100
AcDbEntity
  8
4
  6
Continuous
 62
     2
370
     9
100
AcDbLine
 10
261.405441707771
 20
76.3262630780344
 30
0.0
 11
260.8804469577713
 21
76.3262630780344
 31
0.0
  0
LINE
  5
12E
330
1F
100
AcDbEntity
  8
4
  6
Continuous
 62
     2
370
     9
100
AcDbLine
 10
257.9929375077713
 20
75.17127882803466
 30
0.0
 11
257.9929375077713
 21
76.43125782803457
 31
0.0
  0
LINE
  5
12F
330
1F
100
AcDbEntity
  8
4
  6
Continuous
 62
     2
370
     9
100
AcDbLine
 10
260.8804469577713
 20
76.3262630780344
 30
0.0
 11
260.8804469577713
 21
75.27628407803428
 31
0.0
  0
LINE
  5
130
330
1F
100
AcDbEntity
  8
4
  6
Continuous
 62
     2
370
     9
100
AcDbLine
 10
255.3671278718868
 20
77.90127357803414
 30
0.0
 11
241.717118421887
 21
77.90127357803414
 31
0.0
  0
LINE
  5
131
330
1F
100
AcDbEntity
  8
4
  6
Continuous
 62
     2
370
     9
100
AcDbLine
 10
252.2171236718867
 20
76.2212735780343
 30
0.0
 11
242.7671226218863
 21
76.2212735780343
 31
0.0
  0
LINE
  5
132
330
1F
100
AcDbEntity
  8
4
  6
Continuous
 62
     2
370
     9
100
AcDbLine
 10
252.2171236718867
 20
74.54128407803393
 30
0.0
 11
242.7671226218863
 21
74.54128407803393
 31
0.0
  0
LINE
  5
133
330
1F
100
AcDbEntity
  8
4
  6
Continuous
 62
     2
370
     9
100
AcDbLine
 10
252.2171236718867
 20
75.3812525780341
 30
0.0
 11
242.7671226218863
 21
75.3812525780341
 31
0.0
  0
LINE
  5
134
330
1F
100
AcDbEntity
  8
4
  6
Continuous
 62
     2
370
     9
100
AcDbLine
 10
252.2171236718867
 20
77.06125257803461
 30
0.0
 11
242.7671226218863
 21
77.06125257803461
 31
0.0
  0
LINE
  5
135
330
1F
100
AcDbEntity
  8
4
  6
Continuous
 62
     2
370
     9
100
AcDbLine
 10
255.3671278718868
 20
73.7012630780344
 30
0.0
 11
241.717118421887
 21
73.7012630780344
 31
0.0
  0
LINE
  5
136
330
1F
100
AcDbEntity
  8
4
  6
Continuous
 62
     2
370
     9
100
AcDbLine
 10
228.1170324546318
 20
77.42877328495325
 30
0.0
 11
205.0170324546317
 21
77.42877328495325
 31
0.0
  0
LINE
  5
137
330
1F
100
AcDbEntity
  8
4
  6
Continuous
 62
     2
370
     9
100
AcDbLine
 10
228.1169721200049
 20
74.17377329007383
 30
0.0
 11
205.0169721200051
 21
74.17377312171271
 31
0.0
  0
LINE
  5
138
330
1F
100
AcDbEntity
  8
4
  6
Continuous
 62
     2
370
     9
100
AcDbLine
 10
228.1169721200052
 20
72.86126307803518
 30
0.0
 11
228.1169721200052
 21
78.74126307803527
 31
0.0
  0
LINE
  5
139
330
1F
100
AcDbEntity
  8
4
  6
Continuous
 62
     2
370
     9
100
AcDbLine
 10
241.717118421887
 20
73.7012630780344
 30
0.0
 11
241.717118421887
 21
77.90127357803414
 31
0.0
  0
LINE
  5
13A
330
1F
100
AcDbEntity
  8
4
  6
Continuous
 62
     2
370
     9
100
AcDbLine
 10
242.7671226218863
 20
73.7012630780344
 30
0.0
 11
242.7671226218863
 21
77.90127357803414
 31
0.0
  0
LINE
  5
13B
330
1F
100
AcDbEntity
  8
4
  6
Continuous
 62
     2
370
     9
100
AcDbLine
 10
255.3671278718868
 20
75.80126307803454
 30
0.0
 11
255.3671278718868
 21
81.31377357803427
 31
0.0
  0
ARC
  5
13C
330
1F
100
AcDbEntity
  8
4
  6
Continuous
 62
     2
370
     9
100
AcDbCircle
 10
248.0171268218869
 20
80.2637735780342
 30
0.0
 40
1.049999999999997
100
AcDbArc
 50
89.99999999999991
 51
179.9999999999998
  0
LINE
  5
13D
330
1F
100
AcDbEntity
  8
4
  6
Continuous
 62
     2
370
     9
100
AcDbLine
 10
245.9171520218866
 20
80.00128407803442
 30
0.0
 11
246.9671226218862
 21
80.00128407803442
 31
0.0
  0
LINE
  5
13E
330
1F
100
AcDbEntity
  8
4
  6
Continuous
 62
     2
370
     9
100
AcDbLine
 10
245.9171520218866
 20
80.52629457803442
 30
0.0
 11
245.9171520218866
 21
77.90127357803482
 31
0.0
  0
LINE
  5
13F
330
1F
100
AcDbEntity
  8
4
  6
Continuous
 62
     2
370
     9
100
AcDbLine
 10
246.9671226218862
 20
80.2637735780342
 30
0.0
 11
246.9671226218862
 21
77.90127357803414
 31
0.0
  0
LINE
  5
140
330
1F
100
AcDbEntity
  8
4
  6
Continuous
 62
     2
370
     9
100
AcDbLine
 10
246.9671226218862
 20
80.00128407803442
 30
0.0
 11
246.9671226218862
 21
77.90127357803414
 31
0.0
  0
LINE
  5
141
330
1F
100
AcDbEntity
  8
4
  6
Continuous
 62
     2
370
     9
100
AcDbLine
 10
248.0171268218869
 20
70.28875257803412
 30
0.0
 11
255.3671278718868
 21
70.28875257803412
 31
0.0
  0
LINE
  5
142
330
1F
100
AcDbEntity
  8
4
  6
Continuous
 62
     2
370
     9
100
AcDbLine
 10
246.9671226218862
 20
71.60124207803398
 30
0.0
 11
245.9171520218866
 21
71.60124207803398
 31
0.0
  0
LINE
  5
143
330
1F
100
AcDbEntity
  8
4
  6
Continuous
 62
     2
370
     9
100
AcDbLine
 10
245.9171520218866
 20
71.07623157803431
 30
0.0
 11
245.9171520218866
 21
73.70125257803426
 31
0.0
  0
LINE
  5
144
330
1F
100
AcDbEntity
  8
4
  6
Continuous
 62
     2
370
     9
100
AcDbLine
 10
246.9671226218862
 20
71.33875257803453
 30
0.0
 11
246.9671226218862
 21
73.7012630780344
 31
0.0
  0
LINE
  5
145
330
1F
100
AcDbEntity
  8
4
  6
Continuous
 62
     2
370
     9
100
AcDbLine
 10
246.9671226218862
 20
73.7012630780344
 30
0.0
 11
246.9671226218862
 21
71.60124207803398
 31
0.0
  0
ARC
  5
146
330
1F
100
AcDbEntity
  8
4
  6
Continuous
 62
     2
370
     9
100
AcDbCircle
 10
248.0171268218869
 20
71.33875257803453
 30
0.0
 40
1.049999999999997
100
AcDbArc
 50
179.9999999999998
 51
269.9999999999998
  0
LINE
  5
147
330
1F
100
AcDbEntity
  8
4
  6
Continuous
 62
     2
370
     9
100
AcDbLine
 10
252.2171236718867
 20
77.90127357803414
 30
0.0
 11
252.2171236718867
 21
73.7012630780344
 31
0.0
  0
LINE
  5
148
330
1F
100
AcDbEntity
  8
4
  6
Continuous
 62
     2
370
     9
100
AcDbLine
 10
255.3671278718868
 20
75.80126307803454
 30
0.0
 11
255.3671278718868
 21
70.28875257803412
 31
0.0
  0
LINE
  5
149
330
1F
100
AcDbEntity
  8
4
  6
Continuous
 62
     2
370
     9
100
AcDbLine
 10
254.3171184218868
 20
77.90127357803414
 30
0.0
 11
254.3171184218868
 21
73.7012630780344
 31
0.0
  0
LINE
  5
14A
330
1F
100
AcDbEntity
  8
4
  6
Continuous
 62
     2
370
     9
100
AcDbLine
 10
248.0171268218869
 20
81.31377357803427
 30
0.0
 11
255.3671278718868
 21
81.31377357803427
 31
0.0
  0
LINE
  5
14B
330
1F
100
AcDbEntity
  8
4
  6
Continuous
 62
     2
370
     9
100
AcDbLine
 10
245.9171520218866
 20
80.52629457803442
 30
0.0
 11
237.6906608717125
 21
80.52629457803442
 31
0.0
  0
LINE
  5
14C
330
1F
100
AcDbEntity
  8
4
  6
Continuous
 62
     2
370
     9
100
AcDbLine
 10
232.4729122045386
 20
78.74126307803527
 30
0.0
 11
228.1169721200052
 21
78.74126307803527
 31
0.0
  0
ARC
  5
14D
330
1F
100
AcDbEntity
  8
4
  6
Continuous
 62
     2
370
     9
100
AcDbCircle
 10
237.7431356417029
 20
78.02770912807233
 30
0.0
 40
2.49913642129593
100
AcDbArc
 50
91.20313712916261
 51
128.5407048704947
  0
ARC
  5
14E
330
1F
100
AcDbEntity
  8
4
  6
Continuous
 62
     2
370
     9
100
AcDbCircle
 10
232.2237593836252
 20
85.4943802188032
 30
0.0
 40
6.757711761025504
100
AcDbArc
 50
272.1129402668354
 51
301.7409359603942
  0
LINE
  5
14F
330
1F
100
AcDbEntity
  8
4
  6
Continuous
 62
     2
370
     9
100
AcDbLine
 10
236.1859975347262
 20
79.98244792598126
 30
0.0
 11
235.7788522890722
 21
79.74738250880392
 31
0.0
  0
LINE
  5
150
330
1F
100
AcDbEntity
  8
4
  6
Continuous
 62
     2
370
     9
100
AcDbLine
 10
245.9171520218866
 20
71.07623157803602
 30
0.0
 11
237.6906608717125
 21
71.07623157803602
 31
0.0
  0
LINE
  5
151
330
1F
100
AcDbEntity
  8
4
  6
Continuous
 62
     2
370
     9
100
AcDbLine
 10
232.4729122045386
 20
72.86126307803518
 30
0.0
 11
228.1169721200052
 21
72.86126307803518
 31
0.0
  0
ARC
  5
152
330
1F
100
AcDbEntity
  8
4
  6
Continuous
 62
     2
370
     9
100
AcDbCircle
 10
237.7431356417029
 20
73.57481702799811
 30
0.0
 40
2.49913642129593
100
AcDbArc
 50
231.4592951295163
 51
268.796862870837
  0
ARC
  5
153
330
1F
100
AcDbEntity
  8
4
  6
Continuous
 62
     2
370
     9
100
AcDbCircle
 10
232.2237593836252
 20
66.10814593726724
 30
0.0
 40
6.757711761025504
100
AcDbArc
 50
58.25906403960549
 51
87.88705973316422
  0
LINE
  5
154
330
1F
100
AcDbEntity
  8
4
  6
Continuous
 62
     2
370
     9
100
AcDbLine
 10
236.1859975347262
 20
71.62007823008918
 30
0.0
 11
235.7788522890722
 21
71.85514364726652
 31
0.0
  0
MTEXT
  5
155
330
1F
100
AcDbEntity
  8
2
  6
Continuous
 62
    70
370
     9
100
AcDbMText
 10
205.0170324546317
 20
90.00791904271017
 30
0.0
 40
3.9
 41
82.28784862225197
 46
3.9
 71
     4
 72
     1
  1
{\fＭＳ ゴシック;\T1.166668;Details of Connector}
 73
     1
 44
1.0
1001
ACAD
1000
ACAD_MTEXT_DEFINED_HEIGHT_BEGIN
1070
    46
1040
3.9
1000
ACAD_MTEXT_DEFINED_HEIGHT_END
  0
MTEXT
  5
156
330
1F
100
AcDbEntity
  8
2
  6
Continuous
 62
    70
370
     9
100
AcDbMText
 10
236.5169612623078
 20
60.4262930780348
 30
0.0
 40
3.0
 41
16.28565226116
 46
3.0
 71
     4
 72
     1
  1
{\fＭＳ ゴシック;\T1.275567;Light}
 73
     1
 44
1.0
1001
ACAD
1000
ACAD_MTEXT_DEFINED_HEIGHT_BEGIN
1070
    46
1040
3.0
1000
ACAD_MTEXT_DEFINED_HEIGHT_END
  0
MTEXT
  5
157
330
1F
100
AcDbEntity
  8
2
  6
Continuous
 62
    70
370
     9
100
AcDbMText
 10
236.5169612623078
 20
52.92630807803444
 30
0.0
 40
3.0
 41
30.491413062
 46
3.0
 71
     4
 72
     1
  1
{\fＭＳ ゴシック;\T1.270325;SMR-03V-B}
 73
     1
 44
1.0
1001
ACAD
1000
ACAD_MTEXT_DEFINED_HEIGHT_BEGIN
1070
    46
1040
3.0
1000
ACAD_MTEXT_DEFINED_HEIGHT_END
  0
MTEXT
  5
158
330
1F
100
AcDbEntity
  8
2
  6
Continuous
 62
    70
370
     9
100
AcDbMText
 10
236.5169612623078
 20
45.42630807803444
 30
0.0
 40
3.0
 41
44.67909247175998
 46
3.0
 71
     4
 72
     1
  1
{\fＭＳ ゴシック;\T1.278554;BYM-001T-P0.6}
 73
     1
 44
1.0
1001
ACAD
1000
ACAD_MTEXT_DEFINED_HEIGHT_BEGIN
1070
    46
1040
3.0
1000
ACAD_MTEXT_DEFINED_HEIGHT_END
  0
MTEXT
  5
159
330
1F
100
AcDbEntity
  8
2
  6
Continuous
 62
    70
370
     9
100
AcDbMText
 10
272.5169462623079
 20
52.92630807803444
 30
0.0
 40
3.0
 41
34.04022557067
 46
3.0
 71
     4
 72
     1
  1
{\fＭＳ ゴシック;\T1.270749;SMP-03V-BC}
 73
     1
 44
1.0
1001
ACAD
1000
ACAD_MTEXT_DEFINED_HEIGHT_BEGIN
1070
    46
1040
3.0
1000
ACAD_MTEXT_DEFINED_HEIGHT_END
  0
MTEXT
  5
15A
330
1F
100
AcDbEntity
  8
2
  6
Continuous
 62
    70
370
     9
100
AcDbMText
 10
272.5169462623079
 20
45.42630807803444
 30
0.0
 40
3.0
 41
48.23039545310999
 46
3.0
 71
     4
 72
     1
  1
{\fＭＳ ゴシック;\T1.276981;BHF-001T-0.8SS}
 73
     1
 44
1.0
1001
ACAD
1000
ACAD_MTEXT_DEFINED_HEIGHT_BEGIN
1070
    46
1040
3.0
1000
ACAD_MTEXT_DEFINED_HEIGHT_END
  0
MTEXT
  5
15B
330
1F
100
AcDbEntity
  8
2
  6
Continuous
 62
    70
370
     9
100
AcDbMText
 10
272.5169462623079
 20
60.4262930780348
 30
0.0
 40
3.0
 41
49.07804415492001
 46
3.0
 71
     4
 72
     1
  1
{\fＭＳ ゴシック;\T1.236293;Power　Supply　}
 73
     1
 44
1.0
1001
ACAD
1000
ACAD_MTEXT_DEFINED_HEIGHT_BEGIN
1070
    46
1040
3.0
1000
ACAD_MTEXT_DEFINED_HEIGHT_END
  0
MTEXT
  5
15C
330
1F
100
AcDbEntity
  8
2
  6
Continuous
 62
    70
370
     9
100
AcDbMText
 10
206.5169462623079
 20
52.92630807803444
 30
0.0
 40
3.0
 41
30.47134834272
 46
3.0
 71
     4
 72
     1
  1
{\fＭＳ ゴシック;\T1.286932;Connector}
 73
     1
 44
1.0
1001
ACAD
1000
ACAD_MTEXT_DEFINED_HEIGHT_BEGIN
1070
    46
1040
3.0
1000
ACAD_MTEXT_DEFINED_HEIGHT_END
  0
MTEXT
  5
15D
330
1F
100
AcDbEntity
  8
2
  6
Continuous
 62
    70
370
     9
100
AcDbMText
 10
206.5169462623079
 20
45.42630807803444
 30
0.0
 40
3.0
 41
23.38700212026
 46
3.0
 71
     4
 72
     1
  1
{\fＭＳ ゴシック;\T1.274033;Contact}
 73
     1
 44
1.0
1001
ACAD
1000
ACAD_MTEXT_DEFINED_HEIGHT_BEGIN
1070
    46
1040
3.0
1000
ACAD_MTEXT_DEFINED_HEIGHT_END
  0
INSERT
  5
163
330
1F
100
AcDbEntity
  8
0
100
AcDbBlockReference
  2
*G16
 10
0.0
 20
0.0
 30
0.0
  0
INSERT
  5
168
330
1F
100
AcDbEntity
  8
0
100
AcDbBlockReference
  2
*G17
 10
0.0
 20
0.0
 30
0.0
  0
HATCH
  5
169
330
1F
100
AcDbEntity
  8
10
  6
Continuous
 62
     2
370
     9
100
AcDbHatch
 10
0.0
 20
0.0
 30
0.0
210
0.0
220
0.0
230
1.0
  2

 70
     0
 71
     0
 91
        4
 92
        0
 93
        4
 72
     1
 10
533.72309858515
 20
195.2874471356602
 11
533.72309858515
 21
245.2874471356607
 72
     1
 10
533.72309858515
 20
245.2874471356607
 11
433.7230985851498
 21
245.2874471356607
 72
     1
 10
433.7230985851498
 20
245.2874471356607
 11
433.7230985851498
 21
195.2874471356602
 72
     1
 10
433.7230985851498
 20
195.2874471356602
 11
533.72309858515
 21
195.2874471356602
 97
        0
 92
        0
 93
        4
 72
     1
 10
533.72309858515
 20
195.2874471356602
 11
633.7230985851495
 21
195.2874471356604
 72
     1
 10
633.7230985851495
 20
195.2874471356604
 11
633.7230985851495
 21
245.2874471356607
 72
     1
 10
633.7230985851495
 20
245.2874471356607
 11
533.72309858515
 21
245.2874471356607
 72
     1
 10
533.72309858515
 20
245.2874471356607
 11
533.72309858515
 21
195.2874471356602
 97
        0
 92
        0
 93
        4
 72
     1
 10
533.7230985851502
 20
145.2874471356604
 11
633.7230985851495
 21
145.2874471356604
 72
     1
 10
633.7230985851495
 20
145.2874471356604
 11
633.7230985851495
 21
195.2874471356604
 72
     1
 10
633.7230985851495
 20
195.2874471356604
 11
533.72309858515
 21
195.2874471356602
 72
     1
 10
533.72309858515
 20
195.2874471356602
 11
533.7230985851502
 21
145.2874471356604
 97
        0
 92
        0
 93
        4
 72
     1
 10
533.72309858515
 20
195.2874471356602
 11
433.7230985851498
 21
195.2874471356602
 72
     1
 10
433.7230985851498
 20
195.2874471356602
 11
433.7230985851498
 21
145.2874471356604
 72
     1
 10
433.7230985851498
 20
145.2874471356604
 11
533.7230985851502
 21
145.2874471356604
 72
     1
 10
533.7230985851502
 20
145.2874471356604
 11
533.72309858515
 21
195.2874471356602
 97
        0
 75
     0
 76
     2
 52
0.0
 41
1.0
 77
     0
 78
     2
 53
45.0
 43
-43.68185615139924
 44
488.5872968308543
 45
-6.735192090801874
 46
6.735192090801888
 79
     0
 53
135.0
 43
-43.68185615139924
 44
488.5872968308543
 45
-6.735192090801903
 46
-6.735192090801888
 79
     0
 98
        0
  0
LINE
  5
16A
330
1F
100
AcDbEntity
  8
1
  6
Continuous
 62
     7
370
    35
100
AcDbLine
 10
633.7230985851495
 20
145.2874471356604
 30
0.0
 11
633.7230985851495
 21
245.2874471356607
 31
0.0
  0
LINE
  5
16B
330
1F
100
AcDbEntity
  8
1
  6
Continuous
 62
     7
370
    35
100
AcDbLine
 10
633.7230985851495
 20
245.2874471356607
 30
0.0
 11
433.7230985851498
 21
245.2874471356607
 31
0.0
  0
LINE
  5
16C
330
1F
100
AcDbEntity
  8
1
  6
Continuous
 62
     7
370
    35
100
AcDbLine
 10
433.7230985851498
 20
245.2874471356607
 30
0.0
 11
433.7230985851498
 21
145.2874471356604
 31
0.0
  0
LINE
  5
16D
330
1F
100
AcDbEntity
  8
1
  6
Continuous
 62
     7
370
    35
100
AcDbLine
 10
648.7230985851497
 20
260.2874471356604
 30
0.0
 11
648.7230985851497
 21
130.2874471356604
 31
0.0
  0
LINE
  5
16E
330
1F
100
AcDbEntity
  8
1
  6
Continuous
 62
     7
370
    35
100
AcDbLine
 10
648.7230985851497
 20
130.2874471356604
 30
0.0
 11
418.7230985851498
 21
130.2874471356593
 31
0.0
  0
LINE
  5
16F
330
1F
100
AcDbEntity
  8
1
  6
Continuous
 62
     7
370
    35
100
AcDbLine
 10
648.7230985851497
 20
260.2874471356604
 30
0.0
 11
418.7230985851498
 21
260.2874471356604
 31
0.0
  0
LINE
  5
170
330
1F
100
AcDbEntity
  8
1
  6
Continuous
 62
     7
370
    35
100
AcDbLine
 10
418.7230985851498
 20
260.2874471356604
 30
0.0
 11
418.7230985851498
 21
130.2874471356593
 31
0.0
  0
LINE
  5
171
330
1F
100
AcDbEntity
  8
1
  6
Continuous
 62
     7
370
    35
100
AcDbLine
 10
776.8743054292695
 20
129.9707804689938
 30
0.0
 11
769.974305429269
 21
129.9707804689938
 31
0.0
  0
ARC
  5
172
330
1F
100
AcDbEntity
  8
1
  6
Continuous
 62
     7
370
    35
100
AcDbCircle
 10
773.4243054292695
 20
132.9377980128533
 30
0.0
 40
4.550350877192955
100
AcDbArc
 50
220.6956985254007
 51
319.3043014746004
  0
LINE
  5
173
330
1F
100
AcDbEntity
  8
1
  6
Continuous
 62
     7
370
    35
100
AcDbLine
 10
776.8743054292695
 20
130.2874471356604
 30
0.0
 11
776.8743054292695
 21
129.9707804689938
 31
0.0
  0
LINE
  5
174
330
1F
100
AcDbEntity
  8
1
  6
Continuous
 62
     7
370
    35
100
AcDbLine
 10
769.974305429269
 20
130.2874471356604
 30
0.0
 11
769.974305429269
 21
129.9707804689938
 31
0.0
  0
LINE
  5
175
330
1F
100
AcDbEntity
  8
1
  6
Continuous
 62
     7
370
    35
100
AcDbLine
 10
738.4243054292695
 20
260.2874471356604
 30
0.0
 11
738.4243054292695
 21
130.2874471356604
 31
0.0
  0
LINE
  5
176
330
1F
100
AcDbEntity
  8
1
  6
Continuous
 62
     7
370
    35
100
AcDbLine
 10
783.4243054292695
 20
275.2874471356604
 30
0.0
 11
783.4243054292695
 21
115.2874471356604
 31
0.0
  0
LINE
  5
177
330
1F
100
AcDbEntity
  8
1
  6
Continuous
 62
     7
370
    35
100
AcDbLine
 10
782.4243054292695
 20
275.2874471356604
 30
0.0
 11
782.424305429269
 21
202.7874471356604
 31
0.0
  0
LINE
  5
178
330
1F
100
AcDbEntity
  8
1
  6
Continuous
 62
     7
370
    35
100
AcDbLine
 10
782.424305429269
 20
187.7874471356632
 30
0.0
 11
782.4243054292685
 21
115.2874471356604
 31
0.0
  0
LINE
  5
179
330
1F
100
AcDbEntity
  8
1
  6
Continuous
 62
     7
370
    35
100
AcDbLine
 10
738.4243054292695
 20
260.2874471356604
 30
0.0
 11
782.4243054292695
 21
260.2874471356586
 31
0.0
  0
LINE
  5
17A
330
1F
100
AcDbEntity
  8
1
  6
Continuous
 62
     7
370
    35
100
AcDbLine
 10
782.4243054292695
 20
259.2874471356586
 30
0.0
 11
783.4243054292695
 21
259.2874471356586
 31
0.0
  0
LINE
  5
17B
330
1F
100
AcDbEntity
  8
1
  6
Continuous
 62
     7
370
    35
100
AcDbLine
 10
782.4243054292695
 20
275.2874471356604
 30
0.0
 11
783.4243054292695
 21
275.2874471356604
 31
0.0
  0
LINE
  5
17C
330
1F
100
AcDbEntity
  8
1
  6
Continuous
 62
     7
370
    35
100
AcDbLine
 10
738.4243054292695
 20
130.2874471356604
 30
0.0
 11
782.4243054292679
 21
130.2874471356604
 31
0.0
  0
LINE
  5
17D
330
1F
100
AcDbEntity
  8
1
  6
Continuous
 62
     7
370
    35
100
AcDbLine
 10
782.4243054292679
 20
131.2874471356604
 30
0.0
 11
783.4243054292695
 21
131.2874471356604
 31
0.0
  0
LINE
  5
17E
330
1F
100
AcDbEntity
  8
1
  6
Continuous
 62
     7
370
    35
100
AcDbLine
 10
782.4243054292695
 20
115.2874471356604
 30
0.0
 11
783.4243054292695
 21
115.2874471356604
 31
0.0
  0
LINE
  5
17F
330
1F
100
AcDbEntity
  8
1
  6
Continuous
 62
     7
370
    35
100
AcDbLine
 10
633.7230985851495
 20
120.2874471356604
 30
0.0
 11
633.7230985851495
 21
130.2874471356604
 31
0.0
  0
ARC
  5
180
330
1F
100
AcDbEntity
  8
1
  6
Continuous
 62
     7
370
    35
100
AcDbCircle
 10
628.7230985851504
 20
120.2874471356604
 30
0.0
 40
5.0
100
AcDbArc
 50
269.9999999999998
 51
0.0
  0
LINE
  5
181
330
1F
100
AcDbEntity
  8
1
  6
Continuous
 62
     7
370
    35
100
AcDbLine
 10
438.7230985851498
 20
115.2874471356604
 30
0.0
 11
628.7230985851504
 21
115.2874471356614
 31
0.0
  0
LINE
  5
182
330
1F
100
AcDbEntity
  8
1
  6
Continuous
 62
     7
370
    35
100
AcDbLine
 10
433.7230985851498
 20
120.2874471356604
 30
0.0
 11
433.7230985851498
 21
130.2874471356604
 31
0.0
  0
ARC
  5
183
330
1F
100
AcDbEntity
  8
1
  6
Continuous
 62
     7
370
    35
100
AcDbCircle
 10
438.7230985851489
 20
120.2874471356604
 30
0.0
 40
5.0
100
AcDbArc
 50
179.9999999999998
 51
269.9999999999998
  0
LINE
  5
184
330
1F
100
AcDbEntity
  8
1
  6
Continuous
 62
     7
370
    35
100
AcDbLine
 10
432.1730985851514
 20
129.9707804689938
 30
0.0
 11
425.2730985851518
 21
129.9707804689938
 31
0.0
  0
ARC
  5
185
330
1F
100
AcDbEntity
  8
1
  6
Continuous
 62
     7
370
    35
100
AcDbCircle
 10
428.7230985851516
 20
132.9377980128533
 30
0.0
 40
4.550350877192983
100
AcDbArc
 50
220.6956985253998
 51
319.3043014745986
  0
LINE
  5
186
330
1F
100
AcDbEntity
  8
1
  6
Continuous
 62
     7
370
    35
100
AcDbLine
 10
432.1730985851514
 20
130.2874471356604
 30
0.0
 11
432.1730985851514
 21
129.9707804689938
 31
0.0
  0
LINE
  5
187
330
1F
100
AcDbEntity
  8
1
  6
Continuous
 62
     7
370
    35
100
AcDbLine
 10
425.2730985851518
 20
130.2874471356604
 30
0.0
 11
425.2730985851518
 21
129.9707804689938
 31
0.0
  0
LINE
  5
188
330
1F
100
AcDbEntity
  8
1
  6
Continuous
 62
     7
370
    35
100
AcDbLine
 10
453.6730985851514
 20
129.9707804689938
 30
0.0
 11
446.7730985851509
 21
129.9707804689938
 31
0.0
  0
ARC
  5
189
330
1F
100
AcDbEntity
  8
1
  6
Continuous
 62
     7
370
    35
100
AcDbCircle
 10
450.2230985851516
 20
132.9377980128533
 30
0.0
 40
4.550350877192983
100
AcDbArc
 50
220.6956985253998
 51
319.3043014745986
  0
LINE
  5
18A
330
1F
100
AcDbEntity
  8
1
  6
Continuous
 62
     7
370
    35
100
AcDbLine
 10
453.6730985851514
 20
130.2874471356604
 30
0.0
 11
453.6730985851514
 21
129.9707804689938
 31
0.0
  0
LINE
  5
18B
330
1F
100
AcDbEntity
  8
1
  6
Continuous
 62
     7
370
    35
100
AcDbLine
 10
446.7730985851509
 20
130.2874471356604
 30
0.0
 11
446.7730985851509
 21
129.9707804689938
 31
0.0
  0
LINE
  5
18C
330
1F
100
AcDbEntity
  8
1
  6
Continuous
 62
     7
370
    35
100
AcDbLine
 10
635.2730985851481
 20
129.9707804689938
 30
0.0
 11
642.1730985851486
 21
129.9707804689938
 31
0.0
  0
ARC
  5
18D
330
1F
100
AcDbEntity
  8
1
  6
Continuous
 62
     7
370
    35
100
AcDbCircle
 10
638.7230985851477
 20
132.9377980128533
 30
0.0
 40
4.550350877192955
100
AcDbArc
 50
220.6956985254007
 51
319.3043014746004
  0
LINE
  5
18E
330
1F
100
AcDbEntity
  8
1
  6
Continuous
 62
     7
370
    35
100
AcDbLine
 10
635.2730985851481
 20
130.2874471356604
 30
0.0
 11
635.2730985851481
 21
129.9707804689938
 31
0.0
  0
LINE
  5
18F
330
1F
100
AcDbEntity
  8
1
  6
Continuous
 62
     7
370
    35
100
AcDbLine
 10
642.1730985851486
 20
130.2874471356604
 30
0.0
 11
642.1730985851486
 21
129.9707804689938
 31
0.0
  0
LINE
  5
190
330
1F
100
AcDbEntity
  8
1
  6
Continuous
 62
     7
370
    35
100
AcDbLine
 10
613.773098585149
 20
129.9707804689938
 30
0.0
 11
620.6730985851486
 21
129.9707804689938
 31
0.0
  0
ARC
  5
191
330
1F
100
AcDbEntity
  8
1
  6
Continuous
 62
     7
370
    35
100
AcDbCircle
 10
617.2230985851488
 20
132.9377980128533
 30
0.0
 40
4.550350877192955
100
AcDbArc
 50
220.6956985253989
 51
319.3043014745986
  0
LINE
  5
192
330
1F
100
AcDbEntity
  8
1
  6
Continuous
 62
     7
370
    35
100
AcDbLine
 10
613.773098585149
 20
130.2874471356604
 30
0.0
 11
613.773098585149
 21
129.9707804689938
 31
0.0
  0
LINE
  5
193
330
1F
100
AcDbEntity
  8
1
  6
Continuous
 62
     7
370
    35
100
AcDbLine
 10
620.6730985851486
 20
130.2874471356604
 30
0.0
 11
620.6730985851486
 21
129.9707804689938
 31
0.0
  0
LINE
  5
194
330
1F
100
AcDbEntity
  8
9
  6
DASHDOT
 62
     2
370
     9
100
AcDbLine
 10
533.7230985851502
 20
110.2874471356609
 30
0.0
 11
533.72309858515
 21
280.28744713566
 31
0.0
  0
LINE
  5
195
330
1F
100
AcDbEntity
  8
9
  6
DASHDOT
 62
     2
370
     9
100
AcDbLine
 10
653.7230985851495
 20
195.2874471356604
 30
0.0
 11
413.7230985851498
 21
195.2874471356602
 31
0.0
  0
DIMENSION
  5
1A0
330
1F
100
AcDbEntity
  8
7
  6
Continuous
 62
     4
370
    18
100
AcDbDimension
280
     0
  2
Dim1
 10
782.4243054292679
 20
98.85263615957734
 30
0.0
 11
794.4243054292695
 21
98.85263615957734
 31
0.0
 70
   160
  1
<>
 71
     5
 42
-1.0
 73
     0
 74
     0
 75
     0
  3
Standard
100
AcDbAlignedDimension
 13
783.4243054292695
 23
115.2874471356604
 33
0.0
 14
782.4243054292679
 24
115.2874471356604
 34
0.0
 50
179.9999999999998
100
AcDbRotatedDimension
1001
ACAD
1000
DSTYLE
1002
{
1070
   279
1070
     2
1070
   340
1005
196
1070
   140
1040
2.25
1070
    40
1040
1.0
1070
   147
1040
0.0
1070
    76
1070
     0
1070
    75
1070
     0
1070
   344
1005
0
1070
   343
1005
0
1070
   173
1070
     1
1070
   289
1070
     2
1070
   288
1070
     1
1070
    77
1070
     1
1070
   172
1070
     1
1070
   174
1070
     0
1070
    74
1070
     0
1070
    73
1070
     0
1070
   284
1070
     8
1070
    78
1070
     8
1070
    42
1040
0.75
1070
    44
1040
1.125
1070
    43
1040
30.0
1070
   271
1070
     2
1070
    41
1040
1.5
1002
}
  0
LINE
  5
1A1
330
1F
100
AcDbEntity
  8
1
  6
Continuous
 62
     7
370
    35
100
AcDbLine
 10
776.8743054292695
 20
260.2874471356598
 30
0.0
 11
769.974305429269
 21
260.2874471356598
 31
0.0
  0
LINE
  5
1A2
330
1F
100
AcDbEntity
  8
1
  6
Continuous
 62
     7
370
    35
100
AcDbLine
 10
776.8743054292695
 20
260.6041138023268
 30
0.0
 11
769.974305429269
 21
260.6041138023268
 31
0.0
  0
ARC
  5
1A3
330
1F
100
AcDbEntity
  8
1
  6
Continuous
 62
     7
370
    35
100
AcDbCircle
 10
773.4243054292695
 20
257.6370962584668
 30
0.0
 40
4.550350877192955
100
AcDbArc
 50
40.69569852540031
 51
139.3043014745978
  0
LINE
  5
1A4
330
1F
100
AcDbEntity
  8
1
  6
Continuous
 62
     7
370
    35
100
AcDbLine
 10
776.8743054292695
 20
260.2874471356598
 30
0.0
 11
776.8743054292695
 21
260.6041138023268
 31
0.0
  0
LINE
  5
1A5
330
1F
100
AcDbEntity
  8
1
  6
Continuous
 62
     7
370
    35
100
AcDbLine
 10
769.974305429269
 20
260.2874471356598
 30
0.0
 11
769.974305429269
 21
260.6041138023268
 31
0.0
  0
LINE
  5
1A6
330
1F
100
AcDbEntity
  8
1
  6
Continuous
 62
     7
370
    35
100
AcDbLine
 10
770.140864786265
 20
260.7874471356602
 30
0.0
 11
769.7077460722744
 21
260.7874471356602
 31
0.0
  0
CIRCLE
  5
1A7
330
1F
100
AcDbEntity
  8
1
  6
Continuous
 62
     7
370
    35
100
AcDbCircle
 10
608.7230985851498
 20
122.2874471356604
 30
0.0
 40
2.600000000000023
  0
CIRCLE
  5
1A8
330
1F
100
AcDbEntity
  8
1
  6
Continuous
 62
     7
370
    35
100
AcDbCircle
 10
568.7230985851489
 20
122.2874471356604
 30
0.0
 40
2.600000000000023
  0
CIRCLE
  5
1A9
330
1F
100
AcDbEntity
  8
1
  6
Continuous
 62
     7
370
    35
100
AcDbCircle
 10
498.7230985851507
 20
122.2874471356604
 30
0.0
 40
2.600000000000023
  0
CIRCLE
  5
1AA
330
1F
100
AcDbEntity
  8
1
  6
Continuous
 62
     7
370
    35
100
AcDbCircle
 10
458.7230985851498
 20
122.2874471356604
 30
0.0
 40
2.599999999999994
  0
LINE
  5
1AB
330
1F
100
AcDbEntity
  8
1
  6
Continuous
 62
     7
370
    35
100
AcDbLine
 10
633.7230985851495
 20
145.2874471356604
 30
0.0
 11
433.7230985851498
 21
145.2874471356604
 31
0.0
  0
LINE
  5
1AC
330
1F
100
AcDbEntity
  8
1
  6
Continuous
 62
     7
370
    35
100
AcDbLine
 10
633.7230985851495
 20
270.2874471356604
 30
0.0
 11
633.7230985851495
 21
260.2874471356604
 31
0.0
  0
ARC
  5
1AD
330
1F
100
AcDbEntity
  8
1
  6
Continuous
 62
     7
370
    35
100
AcDbCircle
 10
628.7230985851504
 20
270.2874471356604
 30
0.0
 40
5.0
100
AcDbArc
 50
0.0
 51
89.99999999999991
  0
LINE
  5
1AE
330
1F
100
AcDbEntity
  8
1
  6
Continuous
 62
     7
370
    35
100
AcDbLine
 10
438.7230985851498
 20
275.2874471356604
 30
0.0
 11
628.7230985851504
 21
275.2874471356595
 31
0.0
  0
LINE
  5
1AF
330
1F
100
AcDbEntity
  8
1
  6
Continuous
 62
     7
370
    35
100
AcDbLine
 10
433.7230985851498
 20
270.2874471356604
 30
0.0
 11
433.7230985851498
 21
260.2874471356604
 31
0.0
  0
ARC
  5
1B0
330
1F
100
AcDbEntity
  8
1
  6
Continuous
 62
     7
370
    35
100
AcDbCircle
 10
438.7230985851489
 20
270.2874471356604
 30
0.0
 40
5.0
100
AcDbArc
 50
89.99999999999991
 51
179.9999999999998
  0
LINE
  5
1B1
330
1F
100
AcDbEntity
  8
1
  6
Continuous
 62
     7
370
    35
100
AcDbLine
 10
432.1730985851514
 20
260.604113802327
 30
0.0
 11
425.2730985851518
 21
260.604113802327
 31
0.0
  0
ARC
  5
1B2
330
1F
100
AcDbEntity
  8
1
  6
Continuous
 62
     7
370
    35
100
AcDbCircle
 10
428.7230985851516
 20
257.6370962584675
 30
0.0
 40
4.550350877192983
100
AcDbArc
 50
40.69569852540218
 51
139.3043014745987
  0
LINE
  5
1B3
330
1F
100
AcDbEntity
  8
1
  6
Continuous
 62
     7
370
    35
100
AcDbLine
 10
432.1730985851514
 20
260.2874471356604
 30
0.0
 11
432.1730985851514
 21
260.604113802327
 31
0.0
  0
LINE
  5
1B4
330
1F
100
AcDbEntity
  8
1
  6
Continuous
 62
     7
370
    35
100
AcDbLine
 10
425.2730985851518
 20
260.2874471356604
 30
0.0
 11
425.2730985851518
 21
260.604113802327
 31
0.0
  0
LINE
  5
1B5
330
1F
100
AcDbEntity
  8
1
  6
Continuous
 62
     7
370
    35
100
AcDbLine
 10
453.6730985851514
 20
260.604113802327
 30
0.0
 11
446.7730985851509
 21
260.604113802327
 31
0.0
  0
ARC
  5
1B6
330
1F
100
AcDbEntity
  8
1
  6
Continuous
 62
     7
370
    35
100
AcDbCircle
 10
450.2230985851516
 20
257.6370962584675
 30
0.0
 40
4.550350877192983
100
AcDbArc
 50
40.69569852540218
 51
139.3043014745987
  0
LINE
  5
1B7
330
1F
100
AcDbEntity
  8
1
  6
Continuous
 62
     7
370
    35
100
AcDbLine
 10
453.6730985851514
 20
260.2874471356604
 30
0.0
 11
453.6730985851514
 21
260.604113802327
 31
0.0
  0
LINE
  5
1B8
330
1F
100
AcDbEntity
  8
1
  6
Continuous
 62
     7
370
    35
100
AcDbLine
 10
446.7730985851509
 20
260.2874471356604
 30
0.0
 11
446.7730985851509
 21
260.604113802327
 31
0.0
  0
LINE
  5
1B9
330
1F
100
AcDbEntity
  8
1
  6
Continuous
 62
     7
370
    35
100
AcDbLine
 10
635.2730985851481
 20
260.604113802327
 30
0.0
 11
642.1730985851486
 21
260.604113802327
 31
0.0
  0
ARC
  5
1BA
330
1F
100
AcDbEntity
  8
1
  6
Continuous
 62
     7
370
    35
100
AcDbCircle
 10
638.7230985851477
 20
257.6370962584675
 30
0.0
 40
4.550350877192955
100
AcDbArc
 50
40.69569852540031
 51
139.3043014745978
  0
LINE
  5
1BB
330
1F
100
AcDbEntity
  8
1
  6
Continuous
 62
     7
370
    35
100
AcDbLine
 10
635.2730985851481
 20
260.2874471356604
 30
0.0
 11
635.2730985851481
 21
260.604113802327
 31
0.0
  0
LINE
  5
1BC
330
1F
100
AcDbEntity
  8
1
  6
Continuous
 62
     7
370
    35
100
AcDbLine
 10
642.1730985851486
 20
260.2874471356604
 30
0.0
 11
642.1730985851486
 21
260.604113802327
 31
0.0
  0
LINE
  5
1BD
330
1F
100
AcDbEntity
  8
1
  6
Continuous
 62
     7
370
    35
100
AcDbLine
 10
613.773098585149
 20
260.604113802327
 30
0.0
 11
620.6730985851486
 21
260.604113802327
 31
0.0
  0
ARC
  5
1BE
330
1F
100
AcDbEntity
  8
1
  6
Continuous
 62
     7
370
    35
100
AcDbCircle
 10
617.2230985851488
 20
257.6370962584675
 30
0.0
 40
4.550350877192955
100
AcDbArc
 50
40.69569852540218
 51
139.3043014745997
  0
LINE
  5
1BF
330
1F
100
AcDbEntity
  8
1
  6
Continuous
 62
     7
370
    35
100
AcDbLine
 10
613.773098585149
 20
260.2874471356604
 30
0.0
 11
613.773098585149
 21
260.604113802327
 31
0.0
  0
LINE
  5
1C0
330
1F
100
AcDbEntity
  8
1
  6
Continuous
 62
     7
370
    35
100
AcDbLine
 10
620.6730985851486
 20
260.2874471356604
 30
0.0
 11
620.6730985851486
 21
260.604113802327
 31
0.0
  0
CIRCLE
  5
1C1
330
1F
100
AcDbEntity
  8
1
  6
Continuous
 62
     7
370
    35
100
AcDbCircle
 10
608.7230985851498
 20
268.2874471356604
 30
0.0
 40
2.600000000000023
  0
CIRCLE
  5
1C2
330
1F
100
AcDbEntity
  8
1
  6
Continuous
 62
     7
370
    35
100
AcDbCircle
 10
568.7230985851489
 20
268.2874471356604
 30
0.0
 40
2.600000000000023
  0
CIRCLE
  5
1C3
330
1F
100
AcDbEntity
  8
1
  6
Continuous
 62
     7
370
    35
100
AcDbCircle
 10
498.7230985851507
 20
268.2874471356604
 30
0.0
 40
2.600000000000023
  0
CIRCLE
  5
1C4
330
1F
100
AcDbEntity
  8
1
  6
Continuous
 62
     7
370
    35
100
AcDbCircle
 10
458.7230985851498
 20
268.2874471356604
 30
0.0
 40
2.599999999999994
  0
POLYLINE
  5
1C5
330
1F
100
AcDbEntity
  8
1
  6
Continuous
 62
     7
370
    35
100
AcDb2dPolyline
 66
     1
 10
0.0
 20
0.0
 30
0.0
  0
VERTEX
  5
1C6
330
1C5
100
AcDbEntity
  8
1
  6
Continuous
 62
     7
370
    35
100
AcDbVertex
100
AcDb2dVertex
 10
773.3884070443985
 20
201.2874471356604
 30
0.0
  0
VERTEX
  5
1C7
330
1C5
100
AcDbEntity
  8
1
  6
Continuous
 62
     7
370
    35
100
AcDbVertex
100
AcDb2dVertex
 10
776.8525086595366
 20
195.2874471356604
 30
0.0
  0
VERTEX
  5
1C8
330
1C5
100
AcDbEntity
  8
1
  6
Continuous
 62
     7
370
    35
100
AcDbVertex
100
AcDb2dVertex
 10
773.3884070443985
 20
189.2874471356604
 30
0.0
  0
VERTEX
  5
1C9
330
1C5
100
AcDbEntity
  8
1
  6
Continuous
 62
     7
370
    35
100
AcDbVertex
100
AcDb2dVertex
 10
766.4602038141234
 20
189.2874471356604
 30
0.0
  0
VERTEX
  5
1CA
330
1C5
100
AcDbEntity
  8
1
  6
Continuous
 62
     7
370
    35
100
AcDbVertex
100
AcDb2dVertex
 10
762.9961021989859
 20
195.2874471356604
 30
0.0
  0
VERTEX
  5
1CB
330
1C5
100
AcDbEntity
  8
1
  6
Continuous
 62
     7
370
    35
100
AcDbVertex
100
AcDb2dVertex
 10
766.4602038141234
 20
201.2874471356604
 30
0.0
  0
VERTEX
  5
1CC
330
1C5
100
AcDbEntity
  8
1
  6
Continuous
 62
     7
370
    35
100
AcDbVertex
100
AcDb2dVertex
 10
773.3884070443985
 20
201.2874471356604
 30
0.0
  0
SEQEND
  5
1CD
330
1C5
100
AcDbEntity
  8
1
  6
Continuous
 62
     7
370
    35
  0
CIRCLE
  5
1CE
330
1F
100
AcDbEntity
  8
1
  6
Continuous
 62
     7
370
    35
100
AcDbCircle
 10
769.9243054292604
 20
195.2874471356604
 30
0.0
 40
1.849999999990359
  0
CIRCLE
  5
1CF
330
1F
100
AcDbEntity
  8
1
  6
Continuous
 62
     7
370
    35
100
AcDbCircle
 10
769.9243054292604
 20
195.2874471356604
 30
0.0
 40
5.0
  0
LINE
  5
1D0
330
1F
100
AcDbEntity
  8
1
  6
Continuous
 62
     7
370
    35
100
AcDbLine
 10
782.424305429269
 20
202.7874471356604
 30
0.0
 11
769.9243054292604
 21
202.7874471356604
 31
0.0
  0
LINE
  5
1D1
330
1F
100
AcDbEntity
  8
1
  6
Continuous
 62
     7
370
    35
100
AcDbLine
 10
782.424305429269
 20
187.7874471356632
 30
0.0
 11
769.9243054292624
 21
187.7874471356604
 31
0.0
  0
ARC
  5
1D2
330
1F
100
AcDbEntity
  8
1
  6
Continuous
 62
     7
370
    35
100
AcDbCircle
 10
769.9243054292604
 20
195.2874471356604
 30
0.0
 40
7.5
100
AcDbArc
 50
89.99999999999991
 51
270.0000000000257
  0
LINE
  5
1D3
330
1F
100
AcDbEntity
  8
1
  6
Continuous
 62
     7
370
    35
100
AcDbLine
 10
655.7230985851497
 20
201.2874471356604
 30
0.0
 11
655.7230985851497
 21
195.2874471356604
 31
0.0
  0
LINE
  5
1D4
330
1F
100
AcDbEntity
  8
1
  6
Continuous
 62
     7
370
    35
100
AcDbLine
 10
666.7230985851495
 20
197.7874471356604
 30
0.0
 11
666.7230985851495
 21
192.7874471356604
 31
0.0
  0
ARC
  5
1D5
330
1F
100
AcDbEntity
  8
1
  6
Continuous
 62
     7
370
    35
100
AcDbCircle
 10
663.7230985851497
 20
197.7874471356604
 30
0.0
 40
3.0
100
AcDbArc
 50
0.0
 51
89.99999999999991
  0
LINE
  5
1D6
330
1F
100
AcDbEntity
  8
1
  6
Continuous
 62
     7
370
    35
100
AcDbLine
 10
663.7230985851497
 20
201.2874471356604
 30
0.0
 11
663.7230985851497
 21
189.2874471356604
 31
0.0
  0
LINE
  5
1D7
330
1F
100
AcDbEntity
  8
1
  6
Continuous
 62
     7
370
    35
100
AcDbLine
 10
655.7230985851497
 20
201.2874471356604
 30
0.0
 11
663.7230985851497
 21
201.2874471356604
 31
0.0
  0
LINE
  5
1D8
330
1F
100
AcDbEntity
  8
1
  6
Continuous
 62
     7
370
    35
100
AcDbLine
 10
653.8230985851483
 20
200.2874471356604
 30
0.0
 11
655.7230985851497
 21
200.2874471356604
 31
0.0
  0
LINE
  5
1D9
330
1F
100
AcDbEntity
  8
1
  6
Continuous
 62
     7
370
    35
100
AcDbLine
 10
655.7230985851497
 20
189.2874471356604
 30
0.0
 11
655.7230985851497
 21
195.2874471356604
 31
0.0
  0
LINE
  5
1DA
330
1F
100
AcDbEntity
  8
1
  6
Continuous
 62
     7
370
    35
100
AcDbLine
 10
655.7230985851497
 20
195.2874471356604
 30
0.0
 11
663.7230985851497
 21
195.2874471356604
 31
0.0
  0
LINE
  5
1DB
330
1F
100
AcDbEntity
  8
1
  6
Continuous
 62
     7
370
    35
100
AcDbLine
 10
653.8230985851483
 20
190.2874471356604
 30
0.0
 11
655.7230985851497
 21
190.2874471356604
 31
0.0
  0
ARC
  5
1DC
330
1F
100
AcDbEntity
  8
1
  6
Continuous
 62
     7
370
    35
100
AcDbCircle
 10
663.7230985851497
 20
192.7874471356604
 30
0.0
 40
3.0
100
AcDbArc
 50
269.9999999999998
 51
0.0
  0
LINE
  5
1DD
330
1F
100
AcDbEntity
  8
1
  6
Continuous
 62
     7
370
    35
100
AcDbLine
 10
655.7230985851497
 20
189.2874471356604
 30
0.0
 11
663.7230985851497
 21
189.2874471356604
 31
0.0
  0
LINE
  5
1DE
330
1F
100
AcDbEntity
  8
4
  6
Continuous
 62
     2
370
     9
100
AcDbLine
 10
666.7230985851495
 20
197.1374471356599
 30
0.0
 11
685.447007095429
 21
197.1374355874755
 31
0.0
  0
ARC
  5
1DF
330
1F
100
AcDbEntity
  8
4
  6
Continuous
 62
     2
370
     9
100
AcDbCircle
 10
686.4809244935107
 20
196.2124414517942
 30
0.0
 40
1.387299296151184
100
AcDbArc
 50
138.1825956443233
 51
221.8174143556752
  0
ARC
  5
1E0
330
1F
100
AcDbEntity
  8
4
  6
Continuous
 62
     2
370
     9
100
AcDbCircle
 10
684.4128052187727
 20
194.3624471356603
 30
0.0
 40
1.387515353286915
100
AcDbArc
 50
318.1902521645508
 51
41.80974783544189
  0
ARC
  5
1E1
330
1F
100
AcDbEntity
  8
4
  6
Continuous
 62
     2
370
     9
100
AcDbCircle
 10
684.4128205720804
 20
196.2124412713179
 30
0.0
 40
1.387499999999989
100
AcDbArc
 50
318.1900099999997
 51
41.8099999999806
  0
LINE
  5
1E2
330
1F
100
AcDbEntity
  8
4
  6
Continuous
 62
     2
370
     9
100
AcDbLine
 10
666.7230985851495
 20
193.4374471356601
 30
0.0
 11
685.4470072568706
 21
193.4374471356601
 31
0.0
  0
LINE
  5
1E3
330
1F
100
AcDbEntity
  8
1
  6
Continuous
 62
     7
370
    35
100
AcDbLine
 10
649.2230985851497
 20
201.5374471356604
 30
0.0
 11
648.7230985851497
 21
201.5374471356604
 31
0.0
  0
LINE
  5
1E4
330
1F
100
AcDbEntity
  8
1
  6
Continuous
 62
     7
370
    35
100
AcDbLine
 10
649.2230985851497
 20
202.2874471356604
 30
0.0
 11
653.8230985851492
 21
202.2874471356604
 31
0.0
  0
LINE
  5
1E5
330
1F
100
AcDbEntity
  8
1
  6
Continuous
 62
     7
370
    35
100
AcDbLine
 10
649.2230985851497
 20
198.7874471356604
 30
0.0
 11
653.8230985851492
 21
198.7874471356604
 31
0.0
  0
LINE
  5
1E6
330
1F
100
AcDbEntity
  8
1
  6
Continuous
 62
     7
370
    35
100
AcDbLine
 10
649.22309858515
 20
188.2874471356595
 30
0.0
 11
653.8230985851492
 21
188.2874471356604
 31
0.0
  0
LINE
  5
1E7
330
1F
100
AcDbEntity
  8
1
  6
Continuous
 62
     7
370
    35
100
AcDbLine
 10
649.2230985851495
 20
191.7874471356604
 30
0.0
 11
653.8230985851492
 21
191.7874471356604
 31
0.0
  0
LINE
  5
1E8
330
1F
100
AcDbEntity
  8
1
  6
Continuous
 62
     7
370
    35
100
AcDbLine
 10
653.8230985851492
 20
202.2874471356604
 30
0.0
 11
653.8230985851492
 21
195.2874471356604
 31
0.0
  0
LINE
  5
1E9
330
1F
100
AcDbEntity
  8
1
  6
Continuous
 62
     7
370
    35
100
AcDbLine
 10
653.8230985851492
 20
188.2874471356604
 30
0.0
 11
653.8230985851492
 21
195.2874471356604
 31
0.0
  0
LINE
  5
1EA
330
1F
100
AcDbEntity
  8
1
  6
Continuous
 62
     7
370
    35
100
AcDbLine
 10
649.2230985851497
 20
202.2874471356604
 30
0.0
 11
649.2230985851495
 21
188.2874471356595
 31
0.0
  0
LINE
  5
1EB
330
1F
100
AcDbEntity
  8
1
  6
Continuous
 62
     7
370
    35
100
AcDbLine
 10
649.2230985851497
 20
189.0374471356604
 30
0.0
 11
648.7230985851497
 21
189.0374471356604
 31
0.0
  0
LINE
  5
1EC
330
1F
100
AcDbEntity
  8
1
  6
Continuous
 62
     7
370
    35
100
AcDbLine
 10
648.7230985851497
 20
201.5374471356604
 30
0.0
 11
648.7230985851497
 21
189.0374471356604
 31
0.0
  0
DIMENSION
  5
1F6
330
1F
100
AcDbEntity
  8
7
  6
Continuous
 62
     4
370
    18
100
AcDbDimension
280
     0
  2
Dim2
 10
648.7230985851495
 20
50.38029865125241
 30
0.0
 11
680.7230985851497
 21
50.38029865125241
 31
0.0
 70
   160
  1
(<>
 71
     5
 42
-1.0
 73
     0
 74
     0
 75
     0
  3
Standard
100
AcDbAlignedDimension
 13
666.7230985851495
 23
192.7874471356604
 33
0.0
 14
648.7230985851497
 24
130.2874471356604
 34
0.0
 50
179.9999999999998
100
AcDbRotatedDimension
1001
ACAD
1000
DSTYLE
1002
{
1070
   279
1070
     2
1070
   340
1005
196
1070
   140
1040
2.25
1070
    40
1040
1.0
1070
   147
1040
0.0
1070
    76
1070
     0
1070
    75
1070
     0
1070
   344
1005
0
1070
   343
1005
0
1070
   173
1070
     1
1070
   289
1070
     2
1070
   288
1070
     1
1070
    77
1070
     1
1070
   172
1070
     1
1070
   174
1070
     0
1070
    74
1070
     0
1070
    73
1070
     0
1070
   284
1070
     8
1070
    78
1070
     8
1070
    42
1040
0.75
1070
    44
1040
1.125
1070
    43
1040
30.0
1070
   271
1070
     2
1070
    41
1040
1.5
1002
}
  0
DIMENSION
  5
200
330
1F
100
AcDbEntity
  8
7
  6
Continuous
 62
     4
370
    18
100
AcDbDimension
280
     0
  2
Dim3
 10
762.9961021989857
 20
82.69519495487799
 30
0.0
 11
801.9243054292695
 21
82.69519495487799
 31
0.0
 70
   160
  1
(<>
 71
     5
 42
-1.0
 73
     0
 74
     0
 75
     0
  3
Standard
100
AcDbAlignedDimension
 13
783.4243054292695
 23
115.2874471356604
 33
0.0
 14
762.9961021989859
 24
195.2874471356604
 34
0.0
 50
179.9999999999998
100
AcDbRotatedDimension
1001
ACAD
1000
DSTYLE
1002
{
1070
   279
1070
     2
1070
   340
1005
196
1070
   140
1040
2.25
1070
    40
1040
1.0
1070
   147
1040
0.0
1070
    76
1070
     0
1070
    75
1070
     0
1070
   344
1005
0
1070
   343
1005
0
1070
   173
1070
     1
1070
   289
1070
     2
1070
   288
1070
     1
1070
    77
1070
     1
1070
   172
1070
     1
1070
   174
1070
     0
1070
    74
1070
     0
1070
    73
1070
     0
1070
   284
1070
     8
1070
    78
1070
     8
1070
    42
1040
0.75
1070
    44
1040
1.125
1070
    43
1040
30.0
1070
   271
1070
     2
1070
    41
1040
1.5
1002
}
  0
ARC
  5
201
330
1F
100
AcDbEntity
  8
4
  6
Continuous
 62
     2
370
     9
100
AcDbCircle
 10
687.8794777389687
 20
194.3856582065787
 30
0.0
 40
1.387515022395519
100
AcDbArc
 50
138.1902399436242
 51
221.8097600563755
  0
ARC
  5
202
330
1F
100
AcDbEntity
  8
4
  6
Continuous
 62
     2
370
     9
100
AcDbCircle
 10
685.8113584641387
 20
194.3856639987005
 30
0.0
 40
1.387299627082427
100
AcDbArc
 50
318.1825978710821
 51
41.81739912889432
  0
LINE
  5
203
330
1F
100
AcDbEntity
  8
4
  6
Continuous
 62
     2
370
     9
100
AcDbLine
 10
686.8452761448036
 20
193.4606582065786
 30
0.0
 11
694.2027034453297
 21
193.4606582065783
 31
0.0
  0
ARC
  5
204
330
1F
100
AcDbEntity
  8
4
  6
Continuous
 62
     2
370
     9
100
AcDbCircle
 10
687.8794627165844
 20
196.235652468587
 30
0.0
 40
1.387499999999989
100
AcDbArc
 50
138.1900000000194
 51
221.8099970000235
  0
LINE
  5
205
330
1F
100
AcDbEntity
  8
4
  6
Continuous
 62
     2
370
     9
100
AcDbLine
 10
686.8452761932358
 20
197.1606467847446
 30
0.0
 11
694.2027034453297
 21
197.1606467847444
 31
0.0
  0
MTEXT
  5
206
330
1F
100
AcDbEntity
  8
7
  6
Continuous
 62
     4
370
     9
100
AcDbMText
 10
682.38908660932
 20
185.927119859844
 30
0.0
 40
4.5
 41
29.24845499555999
 46
4.5
 71
     1
 72
     1
  1
{\fＭＳ ゴシック;\T1.555898;L=500}
 73
     1
 44
1.0
1001
ACAD
1000
ACAD_MTEXT_DEFINED_HEIGHT_BEGIN
1070
    46
1040
4.5
1000
ACAD_MTEXT_DEFINED_HEIGHT_END
  0
INSERT
  5
207
330
1F
100
AcDbEntity
  8
7
  6
Continuous
 62
     4
370
    18
100
AcDbBlockReference
  2
_OPEN
 10
457.4230985851498
 20
270.5391131855
 30
0.0
 41
1.5
 42
1.5
 43
1.5
 50
299.9999999999997
  0
POLYLINE
  5
208
330
1F
100
AcDbEntity
  8
7
  6
Continuous
 62
     4
370
    18
100
AcDb2dPolyline
 66
     1
 10
0.0
 20
0.0
 30
0.0
  0
VERTEX
  5
209
330
208
100
AcDbEntity
  8
7
  6
Continuous
 62
     4
370
    18
100
AcDbVertex
100
AcDb2dVertex
 10
457.4230985851498
 20
270.5391131855
 30
0.0
  0
VERTEX
  5
20A
330
208
100
AcDbEntity
  8
7
  6
Continuous
 62
     4
370
    18
100
AcDbVertex
100
AcDb2dVertex
 10
441.5720580163273
 20
297.9939208035362
 30
0.0
  0
VERTEX
  5
20B
330
208
100
AcDbEntity
  8
7
  6
Continuous
 62
     4
370
    18
100
AcDbVertex
100
AcDb2dVertex
 10
439.8332732251502
 20
297.9939208035362
 30
0.0
  0
VERTEX
  5
20C
330
208
100
AcDbEntity
  8
7
  6
Continuous
 62
     4
370
    18
100
AcDbVertex
100
AcDb2dVertex
 10
431.2082732251502
 20
297.9939208035362
 30
0.0
  0
SEQEND
  5
20D
330
208
100
AcDbEntity
  8
7
  6
Continuous
 62
     4
370
    18
  0
MTEXT
  5
20E
330
1F
100
AcDbEntity
  8
7
  6
Continuous
 62
     4
370
     9
100
AcDbMText
 10
439.8332732251502
 20
297.9939208035362
 30
0.0
 40
2.25
 41
12.22024989825
 46
2.25
 71
     9
 72
     1
  1
{\fＭＳ ゴシック;\T1.016260;8-Ø5.2}
 73
     1
 44
1.0
1001
ACAD
1000
ACAD_MTEXT_DEFINED_HEIGHT_BEGIN
1070
    46
1040
2.25
1000
ACAD_MTEXT_DEFINED_HEIGHT_END
  0
LINE
  5
20F
330
1F
100
AcDbEntity
  8
4
  6
Continuous
 62
     2
370
     9
100
AcDbLine
 10
711.1552557328359
 20
199.8106882065782
 30
0.0
 11
703.3205022564791
 21
199.8106882065782
 31
0.0
  0
LINE
  5
210
330
1F
100
AcDbEntity
  8
4
  6
Continuous
 62
     2
370
     9
100
AcDbLine
 10
720.1552327328359
 20
197.3106682065778
 30
0.0
 11
707.1552237328358
 21
197.3106682065778
 31
0.0
  0
LINE
  5
211
330
1F
100
AcDbEntity
  8
4
  6
Continuous
 62
     2
370
     9
100
AcDbLine
 10
717.1552287328359
 20
195.7106682065779
 30
0.0
 11
708.1552277328358
 21
195.7106682065779
 31
0.0
  0
LINE
  5
212
330
1F
100
AcDbEntity
  8
4
  6
Continuous
 62
     2
370
     9
100
AcDbLine
 10
717.1552287328359
 20
194.1106782065779
 30
0.0
 11
708.1552277328358
 21
194.1106782065779
 31
0.0
  0
LINE
  5
213
330
1F
100
AcDbEntity
  8
4
  6
Continuous
 62
     2
370
     9
100
AcDbLine
 10
717.1552287328359
 20
194.9106482065779
 30
0.0
 11
708.1552277328358
 21
194.9106482065779
 31
0.0
  0
LINE
  5
214
330
1F
100
AcDbEntity
  8
4
  6
Continuous
 62
     2
370
     9
100
AcDbLine
 10
717.1552287328359
 20
196.5106482065781
 30
0.0
 11
708.1552277328358
 21
196.5106482065781
 31
0.0
  0
LINE
  5
215
330
1F
100
AcDbEntity
  8
4
  6
Continuous
 62
     2
370
     9
100
AcDbLine
 10
711.1552557328359
 20
190.8106282065776
 30
0.0
 11
703.3205022564791
 21
190.8106282065774
 31
0.0
  0
LINE
  5
216
330
1F
100
AcDbEntity
  8
4
  6
Continuous
 62
     2
370
     9
100
AcDbLine
 10
720.1552327328359
 20
193.310658206578
 30
0.0
 11
707.1552237328358
 21
193.310658206578
 31
0.0
  0
LINE
  5
217
330
1F
100
AcDbEntity
  8
4
  6
Continuous
 62
     2
370
     9
100
AcDbLine
 10
700.4997321777739
 20
198.8009179958322
 30
0.0
 11
694.2027034453297
 21
198.8009179958322
 31
0.0
  0
LINE
  5
218
330
1F
100
AcDbEntity
  8
4
  6
Continuous
 62
     2
370
     9
100
AcDbLine
 10
700.4997321777739
 20
191.8203984173252
 30
0.0
 11
694.2027034453297
 21
191.8203984173252
 31
0.0
  0
LINE
  5
219
330
1F
100
AcDbEntity
  8
4
  6
Continuous
 62
     2
370
     9
100
AcDbLine
 10
694.2027034453297
 20
191.8203984173252
 30
0.0
 11
694.2027034453297
 21
198.8009179958322
 31
0.0
  0
ARC
  5
21A
330
1F
100
AcDbEntity
  8
4
  6
Continuous
 62
     2
370
     9
100
AcDbCircle
 10
703.3205022564798
 20
197.8106882065782
 30
0.0
 40
2.0
100
AcDbArc
 50
90.00000000001303
 51
120.0000000000151
  0
ARC
  5
21B
330
1F
100
AcDbEntity
  8
4
  6
Continuous
 62
     2
370
     9
100
AcDbCircle
 10
700.4997321777739
 20
200.8009179958311
 30
0.0
 40
2.0
100
AcDbArc
 50
269.9999999999998
 51
300.0000000000147
  0
LINE
  5
21C
330
1F
100
AcDbEntity
  8
4
  6
Continuous
 62
     2
370
     9
100
AcDbLine
 10
702.3205022564796
 20
199.5427390141463
 30
0.0
 11
701.4997321777744
 21
199.0688671882631
 31
0.0
  0
ARC
  5
21D
330
1F
100
AcDbEntity
  8
4
  6
Continuous
 62
     2
370
     9
100
AcDbCircle
 10
703.3205022564798
 20
192.8106282065774
 30
0.0
 40
2.0
100
AcDbArc
 50
239.9999999999846
 51
269.9999999999866
  0
ARC
  5
21E
330
1F
100
AcDbEntity
  8
4
  6
Continuous
 62
     2
370
     9
100
AcDbCircle
 10
700.4997321777739
 20
189.8203984173243
 30
0.0
 40
2.0
100
AcDbArc
 50
59.99999999998492
 51
89.99999999999991
  0
LINE
  5
21F
330
1F
100
AcDbEntity
  8
4
  6
Continuous
 62
     2
370
     9
100
AcDbLine
 10
702.3205022564796
 20
191.0785773990095
 30
0.0
 11
701.4997321777744
 21
191.5524492248927
 31
0.0
  0
LINE
  5
220
330
1F
100
AcDbEntity
  8
4
  6
Continuous
 62
     2
370
     9
100
AcDbLine
 10
707.1552237328358
 20
193.310658206578
 30
0.0
 11
707.1552237328358
 21
197.3106682065778
 31
0.0
  0
LINE
  5
221
330
1F
100
AcDbEntity
  8
4
  6
Continuous
 62
     2
370
     9
100
AcDbLine
 10
708.1552277328358
 20
193.310658206578
 30
0.0
 11
708.1552277328358
 21
197.3106682065778
 31
0.0
  0
LINE
  5
222
330
1F
100
AcDbEntity
  8
4
  6
Continuous
 62
     2
370
     9
100
AcDbLine
 10
720.1552327328359
 20
195.310658206578
 30
0.0
 11
720.1552327328359
 21
200.5606682065778
 31
0.0
  0
ARC
  5
223
330
1F
100
AcDbEntity
  8
4
  6
Continuous
 62
     2
370
     9
100
AcDbCircle
 10
713.1552317328358
 20
199.5606682065778
 30
0.0
 40
1.0
100
AcDbArc
 50
89.99999999999991
 51
179.9999999999998
  0
LINE
  5
224
330
1F
100
AcDbEntity
  8
4
  6
Continuous
 62
     2
370
     9
100
AcDbLine
 10
711.1552557328359
 20
199.310678206578
 30
0.0
 11
712.1552277328358
 21
199.310678206578
 31
0.0
  0
LINE
  5
225
330
1F
100
AcDbEntity
  8
4
  6
Continuous
 62
     2
370
     9
100
AcDbLine
 10
711.1552557328359
 20
199.8106882065782
 30
0.0
 11
711.1552557328359
 21
197.310668206578
 31
0.0
  0
LINE
  5
226
330
1F
100
AcDbEntity
  8
4
  6
Continuous
 62
     2
370
     9
100
AcDbLine
 10
712.1552277328358
 20
199.5606682065778
 30
0.0
 11
712.1552277328358
 21
197.3106682065778
 31
0.0
  0
LINE
  5
227
330
1F
100
AcDbEntity
  8
4
  6
Continuous
 62
     2
370
     9
100
AcDbLine
 10
712.1552277328358
 20
199.310678206578
 30
0.0
 11
712.1552277328358
 21
197.3106682065778
 31
0.0
  0
LINE
  5
228
330
1F
100
AcDbEntity
  8
4
  6
Continuous
 62
     2
370
     9
100
AcDbLine
 10
713.1552317328358
 20
190.0606482065778
 30
0.0
 11
720.1552327328359
 21
190.0606482065778
 31
0.0
  0
LINE
  5
229
330
1F
100
AcDbEntity
  8
4
  6
Continuous
 62
     2
370
     9
100
AcDbLine
 10
712.1552277328358
 20
191.3106382065778
 30
0.0
 11
711.1552557328359
 21
191.3106382065778
 31
0.0
  0
LINE
  5
22A
330
1F
100
AcDbEntity
  8
4
  6
Continuous
 62
     2
370
     9
100
AcDbLine
 10
711.1552557328359
 20
190.8106282065776
 30
0.0
 11
711.1552557328359
 21
193.3106482065778
 31
0.0
  0
LINE
  5
22B
330
1F
100
AcDbEntity
  8
4
  6
Continuous
 62
     2
370
     9
100
AcDbLine
 10
712.1552277328358
 20
191.0606482065778
 30
0.0
 11
712.1552277328358
 21
193.310658206578
 31
0.0
  0
LINE
  5
22C
330
1F
100
AcDbEntity
  8
4
  6
Continuous
 62
     2
370
     9
100
AcDbLine
 10
712.1552277328358
 20
193.310658206578
 30
0.0
 11
712.1552277328358
 21
191.3106382065778
 31
0.0
  0
ARC
  5
22D
330
1F
100
AcDbEntity
  8
4
  6
Continuous
 62
     2
370
     9
100
AcDbCircle
 10
713.1552317328358
 20
191.0606482065778
 30
0.0
 40
1.0
100
AcDbArc
 50
179.9999999999998
 51
269.9999999999998
  0
LINE
  5
22E
330
1F
100
AcDbEntity
  8
4
  6
Continuous
 62
     2
370
     9
100
AcDbLine
 10
717.1552287328359
 20
197.3106682065778
 30
0.0
 11
717.1552287328359
 21
193.310658206578
 31
0.0
  0
LINE
  5
22F
330
1F
100
AcDbEntity
  8
4
  6
Continuous
 62
     2
370
     9
100
AcDbLine
 10
720.1552327328359
 20
195.310658206578
 30
0.0
 11
720.1552327328359
 21
190.0606482065778
 31
0.0
  0
LINE
  5
230
330
1F
100
AcDbEntity
  8
4
  6
Continuous
 62
     2
370
     9
100
AcDbLine
 10
719.1552237328358
 20
197.3106682065778
 30
0.0
 11
719.1552237328358
 21
193.310658206578
 31
0.0
  0
LINE
  5
231
330
1F
100
AcDbEntity
  8
4
  6
Continuous
 62
     2
370
     9
100
AcDbLine
 10
713.1552317328358
 20
200.5606682065778
 30
0.0
 11
720.1552327328359
 21
200.5606682065778
 31
0.0
  0
INSERT
  5
249
330
1F
100
AcDbEntity
  8
0
100
AcDbBlockReference
  2
*G21
 10
0.0
 20
0.0
 30
0.0
  0
INSERT
  5
261
330
1F
100
AcDbEntity
  8
0
100
AcDbBlockReference
  2
*G26
 10
0.0
 20
0.0
 30
0.0
  0
INSERT
  5
279
330
1F
100
AcDbEntity
  8
0
100
AcDbBlockReference
  2
*G31
 10
0.0
 20
0.0
 30
0.0
  0
INSERT
  5
291
330
1F
100
AcDbEntity
  8
0
100
AcDbBlockReference
  2
*G36
 10
0.0
 20
0.0
 30
0.0
  0
INSERT
  5
2A9
330
1F
100
AcDbEntity
  8
0
100
AcDbBlockReference
  2
*G41
 10
0.0
 20
0.0
 30
0.0
  0
INSERT
  5
2C1
330
1F
100
AcDbEntity
  8
0
100
AcDbBlockReference
  2
*G46
 10
0.0
 20
0.0
 30
0.0
  0
INSERT
  5
2D9
330
1F
100
AcDbEntity
  8
0
100
AcDbBlockReference
  2
*G51
 10
0.0
 20
0.0
 30
0.0
  0
INSERT
  5
2F1
330
1F
100
AcDbEntity
  8
0
100
AcDbBlockReference
  2
*G56
 10
0.0
 20
0.0
 30
0.0
  0
DIMENSION
  5
2FB
330
1F
100
AcDbEntity
  8
7
  6
Continuous
 62
     4
370
    18
100
AcDbDimension
280
     0
  2
Dim4
 10
568.7230985851489
 20
96.9146427620239
 30
0.0
 11
533.7230985851493
 21
96.9146427620239
 31
0.0
 70
   160
  1
<>
 71
     8
 42
-1.0
 73
     0
 74
     0
 75
     0
  3
Standard
100
AcDbAlignedDimension
 13
498.7230985851498
 23
118.6874471356603
 33
0.0
 14
568.7230985851489
 24
118.6874471356603
 34
0.0
100
AcDbRotatedDimension
1001
ACAD
1000
DSTYLE
1002
{
1070
   279
1070
     1
1070
   340
1005
196
1070
   140
1040
2.25
1070
    40
1040
1.0
1070
   147
1040
0.0
1070
    76
1070
     0
1070
    75
1070
     0
1070
   344
1005
0
1070
   343
1005
0
1070
   173
1070
     1
1070
   289
1070
     2
1070
   288
1070
     1
1070
    77
1070
     1
1070
   172
1070
     1
1070
   174
1070
     0
1070
    74
1070
     0
1070
    73
1070
     0
1070
   284
1070
     8
1070
    78
1070
     8
1070
    42
1040
0.75
1070
    44
1040
1.125
1070
    43
1040
30.0
1070
   271
1070
     2
1070
    41
1040
1.5
1002
}
  0
DIMENSION
  5
305
330
1F
100
AcDbEntity
  8
7
  6
Continuous
 62
     4
370
    18
100
AcDbDimension
280
     0
  2
Dim5
 10
608.7230985851498
 20
82.69519495487799
 30
0.0
 11
533.7230985851498
 21
86.07019495487799
 31
0.0
 70
   160
  1
<>
 71
     5
 42
-1.0
 73
     0
 74
     0
 75
     0
  3
Standard
100
AcDbAlignedDimension
 13
458.7230985851498
 23
118.6874471356603
 33
0.0
 14
608.7230985851498
 24
118.6874471356603
 34
0.0
100
AcDbRotatedDimension
1001
ACAD
1000
DSTYLE
1002
{
1070
   279
1070
     2
1070
   340
1005
196
1070
   140
1040
2.25
1070
    40
1040
1.0
1070
   147
1040
0.0
1070
    76
1070
     0
1070
    75
1070
     0
1070
   344
1005
0
1070
   343
1005
0
1070
   173
1070
     1
1070
   289
1070
     2
1070
   288
1070
     1
1070
    77
1070
     1
1070
   172
1070
     1
1070
   174
1070
     0
1070
    74
1070
     0
1070
    73
1070
     0
1070
   284
1070
     8
1070
    78
1070
     8
1070
    42
1040
0.75
1070
    44
1040
1.125
1070
    43
1040
30.0
1070
   271
1070
     2
1070
    41
1040
1.5
1002
}
  0
DIMENSION
  5
30F
330
1F
100
AcDbEntity
  8
7
  6
Continuous
 62
     4
370
    18
100
AcDbDimension
280
     0
  2
Dim6
 10
633.7230985851495
 20
66.20112447127889
 30
0.0
 11
533.72309858515
 21
69.57612447127889
 31
0.0
 70
   160
  1
<>
 71
     5
 42
-1.0
 73
     0
 74
     0
 75
     0
  3
Standard
100
AcDbAlignedDimension
 13
433.7230985851498
 23
145.2874471356604
 33
0.0
 14
633.7230985851495
 24
145.2874471356604
 34
0.0
100
AcDbRotatedDimension
1001
ACAD
1000
DSTYLE
1002
{
1070
   279
1070
     2
1070
   340
1005
196
1070
   140
1040
2.25
1070
    40
1040
1.0
1070
   147
1040
0.0
1070
    76
1070
     0
1070
    75
1070
     0
1070
   344
1005
0
1070
   343
1005
0
1070
   173
1070
     1
1070
   289
1070
     2
1070
   288
1070
     1
1070
    77
1070
     1
1070
   172
1070
     1
1070
   174
1070
     0
1070
    74
1070
     0
1070
    73
1070
     0
1070
   284
1070
     8
1070
    78
1070
     8
1070
    42
1040
0.75
1070
    44
1040
1.125
1070
    43
1040
30.0
1070
   271
1070
     2
1070
    41
1040
1.5
1002
}
  0
DIMENSION
  5
319
330
1F
100
AcDbEntity
  8
7
  6
Continuous
 62
     4
370
    18
100
AcDbDimension
280
     0
  2
Dim7
 10
648.7230985851495
 20
50.38029865125241
 30
0.0
 11
533.7230985851501
 21
53.75529865125241
 31
0.0
 70
   160
  1
<>
 71
     5
 42
-1.0
 73
     0
 74
     0
 75
     0
  3
Standard
100
AcDbAlignedDimension
 13
418.7230985851498
 23
130.2874471356593
 33
0.0
 14
648.7230985851497
 24
130.2874471356604
 34
0.0
100
AcDbRotatedDimension
1001
ACAD
1000
DSTYLE
1002
{
1070
   279
1070
     2
1070
   340
1005
196
1070
   140
1040
2.25
1070
    40
1040
1.0
1070
   147
1040
0.0
1070
    76
1070
     0
1070
    75
1070
     0
1070
   344
1005
0
1070
   343
1005
0
1070
   173
1070
     1
1070
   289
1070
     2
1070
   288
1070
     1
1070
    77
1070
     1
1070
   172
1070
     1
1070
   174
1070
     0
1070
    74
1070
     0
1070
    73
1070
     0
1070
   284
1070
     8
1070
    78
1070
     8
1070
    42
1040
0.75
1070
    44
1040
1.125
1070
    43
1040
30.0
1070
   271
1070
     2
1070
    41
1040
1.5
1002
}
  0
DIMENSION
  5
323
330
1F
100
AcDbEntity
  8
7
  6
Continuous
 62
     4
370
    18
100
AcDbDimension
280
     0
  2
Dim8
 10
783.4243054292695
 20
66.20112447127889
 30
0.0
 11
760.9243054292695
 21
69.57612447127889
 31
0.0
 70
   160
  1
<>
 71
     5
 42
-1.0
 73
     0
 74
     0
 75
     0
  3
Standard
100
AcDbAlignedDimension
 13
738.4243054292695
 23
130.2874471356604
 33
0.0
 14
783.4243054292695
 24
115.2874471356604
 34
0.0
100
AcDbRotatedDimension
1001
ACAD
1000
DSTYLE
1002
{
1070
   279
1070
     2
1070
   340
1005
196
1070
   140
1040
2.25
1070
    40
1040
1.0
1070
   147
1040
0.0
1070
    76
1070
     0
1070
    75
1070
     0
1070
   344
1005
0
1070
   343
1005
0
1070
   173
1070
     1
1070
   289
1070
     2
1070
   288
1070
     1
1070
    77
1070
     1
1070
   172
1070
     1
1070
   174
1070
     0
1070
    74
1070
     0
1070
    73
1070
     0
1070
   284
1070
     8
1070
    78
1070
     8
1070
    42
1040
0.75
1070
    44
1040
1.125
1070
    43
1040
30.0
1070
   271
1070
     2
1070
    41
1040
1.5
1002
}
  0
DIMENSION
  5
32D
330
1F
100
AcDbEntity
  8
7
  6
Continuous
 62
     4
370
    18
100
AcDbDimension
280
     0
  2
Dim9
 10
399.4184168025941
 20
245.2874471356607
 30
0.0
 11
399.4184168025941
 21
195.2874471356605
 31
0.0
 70
   160
  1
<>
 71
     8
 42
-1.0
 73
     0
 74
     0
 75
     0
  3
Standard
100
AcDbAlignedDimension
 13
433.7230985851498
 23
145.2874471356604
 33
0.0
 14
433.7230985851498
 24
245.2874471356607
 34
0.0
 50
89.99999999999991
100
AcDbRotatedDimension
1001
ACAD
1000
DSTYLE
1002
{
1070
   279
1070
     1
1070
   340
1005
196
1070
   140
1040
2.25
1070
    40
1040
1.0
1070
   147
1040
0.0
1070
    76
1070
     0
1070
    75
1070
     0
1070
   344
1005
0
1070
   343
1005
0
1070
   173
1070
     1
1070
   289
1070
     2
1070
   288
1070
     1
1070
    77
1070
     1
1070
   172
1070
     1
1070
   174
1070
     0
1070
    74
1070
     0
1070
    73
1070
     0
1070
   284
1070
     8
1070
    78
1070
     8
1070
    42
1040
0.75
1070
    44
1040
1.125
1070
    43
1040
30.0
1070
   271
1070
     2
1070
    41
1040
1.5
1002
}
  0
DIMENSION
  5
337
330
1F
100
AcDbEntity
  8
7
  6
Continuous
 62
     4
370
    18
100
AcDbDimension
280
     0
  2
Dim10
 10
383.8847486457299
 20
260.2874471356607
 30
0.0
 11
383.8847486457299
 21
195.2874471356604
 31
0.0
 70
   160
  1
<>
 71
     8
 42
-1.0
 73
     0
 74
     0
 75
     0
  3
Standard
100
AcDbAlignedDimension
 13
418.7230985851498
 23
130.2874471356604
 33
0.0
 14
418.7230985851498
 24
260.2874471356604
 34
0.0
 50
89.99999999999991
100
AcDbRotatedDimension
1001
ACAD
1000
DSTYLE
1002
{
1070
   279
1070
     1
1070
   340
1005
196
1070
   140
1040
2.25
1070
    40
1040
1.0
1070
   147
1040
0.0
1070
    76
1070
     0
1070
    75
1070
     0
1070
   344
1005
0
1070
   343
1005
0
1070
   173
1070
     1
1070
   289
1070
     2
1070
   288
1070
     1
1070
    77
1070
     1
1070
   172
1070
     1
1070
   174
1070
     0
1070
    74
1070
     0
1070
    73
1070
     0
1070
   284
1070
     8
1070
    78
1070
     8
1070
    42
1040
0.75
1070
    44
1040
1.125
1070
    43
1040
30.0
1070
   271
1070
     2
1070
    41
1040
1.5
1002
}
  0
DIMENSION
  5
341
330
1F
100
AcDbEntity
  8
7
  6
Continuous
 62
     4
370
    18
100
AcDbDimension
280
     0
  2
Dim11
 10
369.3882910070116
 20
268.2874471356607
 30
0.0
 11
369.3882910070116
 21
195.2874471356604
 31
0.0
 70
   160
  1
<>
 71
     8
 42
-1.0
 73
     0
 74
     0
 75
     0
  3
Standard
100
AcDbAlignedDimension
 13
455.1230985851499
 23
122.2874471356604
 33
0.0
 14
455.1230985851499
 24
268.2874471356604
 34
0.0
 50
89.99999999999991
100
AcDbRotatedDimension
1001
ACAD
1000
DSTYLE
1002
{
1070
   279
1070
     1
1070
   340
1005
196
1070
   140
1040
2.25
1070
    40
1040
1.0
1070
   147
1040
0.0
1070
    76
1070
     0
1070
    75
1070
     0
1070
   344
1005
0
1070
   343
1005
0
1070
   173
1070
     1
1070
   289
1070
     2
1070
   288
1070
     1
1070
    77
1070
     1
1070
   172
1070
     1
1070
   174
1070
     0
1070
    74
1070
     0
1070
    73
1070
     0
1070
   284
1070
     8
1070
    78
1070
     8
1070
    42
1040
0.75
1070
    44
1040
1.125
1070
    43
1040
30.0
1070
   271
1070
     2
1070
    41
1040
1.5
1002
}
  0
DIMENSION
  5
34B
330
1F
100
AcDbEntity
  8
7
  6
Continuous
 62
     4
370
    18
100
AcDbDimension
280
     0
  2
Dim12
 10
355.0553949903661
 20
115.2874471356607
 30
0.0
 11
355.0553949903661
 21
195.2874471356605
 31
0.0
 70
   160
  1
<>
 71
     8
 42
-1.0
 73
     0
 74
     0
 75
     0
 53
89.99999999999991
  3
Standard
100
AcDbAlignedDimension
 13
438.7230985851489
 23
275.2874471356604
 33
0.0
 14
438.7230985851489
 24
115.2874471356604
 34
0.0
 50
-89.99999999999991
100
AcDbRotatedDimension
1001
ACAD
1000
DSTYLE
1002
{
1070
   279
1070
     1
1070
   340
1005
196
1070
   140
1040
2.25
1070
    40
1040
1.0
1070
   147
1040
0.0
1070
    76
1070
     0
1070
    75
1070
     0
1070
   344
1005
0
1070
   343
1005
0
1070
   173
1070
     1
1070
   289
1070
     2
1070
   288
1070
     1
1070
    77
1070
     1
1070
   172
1070
     1
1070
   174
1070
     0
1070
    74
1070
     0
1070
    73
1070
     0
1070
   284
1070
     8
1070
    78
1070
     8
1070
    42
1040
0.75
1070
    44
1040
1.125
1070
    43
1040
30.0
1070
   271
1070
     2
1070
    41
1040
1.5
1002
}
  0
VIEWPORT
  5
6A
330
1B
100
AcDbEntity
 67
     1
  8
0
100
AcDbViewport
 10
594.5
 20
420.5
 30
0.0
 40
1189.0
 41
841.0
 68
     1
 69
     1
 12
594.5
 22
420.5
 13
0.0
 23
0.0
 14
0.5
 24
0.5
 15
0.5
 25
0.5
 16
0.0
 26
0.0
 36
1.0
 17
0.0
 27
0.0
 37
0.0
 42
50.0
 43
0.0
 44
0.0
 45
9.0
 50
0.0
 51
0.0
 72
   100
 90
   557152
  1

281
     0
 71
     1
 74
     0
110
0.0
120
0.0
130
0.0
111
1.0
121
0.0
131
0.0
112
0.0
122
1.0
132
0.0
 79
     0
146
0.0
170
     0
 61
     5
292
     1
282
     1
141
0.0
142
0.0
 63
   256
  0
ENDSEC
  0
SECTION
  2
OBJECTS
  0
DICTIONARY
  5
C
330
0
100
AcDbDictionary
281
     1
  3
ACAD_DETAILVIEWSTYLE
350
350
  3
ACAD_GROUP
350
D
  3
ACAD_LAYOUT
350
1A
  3
ACAD_MATERIAL
350
43
  3
ACAD_MLEADERSTYLE
350
34F
  3
ACAD_MLINESTYLE
350
17
  3
ACAD_PLOTSETTINGS
350
19
  3
ACAD_PLOTSTYLENAME
350
E
  3
ACAD_SCALELIST
350
47
  3
ACAD_SECTIONVIEWSTYLE
350
351
  3
ACAD_TABLESTYLE
350
34E
  3
ACAD_VISUALSTYLE
350
2A
  3
AcDbVariableDictionary
350
34C
  0
SUN
  5
69
330
29
100
AcDbSun
 90
        1
290
     0
 63
     7
421
 16777215
 40
1.0
291
     1
 91
  2455826
 92
 54000000
292
     0
 70
     2
 71
   256
280
     1
  0
DICTIONARY
  5
350
102
{ACAD_REACTORS
330
C
102
}
330
C
100
AcDbDictionary
281
     1
  0
DICTIONARY
  5
D
102
{ACAD_REACTORS
330
C
102
}
330
C
100
AcDbDictionary
281
     1
  0
DICTIONARY
  5
1A
102
{ACAD_REACTORS
330
C
102
}
330
C
100
AcDbDictionary
281
     1
  3
Layout1
350
1E
  3
Layout2
350
26
  3
Model
350
22
  0
DICTIONARY
  5
43
102
{ACAD_REACTORS
330
C
102
}
330
C
100
AcDbDictionary
281
     1
  3
ByBlock
350
45
  3
ByLayer
350
44
  3
Global
350
46
  0
DICTIONARY
  5
34F
102
{ACAD_REACTORS
330
C
102
}
330
C
100
AcDbDictionary
281
     1
  0
DICTIONARY
  5
17
102
{ACAD_REACTORS
330
C
102
}
330
C
100
AcDbDictionary
281
     1
  3
Standard
350
18
  0
DICTIONARY
  5
19
102
{ACAD_REACTORS
330
C
102
}
330
C
100
AcDbDictionary
281
     1
  0
ACDBDICTIONARYWDFLT
  5
E
102
{ACAD_REACTORS
330
C
102
}
330
C
100
AcDbDictionary
281
     1
  3
Normal
350
F
100
AcDbDictionaryWithDefault
340
F
  0
DICTIONARY
  5
47
102
{ACAD_REACTORS
330
C
102
}
330
C
100
AcDbDictionary
281
     1
  3
A0
350
48
  3
A1
350
49
  3
A2
350
4A
  3
A3
350
4B
  3
A4
350
4C
  3
A5
350
4D
  3
A6
350
4E
  3
A7
350
4F
  3
A8
350
50
  3
A9
350
51
  3
B0
350
52
  3
B1
350
53
  3
B2
350
54
  3
B3
350
55
  3
B4
350
56
  3
B5
350
57
  3
B6
350
58
  3
B7
350
59
  3
B8
350
5A
  3
B9
350
5B
  3
C0
350
5C
  3
C1
350
5D
  3
C2
350
5E
  3
C3
350
5F
  3
C4
350
60
  3
C5
350
61
  3
C6
350
62
  3
C7
350
63
  3
C8
350
64
  3
C9
350
65
  3
D0
350
66
  3
D1
350
67
  3
D2
350
68
  0
DICTIONARY
  5
351
102
{ACAD_REACTORS
330
C
102
}
330
C
100
AcDbDictionary
281
     1
  0
DICTIONARY
  5
34E
102
{ACAD_REACTORS
330
C
102
}
330
C
100
AcDbDictionary
281
     1
  0
DICTIONARY
  5
2A
102
{ACAD_REACTORS
330
C
102
}
330
C
100
AcDbDictionary
281
     1
  3
2dWireframe
350
2F
  3
Basic
350
32
  3
Brighten
350
36
  3
ColorChange
350
3A
  3
Conceptual
350
34
  3
Dim
350
35
  3
EdgeColorOff
350
3D
  3
Facepattern
350
39
  3
Flat
350
2B
  3
FlatWithEdges
350
2C
  3
Gouraud
350
2D
  3
GouraudWithEdges
350
2E
  3
Hidden
350
31
  3
JitterOff
350
3B
  3
Linepattern
350
38
  3
OverhangOff
350
3C
  3
Realistic
350
33
  3
Shaded
350
42
  3
Shaded with edges
350
41
  3
Shades of Gray
350
3E
  3
Sketchy
350
3F
  3
Thicken
350
37
  3
Wireframe
350
30
  3
X-Ray
350
40
  0
DICTIONARY
  5
34C
102
{ACAD_REACTORS
330
C
102
}
330
C
100
AcDbDictionary
281
     1
  3
CANNOSCALE
350
34D
  0
LAYOUT
  5
1E
102
{ACAD_REACTORS
330
1A
102
}
330
1A
100
AcDbPlotSettings
  1

  2
none_device
  4

  6

 40
0.0
 41
0.0
 42
0.0
 43
0.0
 44
0.0
 45
0.0
 46
0.0
 47
0.0
 48
0.0
 49
0.0
140
0.0
141
0.0
142
1.0
143
1.0
 70
   688
 72
     0
 73
     0
 74
     5
  7

 75
    16
 76
     0
 77
     2
 78
   300
147
1.0
148
0.0
149
0.0
100
AcDbLayout
  1
Layout1
 70
     1
 71
     1
 10
0.0
 20
0.0
 11
1189.0
 21
841.0
 12
0.0
 22
0.0
 32
0.0
 14
0.0
 24
0.0
 34
0.0
 15
1189.0
 25
841.0
 35
0.0
146
0.0
 13
0.0
 23
0.0
 33
0.0
 16
1.0
 26
0.0
 36
0.0
 17
0.0
 27
1.0
 37
0.0
 76
     0
330
1B
331
6A
  0
LAYOUT
  5
26
102
{ACAD_REACTORS
330
1A
102
}
330
1A
100
AcDbPlotSettings
  1

  2
none_device
  4

  6

 40
0.0
 41
0.0
 42
0.0
 43
0.0
 44
0.0
 45
0.0
 46
0.0
 47
0.0
 48
0.0
 49
0.0
140
0.0
141
0.0
142
1.0
143
1.0
 70
   688
 72
     0
 73
     0
 74
     5
  7

 75
    16
 76
     0
 77
     2
 78
   300
147
1.0
148
0.0
149
0.0
100
AcDbLayout
  1
Layout2
 70
     1
 71
     2
 10
0.0
 20
0.0
 11
0.0
 21
0.0
 12
0.0
 22
0.0
 32
0.0
 14
0.0
 24
0.0
 34
0.0
 15
0.0
 25
0.0
 35
0.0
146
0.0
 13
0.0
 23
0.0
 33
0.0
 16
1.0
 26
0.0
 36
0.0
 17
0.0
 27
1.0
 37
0.0
 76
     0
330
23
  0
LAYOUT
  5
22
102
{ACAD_REACTORS
330
1A
102
}
330
1A
100
AcDbPlotSettings
  1

  2
none_device
  4
Letter_(8.50_x_11.00_Inches)
  6

 40
6.35
 41
6.35
 42
6.35000508
 43
6.35000508
 44
215.9
 45
279.4
 46
0.0
 47
0.0
 48
0.0
 49
0.0
140
0.0
141
0.0
142
1.0
143
1.0
 70
  1712
 72
     0
 73
     0
 74
     0
  7

 75
     0
 76
     0
 77
     2
 78
   300
147
1.0
148
0.0
149
0.0
100
AcDbLayout
  1
Model
 70
     1
 71
     0
 10
0.0
 20
0.0
 11
1189.0
 21
841.0
 12
0.0
 22
0.0
 32
0.0
 14
205.0169462623079
 24
41.67630057803461
 34
0.0
 15
805.2993054292695
 25
300.2439208035362
 35
0.0
146
0.0
 13
0.0
 23
0.0
 33
0.0
 16
1.0
 26
0.0
 36
0.0
 17
0.0
 27
1.0
 37
0.0
 76
     0
330
1F
331
29
  0
MATERIAL
  5
45
102
{ACAD_REACTORS
330
43
102
}
330
43
100
AcDbMaterial
  1
ByBlock
 72
     1
 94
      127
  0
MATERIAL
  5
44
102
{ACAD_REACTORS
330
43
102
}
330
43
100
AcDbMaterial
  1
ByLayer
 72
     1
 94
      127
  0
MATERIAL
  5
46
102
{ACAD_REACTORS
330
43
102
}
330
43
100
AcDbMaterial
  1
Global
 72
     1
 94
      127
  0
MLINESTYLE
  5
18
102
{ACAD_REACTORS
330
17
102
}
330
17
100
AcDbMlineStyle
  2
Standard
 70
     0
  3

 62
   256
 51
90.0
 52
90.0
 71
     2
 49
0.5
 62
   256
  6
BYLAYER
 49
-0.5
 62
   256
  6
BYLAYER
  0
ACDBPLACEHOLDER
  5
F
102
{ACAD_REACTORS
330
E
102
}
330
E
  0
SCALE
  5
48
102
{ACAD_REACTORS
330
47
102
}
330
47
100
AcDbScale
 70
     0
300
1:1
140
1.0
141
1.0
290
     1
  0
SCALE
  5
49
102
{ACAD_REACTORS
330
47
102
}
330
47
100
AcDbScale
 70
     0
300
1:2
140
1.0
141
2.0
290
     0
  0
SCALE
  5
4A
102
{ACAD_REACTORS
330
47
102
}
330
47
100
AcDbScale
 70
     0
300
1:4
140
1.0
141
4.0
290
     0
  0
SCALE
  5
4B
102
{ACAD_REACTORS
330
47
102
}
330
47
100
AcDbScale
 70
     0
300
1:5
140
1.0
141
5.0
290
     0
  0
SCALE
  5
4C
102
{ACAD_REACTORS
330
47
102
}
330
47
100
AcDbScale
 70
     0
300
1:8
140
1.0
141
8.0
290
     0
  0
SCALE
  5
4D
102
{ACAD_REACTORS
330
47
102
}
330
47
100
AcDbScale
 70
     0
300
1:10
140
1.0
141
10.0
290
     0
  0
SCALE
  5
4E
102
{ACAD_REACTORS
330
47
102
}
330
47
100
AcDbScale
 70
     0
300
1:16
140
1.0
141
16.0
290
     0
  0
SCALE
  5
4F
102
{ACAD_REACTORS
330
47
102
}
330
47
100
AcDbScale
 70
     0
300
1:20
140
1.0
141
20.0
290
     0
  0
SCALE
  5
50
102
{ACAD_REACTORS
330
47
102
}
330
47
100
AcDbScale
 70
     0
300
1:30
140
1.0
141
30.0
290
     0
  0
SCALE
  5
51
102
{ACAD_REACTORS
330
47
102
}
330
47
100
AcDbScale
 70
     0
300
1:40
140
1.0
141
40.0
290
     0
  0
SCALE
  5
52
102
{ACAD_REACTORS
330
47
102
}
330
47
100
AcDbScale
 70
     0
300
1:50
140
1.0
141
50.0
290
     0
  0
SCALE
  5
53
102
{ACAD_REACTORS
330
47
102
}
330
47
100
AcDbScale
 70
     0
300
1:100
140
1.0
141
100.0
290
     0
  0
SCALE
  5
54
102
{ACAD_REACTORS
330
47
102
}
330
47
100
AcDbScale
 70
     0
300
2:1
140
2.0
141
1.0
290
     0
  0
SCALE
  5
55
102
{ACAD_REACTORS
330
47
102
}
330
47
100
AcDbScale
 70
     0
300
4:1
140
4.0
141
1.0
290
     0
  0
SCALE
  5
56
102
{ACAD_REACTORS
330
47
102
}
330
47
100
AcDbScale
 70
     0
300
8:1
140
8.0
141
1.0
290
     0
  0
SCALE
  5
57
102
{ACAD_REACTORS
330
47
102
}
330
47
100
AcDbScale
 70
     0
300
10:1
140
10.0
141
1.0
290
     0
  0
SCALE
  5
58
102
{ACAD_REACTORS
330
47
102
}
330
47
100
AcDbScale
 70
     0
300
100:1
140
100.0
141
1.0
290
     0
  0
SCALE
  5
59
102
{ACAD_REACTORS
330
47
102
}
330
47
100
AcDbScale
 70
     0
300
1/128" = 1'-0"
140
0.0078125
141
12.0
290
     0
  0
SCALE
  5
5A
102
{ACAD_REACTORS
330
47
102
}
330
47
100
AcDbScale
 70
     0
300
1/64" = 1'-0"
140
0.015625
141
12.0
290
     0
  0
SCALE
  5
5B
102
{ACAD_REACTORS
330
47
102
}
330
47
100
AcDbScale
 70
     0
300
1/32" = 1'-0"
140
0.03125
141
12.0
290
     0
  0
SCALE
  5
5C
102
{ACAD_REACTORS
330
47
102
}
330
47
100
AcDbScale
 70
     0
300
1/16" = 1'-0"
140
0.0625
141
12.0
290
     0
  0
SCALE
  5
5D
102
{ACAD_REACTORS
330
47
102
}
330
47
100
AcDbScale
 70
     0
300
3/32" = 1'-0"
140
0.09375
141
12.0
290
     0
  0
SCALE
  5
5E
102
{ACAD_REACTORS
330
47
102
}
330
47
100
AcDbScale
 70
     0
300
1/8" = 1'-0"
140
0.125
141
12.0
290
     0
  0
SCALE
  5
5F
102
{ACAD_REACTORS
330
47
102
}
330
47
100
AcDbScale
 70
     0
300
3/16" = 1'-0"
140
0.1875
141
12.0
290
     0
  0
SCALE
  5
60
102
{ACAD_REACTORS
330
47
102
}
330
47
100
AcDbScale
 70
     0
300
1/4" = 1'-0"
140
0.25
141
12.0
290
     0
  0
SCALE
  5
61
102
{ACAD_REACTORS
330
47
102
}
330
47
100
AcDbScale
 70
     0
300
3/8" = 1'-0"
140
0.375
141
12.0
290
     0
  0
SCALE
  5
62
102
{ACAD_REACTORS
330
47
102
}
330
47
100
AcDbScale
 70
     0
300
1/2" = 1'-0"
140
0.5
141
12.0
290
     0
  0
SCALE
  5
63
102
{ACAD_REACTORS
330
47
102
}
330
47
100
AcDbScale
 70
     0
300
3/4" = 1'-0"
140
0.75
141
12.0
290
     0
  0
SCALE
  5
64
102
{ACAD_REACTORS
330
47
102
}
330
47
100
AcDbScale
 70
     0
300
1" = 1'-0"
140
1.0
141
12.0
290
     0
  0
SCALE
  5
65
102
{ACAD_REACTORS
330
47
102
}
330
47
100
AcDbScale
 70
     0
300
1-1/2" = 1'-0"
140
1.5
141
12.0
290
     0
  0
SCALE
  5
66
102
{ACAD_REACTORS
330
47
102
}
330
47
100
AcDbScale
 70
     0
300
3" = 1'-0"
140
3.0
141
12.0
290
     0
  0
SCALE
  5
67
102
{ACAD_REACTORS
330
47
102
}
330
47
100
AcDbScale
 70
     0
300
6" = 1'-0"
140
6.0
141
12.0
290
     0
  0
SCALE
  5
68
102
{ACAD_REACTORS
330
47
102
}
330
47
100
AcDbScale
 70
     0
300
1'-0" = 1'-0"
140
12.0
141
12.0
290
     0
  0
VISUALSTYLE
  5
2F
102
{ACAD_REACTORS
330
2A
102
}
330
2A
100
AcDbVisualStyle
  2
2dWireframe
 70
     4
177
     3
291
     0
 70
    58
 90
        0
176
     1
 90
        2
176
     1
 90
        0
176
     1
 90
        0
176
     1
 40
0.6
176
     1
 40
30.0
176
     1
 62
     7
420
 16777215
176
     1
 90
        1
176
     1
 90
        4
176
     1
 62
     7
176
     1
 62
   257
176
     1
 90
        1
176
     1
 90
        1
176
     1
 40
1.0
176
     1
 90
        0
176
     1
 62
   257
176
     1
 40
1.0
176
     1
 90
        1
176
     1
 90
        6
176
     1
 90
        2
176
     1
 62
     7
176
     1
 90
        5
176
     1
 90
        0
176
     1
 90
        0
176
     1
290
     0
176
     1
 90
        1
176
     1
 40
0.0
176
     1
 90
        0
176
     1
290
     1
176
     1
290
     1
176
     1
290
     0
176
     1
290
     0
176
     1
290
     0
176
     1
290
     0
176
     1
290
     0
176
     1
290
     0
176
     1
290
     0
176
     1
 90
       50
176
     1
 40
0.0
176
     1
 40
1.0
176
     1
 90
        0
176
     1
 62
    18
420
        0
176
     1
 90
       50
176
     1
 90
        3
176
     1
 62
     5
420
      255
176
     1
290
     0
176
     1
 90
       50
176
     1
 90
       50
176
     1
 90
       50
176
     1
290
     0
176
     1
 90
       50
176
     1
 62
   256
176
     0
 40
1.0
176
     0
 90
        2
176
     1
  1
strokes_ogs.tif
176
     1
290
     0
176
     1
 40
1.0
176
     1
 40
1.0
176
     1
  0
VISUALSTYLE
  5
32
102
{ACAD_REACTORS
330
2A
102
}
330
2A
100
AcDbVisualStyle
  2
Basic
 70
     7
177
     3
291
     1
 70
    58
 90
        1
176
     1
 90
        0
176
     1
 90
        1
176
     1
 90
        0
176
     1
 40
0.6
176
     1
 40
30.0
176
     1
 62
     7
420
 16777215
176
     1
 90
        0
176
     1
 90
        4
176
     1
 62
     7
176
     1
 62
   257
176
     1
 90
        1
176
     1
 90
        1
176
     1
 40
1.0
176
     1
 90
        8
176
     1
 62
     7
176
     1
 40
1.0
176
     1
 90
        1
176
     1
 90
        6
176
     1
 90
        2
176
     1
 62
     7
176
     1
 90
        5
176
     1
 90
        0
176
     1
 90
        0
176
     1
290
     0
176
     1
 90
        1
176
     1
 40
0.0
176
     1
 90
        0
176
     1
290
     0
176
     1
290
     1
176
     1
290
     1
176
     1
290
     0
176
     1
290
     0
176
     1
290
     0
176
     1
290
     0
176
     1
290
     0
176
     1
290
     0
176
     1
 90
       50
176
     1
 40
0.0
176
     1
 40
1.0
176
     1
 90
        0
176
     1
 62
    18
420
        0
176
     1
 90
       50
176
     1
 90
        3
176
     1
 62
     5
420
      255
176
     1
290
     0
176
     1
 90
       50
176
     1
 90
       50
176
     1
 90
       50
176
     1
290
     0
176
     1
 90
       50
176
     1
 62
   256
176
     0
 40
1.0
176
     0
 90
        2
176
     1
  1
strokes_ogs.tif
176
     1
290
     0
176
     1
 40
1.0
176
     1
 40
1.0
176
     1
  0
VISUALSTYLE
  5
36
102
{ACAD_REACTORS
330
2A
102
}
330
2A
100
AcDbVisualStyle
  2
Brighten
 70
    12
177
     3
291
     1
 70
    58
 90
        2
176
     1
 90
        2
176
     1
 90
        0
176
     1
 90
        0
176
     1
 40
0.6
176
     1
 40
30.0
176
     1
 62
     7
420
 16777215
176
     1
 90
        1
176
     1
 90
        4
176
     1
 62
     7
176
     1
 62
   257
176
     1
 90
        1
176
     1
 90
        1
176
     1
 40
1.0
176
     1
 90
        8
176
     1
 62
     7
176
     1
 40
1.0
176
     1
 90
        1
176
     1
 90
        6
176
     1
 90
        2
176
     1
 62
     7
176
     1
 90
        5
176
     1
 90
        0
176
     1
 90
        0
176
     1
290
     0
176
     1
 90
        1
176
     1
 40
50.0
176
     1
 90
        0
176
     1
290
     0
176
     1
290
     1
176
     1
290
     1
176
     1
290
     0
176
     1
290
     0
176
     1
290
     0
176
     1
290
     0
176
     1
290
     0
176
     1
290
     0
176
     1
 90
       50
176
     1
 40
0.0
176
     1
 40
1.0
176
     1
 90
        0
176
     1
 62
    18
420
        0
176
     1
 90
       50
176
     1
 90
        3
176
     1
 62
     5
420
      255
176
     1
290
     0
176
     1
 90
       50
176
     1
 90
       50
176
     1
 90
       50
176
     1
290
     0
176
     1
 90
       50
176
     1
 62
   256
176
     0
 40
1.0
176
     0
 90
        2
176
     1
  1
strokes_ogs.tif
176
     1
290
     0
176
     1
 40
1.0
176
     1
 40
1.0
176
     1
  0
VISUALSTYLE
  5
3A
102
{ACAD_REACTORS
330
2A
102
}
330
2A
100
AcDbVisualStyle
  2
ColorChange
 70
    16
177
     3
291
     1
 70
    58
 90
        2
176
     1
 90
        2
176
     1
 90
        3
176
     1
 90
        0
176
     1
 40
0.6
176
     1
 40
30.0
176
     1
 62
     8
420
  8421504
176
     1
 90
        1
176
     1
 90
        4
176
     1
 62
     7
176
     1
 62
   257
176
     1
 90
        1
176
     1
 90
        1
176
     1
 40
1.0
176
     1
 90
        8
176
     1
 62
     8
420
  8421504
176
     1
 40
1.0
176
     1
 90
        1
176
     1
 90
        6
176
     1
 90
        2
176
     1
 62
     7
176
     1
 90
        5
176
     1
 90
        0
176
     1
 90
        0
176
     1
290
     0
176
     1
 90
        1
176
     1
 40
0.0
176
     1
 90
        0
176
     1
290
     0
176
     1
290
     1
176
     1
290
     1
176
     1
290
     0
176
     1
290
     0
176
     1
290
     0
176
     1
290
     0
176
     1
290
     0
176
     1
290
     0
176
     1
 90
       50
176
     1
 40
0.0
176
     1
 40
1.0
176
     1
 90
        0
176
     1
 62
    18
420
        0
176
     1
 90
       50
176
     1
 90
        3
176
     1
 62
     5
420
      255
176
     1
290
     0
176
     1
 90
       50
176
     1
 90
       50
176
     1
 90
       50
176
     1
290
     0
176
     1
 90
       50
176
     1
 62
   256
176
     0
 40
1.0
176
     0
 90
        2
176
     1
  1
strokes_ogs.tif
176
     1
290
     0
176
     1
 40
1.0
176
     1
 40
1.0
176
     1
  0
VISUALSTYLE
  5
34
102
{ACAD_REACTORS
330
2A
102
}
330
2A
100
AcDbVisualStyle
  2
Conceptual
 70
     9
177
     3
291
     0
 70
    58
 90
        3
176
     1
 90
        2
176
     1
 90
        0
176
     1
 90
        0
176
     1
 40
0.6
176
     1
 40
30.0
176
     1
 62
     7
420
 16777215
176
     1
 90
        2
176
     1
 90
        2
176
     1
 62
     7
176
     1
 62
   257
176
     1
 90
        1
176
     1
 90
        1
176
     1
 40
179.0
176
     1
 90
        8
176
     1
 62
     7
176
     1
 40
1.0
176
     1
 90
        1
176
     1
 90
        6
176
     1
 90
        2
176
     1
 62
     7
176
     1
 90
        3
176
     1
 90
        0
176
     1
 90
        0
176
     1
290
     0
176
     1
 90
        1
176
     1
 40
0.0
176
     1
 90
        0
176
     1
290
     0
176
     1
290
     1
176
     1
290
     1
176
     1
290
     0
176
     1
290
     0
176
     1
290
     0
176
     1
290
     0
176
     1
290
     0
176
     1
290
     0
176
     1
 90
       50
176
     1
 40
0.0
176
     1
 40
1.0
176
     1
 90
        0
176
     1
 62
    18
420
        0
176
     1
 90
       50
176
     1
 90
        3
176
     1
 62
     5
420
      255
176
     1
290
     0
176
     1
 90
       50
176
     1
 90
       50
176
     1
 90
       50
176
     1
290
     0
176
     1
 90
       50
176
     1
 62
   256
176
     0
 40
1.0
176
     0
 90
        2
176
     1
  1
strokes_ogs.tif
176
     1
290
     0
176
     1
 40
1.0
176
     1
 40
1.0
176
     1
  0
VISUALSTYLE
  5
35
102
{ACAD_REACTORS
330
2A
102
}
330
2A
100
AcDbVisualStyle
  2
Dim
 70
    11
177
     3
291
     1
 70
    58
 90
        2
176
     1
 90
        2
176
     1
 90
        0
176
     1
 90
        0
176
     1
 40
0.6
176
     1
 40
30.0
176
     1
 62
     7
420
 16777215
176
     1
 90
        1
176
     1
 90
        4
176
     1
 62
     7
176
     1
 62
   257
176
     1
 90
        1
176
     1
 90
        1
176
     1
 40
1.0
176
     1
 90
        8
176
     1
 62
     7
176
     1
 40
1.0
176
     1
 90
        1
176
     1
 90
        6
176
     1
 90
        2
176
     1
 62
     7
176
     1
 90
        5
176
     1
 90
        0
176
     1
 90
        0
176
     1
290
     0
176
     1
 90
        1
176
     1
 40
-50.0
176
     1
 90
        0
176
     1
290
     0
176
     1
290
     1
176
     1
290
     1
176
     1
290
     0
176
     1
290
     0
176
     1
290
     0
176
     1
290
     0
176
     1
290
     0
176
     1
290
     0
176
     1
 90
       50
176
     1
 40
0.0
176
     1
 40
1.0
176
     1
 90
        0
176
     1
 62
    18
420
        0
176
     1
 90
       50
176
     1
 90
        3
176
     1
 62
     5
420
      255
176
     1
290
     0
176
     1
 90
       50
176
     1
 90
       50
176
     1
 90
       50
176
     1
290
     0
176
     1
 90
       50
176
     1
 62
   256
176
     0
 40
1.0
176
     0
 90
        2
176
     1
  1
strokes_ogs.tif
176
     1
290
     0
176
     1
 40
1.0
176
     1
 40
1.0
176
     1
  0
VISUALSTYLE
  5
3D
102
{ACAD_REACTORS
330
2A
102
}
330
2A
100
AcDbVisualStyle
  2
EdgeColorOff
 70
    22
177
     3
291
     1
 70
    58
 90
        2
176
     0
 90
        2
176
     0
 90
        0
176
     0
 90
        0
176
     0
 40
0.6
176
     0
 40
30.0
176
     0
 62
     7
420
 16777215
176
     0
 90
        1
176
     0
 90
        4
176
     0
 62
     7
176
     0
 62
   257
176
     0
 90
        1
176
     0
 90
        1
176
     0
 40
1.0
176
     0
 90
        8
176
     2
 62
     7
176
     0
 40
1.0
176
     0
 90
        1
176
     0
 90
        6
176
     0
 90
        2
176
     0
 62
     7
176
     0
 90
        5
176
     0
 90
        0
176
     0
 90
        0
176
     0
290
     0
176
     0
 90
        1
176
     0
 40
0.0
176
     0
 90
        0
176
     0
290
     0
176
     0
290
     1
176
     0
290
     1
176
     0
290
     0
176
     0
290
     0
176
     0
290
     0
176
     0
290
     0
176
     0
290
     0
176
     0
290
     0
176
     0
 90
       50
176
     0
 40
0.0
176
     0
 40
1.0
176
     0
 90
        0
176
     0
 62
    18
420
        0
176
     0
 90
       50
176
     0
 90
        3
176
     0
 62
     5
420
      255
176
     0
290
     0
176
     0
 90
       50
176
     0
 90
       50
176
     0
 90
       50
176
     0
290
     0
176
     0
 90
       50
176
     0
 62
   256
176
     0
 40
1.0
176
     0
 90
        2
176
     0
  1
strokes_ogs.tif
176
     0
290
     0
176
     0
 40
1.0
176
     0
 40
1.0
176
     0
  0
VISUALSTYLE
  5
39
102
{ACAD_REACTORS
330
2A
102
}
330
2A
100
AcDbVisualStyle
  2
Facepattern
 70
    15
177
     3
291
     1
 70
    58
 90
        2
176
     1
 90
        2
176
     1
 90
        0
176
     1
 90
        0
176
     1
 40
0.6
176
     1
 40
30.0
176
     1
 62
     7
420
 16777215
176
     1
 90
        1
176
     1
 90
        4
176
     1
 62
     7
176
     1
 62
   257
176
     1
 90
        1
176
     1
 90
        1
176
     1
 40
1.0
176
     1
 90
        8
176
     1
 62
     7
176
     1
 40
1.0
176
     1
 90
        1
176
     1
 90
        6
176
     1
 90
        2
176
     1
 62
     7
176
     1
 90
        5
176
     1
 90
        0
176
     1
 90
        0
176
     1
290
     0
176
     1
 90
        1
176
     1
 40
0.0
176
     1
 90
        0
176
     1
290
     0
176
     1
290
     1
176
     1
290
     1
176
     1
290
     0
176
     1
290
     0
176
     1
290
     0
176
     1
290
     0
176
     1
290
     0
176
     1
290
     0
176
     1
 90
       50
176
     1
 40
0.0
176
     1
 40
1.0
176
     1
 90
        0
176
     1
 62
    18
420
        0
176
     1
 90
       50
176
     1
 90
        3
176
     1
 62
     5
420
      255
176
     1
290
     0
176
     1
 90
       50
176
     1
 90
       50
176
     1
 90
       50
176
     1
290
     0
176
     1
 90
       50
176
     1
 62
   256
176
     0
 40
1.0
176
     0
 90
        2
176
     1
  1
strokes_ogs.tif
176
     1
290
     0
176
     1
 40
1.0
176
     1
 40
1.0
176
     1
  0
VISUALSTYLE
  5
2B
102
{ACAD_REACTORS
330
2A
102
}
330
2A
100
AcDbVisualStyle
  2
Flat
 70
     0
177
     3
291
     1
 70
    58
 90
        2
176
     1
 90
        1
176
     1
 90
        1
176
     1
 90
        2
176
     1
 40
0.6
176
     1
 40
30.0
176
     1
 62
     7
420
 16777215
176
     1
 90
        0
176
     1
 90
        0
176
     1
 62
     7
176
     1
 62
   257
176
     1
 90
        1
176
     1
 90
        1
176
     1
 40
1.0
176
     1
 90
        8
176
     1
 62
     7
176
     1
 40
1.0
176
     1
 90
        1
176
     1
 90
        6
176
     1
 90
        2
176
     1
 62
     7
176
     1
 90
        5
176
     1
 90
        0
176
     1
 90
        0
176
     1
290
     0
176
     1
 90
       13
176
     1
 40
0.0
176
     1
 90
        0
176
     1
290
     0
176
     1
290
     1
176
     1
290
     1
176
     1
290
     0
176
     1
290
     0
176
     1
290
     0
176
     1
290
     0
176
     1
290
     0
176
     1
290
     0
176
     1
 90
       50
176
     1
 40
0.0
176
     1
 40
1.0
176
     1
 90
        0
176
     1
 62
    18
420
        0
176
     1
 90
       50
176
     1
 90
        3
176
     1
 62
     5
420
      255
176
     1
290
     0
176
     1
 90
       50
176
     1
 90
       50
176
     1
 90
       50
176
     1
290
     0
176
     1
 90
       50
176
     1
 62
   256
176
     0
 40
1.0
176
     0
 90
        2
176
     1
  1
strokes_ogs.tif
176
     1
290
     0
176
     1
 40
1.0
176
     1
 40
1.0
176
     1
  0
VISUALSTYLE
  5
2C
102
{ACAD_REACTORS
330
2A
102
}
330
2A
100
AcDbVisualStyle
  2
FlatWithEdges
 70
     1
177
     3
291
     1
 70
    58
 90
        2
176
     1
 90
        1
176
     1
 90
        1
176
     1
 90
        2
176
     1
 40
0.6
176
     1
 40
30.0
176
     1
 62
     7
420
 16777215
176
     1
 90
        1
176
     1
 90
        0
176
     1
 62
     7
176
     1
 62
   257
176
     1
 90
        1
176
     1
 90
        1
176
     1
 40
1.0
176
     1
 90
        0
176
     1
 62
   257
176
     1
 40
1.0
176
     1
 90
        1
176
     1
 90
        6
176
     1
 90
        2
176
     1
 62
     7
176
     1
 90
        5
176
     1
 90
        0
176
     1
 90
        0
176
     1
290
     0
176
     1
 90
       13
176
     1
 40
0.0
176
     1
 90
        0
176
     1
290
     0
176
     1
290
     1
176
     1
290
     1
176
     1
290
     0
176
     1
290
     0
176
     1
290
     0
176
     1
290
     0
176
     1
290
     0
176
     1
290
     0
176
     1
 90
       50
176
     1
 40
0.0
176
     1
 40
1.0
176
     1
 90
        0
176
     1
 62
    18
420
        0
176
     1
 90
       50
176
     1
 90
        3
176
     1
 62
     5
420
      255
176
     1
290
     0
176
     1
 90
       50
176
     1
 90
       50
176
     1
 90
       50
176
     1
290
     0
176
     1
 90
       50
176
     1
 62
   256
176
     0
 40
1.0
176
     0
 90
        2
176
     1
  1
strokes_ogs.tif
176
     1
290
     0
176
     1
 40
1.0
176
     1
 40
1.0
176
     1
  0
VISUALSTYLE
  5
2D
102
{ACAD_REACTORS
330
2A
102
}
330
2A
100
AcDbVisualStyle
  2
Gouraud
 70
     2
177
     3
291
     1
 70
    58
 90
        2
176
     1
 90
        2
176
     1
 90
        1
176
     1
 90
        2
176
     1
 40
0.6
176
     1
 40
30.0
176
     1
 62
     7
420
 16777215
176
     1
 90
        0
176
     1
 90
        0
176
     1
 62
     7
176
     1
 62
   257
176
     1
 90
        1
176
     1
 90
        1
176
     1
 40
1.0
176
     1
 90
        0
176
     1
 62
     7
176
     1
 40
1.0
176
     1
 90
        1
176
     1
 90
        6
176
     1
 90
        2
176
     1
 62
     7
176
     1
 90
        5
176
     1
 90
        0
176
     1
 90
        0
176
     1
290
     0
176
     1
 90
       13
176
     1
 40
0.0
176
     1
 90
        0
176
     1
290
     0
176
     1
290
     1
176
     1
290
     1
176
     1
290
     0
176
     1
290
     0
176
     1
290
     0
176
     1
290
     0
176
     1
290
     0
176
     1
290
     0
176
     1
 90
       50
176
     1
 40
0.0
176
     1
 40
1.0
176
     1
 90
        0
176
     1
 62
    18
420
        0
176
     1
 90
       50
176
     1
 90
        3
176
     1
 62
     5
420
      255
176
     1
290
     0
176
     1
 90
       50
176
     1
 90
       50
176
     1
 90
       50
176
     1
290
     0
176
     1
 90
       50
176
     1
 62
   256
176
     0
 40
1.0
176
     0
 90
        2
176
     1
  1
strokes_ogs.tif
176
     1
290
     0
176
     1
 40
1.0
176
     1
 40
1.0
176
     1
  0
VISUALSTYLE
  5
2E
102
{ACAD_REACTORS
330
2A
102
}
330
2A
100
AcDbVisualStyle
  2
GouraudWithEdges
 70
     3
177
     3
291
     1
 70
    58
 90
        2
176
     1
 90
        2
176
     1
 90
        1
176
     1
 90
        2
176
     1
 40
0.6
176
     1
 40
30.0
176
     1
 62
     7
420
 16777215
176
     1
 90
        1
176
     1
 90
        0
176
     1
 62
     7
176
     1
 62
   257
176
     1
 90
        1
176
     1
 90
        1
176
     1
 40
1.0
176
     1
 90
        0
176
     1
 62
   257
176
     1
 40
1.0
176
     1
 90
        1
176
     1
 90
        6
176
     1
 90
        2
176
     1
 62
     7
176
     1
 90
        5
176
     1
 90
        0
176
     1
 90
        0
176
     1
290
     0
176
     1
 90
       13
176
     1
 40
0.0
176
     1
 90
        0
176
     1
290
     0
176
     1
290
     1
176
     1
290
     1
176
     1
290
     0
176
     1
290
     0
176
     1
290
     0
176
     1
290
     0
176
     1
290
     0
176
     1
290
     0
176
     1
 90
       50
176
     1
 40
0.0
176
     1
 40
1.0
176
     1
 90
        0
176
     1
 62
    18
420
        0
176
     1
 90
       50
176
     1
 90
        3
176
     1
 62
     5
420
      255
176
     1
290
     0
176
     1
 90
       50
176
     1
 90
       50
176
     1
 90
       50
176
     1
290
     0
176
     1
 90
       50
176
     1
 62
   256
176
     0
 40
1.0
176
     0
 90
        2
176
     1
  1
strokes_ogs.tif
176
     1
290
     0
176
     1
 40
1.0
176
     1
 40
1.0
176
     1
  0
VISUALSTYLE
  5
31
102
{ACAD_REACTORS
330
2A
102
}
330
2A
100
AcDbVisualStyle
  2
Hidden
 70
     6
177
     3
291
     0
 70
    58
 90
        1
176
     1
 90
        2
176
     1
 90
        2
176
     1
 90
        0
176
     1
 40
0.6
176
     1
 40
30.0
176
     1
 62
     7
420
 16777215
176
     1
 90
        2
176
     1
 90
        2
176
     1
 62
     7
176
     1
 62
   257
176
     1
 90
        2
176
     1
 90
        1
176
     1
 40
40.0
176
     1
 90
        0
176
     1
 62
   257
176
     1
 40
1.0
176
     1
 90
        1
176
     1
 90
        6
176
     1
 90
        2
176
     1
 62
     7
176
     1
 90
        3
176
     1
 90
        0
176
     1
 90
        0
176
     1
290
     0
176
     1
 90
        1
176
     1
 40
0.0
176
     1
 90
        0
176
     1
290
     0
176
     1
290
     1
176
     1
290
     1
176
     1
290
     0
176
     1
290
     0
176
     1
290
     0
176
     1
290
     0
176
     1
290
     0
176
     1
290
     0
176
     1
 90
       50
176
     1
 40
0.0
176
     1
 40
1.0
176
     1
 90
        0
176
     1
 62
    18
420
        0
176
     1
 90
       50
176
     1
 90
        3
176
     1
 62
     5
420
      255
176
     1
290
     0
176
     1
 90
       50
176
     1
 90
       50
176
     1
 90
       50
176
     1
290
     0
176
     1
 90
       50
176
     1
 62
   256
176
     0
 40
1.0
176
     0
 90
        2
176
     1
  1
strokes_ogs.tif
176
     1
290
     0
176
     1
 40
1.0
176
     1
 40
1.0
176
     1
  0
VISUALSTYLE
  5
3B
102
{ACAD_REACTORS
330
2A
102
}
330
2A
100
AcDbVisualStyle
  2
JitterOff
 70
    20
177
     3
291
     1
 70
    58
 90
        2
176
     0
 90
        2
176
     0
 90
        0
176
     0
 90
        0
176
     0
 40
0.6
176
     0
 40
30.0
176
     0
 62
     7
420
 16777215
176
     0
 90
        1
176
     0
 90
        4
176
     0
 62
     7
176
     0
 62
   257
176
     0
 90
        1
176
     0
 90
        1
176
     0
 40
1.0
176
     0
 90
       10
176
     2
 62
     7
176
     0
 40
1.0
176
     0
 90
        1
176
     0
 90
        6
176
     0
 90
        2
176
     0
 62
     7
176
     0
 90
        5
176
     0
 90
        0
176
     0
 90
        0
176
     0
290
     0
176
     0
 90
        1
176
     0
 40
0.0
176
     0
 90
        0
176
     0
290
     0
176
     0
290
     1
176
     0
290
     1
176
     0
290
     0
176
     0
290
     0
176
     0
290
     0
176
     0
290
     0
176
     0
290
     0
176
     0
290
     0
176
     0
 90
       50
176
     0
 40
0.0
176
     0
 40
1.0
176
     0
 90
        0
176
     0
 62
    18
420
        0
176
     0
 90
       50
176
     0
 90
        3
176
     0
 62
     5
420
      255
176
     0
290
     0
176
     0
 90
       50
176
     0
 90
       50
176
     0
 90
       50
176
     0
290
     0
176
     0
 90
       50
176
     0
 62
   256
176
     0
 40
1.0
176
     0
 90
        2
176
     0
  1
strokes_ogs.tif
176
     0
290
     0
176
     0
 40
1.0
176
     0
 40
1.0
176
     0
  0
VISUALSTYLE
  5
38
102
{ACAD_REACTORS
330
2A
102
}
330
2A
100
AcDbVisualStyle
  2
Linepattern
 70
    14
177
     3
291
     1
 70
    58
 90
        2
176
     1
 90
        2
176
     1
 90
        0
176
     1
 90
        0
176
     1
 40
0.6
176
     1
 40
30.0
176
     1
 62
     7
420
 16777215
176
     1
 90
        1
176
     1
 90
        4
176
     1
 62
     7
176
     1
 62
   257
176
     1
 90
        7
176
     1
 90
        7
176
     1
 40
1.0
176
     1
 90
        8
176
     1
 62
     7
176
     1
 40
1.0
176
     1
 90
        1
176
     1
 90
        6
176
     1
 90
        2
176
     1
 62
     7
176
     1
 90
        5
176
     1
 90
        0
176
     1
 90
        0
176
     1
290
     0
176
     1
 90
        1
176
     1
 40
0.0
176
     1
 90
        0
176
     1
290
     0
176
     1
290
     1
176
     1
290
     1
176
     1
290
     0
176
     1
290
     0
176
     1
290
     0
176
     1
290
     0
176
     1
290
     0
176
     1
290
     0
176
     1
 90
       50
176
     1
 40
0.0
176
     1
 40
1.0
176
     1
 90
        0
176
     1
 62
    18
420
        0
176
     1
 90
       50
176
     1
 90
        3
176
     1
 62
     5
420
      255
176
     1
290
     0
176
     1
 90
       50
176
     1
 90
       50
176
     1
 90
       50
176
     1
290
     0
176
     1
 90
       50
176
     1
 62
   256
176
     0
 40
1.0
176
     0
 90
        2
176
     1
  1
strokes_ogs.tif
176
     1
290
     0
176
     1
 40
1.0
176
     1
 40
1.0
176
     1
  0
VISUALSTYLE
  5
3C
102
{ACAD_REACTORS
330
2A
102
}
330
2A
100
AcDbVisualStyle
  2
OverhangOff
 70
    21
177
     3
291
     1
 70
    58
 90
        2
176
     0
 90
        2
176
     0
 90
        0
176
     0
 90
        0
176
     0
 40
0.6
176
     0
 40
30.0
176
     0
 62
     7
420
 16777215
176
     0
 90
        1
176
     0
 90
        4
176
     0
 62
     7
176
     0
 62
   257
176
     0
 90
        1
176
     0
 90
        1
176
     0
 40
1.0
176
     0
 90
        9
176
     2
 62
     7
176
     0
 40
1.0
176
     0
 90
        1
176
     0
 90
        6
176
     0
 90
        2
176
     0
 62
     7
176
     0
 90
        5
176
     0
 90
        0
176
     0
 90
        0
176
     0
290
     0
176
     0
 90
        1
176
     0
 40
0.0
176
     0
 90
        0
176
     0
290
     0
176
     0
290
     1
176
     0
290
     1
176
     0
290
     0
176
     0
290
     0
176
     0
290
     0
176
     0
290
     0
176
     0
290
     0
176
     0
290
     0
176
     0
 90
       50
176
     0
 40
0.0
176
     0
 40
1.0
176
     0
 90
        0
176
     0
 62
    18
420
        0
176
     0
 90
       50
176
     0
 90
        3
176
     0
 62
     5
420
      255
176
     0
290
     0
176
     0
 90
       50
176
     0
 90
       50
176
     0
 90
       50
176
     0
290
     0
176
     0
 90
       50
176
     0
 62
   256
176
     0
 40
1.0
176
     0
 90
        2
176
     0
  1
strokes_ogs.tif
176
     0
290
     0
176
     0
 40
1.0
176
     0
 40
1.0
176
     0
  0
VISUALSTYLE
  5
33
102
{ACAD_REACTORS
330
2A
102
}
330
2A
100
AcDbVisualStyle
  2
Realistic
 70
     8
177
     3
291
     0
 70
    58
 90
        2
176
     1
 90
        3
176
     1
 90
        0
176
     1
 90
        2
176
     1
 40
0.6
176
     1
 40
30.0
176
     1
 62
     7
420
 16777215
176
     1
 90
        0
176
     1
 90
        0
176
     1
 62
     7
176
     1
 62
   257
176
     1
 90
        1
176
     1
 90
        1
176
     1
 40
1.0
176
     1
 90
        8
176
     1
 62
   257
176
     1
 40
1.0
176
     1
 90
        1
176
     1
 90
        6
176
     1
 90
        2
176
     1
 62
     7
176
     1
 90
        3
176
     1
 90
        0
176
     1
 90
        0
176
     1
290
     0
176
     1
 90
       13
176
     1
 40
0.0
176
     1
 90
        0
176
     1
290
     0
176
     1
290
     1
176
     1
290
     1
176
     1
290
     0
176
     1
290
     0
176
     1
290
     0
176
     1
290
     0
176
     1
290
     0
176
     1
290
     0
176
     1
 90
       50
176
     1
 40
0.0
176
     1
 40
1.0
176
     1
 90
        0
176
     1
 62
    18
420
        0
176
     1
 90
       50
176
     1
 90
        3
176
     1
 62
     5
420
      255
176
     1
290
     0
176
     1
 90
       50
176
     1
 90
       50
176
     1
 90
       50
176
     1
290
     0
176
     1
 90
       50
176
     1
 62
   256
176
     0
 40
1.0
176
     0
 90
        2
176
     1
  1
strokes_ogs.tif
176
     1
290
     0
176
     1
 40
1.0
176
     1
 40
1.0
176
     1
  0
VISUALSTYLE
  5
42
102
{ACAD_REACTORS
330
2A
102
}
330
2A
100
AcDbVisualStyle
  2
Shaded
 70
    27
177
     3
291
     0
 70
    58
 90
        2
176
     1
 90
        2
176
     1
 90
        1
176
     1
 90
        2
176
     1
 40
0.6
176
     1
 40
30.0
176
     1
 62
     7
420
 16777215
176
     1
 90
        0
176
     1
 90
        4
176
     1
 62
     7
176
     1
 62
   257
176
     1
 90
        1
176
     1
 90
        1
176
     1
 40
1.0
176
     1
 90
        8
176
     1
 62
   257
176
     1
 40
1.0
176
     1
 90
        1
176
     1
 90
        6
176
     1
 90
        2
176
     1
 62
     8
420
  7895160
176
     1
 90
        3
176
     1
 90
        0
176
     1
 90
        0
176
     1
290
     0
176
     1
 90
        5
176
     1
 40
0.0
176
     1
 90
        0
176
     1
290
     0
176
     1
290
     1
176
     1
290
     1
176
     1
290
     0
176
     1
290
     0
176
     1
290
     0
176
     1
290
     0
176
     1
290
     0
176
     1
290
     0
176
     1
 90
       50
176
     1
 40
0.0
176
     1
 40
1.0
176
     1
 90
        0
176
     1
 62
    18
420
        0
176
     1
 90
       50
176
     1
 90
        3
176
     1
 62
     5
420
      255
176
     1
290
     0
176
     1
 90
       50
176
     1
 90
       50
176
     1
 90
       50
176
     1
290
     0
176
     1
 90
       50
176
     1
 62
   256
176
     0
 40
1.0
176
     0
 90
        2
176
     1
  1
strokes_ogs.tif
176
     1
290
     0
176
     1
 40
1.0
176
     1
 40
1.0
176
     1
  0
VISUALSTYLE
  5
41
102
{ACAD_REACTORS
330
2A
102
}
330
2A
100
AcDbVisualStyle
  2
Shaded with edges
 70
    26
177
     3
291
     0
 70
    58
 90
        2
176
     1
 90
        2
176
     1
 90
        1
176
     1
 90
        2
176
     1
 40
0.6
176
     1
 40
30.0
176
     1
 62
     7
420
 16777215
176
     1
 90
        1
176
     1
 90
       10
176
     1
 62
     7
176
     1
 62
   257
176
     1
 90
        2
176
     1
 90
        1
176
     1
 40
1.0
176
     1
 90
        8
176
     1
 62
   257
176
     1
 40
1.0
176
     1
 90
        1
176
     1
 90
        6
176
     1
 90
        2
176
     1
 62
     7
176
     1
 90
        3
176
     1
 90
        0
176
     1
 90
        0
176
     1
290
     0
176
     1
 90
        5
176
     1
 40
0.0
176
     1
 90
        0
176
     1
290
     0
176
     1
290
     1
176
     1
290
     1
176
     1
290
     0
176
     1
290
     0
176
     1
290
     0
176
     1
290
     0
176
     1
290
     0
176
     1
290
     0
176
     1
 90
       50
176
     1
 40
0.0
176
     1
 40
1.0
176
     1
 90
        0
176
     1
 62
    18
420
        0
176
     1
 90
       50
176
     1
 90
        3
176
     1
 62
     5
420
      255
176
     1
290
     0
176
     1
 90
       50
176
     1
 90
       50
176
     1
 90
       50
176
     1
290
     0
176
     1
 90
       50
176
     1
 62
   256
176
     0
 40
1.0
176
     0
 90
        2
176
     1
  1
strokes_ogs.tif
176
     1
290
     0
176
     1
 40
1.0
176
     1
 40
1.0
176
     1
  0
VISUALSTYLE
  5
3E
102
{ACAD_REACTORS
330
2A
102
}
330
2A
100
AcDbVisualStyle
  2
Shades of Gray
 70
    23
177
     3
291
     0
 70
    58
 90
        2
176
     1
 90
        2
176
     1
 90
        3
176
     1
 90
        0
176
     1
 40
0.6
176
     1
 40
30.0
176
     1
 62
     7
420
 16777215
176
     1
 90
        2
176
     1
 90
        2
176
     1
 62
     7
176
     1
 62
     7
176
     1
 90
        1
176
     1
 90
        1
176
     1
 40
40.0
176
     1
 90
        8
176
     1
 62
     7
176
     1
 40
1.0
176
     1
 90
        1
176
     1
 90
        6
176
     1
 90
        2
176
     1
 62
     7
176
     1
 90
        3
176
     1
 90
        0
176
     1
 90
        0
176
     1
290
     0
176
     1
 90
        1
176
     1
 40
0.0
176
     1
 90
        0
176
     1
290
     0
176
     1
290
     1
176
     1
290
     1
176
     1
290
     0
176
     1
290
     0
176
     1
290
     0
176
     1
290
     0
176
     1
290
     0
176
     1
290
     0
176
     1
 90
       50
176
     1
 40
0.0
176
     1
 40
1.0
176
     1
 90
        0
176
     1
 62
    18
420
        0
176
     1
 90
       50
176
     1
 90
        3
176
     1
 62
     5
420
      255
176
     1
290
     0
176
     1
 90
       50
176
     1
 90
       50
176
     1
 90
       50
176
     1
290
     0
176
     1
 90
       50
176
     1
 62
   256
176
     0
 40
1.0
176
     0
 90
        2
176
     1
  1
strokes_ogs.tif
176
     1
290
     0
176
     1
 40
1.0
176
     1
 40
1.0
176
     1
  0
VISUALSTYLE
  5
3F
102
{ACAD_REACTORS
330
2A
102
}
330
2A
100
AcDbVisualStyle
  2
Sketchy
 70
    24
177
     3
291
     0
 70
    58
 90
        1
176
     1
 90
        2
176
     1
 90
        2
176
     1
 90
        0
176
     1
 40
0.6
176
     1
 40
30.0
176
     1
 62
     7
420
 16777215
176
     1
 90
        2
176
     1
 90
        2
176
     1
 62
     7
176
     1
 62
     7
176
     1
 90
        1
176
     1
 90
        1
176
     1
 40
40.0
176
     1
 90
       11
176
     1
 62
     7
176
     1
 40
1.0
176
     1
 90
        1
176
     1
 90
        6
176
     1
 90
        2
176
     1
 62
     7
176
     1
 90
        6
176
     1
 90
        0
176
     1
 90
        0
176
     1
290
     0
176
     1
 90
        1
176
     1
 40
0.0
176
     1
 90
        0
176
     1
290
     0
176
     1
290
     1
176
     1
290
     1
176
     1
290
     0
176
     1
290
     0
176
     1
290
     0
176
     1
290
     0
176
     1
290
     0
176
     1
290
     0
176
     1
 90
       50
176
     1
 40
0.0
176
     1
 40
1.0
176
     1
 90
        0
176
     1
 62
    18
420
        0
176
     1
 90
       50
176
     1
 90
        3
176
     1
 62
     5
420
      255
176
     1
290
     0
176
     1
 90
       50
176
     1
 90
       50
176
     1
 90
       50
176
     1
290
     0
176
     1
 90
       50
176
     1
 62
   256
176
     0
 40
1.0
176
     0
 90
        2
176
     1
  1
strokes_ogs.tif
176
     1
290
     0
176
     1
 40
1.0
176
     1
 40
1.0
176
     1
  0
VISUALSTYLE
  5
37
102
{ACAD_REACTORS
330
2A
102
}
330
2A
100
AcDbVisualStyle
  2
Thicken
 70
    13
177
     3
291
     1
 70
    58
 90
        2
176
     1
 90
        2
176
     1
 90
        0
176
     1
 90
        0
176
     1
 40
0.6
176
     1
 40
30.0
176
     1
 62
     7
420
 16777215
176
     1
 90
        1
176
     1
 90
        4
176
     1
 62
     7
176
     1
 62
   257
176
     1
 90
        1
176
     1
 90
        1
176
     1
 40
1.0
176
     1
 90
       12
176
     1
 62
     7
176
     1
 40
1.0
176
     1
 90
        1
176
     1
 90
        6
176
     1
 90
        2
176
     1
 62
     7
176
     1
 90
        5
176
     1
 90
        0
176
     1
 90
        0
176
     1
290
     0
176
     1
 90
        1
176
     1
 40
0.0
176
     1
 90
        0
176
     1
290
     0
176
     1
290
     1
176
     1
290
     1
176
     1
290
     0
176
     1
290
     0
176
     1
290
     0
176
     1
290
     0
176
     1
290
     0
176
     1
290
     0
176
     1
 90
       50
176
     1
 40
0.0
176
     1
 40
1.0
176
     1
 90
        0
176
     1
 62
    18
420
        0
176
     1
 90
       50
176
     1
 90
        3
176
     1
 62
     5
420
      255
176
     1
290
     0
176
     1
 90
       50
176
     1
 90
       50
176
     1
 90
       50
176
     1
290
     0
176
     1
 90
       50
176
     1
 62
   256
176
     0
 40
1.0
176
     0
 90
        2
176
     1
  1
strokes_ogs.tif
176
     1
290
     0
176
     1
 40
1.0
176
     1
 40
1.0
176
     1
  0
VISUALSTYLE
  5
30
102
{ACAD_REACTORS
330
2A
102
}
330
2A
100
AcDbVisualStyle
  2
Wireframe
 70
     5
177
     3
291
     0
 70
    58
 90
        0
176
     1
 90
        2
176
     1
 90
        0
176
     1
 90
        0
176
     1
 40
0.6
176
     1
 40
30.0
176
     1
 62
     7
420
 16777215
176
     1
 90
        1
176
     1
 90
        4
176
     1
 62
     7
176
     1
 62
   257
176
     1
 90
        1
176
     1
 90
        1
176
     1
 40
1.0
176
     1
 90
        0
176
     1
 62
   257
176
     1
 40
1.0
176
     1
 90
        1
176
     1
 90
        6
176
     1
 90
        2
176
     1
 62
     7
176
     1
 90
        3
176
     1
 90
        0
176
     1
 90
        0
176
     1
290
     0
176
     1
 90
        1
176
     1
 40
0.0
176
     1
 90
        0
176
     1
290
     0
176
     1
290
     1
176
     1
290
     1
176
     1
290
     0
176
     1
290
     0
176
     1
290
     0
176
     1
290
     0
176
     1
290
     0
176
     1
290
     0
176
     1
 90
       50
176
     1
 40
0.0
176
     1
 40
1.0
176
     1
 90
        0
176
     1
 62
    18
420
        0
176
     1
 90
       50
176
     1
 90
        3
176
     1
 62
     5
420
      255
176
     1
290
     0
176
     1
 90
       50
176
     1
 90
       50
176
     1
 90
       50
176
     1
290
     0
176
     1
 90
       50
176
     1
 62
   256
176
     0
 40
1.0
176
     0
 90
        2
176
     1
  1
strokes_ogs.tif
176
     1
290
     0
176
     1
 40
1.0
176
     1
 40
1.0
176
     1
  0
VISUALSTYLE
  5
40
102
{ACAD_REACTORS
330
2A
102
}
330
2A
100
AcDbVisualStyle
  2
X-Ray
 70
    25
177
     3
291
     0
 70
    58
 90
        2
176
     1
 90
        2
176
     1
 90
        1
176
     1
 90
        1
176
     1
 40
0.5
176
     1
 40
30.0
176
     1
 62
     7
420
 16777215
176
     1
 90
        1
176
     1
 90
        0
176
     1
 62
     7
176
     1
 62
   257
176
     1
 90
        1
176
     1
 90
        1
176
     1
 40
1.0
176
     1
 90
        8
176
     1
 62
     7
176
     1
 40
1.0
176
     1
 90
        1
176
     1
 90
        6
176
     1
 90
        2
176
     1
 62
     7
176
     1
 90
        3
176
     1
 90
        0
176
     1
 90
        0
176
     1
290
     0
176
     1
 90
       13
176
     1
 40
0.0
176
     1
 90
        0
176
     1
290
     0
176
     1
290
     1
176
     1
290
     1
176
     1
290
     0
176
     1
290
     0
176
     1
290
     0
176
     1
290
     0
176
     1
290
     0
176
     1
290
     0
176
     1
 90
       50
176
     1
 40
0.0
176
     1
 40
1.0
176
     1
 90
        0
176
     1
 62
    18
420
        0
176
     1
 90
       50
176
     1
 90
        3
176
     1
 62
     5
420
      255
176
     1
290
     0
176
     1
 90
       50
176
     1
 90
       50
176
     1
 90
       50
176
     1
290
     0
176
     1
 90
       50
176
     1
 62
   256
176
     0
 40
1.0
176
     0
 90
        2
176
     1
  1
strokes_ogs.tif
176
     1
290
     0
176
     1
 40
1.0
176
     1
 40
1.0
176
     1
  0
DICTIONARYVAR
  5
34D
102
{ACAD_REACTORS
330
34C
102
}
330
34C
100
DictionaryVariables
280
     0
  1
1:1
  0
ENDSEC
  0
EOF
