  0
SECTION
  2
HEADER
  9
$ACADVER
  1
AC1027
  9
$ACADMAINTVER
 70
     8
  9
$DWGCODEPAGE
  3
ANSI_932
  9
$REQUIREDVERSIONS
160
                 0
  9
$INSBASE
 10
0.0
 20
0.0
 30
0.0
  9
$EXTMIN
 10
58.8824842813099
 20
98.4267513078651
 30
0.0
  9
$EXTMAX
 10
683.2193309645427
 20
505.4815418634894
 30
0.0
  9
$LIMMIN
 10
0.0
 20
0.0
  9
$LIMMAX
 10
420.0
 20
297.0
  9
$ORTHOMODE
 70
     0
  9
$REGENMODE
 70
     1
  9
$FILLMODE
 70
     1
  9
$QTEXTMODE
 70
     0
  9
$MIRRTEXT
 70
     1
  9
$LTSCALE
 40
0.5
  9
$ATTMODE
 70
     1
  9
$TEXTSIZE
 40
5.6
  9
$TRACEWID
 40
0.05
  9
$TEXTSTYLE
  7
Standard
  9
$CLAYER
  8
0
  9
$CELTYPE
  6
ByLayer
  9
$CECOLOR
 62
   256
  9
$CELTSCALE
 40
1.0
  9
$DISPSILH
 70
     0
  9
$DIMSCALE
 40
1.0
  9
$DIMASZ
 40
1.55291427
  9
$DIMEXO
 40
2.0
  9
$DIMDLI
 40
30.0
  9
$DIMRND
 40
0.0
  9
$DIMDLE
 40
0.0
  9
$DIMEXE
 40
2.0
  9
$DIMTP
 40
0.0
  9
$DIMTM
 40
0.0
  9
$DIMTXT
 40
2.8
  9
$DIMCEN
 40
0.09
  9
$DIMTSZ
 40
0.0
  9
$DIMTOL
 70
     0
  9
$DIMLIM
 70
     0
  9
$DIMTIH
 70
     0
  9
$DIMTOH
 70
     0
  9
$DIMSE1
 70
     0
  9
$DIMSE2
 70
     0
  9
$DIMTAD
 70
     3
  9
$DIMZIN
 70
     8
  9
$DIMBLK
  1

  9
$DIMASO
 70
     1
  9
$DIMSHO
 70
     1
  9
$DIMPOST
  1

  9
$DIMAPOST
  1

  9
$DIMALT
 70
     0
  9
$DIMALTD
 70
     2
  9
$DIMALTF
 40
25.4
  9
$DIMLFAC
 40
1.0
  9
$DIMTOFL
 70
     1
  9
$DIMTVP
 40
0.7
  9
$DIMTIX
 70
     0
  9
$DIMSOXD
 70
     0
  9
$DIMSAH
 70
     0
  9
$DIMBLK1
  1

  9
$DIMBLK2
  1

  9
$DIMSTYLE
  2
Standard
  9
$DIMCLRD
 70
     0
  9
$DIMCLRE
 70
     0
  9
$DIMCLRT
 70
     0
  9
$DIMTFAC
 40
0.5
  9
$DIMGAP
 40
0.09
  9
$DIMJUST
 70
     0
  9
$DIMSD1
 70
     0
  9
$DIMSD2
 70
     0
  9
$DIMTOLJ
 70
     1
  9
$DIMTZIN
 70
     8
  9
$DIMALTZ
 70
     0
  9
$DIMALTTZ
 70
     0
  9
$DIMUPT
 70
     1
  9
$DIMDEC
 70
     2
  9
$DIMTDEC
 70
     4
  9
$DIMALTU
 70
     2
  9
$DIMALTTD
 70
     2
  9
$DIMTXSTY
  7
Standard
  9
$DIMAUNIT
 70
     0
  9
$DIMADEC
 70
     0
  9
$DIMALTRND
 40
0.0
  9
$DIMAZIN
 70
     0
  9
$DIMDSEP
 70
    46
  9
$DIMATFIT
 70
     2
  9
$DIMFRAC
 70
     0
  9
$DIMLDRBLK
  1

  9
$DIMLUNIT
 70
     2
  9
$DIMLWD
 70
    -2
  9
$DIMLWE
 70
    -2
  9
$DIMTMOVE
 70
     2
  9
$DIMFXL
 40
1.0
  9
$DIMFXLON
 70
     0
  9
$DIMJOGANG
 40
0.7853981633974483
  9
$DIMTFILL
 70
     0
  9
$DIMTFILLCLR
 70
     0
  9
$DIMARCSYM
 70
     0
  9
$DIMLTYPE
  6

  9
$DIMLTEX1
  6

  9
$DIMLTEX2
  6

  9
$DIMTXTDIRECTION
 70
     0
  9
$LUNITS
 70
     2
  9
$LUPREC
 70
     4
  9
$SKETCHINC
 40
0.1
  9
$FILLETRAD
 40
0.5
  9
$AUNITS
 70
     0
  9
$AUPREC
 70
     0
  9
$MENU
  1
.
  9
$ELEVATION
 40
0.0
  9
$PELEVATION
 40
0.0
  9
$THICKNESS
 40
0.0
  9
$LIMCHECK
 70
     0
  9
$CHAMFERA
 40
0.0
  9
$CHAMFERB
 40
0.0
  9
$CHAMFERC
 40
0.0
  9
$CHAMFERD
 40
0.0
  9
$SKPOLY
 70
     0
  9
$TDCREATE
 40
2460054.008356481
  9
$TDUCREATE
 40
2460053.633356481
  9
$TDUPDATE
 40
2460053.633363565
  9
$TDUUPDATE
 40
2460053.258363565
  9
$TDINDWG
 40
0.0000000116
  9
$TDUSRTIMER
 40
0.0000000116
  9
$USRTIMER
 70
     1
  9
$ANGBASE
 50
0.0
  9
$ANGDIR
 70
     0
  9
$PDMODE
 70
     0
  9
$PDSIZE
 40
0.0
  9
$PLINEWID
 40
0.0
  9
$SPLFRAME
 70
     0
  9
$SPLINETYPE
 70
     6
  9
$SPLINESEGS
 70
     8
  9
$HANDSEED
  5
332
  9
$SURFTAB1
 70
     6
  9
$SURFTAB2
 70
     6
  9
$SURFTYPE
 70
     6
  9
$SURFU
 70
     6
  9
$SURFV
 70
     6
  9
$UCSBASE
  2

  9
$UCSNAME
  2

  9
$UCSORG
 10
0.0
 20
0.0
 30
0.0
  9
$UCSXDIR
 10
1.0
 20
0.0
 30
0.0
  9
$UCSYDIR
 10
0.0
 20
1.0
 30
0.0
  9
$UCSORTHOREF
  2

  9
$UCSORTHOVIEW
 70
     0
  9
$UCSORGTOP
 10
0.0
 20
0.0
 30
0.0
  9
$UCSORGBOTTOM
 10
0.0
 20
0.0
 30
0.0
  9
$UCSORGLEFT
 10
0.0
 20
0.0
 30
0.0
  9
$UCSORGRIGHT
 10
0.0
 20
0.0
 30
0.0
  9
$UCSORGFRONT
 10
0.0
 20
0.0
 30
0.0
  9
$UCSORGBACK
 10
0.0
 20
0.0
 30
0.0
  9
$PUCSBASE
  2

  9
$PUCSNAME
  2

  9
$PUCSORG
 10
0.0
 20
0.0
 30
0.0
  9
$PUCSXDIR
 10
1.0
 20
0.0
 30
0.0
  9
$PUCSYDIR
 10
0.0
 20
1.0
 30
0.0
  9
$PUCSORTHOREF
  2

  9
$PUCSORTHOVIEW
 70
     0
  9
$PUCSORGTOP
 10
0.0
 20
0.0
 30
0.0
  9
$PUCSORGBOTTOM
 10
0.0
 20
0.0
 30
0.0
  9
$PUCSORGLEFT
 10
0.0
 20
0.0
 30
0.0
  9
$PUCSORGRIGHT
 10
0.0
 20
0.0
 30
0.0
  9
$PUCSORGFRONT
 10
0.0
 20
0.0
 30
0.0
  9
$PUCSORGBACK
 10
0.0
 20
0.0
 30
0.0
  9
$USERI1
 70
     0
  9
$USERI2
 70
     0
  9
$USERI3
 70
     0
  9
$USERI4
 70
     0
  9
$USERI5
 70
     0
  9
$USERR1
 40
0.0
  9
$USERR2
 40
0.0
  9
$USERR3
 40
0.0
  9
$USERR4
 40
0.0
  9
$USERR5
 40
0.0
  9
$WORLDVIEW
 70
     1
  9
$SHADEDGE
 70
     3
  9
$SHADEDIF
 70
    70
  9
$TILEMODE
 70
     1
  9
$MAXACTVP
 70
    64
  9
$PINSBASE
 10
0.0
 20
0.0
 30
0.0
  9
$PLIMCHECK
 70
     0
  9
$PEXTMIN
 10
0.0
 20
0.0
 30
0.0
  9
$PEXTMAX
 10
420.0
 20
297.0
 30
0.0
  9
$PLIMMIN
 10
0.0
 20
0.0
  9
$PLIMMAX
 10
420.0
 20
297.0
  9
$UNITMODE
 70
     0
  9
$VISRETAIN
 70
     1
  9
$PLINEGEN
 70
     0
  9
$PSLTSCALE
 70
     1
  9
$TREEDEPTH
 70
  3020
  9
$CMLSTYLE
  2
Standard
  9
$CMLJUST
 70
     0
  9
$CMLSCALE
 40
1.0
  9
$PROXYGRAPHICS
 70
     1
  9
$MEASUREMENT
 70
     1
  9
$CELWEIGHT
370
    -1
  9
$ENDCAPS
280
     0
  9
$JOINSTYLE
280
     0
  9
$LWDISPLAY
290
     0
  9
$INSUNITS
 70
     4
  9
$HYPERLINKBASE
  1

  9
$STYLESHEET
  1

  9
$XEDIT
290
     1
  9
$CEPSNTYPE
380
     0
  9
$PSTYLEMODE
290
     1
  9
$FINGERPRINTGUID
  2
{B1E86DB3-BBDE-4580-9C4C-0C4B3C09F489}
  9
$VERSIONGUID
  2
{FAEB1C32-E019-11D5-929B-00C0DF256EC4}
  9
$EXTNAMES
290
     1
  9
$PSVPSCALE
 40
0.0
  9
$OLESTARTUP
290
     0
  9
$SORTENTS
280
   127
  9
$INDEXCTL
280
     0
  9
$HIDETEXT
280
     1
  9
$XCLIPFRAME
280
     2
  9
$HALOGAP
280
     0
  9
$OBSCOLOR
 70
   257
  9
$OBSLTYPE
280
     0
  9
$INTERSECTIONDISPLAY
280
     0
  9
$INTERSECTIONCOLOR
 70
   257
  9
$DIMASSOC
280
     1
  9
$PROJECTNAME
  1

  9
$CAMERADISPLAY
290
     0
  9
$LENSLENGTH
 40
50.0
  9
$CAMERAHEIGHT
 40
0.0
  9
$STEPSPERSEC
 40
2.0
  9
$STEPSIZE
 40
6.0
  9
$3DDWFPREC
 40
2.0
  9
$PSOLWIDTH
 40
0.25
  9
$PSOLHEIGHT
 40
4.0
  9
$LOFTANG1
 40
1.570796326794897
  9
$LOFTANG2
 40
1.570796326794897
  9
$LOFTMAG1
 40
0.0
  9
$LOFTMAG2
 40
0.0
  9
$LOFTPARAM
 70
     7
  9
$LOFTNORMALS
280
     1
  9
$LATITUDE
 40
37.795
  9
$LONGITUDE
 40
-122.394
  9
$NORTHDIRECTION
 40
0.0
  9
$TIMEZONE
 70
 -8000
  9
$LIGHTGLYPHDISPLAY
280
     1
  9
$TILEMODELIGHTSYNCH
280
     1
  9
$CMATERIAL
347
44
  9
$SOLIDHIST
280
     1
  9
$SHOWHIST
280
     1
  9
$DWFFRAME
280
     2
  9
$DGNFRAME
280
     2
  9
$REALWORLDSCALE
290
     1
  9
$INTERFERECOLOR
 62
   256
  9
$CSHADOW
280
     0
  9
$SHADOWPLANELOCATION
 40
0.0
  0
ENDSEC
  0
SECTION
  2
CLASSES
  0
CLASS
  1
ACDBDICTIONARYWDFLT
  2
AcDbDictionaryWithDefault
  3
ObjectDBX Classes
 90
        0
 91
        4
280
     0
281
     0
  0
CLASS
  1
VISUALSTYLE
  2
AcDbVisualStyle
  3
ObjectDBX Classes
 90
     4095
 91
        4
280
     0
281
     0
  0
CLASS
  1
MATERIAL
  2
AcDbMaterial
  3
ObjectDBX Classes
 90
     1153
 91
        4
280
     0
281
     0
  0
CLASS
  1
SCALE
  2
AcDbScale
  3
ObjectDBX Classes
 90
     1153
 91
        4
280
     0
281
     0
  0
CLASS
  1
SUN
  2
AcDbSun
  3
SCENEOE
 90
     1153
 91
        4
280
     0
281
     0
  0
CLASS
  1
DICTIONARYVAR
  2
AcDbDictionaryVar
  3
ObjectDBX Classes
 90
        0
 91
        4
280
     0
281
     0
  0
ENDSEC
  0
SECTION
  2
TABLES
  0
TABLE
  2
VPORT
  5
8
330
0
100
AcDbSymbolTable
 70
     1
  0
VPORT
  5
29
330
8
100
AcDbSymbolTableRecord
100
AcDbViewportTableRecord
  2
*Active
 70
     0
 10
0.0
 20
0.0
 11
1.0
 21
1.0
 12
10.42990654205607
 22
4.5
 13
0.0
 23
0.0
 14
0.5
 24
0.5
 15
0.5
 25
0.5
 16
0.0
 26
0.0
 36
1.0
 17
0.0
 27
0.0
 37
0.0
 40
9.0
 41
1.972972972850329
 42
50.0
 43
0.0
 44
0.0
 50
0.0
 51
0.0
 71
     0
 72
   100
 73
     1
 74
     3
 75
     0
 76
     0
 77
     0
 78
     0
281
     0
 65
     1
110
0.0
120
0.0
130
0.0
111
1.0
121
0.0
131
0.0
112
0.0
122
1.0
132
0.0
 79
     0
146
0.0
 60
     3
 61
     5
292
     1
282
     1
141
0.0
142
0.0
 63
   250
361
69
  0
ENDTAB
  0
TABLE
  2
LTYPE
  5
5
330
0
100
AcDbSymbolTable
 70
     9
  0
LTYPE
  5
14
330
5
100
AcDbSymbolTableRecord
100
AcDbLinetypeTableRecord
  2
ByBlock
 70
     0
  3

 72
    65
 73
     0
 40
0.0
  0
LTYPE
  5
15
330
5
100
AcDbSymbolTableRecord
100
AcDbLinetypeTableRecord
  2
ByLayer
 70
     0
  3

 72
    65
 73
     0
 40
0.0
  0
LTYPE
  5
16
330
5
100
AcDbSymbolTableRecord
100
AcDbLinetypeTableRecord
  2
Continuous
 70
     0
  3
Solid line
 72
    65
 73
     0
 40
0.0
  0
LTYPE
  5
B9
330
5
100
AcDbSymbolTableRecord
100
AcDbLinetypeTableRecord
  2
DOT
 70
     0
  3
DOT
 72
    65
 73
     2
 40
4.0
 49
6.0
 74
     0
 49
-2.0
 74
     0
  0
LTYPE
  5
BA
330
5
100
AcDbSymbolTableRecord
100
AcDbLinetypeTableRecord
  2
HIDDEN
 70
     0
  3
HIDDEN
 72
    65
 73
     2
 40
4.2
 49
8.4
 74
     0
 49
-4.2
 74
     0
  0
LTYPE
  5
BB
330
5
100
AcDbSymbolTableRecord
100
AcDbLinetypeTableRecord
  2
DASHDOT
 70
     0
  3
DASHDOT
 72
    65
 73
     4
 40
14.5
 49
30.0
 74
     0
 49
-9.0
 74
     0
 49
2.5
 74
     0
 49
-9.0
 74
     0
  0
LTYPE
  5
BC
330
5
100
AcDbSymbolTableRecord
100
AcDbLinetypeTableRecord
  2
PHANTOM
 70
     0
  3
PHANTOM
 72
    65
 73
     6
 40
12.0
 49
30.0
 74
     0
 49
-9.0
 74
     0
 49
2.5
 74
     0
 49
-5.0
 74
     0
 49
2.5
 74
     0
 49
-9.0
 74
     0
  0
LTYPE
  5
BD
330
5
100
AcDbSymbolTableRecord
100
AcDbLinetypeTableRecord
  2
ACAD_ISO14W100
 70
     0
  3
ACAD_ISO14W100
 72
    65
 73
     8
 40
1.5
 49
12.0
 74
     0
 49
-3.0
 74
     0
 49
0.5
 74
     0
 49
-3.0
 74
     0
 49
0.5
 74
     0
 49
-3.0
 74
     0
 49
0.5
 74
     0
 49
-3.0
 74
     0
  0
LTYPE
  5
BE
330
5
100
AcDbSymbolTableRecord
100
AcDbLinetypeTableRecord
  2
ACAD_ISO06W100
 70
     0
  3
ACAD_ISO06W100
 72
    65
 73
     8
 40
13.5
 49
24.0
 74
     0
 49
-3.0
 74
     0
 49
0.5
 74
     0
 49
-3.0
 74
     0
 49
0.5
 74
     0
 49
-3.0
 74
     0
 49
0.5
 74
     0
 49
-3.0
 74
     0
  0
LTYPE
  5
BF
330
5
100
AcDbSymbolTableRecord
100
AcDbLinetypeTableRecord
  2
ACAD_ISO11W100
 70
     0
  3
ACAD_ISO11W100
 72
    65
 73
     6
 40
15.5
 49
12.0
 74
     0
 49
-3.0
 74
     0
 49
12.0
 74
     0
 49
-3.0
 74
     0
 49
0.5
 74
     0
 49
-3.0
 74
     0
  0
LTYPE
  5
C0
330
5
100
AcDbSymbolTableRecord
100
AcDbLinetypeTableRecord
  2
ACAD_ISO13W100
 70
     0
  3
ACAD_ISO13W100
 72
    65
 73
     8
 40
13.0
 49
12.0
 74
     0
 49
-3.0
 74
     0
 49
12.0
 74
     0
 49
-3.0
 74
     0
 49
0.5
 74
     0
 49
-3.0
 74
     0
 49
0.5
 74
     0
 49
-3.0
 74
     0
  0
ENDTAB
  0
TABLE
  2
LAYER
  5
2
330
0
100
AcDbSymbolTable
 70
    12
  0
LAYER
  5
10
330
2
100
AcDbSymbolTableRecord
100
AcDbLayerTableRecord
  2
0
 70
     0
 62
     7
  6
Continuous
370
    -3
390
F
347
46
348
0
  0
LAYER
  5
C1
330
2
100
AcDbSymbolTableRecord
100
AcDbLayerTableRecord
  2
1
 70
     0
 62
     7
  6
Continuous
370
     9
390
F
347
46
348
0
  0
LAYER
  5
C2
330
2
100
AcDbSymbolTableRecord
100
AcDbLayerTableRecord
  2
2
 70
     0
 62
   151
  6
Continuous
370
    20
390
F
347
46
348
0
  0
LAYER
  5
C3
330
2
100
AcDbSymbolTableRecord
100
AcDbLayerTableRecord
  2
3
 70
     0
 62
     3
  6
HIDDEN
370
     9
390
F
347
46
348
0
  0
LAYER
  5
C4
330
2
100
AcDbSymbolTableRecord
100
AcDbLayerTableRecord
  2
4
 70
     0
 62
     1
  6
DASHDOT
370
     9
390
F
347
46
348
0
  0
LAYER
  5
C5
330
2
100
AcDbSymbolTableRecord
100
AcDbLayerTableRecord
  2
5
 70
     0
 62
     7
  6
Continuous
370
     9
390
F
347
46
348
0
  0
LAYER
  5
C6
330
2
100
AcDbSymbolTableRecord
100
AcDbLayerTableRecord
  2
6
 70
     0
 62
     1
  6
Continuous
370
    25
390
F
347
46
348
0
  0
LAYER
  5
C7
330
2
100
AcDbSymbolTableRecord
100
AcDbLayerTableRecord
  2
7
 70
     0
 62
     6
  6
Continuous
370
     9
390
F
347
46
348
0
  0
LAYER
  5
C8
330
2
100
AcDbSymbolTableRecord
100
AcDbLayerTableRecord
  2
8
 70
     0
 62
     3
  6
Continuous
370
    40
390
F
347
46
348
0
  0
LAYER
  5
C9
330
2
100
AcDbSymbolTableRecord
100
AcDbLayerTableRecord
  2
9
 70
     0
 62
     4
  6
Continuous
370
     9
390
F
347
46
348
0
  0
LAYER
  5
CA
330
2
100
AcDbSymbolTableRecord
100
AcDbLayerTableRecord
  2
10
 70
     0
 62
     7
  6
Continuous
370
    25
390
F
347
46
348
0
  0
LAYER
  5
CB
330
2
100
AcDbSymbolTableRecord
100
AcDbLayerTableRecord
  2
11
 70
     0
 62
     2
  6
Continuous
370
     9
390
F
347
46
348
0
  0
ENDTAB
  0
TABLE
  2
STYLE
  5
3
330
0
100
AcDbSymbolTable
 70
     3
  0
STYLE
  5
11
330
3
100
AcDbSymbolTableRecord
100
AcDbTextStyleTableRecord
  2
Standard
 70
     0
 40
0.0
 41
1.0
 50
0.0
 71
     0
 42
5.6
  3
txt
  4
bigfont
  0
STYLE
  5
6C
330
3
100
AcDbSymbolTableRecord
100
AcDbTextStyleTableRecord
  2
T_STANDARD
 70
     4
 40
10.0
 41
1.0
 50
0.0
 71
     0
 42
5.6
  3
txt
  4
bigfont
1001
ACAD
1000

1071
      256
  0
STYLE
  5
1AF
330
3
100
AcDbSymbolTableRecord
100
AcDbTextStyleTableRecord
  2
ＭＳ ゴシック
 70
     0
 40
0.0
 41
1.0
 50
0.0
 71
     0
 42
5.6
  3

  4

1001
ACAD
1000
ＭＳ ゴシック
1071
      256
  0
ENDTAB
  0
TABLE
  2
VIEW
  5
6
330
0
100
AcDbSymbolTable
 70
     0
  0
ENDTAB
  0
TABLE
  2
UCS
  5
7
330
0
100
AcDbSymbolTable
 70
     0
  0
ENDTAB
  0
TABLE
  2
APPID
  5
9
330
0
100
AcDbSymbolTable
 70
     2
  0
APPID
  5
12
330
9
100
AcDbSymbolTableRecord
100
AcDbRegAppTableRecord
  2
ACAD
 70
     0
  0
APPID
  5
6B
330
9
100
AcDbSymbolTableRecord
100
AcDbRegAppTableRecord
  2
ODA
 70
     0
  0
ENDTAB
  0
TABLE
  2
DIMSTYLE
  5
A
330
0
100
AcDbSymbolTable
 70
     1
100
AcDbDimStyleTable
  0
DIMSTYLE
105
27
102
{ACAD_REACTORS
330
1B9
330
1C3
330
1CD
330
239
330
243
330
24D
330
257
330
261
330
26B
330
275
330
27F
330
289
330
291
330
299
102
}
330
A
100
AcDbSymbolTableRecord
100
AcDbDimStyleTableRecord
  2
Standard
 70
     0
178
     0
340
11
  0
ENDTAB
  0
TABLE
  2
BLOCK_RECORD
  5
1
330
0
100
AcDbSymbolTable
 70
    31
  0
BLOCK_RECORD
  5
1F
330
1
100
AcDbSymbolTableRecord
100
AcDbBlockTableRecord
  2
*Model_Space
340
22
 70
     0
280
     1
281
     0
  0
BLOCK_RECORD
  5
1B
330
1
100
AcDbSymbolTableRecord
100
AcDbBlockTableRecord
  2
*Paper_Space
340
1E
 70
     0
280
     1
281
     0
  0
BLOCK_RECORD
  5
23
330
1
100
AcDbSymbolTableRecord
100
AcDbBlockTableRecord
  2
*Paper_Space0
340
26
 70
     0
280
     1
281
     0
  0
BLOCK_RECORD
  5
6D
330
1
100
AcDbSymbolTableRecord
100
AcDbBlockTableRecord
  2
_ORIGIN
340
0
 70
     0
280
     1
281
     0
  0
BLOCK_RECORD
  5
72
330
1
100
AcDbSymbolTableRecord
100
AcDbBlockTableRecord
  2
_DOTBLANK
340
0
 70
     0
280
     1
281
     0
  0
BLOCK_RECORD
  5
77
330
1
100
AcDbSymbolTableRecord
100
AcDbBlockTableRecord
  2
_DOT
340
0
 70
     0
280
     1
281
     0
  0
BLOCK_RECORD
  5
7C
330
1
100
AcDbSymbolTableRecord
100
AcDbBlockTableRecord
  2
_OPEN
340
0
102
{BLKREFS
331
229
102
}
 70
     0
280
     1
281
     0
  0
BLOCK_RECORD
  5
82
330
1
100
AcDbSymbolTableRecord
100
AcDbBlockTableRecord
  2
_CLOSED
340
0
 70
     0
280
     1
281
     0
  0
BLOCK_RECORD
  5
89
330
1
100
AcDbSymbolTableRecord
100
AcDbBlockTableRecord
  2
_CLOSEDBLANK
340
0
 70
     0
280
     1
281
     0
  0
BLOCK_RECORD
  5
8F
330
1
100
AcDbSymbolTableRecord
100
AcDbBlockTableRecord
  2
_ARROWFILLED
340
0
102
{BLKREFS
331
1B7
331
1B8
331
1C1
331
1C2
331
1CB
331
1CC
331
237
331
238
331
241
331
242
331
24B
331
24C
331
255
331
256
331
25F
331
260
331
269
331
26A
331
273
331
274
331
27D
331
27E
331
287
331
288
331
28F
331
290
331
297
331
298
102
}
 70
     0
280
     1
281
     0
  0
BLOCK_RECORD
  5
93
330
1
100
AcDbSymbolTableRecord
100
AcDbBlockTableRecord
  2
_BOXBLANK
340
0
 70
     0
280
     1
281
     0
  0
BLOCK_RECORD
  5
9B
330
1
100
AcDbSymbolTableRecord
100
AcDbBlockTableRecord
  2
_BOXFILLED
340
0
 70
     0
280
     1
281
     0
  0
BLOCK_RECORD
  5
A0
330
1
100
AcDbSymbolTableRecord
100
AcDbBlockTableRecord
  2
_INTEGRAL
340
0
 70
     0
280
     1
281
     0
  0
BLOCK_RECORD
  5
A5
330
1
100
AcDbSymbolTableRecord
100
AcDbBlockTableRecord
  2
_OBLIQUE
340
0
 70
     0
280
     1
281
     0
  0
BLOCK_RECORD
  5
A9
330
1
100
AcDbSymbolTableRecord
100
AcDbBlockTableRecord
  2
_NONE
340
0
 70
     0
280
     1
281
     0
  0
BLOCK_RECORD
  5
AC
330
1
100
AcDbSymbolTableRecord
100
AcDbBlockTableRecord
  2
MARK_OPEN
340
0
 70
     0
280
     1
281
     0
  0
BLOCK_RECORD
  5
B1
330
1
100
AcDbSymbolTableRecord
100
AcDbBlockTableRecord
  2
MARK_ORIGIN
340
0
 70
     0
280
     1
281
     0
  0
BLOCK_RECORD
  5
B5
330
1
100
AcDbSymbolTableRecord
100
AcDbBlockTableRecord
  2
MARK_DOT
340
0
 70
     0
280
     1
281
     0
  0
BLOCK_RECORD
  5
1B0
330
1
100
AcDbSymbolTableRecord
100
AcDbBlockTableRecord
  2
Dim1
340
0
 70
     0
280
     1
281
     0
  0
BLOCK_RECORD
  5
1BA
330
1
100
AcDbSymbolTableRecord
100
AcDbBlockTableRecord
  2
Dim2
340
0
 70
     0
280
     1
281
     0
  0
BLOCK_RECORD
  5
1C4
330
1
100
AcDbSymbolTableRecord
100
AcDbBlockTableRecord
  2
Dim3
340
0
 70
     0
280
     1
281
     0
  0
BLOCK_RECORD
  5
230
330
1
100
AcDbSymbolTableRecord
100
AcDbBlockTableRecord
  2
Dim4
340
0
 70
     0
280
     1
281
     0
  0
BLOCK_RECORD
  5
23A
330
1
100
AcDbSymbolTableRecord
100
AcDbBlockTableRecord
  2
Dim5
340
0
 70
     0
280
     1
281
     0
  0
BLOCK_RECORD
  5
244
330
1
100
AcDbSymbolTableRecord
100
AcDbBlockTableRecord
  2
Dim6
340
0
 70
     0
280
     1
281
     0
  0
BLOCK_RECORD
  5
24E
330
1
100
AcDbSymbolTableRecord
100
AcDbBlockTableRecord
  2
Dim7
340
0
 70
     0
280
     1
281
     0
  0
BLOCK_RECORD
  5
258
330
1
100
AcDbSymbolTableRecord
100
AcDbBlockTableRecord
  2
Dim8
340
0
 70
     0
280
     1
281
     0
  0
BLOCK_RECORD
  5
262
330
1
100
AcDbSymbolTableRecord
100
AcDbBlockTableRecord
  2
Dim9
340
0
 70
     0
280
     1
281
     0
  0
BLOCK_RECORD
  5
26C
330
1
100
AcDbSymbolTableRecord
100
AcDbBlockTableRecord
  2
Dim10
340
0
 70
     0
280
     1
281
     0
  0
BLOCK_RECORD
  5
276
330
1
100
AcDbSymbolTableRecord
100
AcDbBlockTableRecord
  2
Dim11
340
0
 70
     0
280
     1
281
     0
  0
BLOCK_RECORD
  5
280
330
1
100
AcDbSymbolTableRecord
100
AcDbBlockTableRecord
  2
Dim12
340
0
 70
     0
280
     1
281
     0
  0
BLOCK_RECORD
  5
28A
330
1
100
AcDbSymbolTableRecord
100
AcDbBlockTableRecord
  2
Dim13
340
0
 70
     0
280
     1
281
     0
  0
BLOCK_RECORD
  5
292
330
1
100
AcDbSymbolTableRecord
100
AcDbBlockTableRecord
  2
Dim14
340
0
 70
     0
280
     1
281
     0
  0
BLOCK_RECORD
  5
322
330
1
100
AcDbSymbolTableRecord
100
AcDbBlockTableRecord
  2
*G30
340
0
102
{BLKREFS
331
32B
102
}
 70
     0
280
     1
281
     0
  0
ENDTAB
  0
ENDSEC
  0
SECTION
  2
BLOCKS
  0
BLOCK
  5
20
330
1F
100
AcDbEntity
  8
0
100
AcDbBlockBegin
  2
*Model_Space
 70
     0
 10
0.0
 20
0.0
 30
0.0
  3
*Model_Space
  1
*Model_Space
  0
ENDBLK
  5
21
330
1F
100
AcDbEntity
  8
0
100
AcDbBlockEnd
  0
BLOCK
  5
1C
330
1B
100
AcDbEntity
 67
     1
  8
0
100
AcDbBlockBegin
  2
*Paper_Space
 70
     0
 10
0.0
 20
0.0
 30
0.0
  3
*Paper_Space
  1
*Paper_Space
  0
ENDBLK
  5
1D
330
1B
100
AcDbEntity
 67
     1
  8
0
100
AcDbBlockEnd
  0
BLOCK
  5
24
330
23
100
AcDbEntity
  8
0
100
AcDbBlockBegin
  2
*Paper_Space0
 70
     0
 10
0.0
 20
0.0
 30
0.0
  3
*Paper_Space0
  1
*Paper_Space0
  0
ENDBLK
  5
25
330
23
100
AcDbEntity
  8
0
100
AcDbBlockEnd
  0
BLOCK
  5
70
330
6D
100
AcDbEntity
  8
0
100
AcDbBlockBegin
  2
_ORIGIN
 70
     0
 10
0.0
 20
0.0
 30
0.0
  3
_ORIGIN
  1
_ORIGIN
  0
CIRCLE
  5
6E
330
6D
100
AcDbEntity
  8
0
 62
     0
100
AcDbCircle
 10
0.0
 20
0.0
 30
0.0
 40
0.5
  0
LINE
  5
6F
330
6D
100
AcDbEntity
  8
0
 62
     0
100
AcDbLine
 10
0.0
 20
0.0
 30
0.0
 11
-1.0
 21
0.0
 31
0.0
  0
ENDBLK
  5
71
330
6D
100
AcDbEntity
  8
0
100
AcDbBlockEnd
  0
BLOCK
  5
75
330
72
100
AcDbEntity
  8
0
100
AcDbBlockBegin
  2
_DOTBLANK
 70
     0
 10
0.0
 20
0.0
 30
0.0
  3
_DOTBLANK
  1
_DOTBLANK
  0
CIRCLE
  5
73
330
72
100
AcDbEntity
  8
0
 62
     0
100
AcDbCircle
 10
0.0
 20
0.0
 30
0.0
 40
0.5
  0
LINE
  5
74
330
72
100
AcDbEntity
  8
0
 62
     0
100
AcDbLine
 10
-0.5
 20
0.0
 30
0.0
 11
-1.0
 21
0.0
 31
0.0
  0
ENDBLK
  5
76
330
72
100
AcDbEntity
  8
0
100
AcDbBlockEnd
  0
BLOCK
  5
7A
330
77
100
AcDbEntity
  8
0
100
AcDbBlockBegin
  2
_DOT
 70
     0
 10
0.0
 20
0.0
 30
0.0
  3
_DOT
  1
_DOT
  0
LWPOLYLINE
  5
78
330
77
100
AcDbEntity
  8
0
 62
     0
100
AcDbPolyline
 90
        2
 70
     1
 43
0.5
 10
-0.25
 20
0.0
 42
1.0
 10
0.25
 20
0.0
 42
1.0
  0
LINE
  5
79
330
77
100
AcDbEntity
  8
0
 62
     0
100
AcDbLine
 10
-0.5
 20
0.0
 30
0.0
 11
-1.0
 21
0.0
 31
0.0
  0
ENDBLK
  5
7B
330
77
100
AcDbEntity
  8
0
100
AcDbBlockEnd
  0
BLOCK
  5
80
330
7C
100
AcDbEntity
  8
0
100
AcDbBlockBegin
  2
_OPEN
 70
     0
 10
0.0
 20
0.0
 30
0.0
  3
_OPEN
  1
_OPEN
  0
LINE
  5
7D
330
7C
100
AcDbEntity
  8
0
 62
     0
100
AcDbLine
 10
0.0
 20
0.0
 30
0.0
 11
-1.0
 21
0.1666666666666667
 31
0.0
  0
LINE
  5
7E
330
7C
100
AcDbEntity
  8
0
 62
     0
100
AcDbLine
 10
0.0
 20
0.0
 30
0.0
 11
-1.0
 21
-0.1666666666666667
 31
0.0
  0
LINE
  5
7F
330
7C
100
AcDbEntity
  8
0
 62
     0
100
AcDbLine
 10
0.0
 20
0.0
 30
0.0
 11
-1.0
 21
0.0
 31
0.0
  0
ENDBLK
  5
81
330
7C
100
AcDbEntity
  8
0
100
AcDbBlockEnd
  0
BLOCK
  5
87
330
82
100
AcDbEntity
  8
0
100
AcDbBlockBegin
  2
_CLOSED
 70
     0
 10
0.0
 20
0.0
 30
0.0
  3
_CLOSED
  1
_CLOSED
  0
LINE
  5
83
330
82
100
AcDbEntity
  8
0
 62
     0
100
AcDbLine
 10
0.0
 20
0.0
 30
0.0
 11
-1.0
 21
0.1666666666666667
 31
0.0
  0
LINE
  5
84
330
82
100
AcDbEntity
  8
0
 62
     0
100
AcDbLine
 10
0.0
 20
0.0
 30
0.0
 11
-1.0
 21
-0.1666666666666667
 31
0.0
  0
LINE
  5
85
330
82
100
AcDbEntity
  8
0
 62
     0
100
AcDbLine
 10
-1.0
 20
0.1666666666666667
 30
0.0
 11
-1.0
 21
-0.1666666666666667
 31
0.0
  0
LINE
  5
86
330
82
100
AcDbEntity
  8
0
 62
     0
100
AcDbLine
 10
0.0
 20
0.0
 30
0.0
 11
-1.0
 21
0.0
 31
0.0
  0
ENDBLK
  5
88
330
82
100
AcDbEntity
  8
0
100
AcDbBlockEnd
  0
BLOCK
  5
8D
330
89
100
AcDbEntity
  8
0
100
AcDbBlockBegin
  2
_CLOSEDBLANK
 70
     0
 10
0.0
 20
0.0
 30
0.0
  3
_CLOSEDBLANK
  1
_CLOSEDBLANK
  0
LINE
  5
8A
330
89
100
AcDbEntity
  8
0
 62
     0
100
AcDbLine
 10
0.0
 20
0.0
 30
0.0
 11
-1.0
 21
0.1666666666666667
 31
0.0
  0
LINE
  5
8B
330
89
100
AcDbEntity
  8
0
 62
     0
100
AcDbLine
 10
0.0
 20
0.0
 30
0.0
 11
-1.0
 21
-0.1666666666666667
 31
0.0
  0
LINE
  5
8C
330
89
100
AcDbEntity
  8
0
 62
     0
100
AcDbLine
 10
-1.0
 20
0.1666666666666667
 30
0.0
 11
-1.0
 21
-0.1666666666666667
 31
0.0
  0
ENDBLK
  5
8E
330
89
100
AcDbEntity
  8
0
100
AcDbBlockEnd
  0
BLOCK
  5
91
330
8F
100
AcDbEntity
  8
0
100
AcDbBlockBegin
  2
_ARROWFILLED
 70
     0
 10
0.0
 20
0.0
 30
0.0
  3
_ARROWFILLED
  1
_ARROWFILLED
  0
SOLID
  5
90
330
8F
100
AcDbEntity
  8
0
 62
     0
100
AcDbTrace
 10
0.0
 20
0.0
 30
0.0
 11
-1.0
 21
-0.1666666666666667
 31
0.0
 12
-1.0
 22
0.1666666666666667
 32
0.0
 13
0.0
 23
0.0
 33
0.0
  0
ENDBLK
  5
92
330
8F
100
AcDbEntity
  8
0
100
AcDbBlockEnd
  0
BLOCK
  5
99
330
93
100
AcDbEntity
  8
0
100
AcDbBlockBegin
  2
_BOXBLANK
 70
     0
 10
0.0
 20
0.0
 30
0.0
  3
_BOXBLANK
  1
_BOXBLANK
  0
LINE
  5
94
330
93
100
AcDbEntity
  8
0
 62
     0
100
AcDbLine
 10
-0.5
 20
-0.5
 30
0.0
 11
0.5
 21
-0.5
 31
0.0
  0
LINE
  5
95
330
93
100
AcDbEntity
  8
0
 62
     0
100
AcDbLine
 10
0.5
 20
-0.5
 30
0.0
 11
0.5
 21
0.5
 31
0.0
  0
LINE
  5
96
330
93
100
AcDbEntity
  8
0
 62
     0
100
AcDbLine
 10
0.5
 20
0.5
 30
0.0
 11
-0.5
 21
0.5
 31
0.0
  0
LINE
  5
97
330
93
100
AcDbEntity
  8
0
 62
     0
100
AcDbLine
 10
-0.5
 20
0.5
 30
0.0
 11
-0.5
 21
-0.5
 31
0.0
  0
LINE
  5
98
330
93
100
AcDbEntity
  8
0
 62
     0
100
AcDbLine
 10
-0.5
 20
0.0
 30
0.0
 11
-1.0
 21
0.0
 31
0.0
  0
ENDBLK
  5
9A
330
93
100
AcDbEntity
  8
0
100
AcDbBlockEnd
  0
BLOCK
  5
9E
330
9B
100
AcDbEntity
  8
0
100
AcDbBlockBegin
  2
_BOXFILLED
 70
     0
 10
0.0
 20
0.0
 30
0.0
  3
_BOXFILLED
  1
_BOXFILLED
  0
SOLID
  5
9C
330
9B
100
AcDbEntity
  8
0
 62
     0
100
AcDbTrace
 10
-0.5
 20
0.5
 30
0.0
 11
0.5
 21
0.5
 31
0.0
 12
-0.5
 22
-0.5
 32
0.0
 13
0.5
 23
-0.5
 33
0.0
  0
LINE
  5
9D
330
9B
100
AcDbEntity
  8
0
 62
     0
100
AcDbLine
 10
-0.5
 20
0.0
 30
0.0
 11
-1.0
 21
0.0
 31
0.0
  0
ENDBLK
  5
9F
330
9B
100
AcDbEntity
  8
0
100
AcDbBlockEnd
  0
BLOCK
  5
A3
330
A0
100
AcDbEntity
  8
0
100
AcDbBlockBegin
  2
_INTEGRAL
 70
     0
 10
0.0
 20
0.0
 30
0.0
  3
_INTEGRAL
  1
_INTEGRAL
  0
ARC
  5
A1
330
A0
100
AcDbEntity
  8
0
 62
     0
100
AcDbCircle
 10
0.444888
 20
-0.0913346
 30
0.0
 40
0.4541666
100
AcDbArc
 50
101.9999999999999
 51
167.9999999999998
  0
ARC
  5
A2
330
A0
100
AcDbEntity
  8
0
 62
     0
100
AcDbCircle
 10
-0.444888
 20
0.0913346
 30
0.0
 40
0.4541666
100
AcDbArc
 50
281.9999999999997
 51
347.9999999999997
  0
ENDBLK
  5
A4
330
A0
100
AcDbEntity
  8
0
100
AcDbBlockEnd
  0
BLOCK
  5
A7
330
A5
100
AcDbEntity
  8
0
100
AcDbBlockBegin
  2
_OBLIQUE
 70
     0
 10
0.0
 20
0.0
 30
0.0
  3
_OBLIQUE
  1
_OBLIQUE
  0
LINE
  5
A6
330
A5
100
AcDbEntity
  8
0
 62
     0
100
AcDbLine
 10
-0.5
 20
-0.5
 30
0.0
 11
0.5
 21
0.5
 31
0.0
  0
ENDBLK
  5
A8
330
A5
100
AcDbEntity
  8
0
100
AcDbBlockEnd
  0
BLOCK
  5
AA
330
A9
100
AcDbEntity
  8
0
100
AcDbBlockBegin
  2
_NONE
 70
     0
 10
0.0
 20
0.0
 30
0.0
  3
_NONE
  1
_NONE
  0
ENDBLK
  5
AB
330
A9
100
AcDbEntity
  8
0
100
AcDbBlockEnd
  0
BLOCK
  5
AF
330
AC
100
AcDbEntity
  8
0
100
AcDbBlockBegin
  2
MARK_OPEN
 70
     0
 10
0.0
 20
0.0
 30
0.0
  3
MARK_OPEN
  1
MARK_OPEN
  0
LINE
  5
AD
330
AC
100
AcDbEntity
  8
0
 62
     0
100
AcDbLine
 10
0.0
 20
0.0
 30
0.0
 11
-1.0
 21
0.1666666666666667
 31
0.0
  0
LINE
  5
AE
330
AC
100
AcDbEntity
  8
0
 62
     0
100
AcDbLine
 10
0.0
 20
0.0
 30
0.0
 11
-1.0
 21
-0.1666666666666667
 31
0.0
  0
ENDBLK
  5
B0
330
AC
100
AcDbEntity
  8
0
100
AcDbBlockEnd
  0
BLOCK
  5
B3
330
B1
100
AcDbEntity
  8
0
100
AcDbBlockBegin
  2
MARK_ORIGIN
 70
     0
 10
0.0
 20
0.0
 30
0.0
  3
MARK_ORIGIN
  1
MARK_ORIGIN
  0
CIRCLE
  5
B2
330
B1
100
AcDbEntity
  8
0
 62
     0
100
AcDbCircle
 10
0.0
 20
0.0
 30
0.0
 40
0.5
  0
ENDBLK
  5
B4
330
B1
100
AcDbEntity
  8
0
100
AcDbBlockEnd
  0
BLOCK
  5
B7
330
B5
100
AcDbEntity
  8
0
100
AcDbBlockBegin
  2
MARK_DOT
 70
     0
 10
0.0
 20
0.0
 30
0.0
  3
MARK_DOT
  1
MARK_DOT
  0
LWPOLYLINE
  5
B6
330
B5
100
AcDbEntity
  8
0
 62
     0
100
AcDbPolyline
 90
        2
 70
     1
 43
0.5
 10
-0.25
 20
0.0
 42
1.0
 10
0.25
 20
0.0
 42
1.0
  0
ENDBLK
  5
B8
330
B5
100
AcDbEntity
  8
0
100
AcDbBlockEnd
  0
BLOCK
  5
1B1
330
1B0
100
AcDbEntity
  8
0
100
AcDbBlockBegin
  2
Dim1
 70
     0
 10
0.0
 20
0.0
 30
0.0
  3
Dim1
  1
Dim1
  0
LINE
  5
1B3
330
1B0
100
AcDbEntity
  8
9
  6
Continuous
 62
     4
370
     9
100
AcDbLine
 10
657.7193309645427
 20
435.6270910791329
 30
0.0
 11
682.5593699011006
 21
435.6270910791329
 31
0.0
  0
LINE
  5
1B4
330
1B0
100
AcDbEntity
  8
9
  6
Continuous
 62
     4
370
     9
100
AcDbLine
 10
646.7193309645427
 20
438.6270910791327
 30
0.0
 11
682.5593699011006
 21
438.6270910791326
 31
0.0
  0
LINE
  5
1B5
330
1B0
100
AcDbEntity
  8
9
  6
Continuous
 62
     4
370
     9
100
AcDbLine
 10
679.5593699011006
 20
424.1270910791329
 30
0.0
 11
679.5593699011006
 21
446.6270910791326
 31
0.0
  0
MTEXT
  5
1B6
330
1B0
100
AcDbEntity
  8
9
  6
Continuous
 62
     4
370
     9
100
AcDbMText
 10
679.5593699011006
 20
424.1270910791329
 30
0.0
 40
6.0
 41
57.14285714285714
 46
6.0
 71
     6
 72
     1
  1
(3)
  7
ＭＳ ゴシック
 11
1.615544574432587E-15
 21
1.0
 31
0.0
 73
     1
 44
1.0
1001
ACAD
1000
ACAD_MTEXT_DEFINED_HEIGHT_BEGIN
1070
    46
1040
6.0
1000
ACAD_MTEXT_DEFINED_HEIGHT_END
  0
INSERT
  5
1B7
330
1B0
100
AcDbEntity
  8
9
  6
Continuous
 62
     4
370
     9
100
AcDbBlockReference
  2
_ARROWFILLED
 10
679.5593699011006
 20
435.6270910791329
 30
0.0
 41
4.0
 42
4.0
 43
4.0
 50
89.99999999999959
  0
INSERT
  5
1B8
330
1B0
100
AcDbEntity
  8
9
  6
Continuous
 62
     4
370
     9
100
AcDbBlockReference
  2
_ARROWFILLED
 10
679.5593699011006
 20
438.6270910791326
 30
0.0
 41
4.0
 42
4.0
 43
4.0
 50
269.9999999999998
  0
ENDBLK
  5
1B2
330
1B0
100
AcDbEntity
  8
0
100
AcDbBlockEnd
  0
BLOCK
  5
1BB
330
1BA
100
AcDbEntity
  8
0
100
AcDbBlockBegin
  2
Dim2
 70
     0
 10
0.0
 20
0.0
 30
0.0
  3
Dim2
  1
Dim2
  0
LINE
  5
1BD
330
1BA
100
AcDbEntity
  8
9
  6
Continuous
 62
     4
370
     9
100
AcDbLine
 10
655.7193309645427
 20
437.6270910791329
 30
0.0
 11
655.7193309645427
 21
453.4807431114416
 31
0.0
  0
LINE
  5
1BE
330
1BA
100
AcDbEntity
  8
9
  6
Continuous
 62
     4
370
     9
100
AcDbLine
 10
635.2193309645427
 20
427.7270910791315
 30
0.0
 11
635.2193309645427
 21
453.4807431114416
 31
0.0
  0
LINE
  5
1BF
330
1BA
100
AcDbEntity
  8
9
  6
Continuous
 62
     4
370
     9
100
AcDbLine
 10
665.2193309645427
 20
450.4807431114416
 30
0.0
 11
635.2193309645427
 21
450.4807431114416
 31
0.0
  0
MTEXT
  5
1C0
330
1BA
100
AcDbEntity
  8
9
  6
Continuous
 62
     4
370
     9
100
AcDbMText
 10
665.2193309645427
 20
450.4807431114416
 30
0.0
 40
6.0
 41
128.5714285714286
 46
6.0
 71
     4
 72
     1
  1
(20.5)
  7
ＭＳ ゴシック
 73
     1
 44
1.0
1001
ACAD
1000
ACAD_MTEXT_DEFINED_HEIGHT_BEGIN
1070
    46
1040
6.0
1000
ACAD_MTEXT_DEFINED_HEIGHT_END
  0
INSERT
  5
1C1
330
1BA
100
AcDbEntity
  8
9
  6
Continuous
 62
     4
370
     9
100
AcDbBlockReference
  2
_ARROWFILLED
 10
655.7193309645427
 20
450.4807431114416
 30
0.0
 41
4.0
 42
4.0
 43
4.0
 50
359.9999999999997
  0
INSERT
  5
1C2
330
1BA
100
AcDbEntity
  8
9
  6
Continuous
 62
     4
370
     9
100
AcDbBlockReference
  2
_ARROWFILLED
 10
635.2193309645427
 20
450.4807431114416
 30
0.0
 41
4.0
 42
4.0
 43
4.0
 50
179.9999999999998
  0
ENDBLK
  5
1BC
330
1BA
100
AcDbEntity
  8
0
100
AcDbBlockEnd
  0
BLOCK
  5
1C5
330
1C4
100
AcDbEntity
  8
0
100
AcDbBlockBegin
  2
Dim3
 70
     0
 10
0.0
 20
0.0
 30
0.0
  3
Dim3
  1
Dim3
  0
LINE
  5
1C7
330
1C4
100
AcDbEntity
  8
9
  6
Continuous
 62
     4
370
     9
100
AcDbLine
 10
655.7193309645427
 20
173.6270910791329
 30
0.0
 11
655.7193309645427
 21
157.9447442672092
 31
0.0
  0
LINE
  5
1C8
330
1C4
100
AcDbEntity
  8
9
  6
Continuous
 62
     4
370
     9
100
AcDbLine
 10
654.71933096454
 20
173.6270910791329
 30
0.0
 11
654.71933096454
 21
157.9447442672092
 31
0.0
  0
LINE
  5
1C9
330
1C4
100
AcDbEntity
  8
9
  6
Continuous
 62
     4
370
     9
100
AcDbLine
 10
665.2193309645427
 20
160.9447442672092
 30
0.0
 11
646.71933096454
 21
160.9447442672092
 31
0.0
  0
MTEXT
  5
1CA
330
1C4
100
AcDbEntity
  8
9
  6
Continuous
 62
     4
370
     9
100
AcDbMText
 10
665.2193309645427
 20
160.9447442672092
 30
0.0
 40
6.0
 41
7.142857142857143
 46
6.0
 71
     4
 72
     1
  1
1
  7
ＭＳ ゴシック
 73
     1
 44
1.0
1001
ACAD
1000
ACAD_MTEXT_DEFINED_HEIGHT_BEGIN
1070
    46
1040
6.0
1000
ACAD_MTEXT_DEFINED_HEIGHT_END
  0
INSERT
  5
1CB
330
1C4
100
AcDbEntity
  8
9
  6
Continuous
 62
     4
370
     9
100
AcDbBlockReference
  2
_ARROWFILLED
 10
655.7193309645427
 20
160.9447442672092
 30
0.0
 41
4.0
 42
4.0
 43
4.0
 50
179.9999999999995
  0
INSERT
  5
1CC
330
1C4
100
AcDbEntity
  8
9
  6
Continuous
 62
     4
370
     9
100
AcDbBlockReference
  2
_ARROWFILLED
 10
654.71933096454
 20
160.9447442672092
 30
0.0
 41
4.0
 42
4.0
 43
4.0
 50
359.9999999999997
  0
ENDBLK
  5
1C6
330
1C4
100
AcDbEntity
  8
0
100
AcDbBlockEnd
  0
BLOCK
  5
231
330
230
100
AcDbEntity
  8
0
100
AcDbBlockBegin
  2
Dim4
 70
     0
 10
0.0
 20
0.0
 30
0.0
  3
Dim4
  1
Dim4
  0
LINE
  5
233
330
230
100
AcDbEntity
  8
9
  6
Continuous
 62
     4
370
     9
100
AcDbLine
 10
326.2032419438601
 20
173.0270910791328
 30
0.0
 11
326.2032419438601
 21
146.4267513078651
 31
0.0
  0
LINE
  5
234
330
230
100
AcDbEntity
  8
9
  6
Continuous
 62
     4
370
     9
100
AcDbLine
 10
396.2032419438583
 20
173.0270910791328
 30
0.0
 11
396.2032419438582
 21
146.4267513078651
 31
0.0
  0
LINE
  5
235
330
230
100
AcDbEntity
  8
9
  6
Continuous
 62
     4
370
     9
100
AcDbLine
 10
326.2032419438601
 20
149.4267513078651
 30
0.0
 11
396.2032419438582
 21
149.4267513078651
 31
0.0
  0
MTEXT
  5
236
330
230
100
AcDbEntity
  8
9
  6
Continuous
 62
     4
370
     9
100
AcDbMText
 10
361.2032419438592
 20
149.4267513078651
 30
0.0
 40
6.0
 41
48.57142857142856
 46
6.0
 71
     8
 72
     1
  1
70
  7
ＭＳ ゴシック
 73
     1
 44
1.0
1001
ACAD
1000
ACAD_MTEXT_DEFINED_HEIGHT_BEGIN
1070
    46
1040
6.0
1000
ACAD_MTEXT_DEFINED_HEIGHT_END
  0
INSERT
  5
237
330
230
100
AcDbEntity
  8
9
  6
Continuous
 62
     4
370
     9
100
AcDbBlockReference
  2
_ARROWFILLED
 10
326.2032419438601
 20
149.4267513078651
 30
0.0
 41
4.0
 42
4.0
 43
4.0
 50
179.9999999999998
  0
INSERT
  5
238
330
230
100
AcDbEntity
  8
9
  6
Continuous
 62
     4
370
     9
100
AcDbBlockReference
  2
_ARROWFILLED
 10
396.2032419438582
 20
149.4267513078651
 30
0.0
 41
4.0
 42
4.0
 43
4.0
 50
359.9999999999997
  0
ENDBLK
  5
232
330
230
100
AcDbEntity
  8
0
100
AcDbBlockEnd
  0
BLOCK
  5
23B
330
23A
100
AcDbEntity
  8
0
100
AcDbBlockBegin
  2
Dim5
 70
     0
 10
0.0
 20
0.0
 30
0.0
  3
Dim5
  1
Dim5
  0
LINE
  5
23D
330
23A
100
AcDbEntity
  8
9
  6
Continuous
 62
     4
370
     9
100
AcDbLine
 10
286.2032419438601
 20
173.0270910791328
 30
0.0
 11
286.2032419438601
 21
130.4267513078651
 31
0.0
  0
LINE
  5
23E
330
23A
100
AcDbEntity
  8
9
  6
Continuous
 62
     4
370
     9
100
AcDbLine
 10
436.2032419438592
 20
173.0270910791328
 30
0.0
 11
436.2032419438592
 21
130.4267513078651
 31
0.0
  0
LINE
  5
23F
330
23A
100
AcDbEntity
  8
9
  6
Continuous
 62
     4
370
     9
100
AcDbLine
 10
286.2032419438601
 20
133.4267513078651
 30
0.0
 11
436.2032419438592
 21
133.4267513078651
 31
0.0
  0
MTEXT
  5
240
330
23A
100
AcDbEntity
  8
9
  6
Continuous
 62
     4
370
     9
100
AcDbMText
 10
361.2032419438592
 20
133.4267513078651
 30
0.0
 40
6.0
 41
72.85714285714286
 46
6.0
 71
     8
 72
     1
  1
150
  7
ＭＳ ゴシック
 73
     1
 44
1.0
1001
ACAD
1000
ACAD_MTEXT_DEFINED_HEIGHT_BEGIN
1070
    46
1040
6.0
1000
ACAD_MTEXT_DEFINED_HEIGHT_END
  0
INSERT
  5
241
330
23A
100
AcDbEntity
  8
9
  6
Continuous
 62
     4
370
     9
100
AcDbBlockReference
  2
_ARROWFILLED
 10
286.2032419438601
 20
133.4267513078651
 30
0.0
 41
4.0
 42
4.0
 43
4.0
 50
179.9999999999998
  0
INSERT
  5
242
330
23A
100
AcDbEntity
  8
9
  6
Continuous
 62
     4
370
     9
100
AcDbBlockReference
  2
_ARROWFILLED
 10
436.2032419438592
 20
133.4267513078651
 30
0.0
 41
4.0
 42
4.0
 43
4.0
 50
359.9999999999997
  0
ENDBLK
  5
23C
330
23A
100
AcDbEntity
  8
0
100
AcDbBlockEnd
  0
BLOCK
  5
245
330
244
100
AcDbEntity
  8
0
100
AcDbBlockBegin
  2
Dim6
 70
     0
 10
0.0
 20
0.0
 30
0.0
  3
Dim6
  1
Dim6
  0
LINE
  5
247
330
244
100
AcDbEntity
  8
9
  6
Continuous
 62
     4
370
     9
100
AcDbLine
 10
261.2032419438601
 20
203.6270910791329
 30
0.0
 11
261.20324194386
 21
114.4267513078651
 31
0.0
  0
LINE
  5
248
330
244
100
AcDbEntity
  8
9
  6
Continuous
 62
     4
370
     9
100
AcDbLine
 10
461.2032419438592
 20
203.6270910791329
 30
0.0
 11
461.203241943859
 21
114.4267513078651
 31
0.0
  0
LINE
  5
249
330
244
100
AcDbEntity
  8
9
  6
Continuous
 62
     4
370
     9
100
AcDbLine
 10
261.20324194386
 20
117.4267513078651
 30
0.0
 11
461.203241943859
 21
117.4267513078651
 31
0.0
  0
MTEXT
  5
24A
330
244
100
AcDbEntity
  8
9
  6
Continuous
 62
     4
370
     9
100
AcDbMText
 10
361.2032419438592
 20
117.4267513078651
 30
0.0
 40
6.0
 41
77.14285714285714
 46
6.0
 71
     8
 72
     1
  1
200
  7
ＭＳ ゴシック
 73
     1
 44
1.0
1001
ACAD
1000
ACAD_MTEXT_DEFINED_HEIGHT_BEGIN
1070
    46
1040
6.0
1000
ACAD_MTEXT_DEFINED_HEIGHT_END
  0
INSERT
  5
24B
330
244
100
AcDbEntity
  8
9
  6
Continuous
 62
     4
370
     9
100
AcDbBlockReference
  2
_ARROWFILLED
 10
261.20324194386
 20
117.4267513078651
 30
0.0
 41
4.0
 42
4.0
 43
4.0
 50
179.9999999999998
  0
INSERT
  5
24C
330
244
100
AcDbEntity
  8
9
  6
Continuous
 62
     4
370
     9
100
AcDbBlockReference
  2
_ARROWFILLED
 10
461.203241943859
 20
117.4267513078651
 30
0.0
 41
4.0
 42
4.0
 43
4.0
 50
359.9999999999997
  0
ENDBLK
  5
246
330
244
100
AcDbEntity
  8
0
100
AcDbBlockEnd
  0
BLOCK
  5
24F
330
24E
100
AcDbEntity
  8
0
100
AcDbBlockBegin
  2
Dim7
 70
     0
 10
0.0
 20
0.0
 30
0.0
  3
Dim7
  1
Dim7
  0
LINE
  5
251
330
24E
100
AcDbEntity
  8
9
  6
Continuous
 62
     4
370
     9
100
AcDbLine
 10
246.2032419438601
 20
188.627091079132
 30
0.0
 11
246.20324194386
 21
98.4267513078651
 31
0.0
  0
LINE
  5
252
330
24E
100
AcDbEntity
  8
9
  6
Continuous
 62
     4
370
     9
100
AcDbLine
 10
476.2032419438592
 20
188.6270910791329
 30
0.0
 11
476.203241943859
 21
98.4267513078651
 31
0.0
  0
LINE
  5
253
330
24E
100
AcDbEntity
  8
9
  6
Continuous
 62
     4
370
     9
100
AcDbLine
 10
246.20324194386
 20
101.4267513078651
 30
0.0
 11
476.203241943859
 21
101.4267513078651
 31
0.0
  0
MTEXT
  5
254
330
24E
100
AcDbEntity
  8
9
  6
Continuous
 62
     4
370
     9
100
AcDbMText
 10
361.2032419438592
 20
101.4267513078651
 30
0.0
 40
6.0
 41
77.14285714285714
 46
6.0
 71
     8
 72
     1
  1
230
  7
ＭＳ ゴシック
 73
     1
 44
1.0
1001
ACAD
1000
ACAD_MTEXT_DEFINED_HEIGHT_BEGIN
1070
    46
1040
6.0
1000
ACAD_MTEXT_DEFINED_HEIGHT_END
  0
INSERT
  5
255
330
24E
100
AcDbEntity
  8
9
  6
Continuous
 62
     4
370
     9
100
AcDbBlockReference
  2
_ARROWFILLED
 10
246.20324194386
 20
101.4267513078651
 30
0.0
 41
4.0
 42
4.0
 43
4.0
 50
179.9999999999998
  0
INSERT
  5
256
330
24E
100
AcDbEntity
  8
9
  6
Continuous
 62
     4
370
     9
100
AcDbBlockReference
  2
_ARROWFILLED
 10
476.203241943859
 20
101.4267513078651
 30
0.0
 41
4.0
 42
4.0
 43
4.0
 50
359.9999999999997
  0
ENDBLK
  5
250
330
24E
100
AcDbEntity
  8
0
100
AcDbBlockEnd
  0
BLOCK
  5
259
330
258
100
AcDbEntity
  8
0
100
AcDbBlockBegin
  2
Dim8
 70
     0
 10
0.0
 20
0.0
 30
0.0
  3
Dim8
  1
Dim8
  0
LINE
  5
25B
330
258
100
AcDbEntity
  8
9
  6
Continuous
 62
     4
370
     9
100
AcDbLine
 10
463.2032419438592
 20
205.6270910791329
 30
0.0
 11
503.5045551727253
 21
205.6270910791328
 31
0.0
  0
LINE
  5
25C
330
258
100
AcDbEntity
  8
9
  6
Continuous
 62
     4
370
     9
100
AcDbLine
 10
463.2032419438592
 20
405.6270910791329
 30
0.0
 11
503.5045551727253
 21
405.6270910791328
 31
0.0
  0
LINE
  5
25D
330
258
100
AcDbEntity
  8
9
  6
Continuous
 62
     4
370
     9
100
AcDbLine
 10
500.5045551727253
 20
205.6270910791328
 30
0.0
 11
500.5045551727253
 21
405.6270910791328
 31
0.0
  0
MTEXT
  5
25E
330
258
100
AcDbEntity
  8
9
  6
Continuous
 62
     4
370
     9
100
AcDbMText
 10
500.5045551727253
 20
305.6270910791329
 30
0.0
 40
6.0
 41
77.14285714285714
 46
6.0
 71
     8
 72
     1
  1
200
  7
ＭＳ ゴシック
 11
1.615544574432587E-15
 21
1.0
 31
0.0
 73
     1
 44
1.0
1001
ACAD
1000
ACAD_MTEXT_DEFINED_HEIGHT_BEGIN
1070
    46
1040
6.0
1000
ACAD_MTEXT_DEFINED_HEIGHT_END
  0
INSERT
  5
25F
330
258
100
AcDbEntity
  8
9
  6
Continuous
 62
     4
370
     9
100
AcDbBlockReference
  2
_ARROWFILLED
 10
500.5045551727253
 20
205.6270910791328
 30
0.0
 41
4.0
 42
4.0
 43
4.0
 50
269.9999999999998
  0
INSERT
  5
260
330
258
100
AcDbEntity
  8
9
  6
Continuous
 62
     4
370
     9
100
AcDbBlockReference
  2
_ARROWFILLED
 10
500.5045551727253
 20
405.6270910791328
 30
0.0
 41
4.0
 42
4.0
 43
4.0
 50
89.99999999999991
  0
ENDBLK
  5
25A
330
258
100
AcDbEntity
  8
0
100
AcDbBlockEnd
  0
BLOCK
  5
263
330
262
100
AcDbEntity
  8
0
100
AcDbBlockBegin
  2
Dim9
 70
     0
 10
0.0
 20
0.0
 30
0.0
  3
Dim9
  1
Dim9
  0
LINE
  5
265
330
262
100
AcDbEntity
  8
9
  6
Continuous
 62
     4
370
     9
100
AcDbLine
 10
478.2032419438592
 20
190.6270910791329
 30
0.0
 11
519.5045551727253
 21
190.6270910791328
 31
0.0
  0
LINE
  5
266
330
262
100
AcDbEntity
  8
9
  6
Continuous
 62
     4
370
     9
100
AcDbLine
 10
478.2032419438592
 20
420.6270910791329
 30
0.0
 11
519.5045551727253
 21
420.6270910791328
 31
0.0
  0
LINE
  5
267
330
262
100
AcDbEntity
  8
9
  6
Continuous
 62
     4
370
     9
100
AcDbLine
 10
516.5045551727253
 20
190.6270910791328
 30
0.0
 11
516.5045551727253
 21
420.6270910791328
 31
0.0
  0
MTEXT
  5
268
330
262
100
AcDbEntity
  8
9
  6
Continuous
 62
     4
370
     9
100
AcDbMText
 10
516.5045551727253
 20
305.6270910791336
 30
0.0
 40
6.0
 41
77.14285714285714
 46
6.0
 71
     8
 72
     1
  1
230
  7
ＭＳ ゴシック
 11
1.615544574432587E-15
 21
1.0
 31
0.0
 73
     1
 44
1.0
1001
ACAD
1000
ACAD_MTEXT_DEFINED_HEIGHT_BEGIN
1070
    46
1040
6.0
1000
ACAD_MTEXT_DEFINED_HEIGHT_END
  0
INSERT
  5
269
330
262
100
AcDbEntity
  8
9
  6
Continuous
 62
     4
370
     9
100
AcDbBlockReference
  2
_ARROWFILLED
 10
516.5045551727253
 20
190.6270910791328
 30
0.0
 41
4.0
 42
4.0
 43
4.0
 50
269.9999999999998
  0
INSERT
  5
26A
330
262
100
AcDbEntity
  8
9
  6
Continuous
 62
     4
370
     9
100
AcDbBlockReference
  2
_ARROWFILLED
 10
516.5045551727253
 20
420.6270910791328
 30
0.0
 41
4.0
 42
4.0
 43
4.0
 50
89.99999999999991
  0
ENDBLK
  5
264
330
262
100
AcDbEntity
  8
0
100
AcDbBlockEnd
  0
BLOCK
  5
26D
330
26C
100
AcDbEntity
  8
0
100
AcDbBlockBegin
  2
Dim10
 70
     0
 10
0.0
 20
0.0
 30
0.0
  3
Dim10
  1
Dim10
  0
LINE
  5
26F
330
26C
100
AcDbEntity
  8
9
  6
Continuous
 62
     4
370
     9
100
AcDbLine
 10
445.8032419438596
 20
182.6270910791329
 30
0.0
 11
535.5045551727253
 21
182.6270910791326
 31
0.0
  0
LINE
  5
270
330
26C
100
AcDbEntity
  8
9
  6
Continuous
 62
     4
370
     9
100
AcDbLine
 10
445.8032419438596
 20
428.6270910791327
 30
0.0
 11
535.5045551727253
 21
428.6270910791324
 31
0.0
  0
LINE
  5
271
330
26C
100
AcDbEntity
  8
9
  6
Continuous
 62
     4
370
     9
100
AcDbLine
 10
532.5045551727253
 20
182.6270910791326
 30
0.0
 11
532.5045551727253
 21
428.6270910791324
 31
0.0
  0
MTEXT
  5
272
330
26C
100
AcDbEntity
  8
9
  6
Continuous
 62
     4
370
     9
100
AcDbMText
 10
532.5045551727253
 20
305.6270910791334
 30
0.0
 40
6.0
 41
77.14285714285714
 46
6.0
 71
     8
 72
     1
  1
246
  7
ＭＳ ゴシック
 11
1.615544574432587E-15
 21
1.0
 31
0.0
 73
     1
 44
1.0
1001
ACAD
1000
ACAD_MTEXT_DEFINED_HEIGHT_BEGIN
1070
    46
1040
6.0
1000
ACAD_MTEXT_DEFINED_HEIGHT_END
  0
INSERT
  5
273
330
26C
100
AcDbEntity
  8
9
  6
Continuous
 62
     4
370
     9
100
AcDbBlockReference
  2
_ARROWFILLED
 10
532.5045551727253
 20
182.6270910791326
 30
0.0
 41
4.0
 42
4.0
 43
4.0
 50
269.9999999999998
  0
INSERT
  5
274
330
26C
100
AcDbEntity
  8
9
  6
Continuous
 62
     4
370
     9
100
AcDbBlockReference
  2
_ARROWFILLED
 10
532.5045551727253
 20
428.6270910791324
 30
0.0
 41
4.0
 42
4.0
 43
4.0
 50
89.99999999999991
  0
ENDBLK
  5
26E
330
26C
100
AcDbEntity
  8
0
100
AcDbBlockEnd
  0
BLOCK
  5
277
330
276
100
AcDbEntity
  8
0
100
AcDbBlockBegin
  2
Dim11
 70
     0
 10
0.0
 20
0.0
 30
0.0
  3
Dim11
  1
Dim11
  0
LINE
  5
279
330
276
100
AcDbEntity
  8
9
  6
Continuous
 62
     4
370
     9
100
AcDbLine
 10
458.2032419438601
 20
435.6270910791329
 30
0.0
 11
551.5045551727253
 21
435.6270910791326
 31
0.0
  0
LINE
  5
27A
330
276
100
AcDbEntity
  8
9
  6
Continuous
 62
     4
370
     9
100
AcDbLine
 10
458.2032419438601
 20
175.6270910791338
 30
0.0
 11
551.5045551727253
 21
175.6270910791335
 31
0.0
  0
LINE
  5
27B
330
276
100
AcDbEntity
  8
9
  6
Continuous
 62
     4
370
     9
100
AcDbLine
 10
548.5045551727253
 20
435.6270910791326
 30
0.0
 11
548.5045551727253
 21
175.6270910791335
 31
0.0
  0
MTEXT
  5
27C
330
276
100
AcDbEntity
  8
9
  6
Continuous
 62
     4
370
     9
100
AcDbMText
 10
548.5045551727253
 20
305.6270910791341
 30
0.0
 40
6.0
 41
77.14285714285714
 46
6.0
 71
     8
 72
     1
  1
260
  7
ＭＳ ゴシック
 11
1.615544574432587E-15
 21
1.0
 31
0.0
 73
     1
 44
1.0
1001
ACAD
1000
ACAD_MTEXT_DEFINED_HEIGHT_BEGIN
1070
    46
1040
6.0
1000
ACAD_MTEXT_DEFINED_HEIGHT_END
  0
INSERT
  5
27D
330
276
100
AcDbEntity
  8
9
  6
Continuous
 62
     4
370
     9
100
AcDbBlockReference
  2
_ARROWFILLED
 10
548.5045551727253
 20
435.6270910791326
 30
0.0
 41
4.0
 42
4.0
 43
4.0
 50
89.99999999999991
  0
INSERT
  5
27E
330
276
100
AcDbEntity
  8
9
  6
Continuous
 62
     4
370
     9
100
AcDbBlockReference
  2
_ARROWFILLED
 10
548.5045551727253
 20
175.6270910791335
 30
0.0
 41
4.0
 42
4.0
 43
4.0
 50
269.9999999999998
  0
ENDBLK
  5
278
330
276
100
AcDbEntity
  8
0
100
AcDbBlockEnd
  0
BLOCK
  5
281
330
280
100
AcDbEntity
  8
0
100
AcDbBlockBegin
  2
Dim12
 70
     0
 10
0.0
 20
0.0
 30
0.0
  3
Dim12
  1
Dim12
  0
LINE
  5
283
330
280
100
AcDbEntity
  8
9
  6
Continuous
 62
     4
370
     9
100
AcDbLine
 10
610.7193309645427
 20
188.6270910791329
 30
0.0
 11
610.7193309645426
 21
140.5035304538042
 31
0.0
  0
LINE
  5
284
330
280
100
AcDbEntity
  8
9
  6
Continuous
 62
     4
370
     9
100
AcDbLine
 10
655.7193309645427
 20
173.6270910791329
 30
0.0
 11
655.7193309645427
 21
140.5035304538042
 31
0.0
  0
LINE
  5
285
330
280
100
AcDbEntity
  8
9
  6
Continuous
 62
     4
370
     9
100
AcDbLine
 10
610.7193309645426
 20
143.5035304538042
 30
0.0
 11
655.7193309645427
 21
143.5035304538042
 31
0.0
  0
MTEXT
  5
286
330
280
100
AcDbEntity
  8
9
  6
Continuous
 62
     4
370
     9
100
AcDbMText
 10
633.2193309645427
 20
143.5035304538042
 30
0.0
 40
6.0
 41
48.57142857142856
 46
6.0
 71
     8
 72
     1
  1
45
  7
ＭＳ ゴシック
 73
     1
 44
1.0
1001
ACAD
1000
ACAD_MTEXT_DEFINED_HEIGHT_BEGIN
1070
    46
1040
6.0
1000
ACAD_MTEXT_DEFINED_HEIGHT_END
  0
INSERT
  5
287
330
280
100
AcDbEntity
  8
9
  6
Continuous
 62
     4
370
     9
100
AcDbBlockReference
  2
_ARROWFILLED
 10
610.7193309645426
 20
143.5035304538042
 30
0.0
 41
4.0
 42
4.0
 43
4.0
 50
179.9999999999998
  0
INSERT
  5
288
330
280
100
AcDbEntity
  8
9
  6
Continuous
 62
     4
370
     9
100
AcDbBlockReference
  2
_ARROWFILLED
 10
655.7193309645427
 20
143.5035304538042
 30
0.0
 41
4.0
 42
4.0
 43
4.0
 50
359.9999999999997
  0
ENDBLK
  5
282
330
280
100
AcDbEntity
  8
0
100
AcDbBlockEnd
  0
BLOCK
  5
28B
330
28A
100
AcDbEntity
  8
0
100
AcDbBlockBegin
  2
Dim13
 70
     0
 10
0.0
 20
0.0
 30
0.0
  3
Dim13
  1
Dim13
  0
LINE
  5
28D
330
28A
100
AcDbEntity
  8
9
  6
Continuous
 62
     4
370
     9
100
AcDbLine
 10
392.1183972215639
 20
288.1770717623654
 30
0.0
 11
197.5761555310581
 21
397.9861878716736
 31
0.0
  0
MTEXT
  5
28E
330
28A
100
AcDbEntity
  8
9
  6
Continuous
 62
     4
370
     9
100
AcDbMText
 10
205.413800531039
 20
393.5622393124931
 30
0.0
 40
6.0
 41
75.71428571428571
 46
6.0
 71
     9
 72
     1
  1
∅55
  7
ＭＳ ゴシック
 11
0.8708494444423232
 21
-0.4915498399089324
 31
0.0
 73
     1
 44
1.0
1001
ACAD
1000
ACAD_MTEXT_DEFINED_HEIGHT_BEGIN
1070
    46
1040
6.0
1000
ACAD_MTEXT_DEFINED_HEIGHT_END
  0
INSERT
  5
28F
330
28A
100
AcDbEntity
  8
9
  6
Continuous
 62
     4
370
     9
100
AcDbBlockReference
  2
_ARROWFILLED
 10
385.1516016660253
 20
292.1094704816368
 30
0.0
 41
4.0
 42
4.0
 43
4.0
 50
150.5575009506451
  0
INSERT
  5
290
330
28A
100
AcDbEntity
  8
9
  6
Continuous
 62
     4
370
     9
100
AcDbBlockReference
  2
_ARROWFILLED
 10
337.2548822216982
 20
319.1447116766279
 30
0.0
 41
4.0
 42
4.0
 43
4.0
 50
330.5575009506451
  0
ENDBLK
  5
28C
330
28A
100
AcDbEntity
  8
0
100
AcDbBlockEnd
  0
BLOCK
  5
293
330
292
100
AcDbEntity
  8
0
100
AcDbBlockBegin
  2
Dim14
 70
     0
 10
0.0
 20
0.0
 30
0.0
  3
Dim14
  1
Dim14
  0
LINE
  5
295
330
292
100
AcDbEntity
  8
9
  6
Continuous
 62
     4
370
     9
100
AcDbLine
 10
400.1326734263016
 20
294.4579655782995
 30
0.0
 11
197.3257982115909
 21
352.64467304991
 31
0.0
  0
MTEXT
  5
296
330
292
100
AcDbEntity
  8
9
  6
Continuous
 62
     4
370
     9
100
AcDbMText
 10
205.9767829854682
 20
350.1626451608356
 30
0.0
 40
6.0
 41
75.71428571428571
 46
6.0
 71
     9
 72
     1
  1
∅65
  7
ＭＳ ゴシック
 11
0.9612205304308103
 21
-0.2757808765638249
 31
0.0
 73
     1
 44
1.0
1001
ACAD
1000
ACAD_MTEXT_DEFINED_HEIGHT_BEGIN
1070
    46
1040
6.0
1000
ACAD_MTEXT_DEFINED_HEIGHT_END
  0
INSERT
  5
297
330
292
100
AcDbEntity
  8
9
  6
Continuous
 62
     4
370
     9
100
AcDbBlockReference
  2
_ARROWFILLED
 10
392.4429091828551
 20
296.6642125908101
 30
0.0
 41
4.0
 42
4.0
 43
4.0
 50
163.9914452961509
  0
INSERT
  5
298
330
292
100
AcDbEntity
  8
9
  6
Continuous
 62
     4
370
     9
100
AcDbBlockReference
  2
_ARROWFILLED
 10
329.963574704852
 20
314.5899695674591
 30
0.0
 41
4.0
 42
4.0
 43
4.0
 50
343.9914452961509
  0
ENDBLK
  5
294
330
292
100
AcDbEntity
  8
0
100
AcDbBlockEnd
  0
BLOCK
  5
323
330
322
100
AcDbEntity
  8
0
100
AcDbBlockBegin
  2
*G30
 70
     1
 10
0.0
 20
0.0
 30
0.0
  3
*G30
  1
*G30
  0
MTEXT
  5
325
330
322
100
AcDbEntity
  8
2
  6
Continuous
 62
   151
370
     9
100
AcDbMText
 10
145.6063965892034
 20
155.5321491329471
 30
0.0
 40
0.96
 41
0.0
 46
0.96
 71
     4
 72
     1
  1
{\fＭＳ ゴシック;\T2.312500; }
 73
     1
 44
1.0
1001
ACAD
1000
ACAD_MTEXT_DEFINED_HEIGHT_BEGIN
1070
    46
1040
0.96
1000
ACAD_MTEXT_DEFINED_HEIGHT_END
  0
MTEXT
  5
326
330
322
100
AcDbEntity
  8
2
  6
Continuous
 62
   151
370
     9
100
AcDbMText
 10
146.5663965892034
 20
156.6521331329471
 30
0.0
 40
3.199968
 41
1.22232377664
 46
3.199968
 71
     4
 72
     1
  1
{\fＭＳ ゴシック;\T4.000000;1 }
 73
     1
 44
1.0
1001
ACAD
1000
ACAD_MTEXT_DEFINED_HEIGHT_BEGIN
1070
    46
1040
3.199968
1000
ACAD_MTEXT_DEFINED_HEIGHT_END
  0
MTEXT
  5
327
330
322
100
AcDbEntity
  8
2
  6
Continuous
 62
   151
370
     9
100
AcDbMText
 10
152.8139531606319
 20
155.4521451329471
 30
0.0
 40
0.7999919999999999
 41
0.0
 46
0.7999919999999999
 71
     4
 72
     1
  1
{\fＭＳ ゴシック;\T2.625019; }
 73
     1
 44
1.0
1001
ACAD
1000
ACAD_MTEXT_DEFINED_HEIGHT_BEGIN
1070
    46
1040
0.7999919999999999
1000
ACAD_MTEXT_DEFINED_HEIGHT_END
  0
MTEXT
  5
328
330
322
100
AcDbEntity
  8
2
  6
Continuous
 62
   151
370
     9
100
AcDbMText
 10
153.6139451606319
 20
156.6521331329471
 30
0.0
 40
3.199968
 41
2.65366946304
 46
3.199968
 71
     4
 72
     1
  1
{\fＭＳ ゴシック;\T1.218755;+}
 73
     1
 44
1.0
1001
ACAD
1000
ACAD_MTEXT_DEFINED_HEIGHT_BEGIN
1070
    46
1040
3.199968
1000
ACAD_MTEXT_DEFINED_HEIGHT_END
  0
MTEXT
  5
329
330
322
100
AcDbEntity
  8
2
  6
Continuous
 62
   151
370
     9
100
AcDbMText
 10
145.6063965892034
 20
151.3188424662804
 30
0.0
 40
3.199968
 41
13.2876323922673
 46
3.199968
 71
     4
 72
     1
  1
{\fＭＳ ゴシック;\T1.218755;2 NC}
 73
     1
 44
1.0
1001
ACAD
1000
ACAD_MTEXT_DEFINED_HEIGHT_BEGIN
1070
    46
1040
3.199968
1000
ACAD_MTEXT_DEFINED_HEIGHT_END
  0
MTEXT
  5
32A
330
322
100
AcDbEntity
  8
2
  6
Continuous
 62
   151
370
     9
100
AcDbMText
 10
145.6063965892034
 20
145.9855517996137
 30
0.0
 40
3.199968
 41
9.711170400604868
 46
3.199968
 71
     4
 72
     1
  1
{\fＭＳ ゴシック;\T1.218755;3 -}
 73
     1
 44
1.0
1001
ACAD
1000
ACAD_MTEXT_DEFINED_HEIGHT_BEGIN
1070
    46
1040
3.199968
1000
ACAD_MTEXT_DEFINED_HEIGHT_END
  0
ENDBLK
  5
324
330
322
100
AcDbEntity
  8
0
100
AcDbBlockEnd
  0
ENDSEC
  0
SECTION
  2
ENTITIES
  0
POLYLINE
  5
CC
330
1F
100
AcDbEntity
  8
10
  6
Continuous
 62
     7
370
    25
100
AcDb2dPolyline
 66
     1
 10
0.0
 20
0.0
 30
0.0
  0
VERTEX
  5
CD
330
CC
100
AcDbEntity
  8
10
  6
Continuous
 62
     7
370
    25
100
AcDbVertex
100
AcDb2dVertex
 10
461.2032419438592
 20
205.6270910791329
 30
0.0
  0
VERTEX
  5
CE
330
CC
100
AcDbEntity
  8
10
  6
Continuous
 62
     7
370
    25
100
AcDbVertex
100
AcDb2dVertex
 10
461.2032419438592
 20
405.6270910791329
 30
0.0
  0
VERTEX
  5
CF
330
CC
100
AcDbEntity
  8
10
  6
Continuous
 62
     7
370
    25
100
AcDbVertex
100
AcDb2dVertex
 10
261.2032419438601
 20
405.6270910791329
 30
0.0
  0
VERTEX
  5
D0
330
CC
100
AcDbEntity
  8
10
  6
Continuous
 62
     7
370
    25
100
AcDbVertex
100
AcDb2dVertex
 10
261.2032419438601
 20
205.6270910791329
 30
0.0
  0
VERTEX
  5
D1
330
CC
100
AcDbEntity
  8
10
  6
Continuous
 62
     7
370
    25
100
AcDbVertex
100
AcDb2dVertex
 10
461.2032419438592
 20
205.6270910791329
 30
0.0
  0
SEQEND
  5
D2
330
CC
100
AcDbEntity
  8
10
  6
Continuous
 62
     7
370
    25
  0
LINE
  5
D3
330
1F
100
AcDbEntity
  8
10
  6
Continuous
 62
     7
370
    25
100
AcDbLine
 10
476.2032419438592
 20
420.6270910791329
 30
0.0
 11
476.2032419438592
 21
190.6270910791329
 31
0.0
  0
LINE
  5
D4
330
1F
100
AcDbEntity
  8
10
  6
Continuous
 62
     7
370
    25
100
AcDbLine
 10
476.2032419438592
 20
190.6270910791329
 30
0.0
 11
246.2032419438601
 21
190.627091079132
 31
0.0
  0
LINE
  5
D5
330
1F
100
AcDbEntity
  8
10
  6
Continuous
 62
     7
370
    25
100
AcDbLine
 10
476.2032419438592
 20
420.6270910791329
 30
0.0
 11
246.2032419438601
 21
420.6270910791329
 31
0.0
  0
LINE
  5
D6
330
1F
100
AcDbEntity
  8
10
  6
Continuous
 62
     7
370
    25
100
AcDbLine
 10
246.2032419438601
 20
420.6270910791329
 30
0.0
 11
246.2032419438601
 21
190.627091079132
 31
0.0
  0
LINE
  5
D7
330
1F
100
AcDbEntity
  8
10
  6
Continuous
 62
     7
370
    25
100
AcDbLine
 10
649.1693309645416
 20
190.3104244124663
 30
0.0
 11
642.269330964541
 21
190.3104244124663
 31
0.0
  0
ARC
  5
D8
330
1F
100
AcDbEntity
  8
10
  6
Continuous
 62
     7
370
    25
100
AcDbCircle
 10
645.7193309645418
 20
193.2774419563259
 30
0.0
 40
4.550350877192955
100
AcDbArc
 50
220.695698525394
 51
319.3043014745918
  0
LINE
  5
D9
330
1F
100
AcDbEntity
  8
10
  6
Continuous
 62
     7
370
    25
100
AcDbLine
 10
649.1693309645416
 20
190.6270910791329
 30
0.0
 11
649.1693309645416
 21
190.3104244124663
 31
0.0
  0
LINE
  5
DA
330
1F
100
AcDbEntity
  8
10
  6
Continuous
 62
     7
370
    25
100
AcDbLine
 10
642.269330964541
 20
190.6270910791329
 30
0.0
 11
642.269330964541
 21
190.3104244124663
 31
0.0
  0
LINE
  5
DB
330
1F
100
AcDbEntity
  8
10
  6
Continuous
 62
     7
370
    25
100
AcDbLine
 10
610.7193309645427
 20
420.6270910791329
 30
0.0
 11
610.7193309645427
 21
190.6270910791329
 31
0.0
  0
LINE
  5
DC
330
1F
100
AcDbEntity
  8
10
  6
Continuous
 62
     7
370
    25
100
AcDbLine
 10
655.7193309645427
 20
435.6270910791329
 30
0.0
 11
655.7193309645427
 21
175.6270910791329
 31
0.0
  0
LINE
  5
DD
330
1F
100
AcDbEntity
  8
10
  6
Continuous
 62
     7
370
    25
100
AcDbLine
 10
654.7193309645418
 20
435.6270910791329
 30
0.0
 11
654.71933096454
 21
175.6270910791329
 31
0.0
  0
LINE
  5
DE
330
1F
100
AcDbEntity
  8
10
  6
Continuous
 62
     7
370
    25
100
AcDbLine
 10
610.7193309645427
 20
420.6270910791329
 30
0.0
 11
654.7193309645418
 21
420.6270910791311
 31
0.0
  0
LINE
  5
DF
330
1F
100
AcDbEntity
  8
10
  6
Continuous
 62
     7
370
    25
100
AcDbLine
 10
654.7193309645418
 20
419.6270910791311
 30
0.0
 11
655.7193309645427
 21
419.6270910791311
 31
0.0
  0
LINE
  5
E0
330
1F
100
AcDbEntity
  8
10
  6
Continuous
 62
     7
370
    25
100
AcDbLine
 10
654.7193309645418
 20
435.6270910791329
 30
0.0
 11
655.7193309645427
 21
435.6270910791329
 31
0.0
  0
LINE
  5
E1
330
1F
100
AcDbEntity
  8
10
  6
Continuous
 62
     7
370
    25
100
AcDbLine
 10
610.7193309645427
 20
190.6270910791329
 30
0.0
 11
654.71933096454
 21
190.6270910791329
 31
0.0
  0
LINE
  5
E2
330
1F
100
AcDbEntity
  8
10
  6
Continuous
 62
     7
370
    25
100
AcDbLine
 10
654.71933096454
 20
191.6270910791329
 30
0.0
 11
655.7193309645427
 21
191.6270910791329
 31
0.0
  0
LINE
  5
E3
330
1F
100
AcDbEntity
  8
10
  6
Continuous
 62
     7
370
    25
100
AcDbLine
 10
654.7193309645418
 20
175.6270910791329
 30
0.0
 11
655.7193309645427
 21
175.6270910791329
 31
0.0
  0
LINE
  5
E4
330
1F
100
AcDbEntity
  8
10
  6
Continuous
 62
     7
370
    25
100
AcDbLine
 10
461.2032419438592
 20
180.6270910791329
 30
0.0
 11
461.2032419438592
 21
190.6270910791329
 31
0.0
  0
ARC
  5
E5
330
1F
100
AcDbEntity
  8
10
  6
Continuous
 62
     7
370
    25
100
AcDbCircle
 10
456.2032419438601
 20
180.6270910791329
 30
0.0
 40
5.0
100
AcDbArc
 50
269.9999999999998
 51
0.0
  0
LINE
  5
E6
330
1F
100
AcDbEntity
  8
10
  6
Continuous
 62
     7
370
    25
100
AcDbLine
 10
266.2032419438601
 20
175.6270910791329
 30
0.0
 11
456.2032419438601
 21
175.6270910791338
 31
0.0
  0
LINE
  5
E7
330
1F
100
AcDbEntity
  8
10
  6
Continuous
 62
     7
370
    25
100
AcDbLine
 10
261.2032419438601
 20
180.6270910791329
 30
0.0
 11
261.2032419438601
 21
190.6270910791329
 31
0.0
  0
ARC
  5
E8
330
1F
100
AcDbEntity
  8
10
  6
Continuous
 62
     7
370
    25
100
AcDbCircle
 10
266.2032419438583
 20
180.6270910791329
 30
0.0
 40
5.0
100
AcDbArc
 50
179.9999999999998
 51
269.9999999999998
  0
LINE
  5
E9
330
1F
100
AcDbEntity
  8
10
  6
Continuous
 62
     7
370
    25
100
AcDbLine
 10
456.2032419438592
 20
435.6270910791329
 30
0.0
 11
373.7032419438583
 21
435.6270910791329
 31
0.0
  0
ARC
  5
EA
330
1F
100
AcDbEntity
  8
10
  6
Continuous
 62
     7
370
    25
100
AcDbCircle
 10
373.7032419438583
 20
430.6270910791327
 30
0.0
 40
5.0
100
AcDbArc
 50
89.99999999999991
 51
179.9999999999998
  0
LINE
  5
EB
330
1F
100
AcDbEntity
  8
10
  6
Continuous
 62
     7
370
    25
100
AcDbLine
 10
461.2032419438592
 20
430.6270910791327
 30
0.0
 11
461.2032419438592
 21
420.6270910791329
 31
0.0
  0
LINE
  5
EC
330
1F
100
AcDbEntity
  8
10
  6
Continuous
 62
     7
370
    25
100
AcDbLine
 10
368.7032419438583
 20
430.6270910791327
 30
0.0
 11
368.7032419438583
 21
420.6270910791329
 31
0.0
  0
ARC
  5
ED
330
1F
100
AcDbEntity
  8
10
  6
Continuous
 62
     7
370
    25
100
AcDbCircle
 10
456.2032419438601
 20
430.6270910791327
 30
0.0
 40
5.0
100
AcDbArc
 50
0.0
 51
89.99999999999991
  0
LINE
  5
EE
330
1F
100
AcDbEntity
  8
10
  6
Continuous
 62
     7
370
    25
100
AcDbLine
 10
266.2032419438601
 20
435.6270910791329
 30
0.0
 11
348.7032419438601
 21
435.6270910791329
 31
0.0
  0
ARC
  5
EF
330
1F
100
AcDbEntity
  8
10
  6
Continuous
 62
     7
370
    25
100
AcDbCircle
 10
348.7032419438601
 20
430.6270910791327
 30
0.0
 40
5.0
100
AcDbArc
 50
0.0
 51
89.99999999999991
  0
LINE
  5
F0
330
1F
100
AcDbEntity
  8
10
  6
Continuous
 62
     7
370
    25
100
AcDbLine
 10
261.2032419438601
 20
430.6270910791327
 30
0.0
 11
261.2032419438601
 21
420.6270910791329
 31
0.0
  0
LINE
  5
F1
330
1F
100
AcDbEntity
  8
10
  6
Continuous
 62
     7
370
    25
100
AcDbLine
 10
353.7032419438601
 20
430.6270910791327
 30
0.0
 11
353.7032419438601
 21
420.6270910791329
 31
0.0
  0
ARC
  5
F2
330
1F
100
AcDbEntity
  8
10
  6
Continuous
 62
     7
370
    25
100
AcDbCircle
 10
266.2032419438583
 20
430.6270910791327
 30
0.0
 40
5.0
100
AcDbArc
 50
89.99999999999991
 51
179.9999999999998
  0
LINE
  5
F3
330
1F
100
AcDbEntity
  8
10
  6
Continuous
 62
     7
370
    25
100
AcDbLine
 10
636.2193309645427
 20
427.6270910791329
 30
0.0
 11
642.2193309645418
 21
427.6270910791329
 31
0.0
  0
LINE
  5
F4
330
1F
100
AcDbEntity
  8
10
  6
Continuous
 62
     7
370
    25
100
AcDbLine
 10
639.7193309645427
 20
438.6270910791327
 30
0.0
 11
644.7193309645427
 21
438.6270910791327
 31
0.0
  0
ARC
  5
F5
330
1F
100
AcDbEntity
  8
10
  6
Continuous
 62
     7
370
    25
100
AcDbCircle
 10
639.7193309645427
 20
435.6270910791329
 30
0.0
 40
3.0
100
AcDbArc
 50
89.99999999999991
 51
179.9999999999998
  0
LINE
  5
F6
330
1F
100
AcDbEntity
  8
10
  6
Continuous
 62
     7
370
    25
100
AcDbLine
 10
636.2193309645427
 20
435.6270910791329
 30
0.0
 11
648.2193309645427
 21
435.6270910791329
 31
0.0
  0
LINE
  5
F7
330
1F
100
AcDbEntity
  8
10
  6
Continuous
 62
     7
370
    25
100
AcDbLine
 10
636.2193309645427
 20
427.6270910791329
 30
0.0
 11
636.2193309645427
 21
435.6270910791329
 31
0.0
  0
LINE
  5
F8
330
1F
100
AcDbEntity
  8
10
  6
Continuous
 62
     7
370
    25
100
AcDbLine
 10
637.2193309645418
 20
425.7270910791315
 30
0.0
 11
637.2193309645418
 21
427.6270910791329
 31
0.0
  0
LINE
  5
F9
330
1F
100
AcDbEntity
  8
10
  6
Continuous
 62
     7
370
    25
100
AcDbLine
 10
648.2193309645427
 20
427.6270910791329
 30
0.0
 11
642.2193309645418
 21
427.6270910791329
 31
0.0
  0
LINE
  5
FA
330
1F
100
AcDbEntity
  8
10
  6
Continuous
 62
     7
370
    25
100
AcDbLine
 10
642.2193309645418
 20
427.6270910791329
 30
0.0
 11
642.2193309645418
 21
435.6270910791329
 31
0.0
  0
LINE
  5
FB
330
1F
100
AcDbEntity
  8
10
  6
Continuous
 62
     7
370
    25
100
AcDbLine
 10
647.2193309645418
 20
425.7270910791315
 30
0.0
 11
647.2193309645418
 21
427.6270910791329
 31
0.0
  0
ARC
  5
FC
330
1F
100
AcDbEntity
  8
10
  6
Continuous
 62
     7
370
    25
100
AcDbCircle
 10
644.7193309645427
 20
435.6270910791329
 30
0.0
 40
3.0
100
AcDbArc
 50
0.0
 51
89.99999999999991
  0
LINE
  5
FD
330
1F
100
AcDbEntity
  8
10
  6
Continuous
 62
     7
370
    25
100
AcDbLine
 10
648.2193309645427
 20
427.6270910791329
 30
0.0
 11
648.2193309645427
 21
435.6270910791329
 31
0.0
  0
LINE
  5
FE
330
1F
100
AcDbEntity
  8
10
  6
Continuous
 62
     7
370
    25
100
AcDbLine
 10
354.9532419438601
 20
421.1270910791329
 30
0.0
 11
354.9532419438601
 21
420.6270910791329
 31
0.0
  0
LINE
  5
FF
330
1F
100
AcDbEntity
  8
10
  6
Continuous
 62
     7
370
    25
100
AcDbLine
 10
354.2032419438601
 20
421.1270910791329
 30
0.0
 11
354.2032419438601
 21
425.7270910791315
 31
0.0
  0
LINE
  5
100
330
1F
100
AcDbEntity
  8
10
  6
Continuous
 62
     7
370
    25
100
AcDbLine
 10
357.7032419438601
 20
421.1270910791329
 30
0.0
 11
357.7032419438601
 21
425.7270910791315
 31
0.0
  0
LINE
  5
101
330
1F
100
AcDbEntity
  8
10
  6
Continuous
 62
     7
370
    25
100
AcDbLine
 10
368.2032419438592
 20
421.1270910791329
 30
0.0
 11
368.2032419438592
 21
425.7270910791315
 31
0.0
  0
LINE
  5
102
330
1F
100
AcDbEntity
  8
10
  6
Continuous
 62
     7
370
    25
100
AcDbLine
 10
364.7032419438601
 20
421.1270910791329
 30
0.0
 11
364.7032419438601
 21
425.7270910791315
 31
0.0
  0
LINE
  5
103
330
1F
100
AcDbEntity
  8
10
  6
Continuous
 62
     7
370
    25
100
AcDbLine
 10
354.2032419438601
 20
425.7270910791315
 30
0.0
 11
361.2032419438601
 21
425.7270910791315
 31
0.0
  0
LINE
  5
104
330
1F
100
AcDbEntity
  8
10
  6
Continuous
 62
     7
370
    25
100
AcDbLine
 10
355.2032419438601
 20
427.6270910791329
 30
0.0
 11
361.2032419438601
 21
427.6270910791329
 31
0.0
  0
LINE
  5
105
330
1F
100
AcDbEntity
  8
10
  6
Continuous
 62
     7
370
    25
100
AcDbLine
 10
358.7032419438601
 20
438.6270910791327
 30
0.0
 11
363.7032419438601
 21
438.6270910791327
 31
0.0
  0
ARC
  5
106
330
1F
100
AcDbEntity
  8
10
  6
Continuous
 62
     7
370
    25
100
AcDbCircle
 10
358.7032419438601
 20
435.6270910791329
 30
0.0
 40
3.0
100
AcDbArc
 50
89.99999999999991
 51
179.9999999999998
  0
LINE
  5
107
330
1F
100
AcDbEntity
  8
10
  6
Continuous
 62
     7
370
    25
100
AcDbLine
 10
355.2032419438601
 20
435.6270910791329
 30
0.0
 11
367.2032419438601
 21
435.6270910791329
 31
0.0
  0
LINE
  5
108
330
1F
100
AcDbEntity
  8
10
  6
Continuous
 62
     7
370
    25
100
AcDbLine
 10
355.2032419438601
 20
427.6270910791329
 30
0.0
 11
355.2032419438601
 21
435.6270910791329
 31
0.0
  0
LINE
  5
109
330
1F
100
AcDbEntity
  8
10
  6
Continuous
 62
     7
370
    25
100
AcDbLine
 10
356.2032419438601
 20
425.7270910791315
 30
0.0
 11
356.2032419438601
 21
427.6270910791329
 31
0.0
  0
LINE
  5
10A
330
1F
100
AcDbEntity
  8
10
  6
Continuous
 62
     7
370
    25
100
AcDbLine
 10
368.2032419438592
 20
425.7270910791315
 30
0.0
 11
361.2032419438601
 21
425.7270910791315
 31
0.0
  0
LINE
  5
10B
330
1F
100
AcDbEntity
  8
10
  6
Continuous
 62
     7
370
    25
100
AcDbLine
 10
367.2032419438601
 20
427.6270910791329
 30
0.0
 11
361.2032419438601
 21
427.6270910791329
 31
0.0
  0
LINE
  5
10C
330
1F
100
AcDbEntity
  8
10
  6
Continuous
 62
     7
370
    25
100
AcDbLine
 10
361.2032419438601
 20
427.6270910791329
 30
0.0
 11
361.2032419438601
 21
435.6270910791329
 31
0.0
  0
LINE
  5
10D
330
1F
100
AcDbEntity
  8
10
  6
Continuous
 62
     7
370
    25
100
AcDbLine
 10
354.2032419438601
 20
421.1270910791329
 30
0.0
 11
361.2032419438601
 21
421.1270910791329
 31
0.0
  0
LINE
  5
10E
330
1F
100
AcDbEntity
  8
10
  6
Continuous
 62
     7
370
    25
100
AcDbLine
 10
368.2032419438592
 20
421.1270910791329
 30
0.0
 11
361.2032419438601
 21
421.1270910791329
 31
0.0
  0
LINE
  5
10F
330
1F
100
AcDbEntity
  8
10
  6
Continuous
 62
     7
370
    25
100
AcDbLine
 10
367.4532419438601
 20
421.1270910791329
 30
0.0
 11
367.4532419438601
 21
420.6270910791329
 31
0.0
  0
LINE
  5
110
330
1F
100
AcDbEntity
  8
10
  6
Continuous
 62
     7
370
    25
100
AcDbLine
 10
366.2032419438601
 20
425.7270910791315
 30
0.0
 11
366.2032419438601
 21
427.6270910791329
 31
0.0
  0
ARC
  5
111
330
1F
100
AcDbEntity
  8
10
  6
Continuous
 62
     7
370
    25
100
AcDbCircle
 10
363.7032419438601
 20
435.6270910791329
 30
0.0
 40
3.0
100
AcDbArc
 50
0.0
 51
89.99999999999991
  0
LINE
  5
112
330
1F
100
AcDbEntity
  8
10
  6
Continuous
 62
     7
370
    25
100
AcDbLine
 10
367.2032419438601
 20
427.6270910791329
 30
0.0
 11
367.2032419438601
 21
435.6270910791329
 31
0.0
  0
ARC
  5
113
330
1F
100
AcDbEntity
  8
10
  6
Continuous
 62
     7
370
    25
100
AcDbCircle
 10
644.9193309645416
 20
304.8270910791327
 30
0.0
 40
0.5
100
AcDbArc
 50
0.0
 51
89.99999999999991
  0
ARC
  5
114
330
1F
100
AcDbEntity
  8
10
  6
Continuous
 62
     7
370
    25
100
AcDbCircle
 10
646.519330964542
 20
304.8270910791327
 30
0.0
 40
0.5
100
AcDbArc
 50
89.99999999999991
 51
179.9999999999998
  0
CIRCLE
  5
115
330
1F
100
AcDbEntity
  8
10
  6
Continuous
 62
     7
370
    25
100
AcDbCircle
 10
645.7193309645418
 20
305.6270910791329
 30
0.0
 40
3.450000000000045
  0
LINE
  5
116
330
1F
100
AcDbEntity
  8
10
  6
Continuous
 62
     7
370
    25
100
AcDbLine
 10
645.4193309645416
 20
304.8270910791327
 30
0.0
 11
645.4193309645416
 21
304.1770910791322
 31
0.0
  0
LINE
  5
117
330
1F
100
AcDbEntity
  8
10
  6
Continuous
 62
     7
370
    25
100
AcDbLine
 10
646.019330964542
 20
304.8270910791327
 30
0.0
 11
646.019330964542
 21
304.1770910791322
 31
0.0
  0
LINE
  5
118
330
1F
100
AcDbEntity
  8
10
  6
Continuous
 62
     7
370
    25
100
AcDbLine
 10
645.4193309645416
 20
304.1770910791322
 30
0.0
 11
646.019330964542
 21
304.1770910791322
 31
0.0
  0
LINE
  5
119
330
1F
100
AcDbEntity
  8
10
  6
Continuous
 62
     7
370
    25
100
AcDbLine
 10
644.9193309645416
 20
305.9270910791322
 30
0.0
 11
644.269330964542
 21
305.9270910791322
 31
0.0
  0
LINE
  5
11A
330
1F
100
AcDbEntity
  8
10
  6
Continuous
 62
     7
370
    25
100
AcDbLine
 10
644.9193309645416
 20
305.3270910791327
 30
0.0
 11
644.269330964542
 21
305.3270910791327
 31
0.0
  0
ARC
  5
11B
330
1F
100
AcDbEntity
  8
10
  6
Continuous
 62
     7
370
    25
100
AcDbCircle
 10
646.519330964542
 20
306.4270910791322
 30
0.0
 40
0.5
100
AcDbArc
 50
179.9999999999998
 51
269.9999999999998
  0
ARC
  5
11C
330
1F
100
AcDbEntity
  8
10
  6
Continuous
 62
     7
370
    25
100
AcDbCircle
 10
644.9193309645416
 20
306.4270910791322
 30
0.0
 40
0.5
100
AcDbArc
 50
269.9999999999998
 51
0.0
  0
LINE
  5
11D
330
1F
100
AcDbEntity
  8
10
  6
Continuous
 62
     7
370
    25
100
AcDbLine
 10
646.019330964542
 20
306.4270910791322
 30
0.0
 11
646.019330964542
 21
307.0770910791327
 31
0.0
  0
LINE
  5
11E
330
1F
100
AcDbEntity
  8
10
  6
Continuous
 62
     7
370
    25
100
AcDbLine
 10
645.4193309645416
 20
306.4270910791322
 30
0.0
 11
645.4193309645416
 21
307.0770910791327
 31
0.0
  0
LINE
  5
11F
330
1F
100
AcDbEntity
  8
10
  6
Continuous
 62
     7
370
    25
100
AcDbLine
 10
646.519330964542
 20
305.9270910791322
 30
0.0
 11
647.1693309645416
 21
305.9270910791322
 31
0.0
  0
LINE
  5
120
330
1F
100
AcDbEntity
  8
10
  6
Continuous
 62
     7
370
    25
100
AcDbLine
 10
646.519330964542
 20
305.3270910791327
 30
0.0
 11
647.1693309645416
 21
305.3270910791327
 31
0.0
  0
LINE
  5
121
330
1F
100
AcDbEntity
  8
10
  6
Continuous
 62
     7
370
    25
100
AcDbLine
 10
647.1693309645416
 20
305.3270910791327
 30
0.0
 11
647.1693309645416
 21
305.9270910791322
 31
0.0
  0
LINE
  5
122
330
1F
100
AcDbEntity
  8
10
  6
Continuous
 62
     7
370
    25
100
AcDbLine
 10
646.019330964542
 20
307.0770910791327
 30
0.0
 11
645.4193309645416
 21
307.0770910791327
 31
0.0
  0
LINE
  5
123
330
1F
100
AcDbEntity
  8
10
  6
Continuous
 62
     7
370
    25
100
AcDbLine
 10
644.269330964542
 20
305.9270910791322
 30
0.0
 11
644.269330964542
 21
305.3270910791327
 31
0.0
  0
LINE
  5
124
330
1F
100
AcDbEntity
  8
10
  6
Continuous
 62
     7
370
    25
100
AcDbLine
 10
259.6532419438608
 20
190.3104244124663
 30
0.0
 11
252.7532419438612
 21
190.3104244124663
 31
0.0
  0
ARC
  5
125
330
1F
100
AcDbEntity
  8
10
  6
Continuous
 62
     7
370
    25
100
AcDbCircle
 10
256.2032419438619
 20
193.2774419563259
 30
0.0
 40
4.550350877192955
100
AcDbArc
 50
220.695698525394
 51
319.3043014745913
  0
LINE
  5
126
330
1F
100
AcDbEntity
  8
10
  6
Continuous
 62
     7
370
    25
100
AcDbLine
 10
259.6532419438608
 20
190.6270910791329
 30
0.0
 11
259.6532419438608
 21
190.3104244124663
 31
0.0
  0
LINE
  5
127
330
1F
100
AcDbEntity
  8
10
  6
Continuous
 62
     7
370
    25
100
AcDbLine
 10
252.7532419438612
 20
190.6270910791329
 30
0.0
 11
252.7532419438612
 21
190.3104244124663
 31
0.0
  0
LINE
  5
128
330
1F
100
AcDbEntity
  8
10
  6
Continuous
 62
     7
370
    25
100
AcDbLine
 10
281.1532419438608
 20
190.3104244124663
 30
0.0
 11
274.2532419438612
 21
190.3104244124663
 31
0.0
  0
ARC
  5
129
330
1F
100
AcDbEntity
  8
10
  6
Continuous
 62
     7
370
    25
100
AcDbCircle
 10
277.7032419438619
 20
193.2774419563259
 30
0.0
 40
4.550350877192955
100
AcDbArc
 50
220.695698525394
 51
319.3043014745913
  0
LINE
  5
12A
330
1F
100
AcDbEntity
  8
10
  6
Continuous
 62
     7
370
    25
100
AcDbLine
 10
281.1532419438608
 20
190.6270910791329
 30
0.0
 11
281.1532419438608
 21
190.3104244124663
 31
0.0
  0
LINE
  5
12B
330
1F
100
AcDbEntity
  8
10
  6
Continuous
 62
     7
370
    25
100
AcDbLine
 10
274.2532419438612
 20
190.6270910791329
 30
0.0
 11
274.2532419438612
 21
190.3104244124663
 31
0.0
  0
LINE
  5
12C
330
1F
100
AcDbEntity
  8
10
  6
Continuous
 62
     7
370
    25
100
AcDbLine
 10
259.6532419438608
 20
420.9437577458004
 30
0.0
 11
252.7532419438612
 21
420.9437577458004
 31
0.0
  0
ARC
  5
12D
330
1F
100
AcDbEntity
  8
10
  6
Continuous
 62
     7
370
    25
100
AcDbCircle
 10
256.2032419438619
 20
417.9767402019399
 30
0.0
 40
4.550350877192955
100
AcDbArc
 50
40.69569852540832
 51
139.3043014745777
  0
LINE
  5
12E
330
1F
100
AcDbEntity
  8
10
  6
Continuous
 62
     7
370
    25
100
AcDbLine
 10
259.6532419438608
 20
420.6270910791329
 30
0.0
 11
259.6532419438608
 21
420.9437577458004
 31
0.0
  0
LINE
  5
12F
330
1F
100
AcDbEntity
  8
10
  6
Continuous
 62
     7
370
    25
100
AcDbLine
 10
252.7532419438612
 20
420.6270910791329
 30
0.0
 11
252.7532419438612
 21
420.9437577458004
 31
0.0
  0
LINE
  5
130
330
1F
100
AcDbEntity
  8
10
  6
Continuous
 62
     7
370
    25
100
AcDbLine
 10
281.1532419438608
 20
420.9437577458004
 30
0.0
 11
274.2532419438612
 21
420.9437577458004
 31
0.0
  0
ARC
  5
131
330
1F
100
AcDbEntity
  8
10
  6
Continuous
 62
     7
370
    25
100
AcDbCircle
 10
277.7032419438619
 20
417.9767402019399
 30
0.0
 40
4.550350877192955
100
AcDbArc
 50
40.69569852540832
 51
139.3043014745775
  0
LINE
  5
132
330
1F
100
AcDbEntity
  8
10
  6
Continuous
 62
     7
370
    25
100
AcDbLine
 10
281.1532419438608
 20
420.6270910791329
 30
0.0
 11
281.1532419438608
 21
420.9437577458004
 31
0.0
  0
LINE
  5
133
330
1F
100
AcDbEntity
  8
10
  6
Continuous
 62
     7
370
    25
100
AcDbLine
 10
274.2532419438612
 20
420.6270910791329
 30
0.0
 11
274.2532419438612
 21
420.9437577458004
 31
0.0
  0
LINE
  5
134
330
1F
100
AcDbEntity
  8
10
  6
Continuous
 62
     7
370
    25
100
AcDbLine
 10
352.653241943859
 20
420.9437577458004
 30
0.0
 11
345.7532419438594
 21
420.9437577458004
 31
0.0
  0
ARC
  5
135
330
1F
100
AcDbEntity
  8
10
  6
Continuous
 62
     7
370
    25
100
AcDbCircle
 10
349.2032419438601
 20
417.9767402019399
 30
0.0
 40
4.550350877192955
100
AcDbArc
 50
40.69569852540832
 51
139.3043014745775
  0
LINE
  5
136
330
1F
100
AcDbEntity
  8
10
  6
Continuous
 62
     7
370
    25
100
AcDbLine
 10
352.653241943859
 20
420.6270910791329
 30
0.0
 11
352.653241943859
 21
420.9437577458004
 31
0.0
  0
LINE
  5
137
330
1F
100
AcDbEntity
  8
10
  6
Continuous
 62
     7
370
    25
100
AcDbLine
 10
345.7532419438594
 20
420.6270910791329
 30
0.0
 11
345.7532419438594
 21
420.9437577458004
 31
0.0
  0
LINE
  5
138
330
1F
100
AcDbEntity
  8
10
  6
Continuous
 62
     7
370
    25
100
AcDbLine
 10
462.7532419438576
 20
420.9437577457995
 30
0.0
 11
469.653241943859
 21
420.9437577457995
 31
0.0
  0
ARC
  5
139
330
1F
100
AcDbEntity
  8
10
  6
Continuous
 62
     7
370
    25
100
AcDbCircle
 10
466.2032419438583
 20
417.9767402019399
 30
0.0
 40
4.550350877192955
100
AcDbArc
 50
40.69569852540832
 51
139.3043014745775
  0
LINE
  5
13A
330
1F
100
AcDbEntity
  8
10
  6
Continuous
 62
     7
370
    25
100
AcDbLine
 10
462.7532419438576
 20
420.6270910791329
 30
0.0
 11
462.7532419438576
 21
420.9437577457995
 31
0.0
  0
LINE
  5
13B
330
1F
100
AcDbEntity
  8
10
  6
Continuous
 62
     7
370
    25
100
AcDbLine
 10
469.653241943859
 20
420.6270910791329
 30
0.0
 11
469.653241943859
 21
420.9437577457995
 31
0.0
  0
LINE
  5
13C
330
1F
100
AcDbEntity
  8
10
  6
Continuous
 62
     7
370
    25
100
AcDbLine
 10
441.2532419438585
 20
420.9437577457995
 30
0.0
 11
448.153241943859
 21
420.9437577457995
 31
0.0
  0
ARC
  5
13D
330
1F
100
AcDbEntity
  8
10
  6
Continuous
 62
     7
370
    25
100
AcDbCircle
 10
444.7032419438583
 20
417.9767402019399
 30
0.0
 40
4.550350877192955
100
AcDbArc
 50
40.69569852540832
 51
139.3043014745775
  0
LINE
  5
13E
330
1F
100
AcDbEntity
  8
10
  6
Continuous
 62
     7
370
    25
100
AcDbLine
 10
441.2532419438585
 20
420.6270910791329
 30
0.0
 11
441.2532419438585
 21
420.9437577457995
 31
0.0
  0
LINE
  5
13F
330
1F
100
AcDbEntity
  8
10
  6
Continuous
 62
     7
370
    25
100
AcDbLine
 10
448.153241943859
 20
420.6270910791329
 30
0.0
 11
448.153241943859
 21
420.9437577457995
 31
0.0
  0
LINE
  5
140
330
1F
100
AcDbEntity
  8
10
  6
Continuous
 62
     7
370
    25
100
AcDbLine
 10
369.7532419438594
 20
420.9437577458004
 30
0.0
 11
376.6532419438599
 21
420.9437577458004
 31
0.0
  0
ARC
  5
141
330
1F
100
AcDbEntity
  8
10
  6
Continuous
 62
     7
370
    25
100
AcDbCircle
 10
373.2032419438592
 20
417.9767402019399
 30
0.0
 40
4.550350877192955
100
AcDbArc
 50
40.69569852540832
 51
139.3043014745775
  0
LINE
  5
142
330
1F
100
AcDbEntity
  8
10
  6
Continuous
 62
     7
370
    25
100
AcDbLine
 10
369.7532419438594
 20
420.6270910791329
 30
0.0
 11
369.7532419438594
 21
420.9437577458004
 31
0.0
  0
LINE
  5
143
330
1F
100
AcDbEntity
  8
10
  6
Continuous
 62
     7
370
    25
100
AcDbLine
 10
376.6532419438599
 20
420.6270910791329
 30
0.0
 11
376.6532419438599
 21
420.9437577458004
 31
0.0
  0
LINE
  5
144
330
1F
100
AcDbEntity
  8
10
  6
Continuous
 62
     7
370
    25
100
AcDbLine
 10
462.7532419438576
 20
190.3104244124663
 30
0.0
 11
469.653241943859
 21
190.3104244124663
 31
0.0
  0
ARC
  5
145
330
1F
100
AcDbEntity
  8
10
  6
Continuous
 62
     7
370
    25
100
AcDbCircle
 10
466.2032419438583
 20
193.2774419563259
 30
0.0
 40
4.550350877192955
100
AcDbArc
 50
220.695698525394
 51
319.3043014745913
  0
LINE
  5
146
330
1F
100
AcDbEntity
  8
10
  6
Continuous
 62
     7
370
    25
100
AcDbLine
 10
462.7532419438576
 20
190.6270910791329
 30
0.0
 11
462.7532419438576
 21
190.3104244124663
 31
0.0
  0
LINE
  5
147
330
1F
100
AcDbEntity
  8
10
  6
Continuous
 62
     7
370
    25
100
AcDbLine
 10
469.653241943859
 20
190.6270910791329
 30
0.0
 11
469.653241943859
 21
190.3104244124663
 31
0.0
  0
LINE
  5
148
330
1F
100
AcDbEntity
  8
10
  6
Continuous
 62
     7
370
    25
100
AcDbLine
 10
441.2532419438585
 20
190.3104244124663
 30
0.0
 11
448.153241943859
 21
190.3104244124663
 31
0.0
  0
ARC
  5
149
330
1F
100
AcDbEntity
  8
10
  6
Continuous
 62
     7
370
    25
100
AcDbCircle
 10
444.7032419438583
 20
193.2774419563259
 30
0.0
 40
4.550350877192955
100
AcDbArc
 50
220.695698525394
 51
319.3043014745913
  0
LINE
  5
14A
330
1F
100
AcDbEntity
  8
10
  6
Continuous
 62
     7
370
    25
100
AcDbLine
 10
441.2532419438585
 20
190.6270910791329
 30
0.0
 11
441.2532419438585
 21
190.3104244124663
 31
0.0
  0
LINE
  5
14B
330
1F
100
AcDbEntity
  8
10
  6
Continuous
 62
     7
370
    25
100
AcDbLine
 10
448.153241943859
 20
190.6270910791329
 30
0.0
 11
448.153241943859
 21
190.3104244124663
 31
0.0
  0
LINE
  5
14C
330
1F
100
AcDbEntity
  8
10
  6
Continuous
 62
     7
370
    25
100
AcDbLine
 10
476.5199086105258
 20
309.0770910791318
 30
0.0
 11
476.5199086105258
 21
302.1770910791322
 31
0.0
  0
ARC
  5
14D
330
1F
100
AcDbEntity
  8
10
  6
Continuous
 62
     7
370
    25
100
AcDbCircle
 10
473.5528910666662
 20
305.6270910791329
 30
0.0
 40
4.550350877192955
100
AcDbArc
 50
310.6956985253349
 51
49.30430147466428
  0
LINE
  5
14E
330
1F
100
AcDbEntity
  8
10
  6
Continuous
 62
     7
370
    25
100
AcDbLine
 10
476.2032419438592
 20
309.0770910791318
 30
0.0
 11
476.5199086105258
 21
309.0770910791318
 31
0.0
  0
LINE
  5
14F
330
1F
100
AcDbEntity
  8
10
  6
Continuous
 62
     7
370
    25
100
AcDbLine
 10
476.2032419438592
 20
302.1770910791322
 30
0.0
 11
476.5199086105258
 21
302.1770910791322
 31
0.0
  0
LINE
  5
150
330
1F
100
AcDbEntity
  8
10
  6
Continuous
 62
     7
370
    25
100
AcDbLine
 10
245.8865752771926
 20
309.0770910791318
 30
0.0
 11
245.8865752771926
 21
302.1770910791322
 31
0.0
  0
ARC
  5
151
330
1F
100
AcDbEntity
  8
10
  6
Continuous
 62
     7
370
    25
100
AcDbCircle
 10
248.8535928210531
 20
305.6270910791329
 30
0.0
 40
4.550350877192983
100
AcDbArc
 50
130.6956985253353
 51
229.3043014746644
  0
LINE
  5
152
330
1F
100
AcDbEntity
  8
10
  6
Continuous
 62
     7
370
    25
100
AcDbLine
 10
246.2032419438601
 20
309.0770910791318
 30
0.0
 11
245.8865752771926
 21
309.0770910791318
 31
0.0
  0
LINE
  5
153
330
1F
100
AcDbEntity
  8
10
  6
Continuous
 62
     7
370
    25
100
AcDbLine
 10
246.2032419438601
 20
302.1770910791322
 30
0.0
 11
245.8865752771926
 21
302.1770910791322
 31
0.0
  0
LINE
  5
154
330
1F
100
AcDbEntity
  8
6
  6
Continuous
 62
     1
370
    25
100
AcDbLine
 10
363.798661005414
 20
448.1607059058335
 30
0.0
 11
364.369062255415
 21
450.451179343333
 31
0.0
  0
LINE
  5
155
330
1F
100
AcDbEntity
  8
6
  6
Continuous
 62
     1
370
    25
100
AcDbLine
 10
363.4723325679151
 20
445.7983830933335
 30
0.0
 11
363.798661005414
 21
448.1607059058335
 31
0.0
  0
LINE
  5
156
330
1F
100
AcDbEntity
  8
6
  6
Continuous
 62
     1
370
    25
100
AcDbLine
 10
363.2954725679137
 20
443.3920418433336
 30
0.0
 11
363.4723325679151
 21
445.7983830933335
 31
0.0
  0
LINE
  5
157
330
1F
100
AcDbEntity
  8
6
  6
Continuous
 62
     1
370
    25
100
AcDbLine
 10
363.0534268890697
 20
438.6270910791327
 30
0.0
 11
363.2954725679137
 21
443.3920418433336
 31
0.0
  0
LINE
  5
158
330
1F
100
AcDbEntity
  8
6
  6
Continuous
 62
     1
370
    25
100
AcDbLine
 10
359.6023418491641
 20
443.6212452808331
 30
0.0
 11
359.7909400991648
 21
446.1876346558338
 31
0.0
  0
LINE
  5
159
330
1F
100
AcDbEntity
  8
6
  6
Continuous
 62
     1
370
    25
100
AcDbLine
 10
359.7909400991648
 20
446.1876346558338
 30
0.0
 11
360.1605273179139
 21
448.8629312183332
 31
0.0
  0
LINE
  5
15A
330
1F
100
AcDbEntity
  8
6
  6
Continuous
 62
     1
370
    25
100
AcDbLine
 10
359.3530569986506
 20
438.6270910791327
 30
0.0
 11
359.6023418491641
 21
443.6212452808331
 31
0.0
  0
LINE
  5
15B
330
1F
100
AcDbEntity
  8
6
  6
Continuous
 62
     1
370
    25
100
AcDbLine
 10
364.8490100679137
 20
451.7357268433334
 30
0.0
 11
365.5081617524429
 21
453.158638386737
 31
0.0
  0
LINE
  5
15C
330
1F
100
AcDbEntity
  8
6
  6
Continuous
 62
     1
370
    25
100
AcDbLine
 10
360.8295196929139
 20
451.5493046558331
 30
0.0
 11
361.4324231304145
 21
453.1628746558335
 31
0.0
  0
LINE
  5
15D
330
1F
100
AcDbEntity
  8
6
  6
Continuous
 62
     1
370
    25
100
AcDbLine
 10
364.369062255415
 20
450.451179343333
 30
0.0
 11
364.8490100679137
 21
451.7357268433334
 31
0.0
  0
LINE
  5
15E
330
1F
100
AcDbEntity
  8
6
  6
Continuous
 62
     1
370
    25
100
AcDbLine
 10
360.1605273179139
 20
448.8629312183332
 30
0.0
 11
360.8295196929139
 21
451.5493046558331
 31
0.0
  0
LINE
  5
15F
330
1F
100
AcDbEntity
  8
6
  6
Continuous
 62
     1
370
    25
100
AcDbLine
 10
364.9527372554148
 20
458.3781171558333
 30
0.0
 11
365.7689456929147
 21
459.1091446558341
 31
0.0
  0
LINE
  5
160
330
1F
100
AcDbEntity
  8
6
  6
Continuous
 62
     1
370
    25
100
AcDbLine
 10
363.7609788179143
 20
457.0720287183333
 30
0.0
 11
364.9527372554148
 21
458.3781171558333
 31
0.0
  0
LINE
  5
161
330
1F
100
AcDbEntity
  8
6
  6
Continuous
 62
     1
370
    25
100
AcDbLine
 10
366.6411397554148
 20
454.7392018433338
 30
0.0
 11
367.5601619429144
 21
455.7463765308332
 31
0.0
  0
LINE
  5
162
330
1F
100
AcDbEntity
  8
6
  6
Continuous
 62
     1
370
    25
100
AcDbLine
 10
361.8837780366648
 20
454.1373159058332
 30
0.0
 11
362.7233450366639
 21
455.6244615308335
 31
0.0
  0
LINE
  5
163
330
1F
100
AcDbEntity
  8
6
  6
Continuous
 62
     1
370
    25
100
AcDbLine
 10
362.7233450366639
 20
455.6244615308335
 30
0.0
 11
363.7609788179143
 21
457.0720287183333
 31
0.0
  0
LINE
  5
164
330
1F
100
AcDbEntity
  8
6
  6
Continuous
 62
     1
370
    25
100
AcDbLine
 10
361.4324231304145
 20
453.1628746558335
 30
0.0
 11
361.8837780366648
 21
454.1373159058332
 31
0.0
  0
LINE
  5
165
330
1F
100
AcDbEntity
  8
6
  6
Continuous
 62
     1
370
    25
100
AcDbLine
 10
365.5081617524429
 20
453.158638386737
 30
0.0
 11
366.6411397554148
 21
454.7392018433338
 31
0.0
  0
LINE
  5
166
330
1F
100
AcDbEntity
  8
6
  6
Continuous
 62
     1
370
    25
100
AcDbLine
 10
371.1762413179149
 20
457.9254105933333
 30
0.0
 11
371.8472594429149
 21
458.0859096558336
 31
0.0
  0
LINE
  5
167
330
1F
100
AcDbEntity
  8
6
  6
Continuous
 62
     1
370
    25
100
AcDbLine
 10
371.1640544429138
 20
461.7268484058334
 30
0.0
 11
372.6548885054135
 21
461.9311230933338
 31
0.0
  0
LINE
  5
168
330
1F
100
AcDbEntity
  8
6
  6
Continuous
 62
     1
370
    25
100
AcDbLine
 10
370.1714716304141
 20
461.4894355933341
 30
0.0
 11
371.1640544429138
 21
461.7268484058334
 31
0.0
  0
LINE
  5
169
330
1F
100
AcDbEntity
  8
6
  6
Continuous
 62
     1
370
    25
100
AcDbLine
 10
369.4215510054146
 20
461.2452471558336
 30
0.0
 11
370.1714716304141
 21
461.4894355933341
 31
0.0
  0
LINE
  5
16A
330
1F
100
AcDbEntity
  8
6
  6
Continuous
 62
     1
370
    25
100
AcDbLine
 10
369.9579353804138
 20
457.4524349683336
 30
0.0
 11
370.7211991304139
 21
457.7772140308336
 31
0.0
  0
LINE
  5
16B
330
1F
100
AcDbEntity
  8
6
  6
Continuous
 62
     1
370
    25
100
AcDbLine
 10
370.7211991304139
 20
457.7772140308336
 30
0.0
 11
371.1762413179149
 21
457.9254105933333
 31
0.0
  0
LINE
  5
16C
330
1F
100
AcDbEntity
  8
6
  6
Continuous
 62
     1
370
    25
100
AcDbLine
 10
369.2266419429143
 20
457.0487302808335
 30
0.0
 11
369.9579353804138
 21
457.4524349683336
 31
0.0
  0
LINE
  5
16D
330
1F
100
AcDbEntity
  8
6
  6
Continuous
 62
     1
370
    25
100
AcDbLine
 10
368.532996005415
 20
456.5762749683338
 30
0.0
 11
369.2266419429143
 21
457.0487302808335
 31
0.0
  0
LINE
  5
16E
330
1F
100
AcDbEntity
  8
6
  6
Continuous
 62
     1
370
    25
100
AcDbLine
 10
367.2868822554137
 20
460.2042059058342
 30
0.0
 11
368.3352194429135
 21
460.7829668433335
 31
0.0
  0
LINE
  5
16F
330
1F
100
AcDbEntity
  8
6
  6
Continuous
 62
     1
370
    25
100
AcDbLine
 10
368.3352194429135
 20
460.7829668433335
 30
0.0
 11
369.4215510054146
 21
461.2452471558336
 31
0.0
  0
LINE
  5
170
330
1F
100
AcDbEntity
  8
6
  6
Continuous
 62
     1
370
    25
100
AcDbLine
 10
366.3443650679146
 20
459.5622790308335
 30
0.0
 11
367.2868822554137
 21
460.2042059058342
 31
0.0
  0
LINE
  5
171
330
1F
100
AcDbEntity
  8
6
  6
Continuous
 62
     1
370
    25
100
AcDbLine
 10
365.7689456929147
 20
459.1091446558341
 30
0.0
 11
366.3443650679146
 21
459.5622790308335
 31
0.0
  0
LINE
  5
172
330
1F
100
AcDbEntity
  8
6
  6
Continuous
 62
     1
370
    25
100
AcDbLine
 10
367.5601619429144
 20
455.7463765308332
 30
0.0
 11
368.1501731929138
 21
456.2747943433337
 31
0.0
  0
LINE
  5
173
330
1F
100
AcDbEntity
  8
6
  6
Continuous
 62
     1
370
    25
100
AcDbLine
 10
368.1501731929138
 20
456.2747943433337
 30
0.0
 11
368.532996005415
 21
456.5762749683338
 31
0.0
  0
LINE
  5
174
330
1F
100
AcDbEntity
  8
6
  6
Continuous
 62
     1
370
    25
100
AcDbLine
 10
387.544463192914
 20
467.416222780834
 30
0.0
 11
387.6803110054134
 21
468.4117655933335
 31
0.0
  0
LINE
  5
175
330
1F
100
AcDbEntity
  8
6
  6
Continuous
 62
     1
370
    25
100
AcDbLine
 10
383.8910253804133
 20
468.0086274683335
 30
0.0
 11
383.999319755414
 21
468.8025087183335
 31
0.0
  0
LINE
  5
176
330
1F
100
AcDbEntity
  8
6
  6
Continuous
 62
     1
370
    25
100
AcDbLine
 10
387.3739741304134
 20
466.5098499683338
 30
0.0
 11
387.544463192914
 21
467.416222780834
 31
0.0
  0
LINE
  5
177
330
1F
100
AcDbEntity
  8
6
  6
Continuous
 62
     1
370
    25
100
AcDbLine
 10
386.9544403804148
 20
464.9699562183332
 30
0.0
 11
387.3739741304134
 21
466.5098499683338
 31
0.0
  0
LINE
  5
178
330
1F
100
AcDbEntity
  8
6
  6
Continuous
 62
     1
370
    25
100
AcDbLine
 10
381.6396563179142
 20
463.8886659058337
 30
0.0
 11
382.2821613179149
 21
464.2606084058334
 31
0.0
  0
LINE
  5
179
330
1F
100
AcDbEntity
  8
6
  6
Continuous
 62
     1
370
    25
100
AcDbLine
 10
380.7994325679138
 20
463.5393743433335
 30
0.0
 11
381.6396563179142
 21
463.8886659058337
 31
0.0
  0
LINE
  5
17A
330
1F
100
AcDbEntity
  8
6
  6
Continuous
 62
     1
370
    25
100
AcDbLine
 10
379.7299013179145
 20
463.1863596558333
 30
0.0
 11
380.7994325679138
 21
463.5393743433335
 31
0.0
  0
LINE
  5
17B
330
1F
100
AcDbEntity
  8
6
  6
Continuous
 62
     1
370
    25
100
AcDbLine
 10
383.4487713179133
 20
466.1782837183339
 30
0.0
 11
383.7651444429139
 21
467.3394477808336
 31
0.0
  0
LINE
  5
17C
330
1F
100
AcDbEntity
  8
6
  6
Continuous
 62
     1
370
    25
100
AcDbLine
 10
383.7651444429139
 20
467.3394477808336
 30
0.0
 11
383.8910253804133
 21
468.0086274683335
 31
0.0
  0
LINE
  5
17D
330
1F
100
AcDbEntity
  8
6
  6
Continuous
 62
     1
370
    25
100
AcDbLine
 10
383.0663416304151
 20
465.2683034058339
 30
0.0
 11
383.4487713179133
 21
466.1782837183339
 31
0.0
  0
LINE
  5
17E
330
1F
100
AcDbEntity
  8
6
  6
Continuous
 62
     1
370
    25
100
AcDbLine
 10
382.2821613179149
 20
464.2606084058334
 30
0.0
 11
382.4286697554144
 21
464.3768693433331
 31
0.0
  0
LINE
  5
17F
330
1F
100
AcDbEntity
  8
6
  6
Continuous
 62
     1
370
    25
100
AcDbLine
 10
382.4286697554144
 20
464.3768693433331
 30
0.0
 11
382.6084203804148
 21
464.5657774683332
 31
0.0
  0
LINE
  5
180
330
1F
100
AcDbEntity
  8
6
  6
Continuous
 62
     1
370
    25
100
AcDbLine
 10
382.6084203804148
 20
464.5657774683332
 30
0.0
 11
383.0663416304151
 21
465.2683034058339
 31
0.0
  0
LINE
  5
181
330
1F
100
AcDbEntity
  8
6
  6
Continuous
 62
     1
370
    25
100
AcDbLine
 10
384.3700713179151
 20
461.1940484058332
 30
0.0
 11
384.9310606929139
 21
461.6391699683338
 31
0.0
  0
LINE
  5
182
330
1F
100
AcDbEntity
  8
6
  6
Continuous
 62
     1
370
    25
100
AcDbLine
 10
383.2836935054138
 20
460.5651293433332
 30
0.0
 11
384.3700713179151
 21
461.1940484058332
 31
0.0
  0
LINE
  5
183
330
1F
100
AcDbEntity
  8
6
  6
Continuous
 62
     1
370
    25
100
AcDbLine
 10
380.1168750679135
 20
459.4384330933335
 30
0.0
 11
380.8444106929146
 21
459.6578546558333
 31
0.0
  0
LINE
  5
184
330
1F
100
AcDbEntity
  8
6
  6
Continuous
 62
     1
370
    25
100
AcDbLine
 10
379.5577356929134
 20
459.2716209058337
 30
0.0
 11
380.1168750679135
 21
459.4384330933335
 31
0.0
  0
LINE
  5
185
330
1F
100
AcDbEntity
  8
6
  6
Continuous
 62
     1
370
    25
100
AcDbLine
 10
380.8444106929146
 20
459.6578546558333
 30
0.0
 11
382.0911603804143
 21
460.0694102808332
 31
0.0
  0
LINE
  5
186
330
1F
100
AcDbEntity
  8
6
  6
Continuous
 62
     1
370
    25
100
AcDbLine
 10
378.6019216304139
 20
458.9970924683332
 30
0.0
 11
379.5577356929134
 21
459.2716209058337
 31
0.0
  0
LINE
  5
187
330
1F
100
AcDbEntity
  8
6
  6
Continuous
 62
     1
370
    25
100
AcDbLine
 10
382.0911603804143
 20
460.0694102808332
 30
0.0
 11
383.2836935054138
 21
460.5651293433332
 31
0.0
  0
LINE
  5
188
330
1F
100
AcDbEntity
  8
6
  6
Continuous
 62
     1
370
    25
100
AcDbLine
 10
384.9310606929139
 20
461.6391699683338
 30
0.0
 11
385.5228063179138
 21
462.2611862183333
 31
0.0
  0
LINE
  5
189
330
1F
100
AcDbEntity
  8
6
  6
Continuous
 62
     1
370
    25
100
AcDbLine
 10
385.5228063179138
 20
462.2611862183333
 30
0.0
 11
386.3481260054141
 21
463.5272337183335
 31
0.0
  0
LINE
  5
18A
330
1F
100
AcDbEntity
  8
6
  6
Continuous
 62
     1
370
    25
100
AcDbLine
 10
379.0517606929152
 20
462.9817727808334
 30
0.0
 11
379.7299013179145
 21
463.1863596558333
 31
0.0
  0
LINE
  5
18B
330
1F
100
AcDbEntity
  8
6
  6
Continuous
 62
     1
370
    25
100
AcDbLine
 10
373.0314675679147
 20
458.2481315308332
 30
0.0
 11
374.2343491304155
 21
458.3296702808339
 31
0.0
  0
LINE
  5
18C
330
1F
100
AcDbEntity
  8
6
  6
Continuous
 62
     1
370
    25
100
AcDbLine
 10
374.2343491304155
 20
458.3296702808339
 30
0.0
 11
375.4374156929152
 21
458.4051155933332
 31
0.0
  0
LINE
  5
18D
330
1F
100
AcDbEntity
  8
6
  6
Continuous
 62
     1
370
    25
100
AcDbLine
 10
375.4374156929152
 20
458.4051155933332
 30
0.0
 11
376.1279860054146
 21
458.4755774683335
 31
0.0
  0
LINE
  5
18E
330
1F
100
AcDbEntity
  8
6
  6
Continuous
 62
     1
370
    25
100
AcDbLine
 10
371.8472594429149
 20
458.0859096558336
 30
0.0
 11
373.0314675679147
 21
458.2481315308332
 31
0.0
  0
LINE
  5
18F
330
1F
100
AcDbEntity
  8
6
  6
Continuous
 62
     1
370
    25
100
AcDbLine
 10
377.649021317915
 20
458.7538868433332
 30
0.0
 11
378.6019216304139
 21
458.9970924683332
 31
0.0
  0
LINE
  5
190
330
1F
100
AcDbEntity
  8
6
  6
Continuous
 62
     1
370
    25
100
AcDbLine
 10
376.6902125679135
 20
458.5593130933332
 30
0.0
 11
377.649021317915
 21
458.7538868433332
 31
0.0
  0
LINE
  5
191
330
1F
100
AcDbEntity
  8
6
  6
Continuous
 62
     1
370
    25
100
AcDbLine
 10
376.1279860054146
 20
458.4755774683335
 30
0.0
 11
376.6902125679135
 21
458.5593130933332
 31
0.0
  0
LINE
  5
192
330
1F
100
AcDbEntity
  8
6
  6
Continuous
 62
     1
370
    25
100
AcDbLine
 10
373.9923922554153
 20
462.0217615308331
 30
0.0
 11
375.1336688179144
 21
462.0933449683337
 31
0.0
  0
LINE
  5
193
330
1F
100
AcDbEntity
  8
6
  6
Continuous
 62
     1
370
    25
100
AcDbLine
 10
375.1336688179144
 20
462.0933449683337
 30
0.0
 11
375.6672781929137
 21
462.1477580933336
 31
0.0
  0
LINE
  5
194
330
1F
100
AcDbEntity
  8
6
  6
Continuous
 62
     1
370
    25
100
AcDbLine
 10
375.6672781929137
 20
462.1477580933336
 30
0.0
 11
376.0493031929145
 21
462.2046687183338
 31
0.0
  0
LINE
  5
195
330
1F
100
AcDbEntity
  8
6
  6
Continuous
 62
     1
370
    25
100
AcDbLine
 10
377.6335160054141
 20
462.5685405933339
 30
0.0
 11
378.5190300679151
 21
462.8229040308333
 31
0.0
  0
LINE
  5
196
330
1F
100
AcDbEntity
  8
6
  6
Continuous
 62
     1
370
    25
100
AcDbLine
 10
376.0493031929145
 20
462.2046687183338
 30
0.0
 11
376.8230656929136
 21
462.3616874683332
 31
0.0
  0
LINE
  5
197
330
1F
100
AcDbEntity
  8
6
  6
Continuous
 62
     1
370
    25
100
AcDbLine
 10
376.8230656929136
 20
462.3616874683332
 30
0.0
 11
377.6335160054141
 21
462.5685405933339
 31
0.0
  0
LINE
  5
198
330
1F
100
AcDbEntity
  8
6
  6
Continuous
 62
     1
370
    25
100
AcDbLine
 10
378.5190300679151
 20
462.8229040308333
 30
0.0
 11
379.0517606929152
 21
462.9817727808334
 31
0.0
  0
LINE
  5
199
330
1F
100
AcDbEntity
  8
6
  6
Continuous
 62
     1
370
    25
100
AcDbLine
 10
386.3481260054141
 20
463.5272337183335
 30
0.0
 11
386.9544403804148
 21
464.9699562183332
 31
0.0
  0
LINE
  5
19A
330
1F
100
AcDbEntity
  8
6
  6
Continuous
 62
     1
370
    25
100
AcDbLine
 10
372.6548885054135
 20
461.9311230933338
 30
0.0
 11
373.9923922554153
 21
462.0217615308331
 31
0.0
  0
ARC
  5
19B
330
1F
100
AcDbEntity
  8
6
  6
Continuous
 62
     1
370
    25
100
AcDbCircle
 10
385.044739757539
 20
470.1467260205382
 30
0.0
 40
1.387286231200903
100
AcDbArc
 50
48.17903441840784
 51
131.8148257719885
  0
ARC
  5
19C
330
1F
100
AcDbEntity
  8
6
  6
Continuous
 62
     1
370
    25
100
AcDbCircle
 10
386.8947894429148
 20
472.2148045073211
 30
0.0
 40
1.38753494312067
100
AcDbArc
 50
228.1909756726209
 51
311.8090243273783
  0
ARC
  5
19D
330
1F
100
AcDbEntity
  8
6
  6
Continuous
 62
     1
370
    25
100
AcDbCircle
 10
386.8947894429148
 20
470.1468566621454
 30
0.0
 40
1.387155743325138
100
AcDbArc
 50
48.17696566712085
 51
131.8230343328792
  0
ARC
  5
19E
330
1F
100
AcDbEntity
  8
6
  6
Continuous
 62
     1
370
    25
100
AcDbCircle
 10
386.8947894429148
 20
473.2057868696222
 30
0.0
 40
1.387515022395519
100
AcDbArc
 50
228.1902399436388
 51
311.8097600563605
  0
ARC
  5
19F
330
1F
100
AcDbEntity
  8
6
  6
Continuous
 62
     1
370
    25
100
AcDbCircle
 10
385.0447951267643
 20
471.1376675947922
 30
0.0
 40
1.387299627082427
100
AcDbArc
 50
48.18259787108932
 51
131.8173991288961
  0
LINE
  5
1A0
330
1F
100
AcDbEntity
  8
6
  6
Continuous
 62
     1
370
    25
100
AcDbLine
 10
384.1120656929143
 20
470.2858780308336
 30
0.0
 11
384.119800864748
 21
471.1806753093745
 31
0.0
  0
LINE
  5
1A1
330
1F
100
AcDbEntity
  8
6
  6
Continuous
 62
     1
370
    25
100
AcDbLine
 10
387.8091288179148
 20
470.1071784370833
 30
0.0
 11
387.819789442914
 21
471.1805761870837
 31
0.0
  0
LINE
  5
1A2
330
1F
100
AcDbEntity
  8
6
  6
Continuous
 62
     1
370
    25
100
AcDbLine
 10
387.819789442914
 20
472.1715852754569
 30
0.0
 11
387.819789442914
 21
479.5290125759832
 31
0.0
  0
LINE
  5
1A3
330
1F
100
AcDbEntity
  8
6
  6
Continuous
 62
     1
370
    25
100
AcDbLine
 10
387.6803110054134
 20
468.4117655933335
 30
0.0
 11
387.8091288179148
 21
470.1071784370833
 31
0.0
  0
ARC
  5
1A4
330
1F
100
AcDbEntity
  8
6
  6
Continuous
 62
     1
370
    25
100
AcDbCircle
 10
385.0447951809065
 20
473.2057718472381
 30
0.0
 40
1.387499999999989
100
AcDbArc
 50
228.1900000000122
 51
311.8099970000235
  0
LINE
  5
1A5
330
1F
100
AcDbEntity
  8
6
  6
Continuous
 62
     1
370
    25
100
AcDbLine
 10
384.119800864748
 20
472.1715853238893
 30
0.0
 11
384.119800864748
 21
479.5290125759832
 31
0.0
  0
LINE
  5
1A6
330
1F
100
AcDbEntity
  8
6
  6
Continuous
 62
     1
370
    25
100
AcDbLine
 10
383.999319755414
 20
468.8025087183335
 30
0.0
 11
384.1120656929143
 21
470.2858780308336
 31
0.0
  0
LINE
  5
1A7
330
1F
100
AcDbEntity
  8
4
  6
DASHDOT
 62
     1
370
     9
100
AcDbLine
 10
361.2032419438601
 20
165.6270910791334
 30
0.0
 11
361.2032419438601
 21
445.6270910791327
 31
0.0
  0
LINE
  5
1A8
330
1F
100
AcDbEntity
  8
4
  6
DASHDOT
 62
     1
370
     9
100
AcDbLine
 10
486.2032419438592
 20
305.6270910791329
 30
0.0
 11
236.2032419438601
 21
305.6270910791329
 31
0.0
  0
MTEXT
  5
1A9
330
1F
100
AcDbEntity
  8
9
  6
Continuous
 62
     4
370
     9
100
AcDbMText
 10
394.8445691957895
 20
467.9284982567185
 30
0.0
 40
6.0
 41
17.004855
 46
6.0
 71
     7
 72
     1
  1
{\fＭＳ ゴシック;\T0.750000;L500}
 73
     1
 44
1.0
1001
ACAD
1000
ACAD_MTEXT_DEFINED_HEIGHT_BEGIN
1070
    46
1040
6.0
1000
ACAD_MTEXT_DEFINED_HEIGHT_END
  0
LINE
  5
1AA
330
1F
100
AcDbEntity
  8
6
  6
Continuous
 62
     1
370
    25
100
AcDbLine
 10
640.3693309645423
 20
438.6270910791327
 30
0.0
 11
640.3693425127276
 21
457.3509995894119
 31
0.0
  0
ARC
  5
1AB
330
1F
100
AcDbEntity
  8
6
  6
Continuous
 62
     1
370
    25
100
AcDbCircle
 10
641.2943366484087
 20
458.3849169874939
 30
0.0
 40
1.387299296151127
100
AcDbArc
 50
228.1825956443078
 51
311.8174143557068
  0
ARC
  5
1AC
330
1F
100
AcDbEntity
  8
6
  6
Continuous
 62
     1
370
    25
100
AcDbCircle
 10
643.144330964542
 20
456.3167977127562
 30
0.0
 40
1.387515353286972
100
AcDbArc
 50
48.19025216455111
 51
131.8097478354489
  0
ARC
  5
1AD
330
1F
100
AcDbEntity
  8
6
  6
Continuous
 62
     1
370
    25
100
AcDbCircle
 10
641.2943368288852
 20
456.3168130660633
 30
0.0
 40
1.387500000000045
100
AcDbArc
 50
48.19000999998836
 51
131.8099999999958
  0
LINE
  5
1AE
330
1F
100
AcDbEntity
  8
6
  6
Continuous
 62
     1
370
    25
100
AcDbLine
 10
644.069330964543
 20
438.6270910791327
 30
0.0
 11
644.069330964543
 21
457.3509997508536
 31
0.0
  0
DIMENSION
  5
1B9
330
1F
100
AcDbEntity
  8
9
  6
Continuous
 62
     4
370
     9
100
AcDbDimension
280
     0
  2
Dim1
 10
679.5593699011006
 20
438.6270910791326
 30
0.0
 11
679.5593699011006
 21
419.6270910791329
 31
0.0
 70
   160
  1
(<>
 71
     5
 42
-1.0
 73
     0
 74
     0
 75
     0
  3
Standard
100
AcDbAlignedDimension
 13
655.7193309645427
 23
435.6270910791329
 33
0.0
 14
644.7193309645427
 24
438.6270910791327
 34
0.0
 50
89.99999999999991
100
AcDbRotatedDimension
1001
ACAD
1000
DSTYLE
1002
{
1070
   279
1070
     2
1070
   340
1005
1AF
1070
   140
1040
6.0
1070
    40
1040
1.0
1070
   147
1040
0.0
1070
    76
1070
     0
1070
    75
1070
     0
1070
   344
1005
0
1070
   343
1005
0
1070
   173
1070
     1
1070
   289
1070
     2
1070
   288
1070
     1
1070
    77
1070
     1
1070
   172
1070
     1
1070
   174
1070
     0
1070
    74
1070
     0
1070
    73
1070
     0
1070
   284
1070
     8
1070
    78
1070
     8
1070
    42
1040
2.0
1070
    44
1040
3.0
1070
    43
1040
30.0
1070
   271
1070
     2
1070
    41
1040
4.0
1002
}
  0
DIMENSION
  5
1C3
330
1F
100
AcDbEntity
  8
9
  6
Continuous
 62
     4
370
     9
100
AcDbDimension
280
     0
  2
Dim2
 10
635.2193309645427
 20
450.4807431114416
 30
0.0
 11
674.2193309645427
 21
450.4807431114416
 31
0.0
 70
   160
  1
(<>
 71
     5
 42
-1.0
 73
     0
 74
     0
 75
     0
  3
Standard
100
AcDbAlignedDimension
 13
655.7193309645427
 23
435.6270910791329
 33
0.0
 14
635.2193309645427
 24
425.7270910791315
 34
0.0
 50
179.9999999999998
100
AcDbRotatedDimension
1001
ACAD
1000
DSTYLE
1002
{
1070
   279
1070
     2
1070
   340
1005
1AF
1070
   140
1040
6.0
1070
    40
1040
1.0
1070
   147
1040
0.0
1070
    76
1070
     0
1070
    75
1070
     0
1070
   344
1005
0
1070
   343
1005
0
1070
   173
1070
     1
1070
   289
1070
     2
1070
   288
1070
     1
1070
    77
1070
     1
1070
   172
1070
     1
1070
   174
1070
     0
1070
    74
1070
     0
1070
    73
1070
     0
1070
   284
1070
     8
1070
    78
1070
     8
1070
    42
1040
2.0
1070
    44
1040
3.0
1070
    43
1040
30.0
1070
   271
1070
     2
1070
    41
1040
4.0
1002
}
  0
DIMENSION
  5
1CD
330
1F
100
AcDbEntity
  8
9
  6
Continuous
 62
     4
370
     9
100
AcDbDimension
280
     0
  2
Dim3
 10
654.71933096454
 20
160.9447442672092
 30
0.0
 11
666.7193309645427
 21
160.9447442672092
 31
0.0
 70
   160
  1
<>
 71
     5
 42
-1.0
 73
     0
 74
     0
 75
     0
  3
Standard
100
AcDbAlignedDimension
 13
655.7193309645427
 23
175.6270910791329
 33
0.0
 14
654.71933096454
 24
175.6270910791329
 34
0.0
 50
179.9999999999998
100
AcDbRotatedDimension
1001
ACAD
1000
DSTYLE
1002
{
1070
   279
1070
     2
1070
   340
1005
1AF
1070
   140
1040
6.0
1070
    40
1040
1.0
1070
   147
1040
0.0
1070
    76
1070
     0
1070
    75
1070
     0
1070
   344
1005
0
1070
   343
1005
0
1070
   173
1070
     1
1070
   289
1070
     2
1070
   288
1070
     1
1070
    77
1070
     1
1070
   172
1070
     1
1070
   174
1070
     0
1070
    74
1070
     0
1070
    73
1070
     0
1070
   284
1070
     8
1070
    78
1070
     8
1070
    42
1040
2.0
1070
    44
1040
3.0
1070
    43
1040
30.0
1070
   271
1070
     2
1070
    41
1040
4.0
1002
}
  0
LINE
  5
1CE
330
1F
100
AcDbEntity
  8
10
  6
Continuous
 62
     7
370
    25
100
AcDbLine
 10
635.9693309645418
 20
421.1270910791329
 30
0.0
 11
635.9693309645418
 21
420.6270910791329
 31
0.0
  0
LINE
  5
1CF
330
1F
100
AcDbEntity
  8
10
  6
Continuous
 62
     7
370
    25
100
AcDbLine
 10
635.2193309645427
 20
421.1270910791329
 30
0.0
 11
635.2193309645427
 21
425.7270910791324
 31
0.0
  0
LINE
  5
1D0
330
1F
100
AcDbEntity
  8
10
  6
Continuous
 62
     7
370
    25
100
AcDbLine
 10
638.7193309645418
 20
421.1270910791329
 30
0.0
 11
638.7193309645418
 21
425.7270910791324
 31
0.0
  0
LINE
  5
1D1
330
1F
100
AcDbEntity
  8
10
  6
Continuous
 62
     7
370
    25
100
AcDbLine
 10
649.2193309645427
 20
421.1270910791332
 30
0.0
 11
649.2193309645418
 21
425.7270910791324
 31
0.0
  0
LINE
  5
1D2
330
1F
100
AcDbEntity
  8
10
  6
Continuous
 62
     7
370
    25
100
AcDbLine
 10
645.7193309645418
 20
422.5270910791323
 30
0.0
 11
645.7193309645418
 21
425.7270910791324
 31
0.0
  0
LINE
  5
1D3
330
1F
100
AcDbEntity
  8
10
  6
Continuous
 62
     7
370
    25
100
AcDbLine
 10
635.2193309645427
 20
425.7270910791324
 30
0.0
 11
642.2193309645418
 21
425.7270910791324
 31
0.0
  0
LINE
  5
1D4
330
1F
100
AcDbEntity
  8
10
  6
Continuous
 62
     7
370
    25
100
AcDbLine
 10
649.2193309645418
 20
425.7270910791324
 30
0.0
 11
642.2193309645418
 21
425.7270910791324
 31
0.0
  0
LINE
  5
1D5
330
1F
100
AcDbEntity
  8
10
  6
Continuous
 62
     7
370
    25
100
AcDbLine
 10
635.2193309645427
 20
421.1270910791329
 30
0.0
 11
642.435890321537
 21
421.1270910791327
 31
0.0
  0
LINE
  5
1D6
330
1F
100
AcDbEntity
  8
10
  6
Continuous
 62
     7
370
    25
100
AcDbLine
 10
649.1693309645416
 20
420.6270910791322
 30
0.0
 11
642.269330964541
 21
420.6270910791322
 31
0.0
  0
LINE
  5
1D7
330
1F
100
AcDbEntity
  8
10
  6
Continuous
 62
     7
370
    25
100
AcDbLine
 10
649.1693309645416
 20
420.9437577457993
 30
0.0
 11
642.269330964541
 21
420.9437577457993
 31
0.0
  0
ARC
  5
1D8
330
1F
100
AcDbEntity
  8
10
  6
Continuous
 62
     7
370
    25
100
AcDbCircle
 10
645.7193309645418
 20
417.9767402019393
 30
0.0
 40
4.550350877192955
100
AcDbArc
 50
40.6956985253941
 51
139.3043014746059
  0
LINE
  5
1D9
330
1F
100
AcDbEntity
  8
10
  6
Continuous
 62
     7
370
    25
100
AcDbLine
 10
649.1693309645416
 20
420.6270910791322
 30
0.0
 11
649.1693309645416
 21
420.9437577457993
 31
0.0
  0
LINE
  5
1DA
330
1F
100
AcDbEntity
  8
10
  6
Continuous
 62
     7
370
    25
100
AcDbLine
 10
642.269330964541
 20
420.6270910791322
 30
0.0
 11
642.269330964541
 21
420.9437577457993
 31
0.0
  0
LINE
  5
1DB
330
1F
100
AcDbEntity
  8
10
  6
Continuous
 62
     7
370
    25
100
AcDbLine
 10
649.2193309645418
 20
421.1270910791329
 30
0.0
 11
649.0027716075474
 21
421.1270910791329
 31
0.0
  0
LINE
  5
1DC
330
1F
100
AcDbEntity
  8
10
  6
Continuous
 62
     7
370
    25
100
AcDbLine
 10
642.435890321537
 20
421.1270910791327
 30
0.0
 11
642.0027716075465
 21
421.1270910791327
 31
0.0
  0
CIRCLE
  5
1DD
330
1F
100
AcDbEntity
  8
10
  6
Continuous
 62
     7
370
    25
100
AcDbCircle
 10
286.2032419438601
 20
428.6270910791327
 30
0.0
 40
2.600000000000023
  0
CIRCLE
  5
1DE
330
1F
100
AcDbEntity
  8
10
  6
Continuous
 62
     7
370
    25
100
AcDbCircle
 10
326.2032419438601
 20
428.6270910791327
 30
0.0
 40
2.600000000000023
  0
CIRCLE
  5
1DF
330
1F
100
AcDbEntity
  8
10
  6
Continuous
 62
     7
370
    25
100
AcDbCircle
 10
396.2032419438583
 20
428.6270910791327
 30
0.0
 40
2.600000000000023
  0
CIRCLE
  5
1E0
330
1F
100
AcDbEntity
  8
10
  6
Continuous
 62
     7
370
    25
100
AcDbCircle
 10
436.2032419438592
 20
428.6270910791327
 30
0.0
 40
2.600000000000023
  0
CIRCLE
  5
1E1
330
1F
100
AcDbEntity
  8
10
  6
Continuous
 62
     7
370
    25
100
AcDbCircle
 10
436.2032419438592
 20
182.6270910791329
 30
0.0
 40
2.600000000000023
  0
CIRCLE
  5
1E2
330
1F
100
AcDbEntity
  8
10
  6
Continuous
 62
     7
370
    25
100
AcDbCircle
 10
396.2032419438583
 20
182.6270910791329
 30
0.0
 40
2.600000000000023
  0
CIRCLE
  5
1E3
330
1F
100
AcDbEntity
  8
10
  6
Continuous
 62
     7
370
    25
100
AcDbCircle
 10
326.2032419438601
 20
182.6270910791329
 30
0.0
 40
2.600000000000023
  0
CIRCLE
  5
1E4
330
1F
100
AcDbEntity
  8
10
  6
Continuous
 62
     7
370
    25
100
AcDbCircle
 10
286.2032419438601
 20
182.6270910791329
 30
0.0
 40
2.600000000000023
  0
LINE
  5
1E5
330
1F
100
AcDbEntity
  8
6
  6
Continuous
 62
     1
370
    25
100
AcDbLine
 10
381.4697594429144
 20
496.4815648634894
 30
0.0
 11
381.4697594429144
 21
488.6468113871329
 31
0.0
  0
LINE
  5
1E6
330
1F
100
AcDbEntity
  8
6
  6
Continuous
 62
     1
370
    25
100
AcDbLine
 10
383.9697794429148
 20
505.4815418634894
 30
0.0
 11
383.9697794429148
 21
492.4815328634891
 31
0.0
  0
LINE
  5
1E7
330
1F
100
AcDbEntity
  8
6
  6
Continuous
 62
     1
370
    25
100
AcDbLine
 10
385.5697794429152
 20
502.4815378634894
 30
0.0
 11
385.5697794429152
 21
493.4815368634893
 31
0.0
  0
LINE
  5
1E8
330
1F
100
AcDbEntity
  8
6
  6
Continuous
 62
     1
370
    25
100
AcDbLine
 10
387.1697694429149
 20
502.4815378634894
 30
0.0
 11
387.1697694429149
 21
493.4815368634893
 31
0.0
  0
LINE
  5
1E9
330
1F
100
AcDbEntity
  8
6
  6
Continuous
 62
     1
370
    25
100
AcDbLine
 10
386.3697994429149
 20
502.4815378634894
 30
0.0
 11
386.3697994429149
 21
493.4815368634893
 31
0.0
  0
LINE
  5
1EA
330
1F
100
AcDbEntity
  8
6
  6
Continuous
 62
     1
370
    25
100
AcDbLine
 10
384.7697994429145
 20
502.4815378634894
 30
0.0
 11
384.7697994429145
 21
493.4815368634893
 31
0.0
  0
LINE
  5
1EB
330
1F
100
AcDbEntity
  8
6
  6
Continuous
 62
     1
370
    25
100
AcDbLine
 10
390.4698194429147
 20
496.4815648634894
 30
0.0
 11
390.4698194429157
 21
488.6468113871329
 31
0.0
  0
LINE
  5
1EC
330
1F
100
AcDbEntity
  8
6
  6
Continuous
 62
     1
370
    25
100
AcDbLine
 10
387.9697894429146
 20
505.4815418634894
 30
0.0
 11
387.9697894429146
 21
492.4815328634891
 31
0.0
  0
LINE
  5
1ED
330
1F
100
AcDbEntity
  8
6
  6
Continuous
 62
     1
370
    25
100
AcDbLine
 10
382.4795296536604
 20
485.8260413084276
 30
0.0
 11
382.4795296536604
 21
479.5290125759832
 31
0.0
  0
LINE
  5
1EE
330
1F
100
AcDbEntity
  8
6
  6
Continuous
 62
     1
370
    25
100
AcDbLine
 10
389.4600492321679
 20
485.8260413084276
 30
0.0
 11
389.4600492321679
 21
479.5290125759832
 31
0.0
  0
LINE
  5
1EF
330
1F
100
AcDbEntity
  8
6
  6
Continuous
 62
     1
370
    25
100
AcDbLine
 10
389.4600492321679
 20
479.5290125759832
 30
0.0
 11
382.4795296536604
 21
479.5290125759832
 31
0.0
  0
ARC
  5
1F0
330
1F
100
AcDbEntity
  8
6
  6
Continuous
 62
     1
370
    25
100
AcDbCircle
 10
383.4697594429144
 20
488.6468113871331
 30
0.0
 40
2.0
100
AcDbArc
 50
179.9999999999998
 51
210.000000000003
  0
ARC
  5
1F1
330
1F
100
AcDbEntity
  8
6
  6
Continuous
 62
     1
370
    25
100
AcDbCircle
 10
380.4795296536613
 20
485.8260413084276
 30
0.0
 40
2.0
100
AcDbArc
 50
0.0
 51
30.00000000000336
  0
LINE
  5
1F2
330
1F
100
AcDbEntity
  8
6
  6
Continuous
 62
     1
370
    25
100
AcDbLine
 10
381.7377086353463
 20
487.6468113871333
 30
0.0
 11
382.2115804612295
 21
486.8260413084281
 31
0.0
  0
ARC
  5
1F3
330
1F
100
AcDbEntity
  8
6
  6
Continuous
 62
     1
370
    25
100
AcDbCircle
 10
388.4698194429157
 20
488.6468113871331
 30
0.0
 40
2.0
100
AcDbArc
 50
329.9999999999962
 51
0.0
  0
ARC
  5
1F4
330
1F
100
AcDbEntity
  8
6
  6
Continuous
 62
     1
370
    25
100
AcDbCircle
 10
391.4600492321688
 20
485.8260413084276
 30
0.0
 40
2.0
100
AcDbArc
 50
149.9999999999966
 51
179.9999999999998
  0
LINE
  5
1F5
330
1F
100
AcDbEntity
  8
6
  6
Continuous
 62
     1
370
    25
100
AcDbLine
 10
390.2018702504829
 20
487.6468113871333
 30
0.0
 11
389.7279984245997
 21
486.8260413084281
 31
0.0
  0
LINE
  5
1F6
330
1F
100
AcDbEntity
  8
6
  6
Continuous
 62
     1
370
    25
100
AcDbLine
 10
387.9697894429146
 20
492.4815328634891
 30
0.0
 11
383.9697794429148
 21
492.4815328634891
 31
0.0
  0
LINE
  5
1F7
330
1F
100
AcDbEntity
  8
6
  6
Continuous
 62
     1
370
    25
100
AcDbLine
 10
387.9697894429146
 20
493.4815368634893
 30
0.0
 11
383.9697794429148
 21
493.4815368634893
 31
0.0
  0
LINE
  5
1F8
330
1F
100
AcDbEntity
  8
6
  6
Continuous
 62
     1
370
    25
100
AcDbLine
 10
385.9697894429146
 20
505.4815418634894
 30
0.0
 11
380.7197794429148
 21
505.4815418634894
 31
0.0
  0
ARC
  5
1F9
330
1F
100
AcDbEntity
  8
6
  6
Continuous
 62
     1
370
    25
100
AcDbCircle
 10
381.7197794429148
 20
498.481540863489
 30
0.0
 40
1.0
100
AcDbArc
 50
179.9999999999998
 51
269.9999999999998
  0
LINE
  5
1FA
330
1F
100
AcDbEntity
  8
6
  6
Continuous
 62
     1
370
    25
100
AcDbLine
 10
381.9697694429151
 20
496.4815648634894
 30
0.0
 11
381.9697694429151
 21
497.4815368634893
 31
0.0
  0
LINE
  5
1FB
330
1F
100
AcDbEntity
  8
6
  6
Continuous
 62
     1
370
    25
100
AcDbLine
 10
381.4697594429144
 20
496.4815648634894
 30
0.0
 11
383.9697794429148
 21
496.4815648634894
 31
0.0
  0
LINE
  5
1FC
330
1F
100
AcDbEntity
  8
6
  6
Continuous
 62
     1
370
    25
100
AcDbLine
 10
381.7197794429148
 20
497.4815368634893
 30
0.0
 11
383.9697794429148
 21
497.4815368634893
 31
0.0
  0
LINE
  5
1FD
330
1F
100
AcDbEntity
  8
6
  6
Continuous
 62
     1
370
    25
100
AcDbLine
 10
381.9697694429151
 20
497.4815368634893
 30
0.0
 11
383.9697794429148
 21
497.4815368634893
 31
0.0
  0
LINE
  5
1FE
330
1F
100
AcDbEntity
  8
6
  6
Continuous
 62
     1
370
    25
100
AcDbLine
 10
391.2197994429152
 20
498.481540863489
 30
0.0
 11
391.2197994429152
 21
505.4815418634894
 31
0.0
  0
LINE
  5
1FF
330
1F
100
AcDbEntity
  8
6
  6
Continuous
 62
     1
370
    25
100
AcDbLine
 10
389.969809442915
 20
497.4815368634893
 30
0.0
 11
389.969809442915
 21
496.4815648634894
 31
0.0
  0
LINE
  5
200
330
1F
100
AcDbEntity
  8
6
  6
Continuous
 62
     1
370
    25
100
AcDbLine
 10
390.4698194429147
 20
496.4815648634894
 30
0.0
 11
387.9697994429152
 21
496.4815648634894
 31
0.0
  0
LINE
  5
201
330
1F
100
AcDbEntity
  8
6
  6
Continuous
 62
     1
370
    25
100
AcDbLine
 10
390.2197994429152
 20
497.4815368634893
 30
0.0
 11
387.9697894429146
 21
497.4815368634893
 31
0.0
  0
LINE
  5
202
330
1F
100
AcDbEntity
  8
6
  6
Continuous
 62
     1
370
    25
100
AcDbLine
 10
387.9697894429146
 20
497.4815368634893
 30
0.0
 11
389.969809442915
 21
497.4815368634893
 31
0.0
  0
ARC
  5
203
330
1F
100
AcDbEntity
  8
6
  6
Continuous
 62
     1
370
    25
100
AcDbCircle
 10
390.2197994429152
 20
498.481540863489
 30
0.0
 40
1.0
100
AcDbArc
 50
269.9999999999998
 51
0.0
  0
LINE
  5
204
330
1F
100
AcDbEntity
  8
6
  6
Continuous
 62
     1
370
    25
100
AcDbLine
 10
383.9697794429148
 20
502.4815378634894
 30
0.0
 11
387.9697894429146
 21
502.4815378634894
 31
0.0
  0
LINE
  5
205
330
1F
100
AcDbEntity
  8
6
  6
Continuous
 62
     1
370
    25
100
AcDbLine
 10
385.9697894429146
 20
505.4815418634894
 30
0.0
 11
391.2197994429152
 21
505.4815418634894
 31
0.0
  0
LINE
  5
206
330
1F
100
AcDbEntity
  8
6
  6
Continuous
 62
     1
370
    25
100
AcDbLine
 10
383.9697794429148
 20
504.4815328634891
 30
0.0
 11
387.9697894429146
 21
504.4815328634891
 31
0.0
  0
LINE
  5
207
330
1F
100
AcDbEntity
  8
6
  6
Continuous
 62
     1
370
    25
100
AcDbLine
 10
380.7197794429148
 20
498.481540863489
 30
0.0
 11
380.7197794429148
 21
505.4815418634894
 31
0.0
  0
LINE
  5
208
330
1F
100
AcDbEntity
  8
4
  6
DASHDOT
 62
     1
370
     9
100
AcDbLine
 10
278.6032419438598
 20
428.6270910791327
 30
0.0
 11
293.8032419438596
 21
428.6270910791327
 31
0.0
  0
LINE
  5
209
330
1F
100
AcDbEntity
  8
4
  6
DASHDOT
 62
     1
370
     9
100
AcDbLine
 10
286.2032419438601
 20
421.0270910791328
 30
0.0
 11
286.2032419438601
 21
436.2270910791328
 31
0.0
  0
LINE
  5
20A
330
1F
100
AcDbEntity
  8
4
  6
DASHDOT
 62
     1
370
     9
100
AcDbLine
 10
318.6032419438607
 20
428.6270910791327
 30
0.0
 11
333.8032419438605
 21
428.6270910791327
 31
0.0
  0
LINE
  5
20B
330
1F
100
AcDbEntity
  8
4
  6
DASHDOT
 62
     1
370
     9
100
AcDbLine
 10
326.2032419438601
 20
421.0270910791328
 30
0.0
 11
326.2032419438601
 21
436.2270910791328
 31
0.0
  0
LINE
  5
20C
330
1F
100
AcDbEntity
  8
4
  6
DASHDOT
 62
     1
370
     9
100
AcDbLine
 10
388.6032419438588
 20
428.6270910791327
 30
0.0
 11
403.8032419438587
 21
428.6270910791327
 31
0.0
  0
LINE
  5
20D
330
1F
100
AcDbEntity
  8
4
  6
DASHDOT
 62
     1
370
     9
100
AcDbLine
 10
396.2032419438583
 20
421.0270910791328
 30
0.0
 11
396.2032419438583
 21
436.2270910791328
 31
0.0
  0
LINE
  5
20E
330
1F
100
AcDbEntity
  8
4
  6
DASHDOT
 62
     1
370
     9
100
AcDbLine
 10
428.6032419438598
 20
428.6270910791327
 30
0.0
 11
443.8032419438596
 21
428.6270910791327
 31
0.0
  0
LINE
  5
20F
330
1F
100
AcDbEntity
  8
4
  6
DASHDOT
 62
     1
370
     9
100
AcDbLine
 10
436.2032419438592
 20
421.0270910791328
 30
0.0
 11
436.2032419438592
 21
436.2270910791328
 31
0.0
  0
LINE
  5
210
330
1F
100
AcDbEntity
  8
4
  6
DASHDOT
 62
     1
370
     9
100
AcDbLine
 10
278.6032419438598
 20
182.6270910791329
 30
0.0
 11
293.8032419438596
 21
182.6270910791329
 31
0.0
  0
LINE
  5
211
330
1F
100
AcDbEntity
  8
4
  6
DASHDOT
 62
     1
370
     9
100
AcDbLine
 10
286.2032419438601
 20
175.0270910791328
 30
0.0
 11
286.2032419438601
 21
190.2270910791331
 31
0.0
  0
LINE
  5
212
330
1F
100
AcDbEntity
  8
4
  6
DASHDOT
 62
     1
370
     9
100
AcDbLine
 10
318.6032419438607
 20
182.6270910791329
 30
0.0
 11
333.8032419438605
 21
182.6270910791329
 31
0.0
  0
LINE
  5
213
330
1F
100
AcDbEntity
  8
4
  6
DASHDOT
 62
     1
370
     9
100
AcDbLine
 10
326.2032419438601
 20
175.0270910791328
 30
0.0
 11
326.2032419438601
 21
190.2270910791331
 31
0.0
  0
LINE
  5
214
330
1F
100
AcDbEntity
  8
4
  6
DASHDOT
 62
     1
370
     9
100
AcDbLine
 10
388.6032419438588
 20
182.6270910791329
 30
0.0
 11
403.8032419438587
 21
182.6270910791329
 31
0.0
  0
LINE
  5
215
330
1F
100
AcDbEntity
  8
4
  6
DASHDOT
 62
     1
370
     9
100
AcDbLine
 10
396.2032419438583
 20
175.0270910791328
 30
0.0
 11
396.2032419438583
 21
190.2270910791331
 31
0.0
  0
LINE
  5
216
330
1F
100
AcDbEntity
  8
4
  6
DASHDOT
 62
     1
370
     9
100
AcDbLine
 10
428.6032419438598
 20
182.6270910791329
 30
0.0
 11
443.8032419438596
 21
182.6270910791329
 31
0.0
  0
LINE
  5
217
330
1F
100
AcDbEntity
  8
4
  6
DASHDOT
 62
     1
370
     9
100
AcDbLine
 10
436.2032419438592
 20
175.0270910791328
 30
0.0
 11
436.2032419438592
 21
190.2270910791331
 31
0.0
  0
LINE
  5
218
330
1F
100
AcDbEntity
  8
3
  6
HIDDEN
 62
     3
370
     9
100
AcDbLine
 10
610.7193309645427
 20
278.1270910791338
 30
0.0
 11
655.7193309645427
 21
278.1270910791338
 31
0.0
  0
LINE
  5
219
330
1F
100
AcDbEntity
  8
3
  6
HIDDEN
 62
     3
370
     9
100
AcDbLine
 10
616.7193309645427
 20
273.1270910791336
 30
0.0
 11
654.7193309645409
 21
273.1270910791338
 31
0.0
  0
LINE
  5
21A
330
1F
100
AcDbEntity
  8
3
  6
HIDDEN
 62
     3
370
     9
100
AcDbLine
 10
610.7193309645427
 20
333.1270910791338
 30
0.0
 11
655.7193309645427
 21
333.1270910791338
 31
0.0
  0
LINE
  5
21B
330
1F
100
AcDbEntity
  8
3
  6
HIDDEN
 62
     3
370
     9
100
AcDbLine
 10
616.7193309645427
 20
338.1270910791338
 30
0.0
 11
654.7193309645409
 21
338.1270910791338
 31
0.0
  0
LINE
  5
21C
330
1F
100
AcDbEntity
  8
3
  6
HIDDEN
 62
     3
370
     9
100
AcDbLine
 10
611.7193309645427
 20
417.6270910791329
 30
0.0
 11
611.7193309645427
 21
193.6270910791327
 31
0.0
  0
LINE
  5
21D
330
1F
100
AcDbEntity
  8
3
  6
HIDDEN
 62
     3
370
     9
100
AcDbLine
 10
616.7193309645427
 20
417.6270910791329
 30
0.0
 11
616.7193309645427
 21
193.6270910791327
 31
0.0
  0
LINE
  5
21E
330
1F
100
AcDbEntity
  8
3
  6
HIDDEN
 62
     3
370
     9
100
AcDbLine
 10
611.7193309645427
 20
417.6270910791329
 30
0.0
 11
616.7193309645427
 21
417.6270910791329
 31
0.0
  0
LINE
  5
21F
330
1F
100
AcDbEntity
  8
3
  6
HIDDEN
 62
     3
370
     9
100
AcDbLine
 10
611.7193309645427
 20
193.6270910791329
 30
0.0
 11
616.7193309645427
 21
193.6270910791329
 31
0.0
  0
LINE
  5
220
330
1F
100
AcDbEntity
  8
4
  6
DASHDOT
 62
     1
370
     9
100
AcDbLine
 10
665.7193309645427
 20
305.6270910791329
 30
0.0
 11
600.7193309645427
 21
305.6270910791329
 31
0.0
  0
CIRCLE
  5
221
330
1F
100
AcDbEntity
  8
10
  6
Continuous
 62
     7
370
    25
100
AcDbCircle
 10
361.2032419438583
 20
305.6270910791338
 30
0.0
 40
27.5
  0
CIRCLE
  5
222
330
1F
100
AcDbEntity
  8
3
  6
HIDDEN
 62
     3
370
     9
100
AcDbCircle
 10
361.2032419438583
 20
305.6270910791338
 30
0.0
 40
32.5
  0
HATCH
  5
223
330
1F
100
AcDbEntity
  8
11
  6
Continuous
 62
     2
370
     9
100
AcDbHatch
 10
0.0
 20
0.0
 30
0.0
210
0.0
220
0.0
230
1.0
  2

 70
     0
 71
     0
 91
        4
 92
        0
 93
        5
 72
     1
 10
461.2032419438592
 20
405.6270910791329
 11
361.2032419438601
 21
405.6270910791329
 72
     1
 10
361.2032419438601
 20
405.6270910791329
 11
361.2032419438601
 21
338.1270910791338
 72
     2
 10
361.203241943858
 20
305.6270910791333
 40
32.50000000000051
 50
359.999999999999
 51
449.9999999999999
 73
     1
 72
     1
 10
393.7032419438583
 20
305.6270910791329
 11
461.2032419438592
 21
305.6270910791329
 72
     1
 10
461.2032419438592
 20
305.6270910791329
 11
461.2032419438592
 21
405.6270910791329
 97
        0
 92
        0
 93
        5
 72
     1
 10
361.2032419438601
 20
405.6270910791329
 11
261.2032419438601
 21
405.6270910791329
 72
     1
 10
261.2032419438601
 20
405.6270910791329
 11
261.2032419438601
 21
305.6270910791329
 72
     1
 10
261.2032419438601
 20
305.6270910791329
 11
328.7032419438583
 21
305.6270910791329
 72
     2
 10
361.2032419438589
 20
305.6270910791334
 40
32.50000000000057
 50
89.9999999999999
 51
180.0000000000005
 73
     1
 72
     1
 10
361.2032419438601
 20
338.1270910791338
 11
361.2032419438601
 21
405.6270910791329
 97
        0
 92
        0
 93
        5
 72
     2
 10
361.2032419438586
 20
305.6270910791338
 40
32.50000000000006
 50
180.0000000000012
 51
269.9999999999997
 73
     1
 72
     1
 10
361.2032419438601
 20
273.1270910791338
 11
361.2032419438601
 21
205.6270910791329
 72
     1
 10
361.2032419438601
 20
205.6270910791329
 11
261.2032419438601
 21
205.6270910791329
 72
     1
 10
261.2032419438601
 20
205.6270910791329
 11
261.2032419438601
 21
305.6270910791329
 72
     1
 10
261.2032419438601
 20
305.6270910791329
 11
328.7032419438583
 21
305.6270910791329
 97
        0
 92
        0
 93
        5
 72
     1
 10
461.2032419438592
 20
305.6270910791329
 11
393.7032419438583
 21
305.6270910791329
 72
     2
 10
361.2032419438573
 20
305.6270910791353
 40
32.50000000000102
 50
269.9999999999997
 51
359.9999999999954
 73
     1
 72
     1
 10
361.2032419438601
 20
273.1270910791338
 11
361.2032419438601
 21
205.6270910791329
 72
     1
 10
361.2032419438601
 20
205.6270910791329
 11
461.2032419438592
 21
205.6270910791329
 72
     1
 10
461.2032419438592
 20
205.6270910791329
 11
461.2032419438592
 21
305.6270910791329
 97
        0
 75
     0
 76
     2
 52
0.0
 41
0.5
 77
     0
 78
     2
 53
45.0
 43
-5837.448519137386
 44
1584.789289584027
 45
-4.490128060534516
 46
4.490128060534516
 79
     0
 53
135.0
 43
-5837.448519137386
 44
1584.789289584027
 45
-4.490128060534516
 46
-4.490128060534516
 79
     0
 98
        0
  0
LINE
  5
224
330
1F
100
AcDbEntity
  8
10
  6
Continuous
 62
     7
370
    25
100
AcDbLine
 10
461.2032419438601
 20
405.6270910791313
 30
0.0
 11
461.203241943861
 21
305.6270910791313
 31
0.0
  0
LINE
  5
225
330
1F
100
AcDbEntity
  8
10
  6
Continuous
 62
     7
370
    25
100
AcDbLine
 10
261.2032419438592
 20
405.6270910791322
 30
0.0
 11
361.2032419438592
 21
405.6270910791322
 31
0.0
  0
LINE
  5
226
330
1F
100
AcDbEntity
  8
10
  6
Continuous
 62
     7
370
    25
100
AcDbLine
 10
261.2032419438601
 20
405.6270910791313
 30
0.0
 11
261.2032419438592
 21
305.6270910791322
 31
0.0
  0
LINE
  5
227
330
1F
100
AcDbEntity
  8
10
  6
Continuous
 62
     7
370
    25
100
AcDbLine
 10
361.203241943861
 20
205.6270910791313
 30
0.0
 11
461.2032419438619
 21
205.6270910791313
 31
0.0
  0
LINE
  5
228
330
1F
100
AcDbEntity
  8
10
  6
Continuous
 62
     7
370
    25
100
AcDbLine
 10
261.2032419438592
 20
405.6270910791313
 30
0.0
 11
461.2032419438601
 21
405.6270910791313
 31
0.0
  0
INSERT
  5
229
330
1F
100
AcDbEntity
  8
9
  6
Continuous
 62
     4
370
     9
100
AcDbBlockReference
  2
_OPEN
 10
437.4308460429374
 20
430.9190309072976
 30
0.0
 41
4.0
 42
4.0
 43
4.0
 50
241.864024478004
  0
POLYLINE
  5
22A
330
1F
100
AcDbEntity
  8
9
  6
Continuous
 62
     4
370
     9
100
AcDb2dPolyline
 66
     1
 10
0.0
 20
0.0
 30
0.0
  0
VERTEX
  5
22B
330
22A
100
AcDbEntity
  8
9
  6
Continuous
 62
     4
370
     9
100
AcDbVertex
100
AcDb2dVertex
 10
437.4308460429374
 20
430.9190309072976
 30
0.0
  0
VERTEX
  5
22C
330
22A
100
AcDbEntity
  8
9
  6
Continuous
 62
     4
370
     9
100
AcDbVertex
100
AcDb2dVertex
 10
454.889503145062
 20
463.5668362537663
 30
0.0
  0
VERTEX
  5
22D
330
22A
100
AcDbEntity
  8
9
  6
Continuous
 62
     4
370
     9
100
AcDbVertex
100
AcDb2dVertex
 10
480.2495031450621
 20
463.5668362537663
 30
0.0
  0
SEQEND
  5
22E
330
22A
100
AcDbEntity
  8
9
  6
Continuous
 62
     4
370
     9
  0
MTEXT
  5
22F
330
1F
100
AcDbEntity
  8
9
  6
Continuous
 62
     4
370
     9
100
AcDbMText
 10
457.249503145062
 20
470.7668362537663
 30
0.0
 40
6.0
 41
32.587333062
 46
6.0
 71
     1
 72
     1
  1
{\fＭＳ ゴシック;\T1.016260;8-Ø5.2}
 73
     1
 44
1.0
1001
ACAD
1000
ACAD_MTEXT_DEFINED_HEIGHT_BEGIN
1070
    46
1040
6.0
1000
ACAD_MTEXT_DEFINED_HEIGHT_END
  0
DIMENSION
  5
239
330
1F
100
AcDbEntity
  8
9
  6
Continuous
 62
     4
370
     9
100
AcDbDimension
280
     0
  2
Dim4
 10
396.2032419438582
 20
149.4267513078651
 30
0.0
 11
361.2032419438592
 21
149.4267513078651
 31
0.0
 70
   160
  1
<>
 71
     8
 42
-1.0
 73
     0
 74
     0
 75
     0
  3
Standard
100
AcDbAlignedDimension
 13
326.2032419438601
 23
175.0270910791328
 33
0.0
 14
396.2032419438583
 24
175.0270910791328
 34
0.0
100
AcDbRotatedDimension
1001
ACAD
1000
DSTYLE
1002
{
1070
   279
1070
     1
1070
   340
1005
1AF
1070
   140
1040
6.0
1070
    40
1040
1.0
1070
   147
1040
0.0
1070
    76
1070
     0
1070
    75
1070
     0
1070
   344
1005
0
1070
   343
1005
0
1070
   173
1070
     1
1070
   289
1070
     2
1070
   288
1070
     1
1070
    77
1070
     1
1070
   172
1070
     1
1070
   174
1070
     0
1070
    74
1070
     0
1070
    73
1070
     0
1070
   284
1070
     8
1070
    78
1070
     8
1070
    42
1040
2.0
1070
    44
1040
3.0
1070
    43
1040
30.0
1070
   271
1070
     2
1070
    41
1040
4.0
1002
}
  0
DIMENSION
  5
243
330
1F
100
AcDbEntity
  8
9
  6
Continuous
 62
     4
370
     9
100
AcDbDimension
280
     0
  2
Dim5
 10
436.2032419438592
 20
133.4267513078651
 30
0.0
 11
361.2032419438592
 21
133.4267513078651
 31
0.0
 70
   160
  1
<>
 71
     8
 42
-1.0
 73
     0
 74
     0
 75
     0
  3
Standard
100
AcDbAlignedDimension
 13
286.2032419438601
 23
175.0270910791328
 33
0.0
 14
436.2032419438592
 24
175.0270910791328
 34
0.0
100
AcDbRotatedDimension
1001
ACAD
1000
DSTYLE
1002
{
1070
   279
1070
     1
1070
   340
1005
1AF
1070
   140
1040
6.0
1070
    40
1040
1.0
1070
   147
1040
0.0
1070
    76
1070
     0
1070
    75
1070
     0
1070
   344
1005
0
1070
   343
1005
0
1070
   173
1070
     1
1070
   289
1070
     2
1070
   288
1070
     1
1070
    77
1070
     1
1070
   172
1070
     1
1070
   174
1070
     0
1070
    74
1070
     0
1070
    73
1070
     0
1070
   284
1070
     8
1070
    78
1070
     8
1070
    42
1040
2.0
1070
    44
1040
3.0
1070
    43
1040
30.0
1070
   271
1070
     2
1070
    41
1040
4.0
1002
}
  0
DIMENSION
  5
24D
330
1F
100
AcDbEntity
  8
9
  6
Continuous
 62
     4
370
     9
100
AcDbDimension
280
     0
  2
Dim6
 10
461.203241943859
 20
117.4267513078651
 30
0.0
 11
361.2032419438592
 21
117.4267513078651
 31
0.0
 70
   160
  1
<>
 71
     8
 42
-1.0
 73
     0
 74
     0
 75
     0
  3
Standard
100
AcDbAlignedDimension
 13
261.2032419438601
 23
205.6270910791329
 33
0.0
 14
461.2032419438592
 24
205.6270910791329
 34
0.0
100
AcDbRotatedDimension
1001
ACAD
1000
DSTYLE
1002
{
1070
   279
1070
     1
1070
   340
1005
1AF
1070
   140
1040
6.0
1070
    40
1040
1.0
1070
   147
1040
0.0
1070
    76
1070
     0
1070
    75
1070
     0
1070
   344
1005
0
1070
   343
1005
0
1070
   173
1070
     1
1070
   289
1070
     2
1070
   288
1070
     1
1070
    77
1070
     1
1070
   172
1070
     1
1070
   174
1070
     0
1070
    74
1070
     0
1070
    73
1070
     0
1070
   284
1070
     8
1070
    78
1070
     8
1070
    42
1040
2.0
1070
    44
1040
3.0
1070
    43
1040
30.0
1070
   271
1070
     2
1070
    41
1040
4.0
1002
}
  0
DIMENSION
  5
257
330
1F
100
AcDbEntity
  8
9
  6
Continuous
 62
     4
370
     9
100
AcDbDimension
280
     0
  2
Dim7
 10
476.203241943859
 20
101.4267513078651
 30
0.0
 11
361.2032419438592
 21
101.4267513078651
 31
0.0
 70
   160
  1
<>
 71
     8
 42
-1.0
 73
     0
 74
     0
 75
     0
  3
Standard
100
AcDbAlignedDimension
 13
246.2032419438601
 23
190.627091079132
 33
0.0
 14
476.2032419438592
 24
190.6270910791329
 34
0.0
100
AcDbRotatedDimension
1001
ACAD
1000
DSTYLE
1002
{
1070
   279
1070
     1
1070
   340
1005
1AF
1070
   140
1040
6.0
1070
    40
1040
1.0
1070
   147
1040
0.0
1070
    76
1070
     0
1070
    75
1070
     0
1070
   344
1005
0
1070
   343
1005
0
1070
   173
1070
     1
1070
   289
1070
     2
1070
   288
1070
     1
1070
    77
1070
     1
1070
   172
1070
     1
1070
   174
1070
     0
1070
    74
1070
     0
1070
    73
1070
     0
1070
   284
1070
     8
1070
    78
1070
     8
1070
    42
1040
2.0
1070
    44
1040
3.0
1070
    43
1040
30.0
1070
   271
1070
     2
1070
    41
1040
4.0
1002
}
  0
DIMENSION
  5
261
330
1F
100
AcDbEntity
  8
9
  6
Continuous
 62
     4
370
     9
100
AcDbDimension
280
     0
  2
Dim8
 10
500.5045551727253
 20
405.6270910791328
 30
0.0
 11
500.5045551727253
 21
305.6270910791329
 31
0.0
 70
   160
  1
<>
 71
     8
 42
-1.0
 73
     0
 74
     0
 75
     0
  3
Standard
100
AcDbAlignedDimension
 13
461.2032419438592
 23
205.6270910791329
 33
0.0
 14
461.2032419438592
 24
405.6270910791329
 34
0.0
 50
89.99999999999991
100
AcDbRotatedDimension
1001
ACAD
1000
DSTYLE
1002
{
1070
   279
1070
     1
1070
   340
1005
1AF
1070
   140
1040
6.0
1070
    40
1040
1.0
1070
   147
1040
0.0
1070
    76
1070
     0
1070
    75
1070
     0
1070
   344
1005
0
1070
   343
1005
0
1070
   173
1070
     1
1070
   289
1070
     2
1070
   288
1070
     1
1070
    77
1070
     1
1070
   172
1070
     1
1070
   174
1070
     0
1070
    74
1070
     0
1070
    73
1070
     0
1070
   284
1070
     8
1070
    78
1070
     8
1070
    42
1040
2.0
1070
    44
1040
3.0
1070
    43
1040
30.0
1070
   271
1070
     2
1070
    41
1040
4.0
1002
}
  0
DIMENSION
  5
26B
330
1F
100
AcDbEntity
  8
9
  6
Continuous
 62
     4
370
     9
100
AcDbDimension
280
     0
  2
Dim9
 10
516.5045551727253
 20
420.6270910791328
 30
0.0
 11
516.5045551727253
 21
305.6270910791336
 31
0.0
 70
   160
  1
<>
 71
     8
 42
-1.0
 73
     0
 74
     0
 75
     0
  3
Standard
100
AcDbAlignedDimension
 13
476.2032419438592
 23
190.6270910791329
 33
0.0
 14
476.2032419438592
 24
420.6270910791329
 34
0.0
 50
89.99999999999991
100
AcDbRotatedDimension
1001
ACAD
1000
DSTYLE
1002
{
1070
   279
1070
     1
1070
   340
1005
1AF
1070
   140
1040
6.0
1070
    40
1040
1.0
1070
   147
1040
0.0
1070
    76
1070
     0
1070
    75
1070
     0
1070
   344
1005
0
1070
   343
1005
0
1070
   173
1070
     1
1070
   289
1070
     2
1070
   288
1070
     1
1070
    77
1070
     1
1070
   172
1070
     1
1070
   174
1070
     0
1070
    74
1070
     0
1070
    73
1070
     0
1070
   284
1070
     8
1070
    78
1070
     8
1070
    42
1040
2.0
1070
    44
1040
3.0
1070
    43
1040
30.0
1070
   271
1070
     2
1070
    41
1040
4.0
1002
}
  0
DIMENSION
  5
275
330
1F
100
AcDbEntity
  8
9
  6
Continuous
 62
     4
370
     9
100
AcDbDimension
280
     0
  2
Dim10
 10
532.5045551727253
 20
428.6270910791324
 30
0.0
 11
532.5045551727253
 21
305.6270910791334
 31
0.0
 70
   160
  1
<>
 71
     8
 42
-1.0
 73
     0
 74
     0
 75
     0
  3
Standard
100
AcDbAlignedDimension
 13
443.8032419438596
 23
182.6270910791329
 33
0.0
 14
443.8032419438596
 24
428.6270910791327
 34
0.0
 50
89.99999999999991
100
AcDbRotatedDimension
1001
ACAD
1000
DSTYLE
1002
{
1070
   279
1070
     1
1070
   340
1005
1AF
1070
   140
1040
6.0
1070
    40
1040
1.0
1070
   147
1040
0.0
1070
    76
1070
     0
1070
    75
1070
     0
1070
   344
1005
0
1070
   343
1005
0
1070
   173
1070
     1
1070
   289
1070
     2
1070
   288
1070
     1
1070
    77
1070
     1
1070
   172
1070
     1
1070
   174
1070
     0
1070
    74
1070
     0
1070
    73
1070
     0
1070
   284
1070
     8
1070
    78
1070
     8
1070
    42
1040
2.0
1070
    44
1040
3.0
1070
    43
1040
30.0
1070
   271
1070
     2
1070
    41
1040
4.0
1002
}
  0
DIMENSION
  5
27F
330
1F
100
AcDbEntity
  8
9
  6
Continuous
 62
     4
370
     9
100
AcDbDimension
280
     0
  2
Dim11
 10
548.5045551727253
 20
175.6270910791335
 30
0.0
 11
548.5045551727253
 21
305.6270910791341
 31
0.0
 70
   160
  1
<>
 71
     8
 42
-1.0
 73
     0
 74
     0
 75
     0
 53
89.99999999999991
  3
Standard
100
AcDbAlignedDimension
 13
456.2032419438601
 23
435.6270910791329
 33
0.0
 14
456.2032419438601
 24
175.6270910791338
 34
0.0
 50
-89.99999999999991
100
AcDbRotatedDimension
1001
ACAD
1000
DSTYLE
1002
{
1070
   279
1070
     1
1070
   340
1005
1AF
1070
   140
1040
6.0
1070
    40
1040
1.0
1070
   147
1040
0.0
1070
    76
1070
     0
1070
    75
1070
     0
1070
   344
1005
0
1070
   343
1005
0
1070
   173
1070
     1
1070
   289
1070
     2
1070
   288
1070
     1
1070
    77
1070
     1
1070
   172
1070
     1
1070
   174
1070
     0
1070
    74
1070
     0
1070
    73
1070
     0
1070
   284
1070
     8
1070
    78
1070
     8
1070
    42
1040
2.0
1070
    44
1040
3.0
1070
    43
1040
30.0
1070
   271
1070
     2
1070
    41
1040
4.0
1002
}
  0
DIMENSION
  5
289
330
1F
100
AcDbEntity
  8
9
  6
Continuous
 62
     4
370
     9
100
AcDbDimension
280
     0
  2
Dim12
 10
655.7193309645427
 20
143.5035304538042
 30
0.0
 11
633.2193309645427
 21
143.5035304538042
 31
0.0
 70
   160
  1
<>
 71
     8
 42
-1.0
 73
     0
 74
     0
 75
     0
  3
Standard
100
AcDbAlignedDimension
 13
610.7193309645427
 23
190.6270910791329
 33
0.0
 14
655.7193309645427
 24
175.6270910791329
 34
0.0
100
AcDbRotatedDimension
1001
ACAD
1000
DSTYLE
1002
{
1070
   279
1070
     1
1070
   340
1005
1AF
1070
   140
1040
6.0
1070
    40
1040
1.0
1070
   147
1040
0.0
1070
    76
1070
     0
1070
    75
1070
     0
1070
   344
1005
0
1070
   343
1005
0
1070
   173
1070
     1
1070
   289
1070
     2
1070
   288
1070
     1
1070
    77
1070
     1
1070
   172
1070
     1
1070
   174
1070
     0
1070
    74
1070
     0
1070
    73
1070
     0
1070
   284
1070
     8
1070
    78
1070
     8
1070
    42
1040
2.0
1070
    44
1040
3.0
1070
    43
1040
30.0
1070
   271
1070
     2
1070
    41
1040
4.0
1002
}
  0
DIMENSION
  5
291
330
1F
100
AcDbEntity
  8
9
  6
Continuous
 62
     4
370
     9
100
AcDbDimension
280
     0
  2
Dim13
 10
385.1516016660253
 20
292.1094704816368
 30
0.0
 11
202.9696275507753
 21
398.3867619254103
 31
0.0
 70
   163
  1
∅<>
 71
     5
 42
-1.0
 73
     0
 74
     0
 75
     0
  3
Standard
100
AcDbDiametricDimension
 15
337.2548822216982
 25
319.1447116766279
 35
0.0
 40
0.0
1001
ACAD
1000
DSTYLE
1002
{
1070
   340
1005
1AF
1070
   140
1040
6.0
1070
    40
1040
1.0
1070
   147
1040
0.0
1070
    76
1070
     0
1070
    75
1070
     0
1070
   344
1005
0
1070
   343
1005
0
1070
   173
1070
     1
1070
   289
1070
     2
1070
   288
1070
     1
1070
    77
1070
     1
1070
   172
1070
     1
1070
   174
1070
     0
1070
    74
1070
     0
1070
    73
1070
     0
1070
   284
1070
     8
1070
    78
1070
     8
1070
    42
1040
2.0
1070
    44
1040
3.0
1070
    43
1040
30.0
1070
   271
1070
     2
1070
    41
1040
4.0
1002
}
  0
DIMENSION
  5
299
330
1F
100
AcDbEntity
  8
9
  6
Continuous
 62
     4
370
     9
100
AcDbDimension
280
     0
  2
Dim14
 10
392.4429091828551
 20
296.6642125908101
 30
0.0
 11
202.4786332282211
 21
354.2873206966652
 31
0.0
 70
   163
  1
∅<>
 71
     5
 42
-1.0
 73
     0
 74
     0
 75
     0
  3
Standard
100
AcDbDiametricDimension
 15
329.963574704852
 25
314.5899695674591
 35
0.0
 40
0.0
1001
ACAD
1000
DSTYLE
1002
{
1070
   340
1005
1AF
1070
   140
1040
6.0
1070
    40
1040
1.0
1070
   147
1040
0.0
1070
    76
1070
     0
1070
    75
1070
     0
1070
   344
1005
0
1070
   343
1005
0
1070
   173
1070
     1
1070
   289
1070
     2
1070
   288
1070
     1
1070
    77
1070
     1
1070
   172
1070
     1
1070
   174
1070
     0
1070
    74
1070
     0
1070
    73
1070
     0
1070
   284
1070
     8
1070
    78
1070
     8
1070
    42
1040
2.0
1070
    44
1040
3.0
1070
    43
1040
30.0
1070
   271
1070
     2
1070
    41
1040
4.0
1002
}
  0
LINE
  5
29A
330
1F
100
AcDbEntity
  8
7
  6
Continuous
 62
     6
370
     9
100
AcDbLine
 10
58.8824842813099
 20
135.8188824662812
 30
0.0
 11
202.8824842813099
 21
135.8188824662812
 31
0.0
  0
LINE
  5
29B
330
1F
100
AcDbEntity
  8
7
  6
Continuous
 62
     6
370
     9
100
AcDbLine
 10
58.8824842813099
 20
125.8188624662808
 30
0.0
 11
202.8824842813099
 21
125.8188624662808
 31
0.0
  0
LINE
  5
29C
330
1F
100
AcDbEntity
  8
7
  6
Continuous
 62
     6
370
     9
100
AcDbLine
 10
58.8824842813099
 20
115.8188824662812
 30
0.0
 11
202.8824842813099
 21
115.8188824662812
 31
0.0
  0
LINE
  5
29D
330
1F
100
AcDbEntity
  8
7
  6
Continuous
 62
     6
370
     9
100
AcDbLine
 10
58.8824842813099
 20
105.8188824662812
 30
0.0
 11
202.8824842813099
 21
105.8188824662812
 31
0.0
  0
LINE
  5
29E
330
1F
100
AcDbEntity
  8
7
  6
Continuous
 62
     6
370
     9
100
AcDbLine
 10
146.8824842813099
 20
135.8188824662812
 30
0.0
 11
146.8824842813099
 21
105.8188824662812
 31
0.0
  0
LINE
  5
29F
330
1F
100
AcDbEntity
  8
7
  6
Continuous
 62
     6
370
     9
100
AcDbLine
 10
146.8824842813099
 20
135.8188824662812
 30
0.0
 11
146.8824842813099
 21
105.8188824662812
 31
0.0
  0
LINE
  5
2A0
330
1F
100
AcDbEntity
  8
7
  6
Continuous
 62
     6
370
     9
100
AcDbLine
 10
98.8825042813094
 20
135.8188824662812
 30
0.0
 11
98.8825042813094
 21
105.8188824662812
 31
0.0
  0
LINE
  5
2A1
330
1F
100
AcDbEntity
  8
7
  6
Continuous
 62
     6
370
     9
100
AcDbLine
 10
58.8824842813099
 20
135.8188824662812
 30
0.0
 11
58.8824842813099
 21
105.8188824662812
 31
0.0
  0
LINE
  5
2A2
330
1F
100
AcDbEntity
  8
7
  6
Continuous
 62
     6
370
     9
100
AcDbLine
 10
58.8824842813099
 20
135.8188824662812
 30
0.0
 11
98.8825042813094
 21
125.8188624662808
 31
0.0
  0
LINE
  5
2A3
330
1F
100
AcDbEntity
  8
7
  6
Continuous
 62
     6
370
     9
100
AcDbLine
 10
202.8824842813099
 20
135.8188824662812
 30
0.0
 11
202.8824842813099
 21
105.8188824662812
 31
0.0
  0
LINE
  5
2A4
330
1F
100
AcDbEntity
  8
6
  6
Continuous
 62
     1
370
    25
100
AcDbLine
 10
129.237149075261
 20
152.1588254662812
 30
0.0
 11
129.237149075261
 21
153.8388394662817
 31
0.0
  0
LINE
  5
2A5
330
1F
100
AcDbEntity
  8
6
  6
Continuous
 62
     1
370
    25
100
AcDbLine
 10
141.4171434752605
 20
145.3688254662812
 30
0.0
 11
141.4171434752605
 21
157.2688534662812
 31
0.0
  0
LINE
  5
2A6
330
1F
100
AcDbEntity
  8
6
  6
Continuous
 62
     1
370
    25
100
AcDbLine
 10
140.7171406752612
 20
157.2688534662812
 30
0.0
 11
140.7171406752612
 21
145.3688254662812
 31
0.0
  0
LINE
  5
2A7
330
1F
100
AcDbEntity
  8
6
  6
Continuous
 62
     1
370
    25
100
AcDbLine
 10
140.0171560752613
 20
156.8488254662812
 30
0.0
 11
140.0171560752613
 21
145.7888534662808
 31
0.0
  0
LINE
  5
2A8
330
1F
100
AcDbEntity
  8
6
  6
Continuous
 62
     1
370
    25
100
AcDbLine
 10
132.3171308752606
 20
156.8488254662812
 30
0.0
 11
132.3171308752606
 21
145.7888534662808
 31
0.0
  0
LINE
  5
2A9
330
1F
100
AcDbEntity
  8
6
  6
Continuous
 62
     1
370
    25
100
AcDbLine
 10
128.8171364752614
 20
153.6988114662819
 30
0.0
 11
128.8171364752614
 21
148.9388534662813
 31
0.0
  0
LINE
  5
2AA
330
1F
100
AcDbEntity
  8
6
  6
Continuous
 62
     1
370
    25
100
AcDbLine
 10
136.8671462752607
 20
152.7188324662812
 30
0.0
 11
136.8671462752607
 21
149.9188464662812
 31
0.0
  0
LINE
  5
2AB
330
1F
100
AcDbEntity
  8
6
  6
Continuous
 62
     1
370
    25
100
AcDbLine
 10
138.2671504752605
 20
149.9188464662812
 30
0.0
 11
138.2671504752605
 21
152.7188324662812
 31
0.0
  0
LINE
  5
2AC
330
1F
100
AcDbEntity
  8
6
  6
Continuous
 62
     1
370
    25
100
AcDbLine
 10
132.7371420752614
 20
157.2688534662812
 30
0.0
 11
139.5971448752614
 21
157.2688534662812
 31
0.0
  0
LINE
  5
2AD
330
1F
100
AcDbEntity
  8
6
  6
Continuous
 62
     1
370
    25
100
AcDbLine
 10
132.3171476752612
 20
157.9688534662815
 30
0.0
 11
140.0171392752607
 21
157.9688534662815
 31
0.0
  0
LINE
  5
2AE
330
1F
100
AcDbEntity
  8
6
  6
Continuous
 62
     1
370
    25
100
AcDbLine
 10
140.0171560752613
 20
158.6688254662814
 30
0.0
 11
132.3171308752606
 21
158.6688254662814
 31
0.0
  0
LINE
  5
2AF
330
1F
100
AcDbEntity
  8
6
  6
Continuous
 62
     1
370
    25
100
AcDbLine
 10
135.4671588752606
 20
155.8687764662814
 30
0.0
 11
134.0671448752608
 21
155.8687764662814
 31
0.0
  0
LINE
  5
2B0
330
1F
100
AcDbEntity
  8
6
  6
Continuous
 62
     1
370
    25
100
AcDbLine
 10
134.0671448752608
 20
153.7687624662818
 30
0.0
 11
135.4671588752606
 21
153.7687624662818
 31
0.0
  0
LINE
  5
2B1
330
1F
100
AcDbEntity
  8
6
  6
Continuous
 62
     1
370
    25
100
AcDbLine
 10
138.2671504752605
 20
152.7188324662812
 30
0.0
 11
136.8671462752607
 21
152.7188324662812
 31
0.0
  0
ARC
  5
2B2
330
1F
100
AcDbEntity
  8
6
  6
Continuous
 62
     1
370
    25
100
AcDbCircle
 10
140.0171560752613
 20
157.2688534662812
 30
0.0
 40
1.400000000000006
100
AcDbArc
 50
0.0
 51
89.99999999999991
  0
ARC
  5
2B3
330
1F
100
AcDbEntity
  8
6
  6
Continuous
 62
     1
370
    25
100
AcDbCircle
 10
139.5971448752614
 20
156.8488254662812
 30
0.0
 40
0.4200000000000017
100
AcDbArc
 50
0.0
 51
89.99999999999991
  0
ARC
  5
2B4
330
1F
100
AcDbEntity
  8
6
  6
Continuous
 62
     1
370
    25
100
AcDbCircle
 10
140.0171392752607
 20
157.2688534662812
 30
0.0
 40
0.7000000000000028
100
AcDbArc
 50
0.0
 51
89.99999999999991
  0
LINE
  5
2B5
330
1F
100
AcDbEntity
  8
6
  6
Continuous
 62
     1
370
    25
100
AcDbLine
 10
138.2671504752605
 20
156.2187624662821
 30
0.0
 11
136.8671462752607
 21
156.2187624662821
 31
0.0
  0
LINE
  5
2B6
330
1F
100
AcDbEntity
  8
6
  6
Continuous
 62
     1
370
    25
100
AcDbLine
 10
135.4671588752606
 20
153.7687624662818
 30
0.0
 11
135.4671588752606
 21
155.8687764662814
 31
0.0
  0
LINE
  5
2B7
330
1F
100
AcDbEntity
  8
6
  6
Continuous
 62
     1
370
    25
100
AcDbLine
 10
136.8671462752607
 20
156.2187624662821
 30
0.0
 11
136.8671462752607
 21
153.4187764662812
 31
0.0
  0
LINE
  5
2B8
330
1F
100
AcDbEntity
  8
6
  6
Continuous
 62
     1
370
    25
100
AcDbLine
 10
138.2671504752605
 20
153.4187764662812
 30
0.0
 11
138.2671504752605
 21
156.2187624662821
 31
0.0
  0
LINE
  5
2B9
330
1F
100
AcDbEntity
  8
6
  6
Continuous
 62
     1
370
    25
100
AcDbLine
 10
136.8671462752607
 20
153.4187764662812
 30
0.0
 11
138.2671504752605
 21
153.4187764662812
 31
0.0
  0
LINE
  5
2BA
330
1F
100
AcDbEntity
  8
6
  6
Continuous
 62
     1
370
    25
100
AcDbLine
 10
130.2171406752612
 20
152.7188394662809
 30
0.0
 11
130.2171406752612
 21
154.1188534662816
 31
0.0
  0
ARC
  5
2BB
330
1F
100
AcDbEntity
  8
6
  6
Continuous
 62
     1
370
    25
100
AcDbCircle
 10
129.237149075261
 20
153.6988114662819
 30
0.0
 40
0.4200000000000017
100
AcDbArc
 50
89.99999999999991
 51
179.9999999999998
  0
LINE
  5
2BC
330
1F
100
AcDbEntity
  8
6
  6
Continuous
 62
     1
370
    25
100
AcDbLine
 10
129.5171392752607
 20
153.8388394662817
 30
0.0
 11
129.5171392752607
 21
154.1188534662816
 31
0.0
  0
LINE
  5
2BD
330
1F
100
AcDbEntity
  8
6
  6
Continuous
 62
     1
370
    25
100
AcDbLine
 10
129.237149075261
 20
153.8388394662817
 30
0.0
 11
129.5171392752607
 21
153.8388394662817
 31
0.0
  0
LINE
  5
2BE
330
1F
100
AcDbEntity
  8
6
  6
Continuous
 62
     1
370
    25
100
AcDbLine
 10
130.2171406752612
 20
152.7188394662809
 30
0.0
 11
132.3171308752606
 21
152.7188394662809
 31
0.0
  0
LINE
  5
2BF
330
1F
100
AcDbEntity
  8
6
  6
Continuous
 62
     1
370
    25
100
AcDbLine
 10
129.237149075261
 20
154.1188534662816
 30
0.0
 11
132.3171308752606
 21
154.1188534662816
 31
0.0
  0
ARC
  5
2C0
330
1F
100
AcDbEntity
  8
6
  6
Continuous
 62
     1
370
    25
100
AcDbCircle
 10
132.7371420752614
 20
156.8488254662812
 30
0.0
 40
0.4200000000000017
100
AcDbArc
 50
89.99999999999991
 51
179.9999999999998
  0
ARC
  5
2C1
330
1F
100
AcDbEntity
  8
6
  6
Continuous
 62
     1
370
    25
100
AcDbCircle
 10
132.3171476752612
 20
157.2688534662812
 30
0.0
 40
0.7000000000000028
100
AcDbArc
 50
89.99999999999991
 51
179.9999999999998
  0
ARC
  5
2C2
330
1F
100
AcDbEntity
  8
6
  6
Continuous
 62
     1
370
    25
100
AcDbCircle
 10
132.3171308752606
 20
157.2688534662812
 30
0.0
 40
1.400000000000006
100
AcDbArc
 50
89.99999999999991
 51
179.9999999999998
  0
LINE
  5
2C3
330
1F
100
AcDbEntity
  8
6
  6
Continuous
 62
     1
370
    25
100
AcDbLine
 10
134.0671448752608
 20
155.5187624662818
 30
0.0
 11
133.3671518752615
 21
155.5187624662818
 31
0.0
  0
LINE
  5
2C4
330
1F
100
AcDbEntity
  8
6
  6
Continuous
 62
     1
370
    25
100
AcDbLine
 10
134.0671448752608
 20
155.8687764662814
 30
0.0
 11
134.0671448752608
 21
155.5187624662818
 31
0.0
  0
LINE
  5
2C5
330
1F
100
AcDbEntity
  8
6
  6
Continuous
 62
     1
370
    25
100
AcDbLine
 10
133.3671518752615
 20
155.5187624662818
 30
0.0
 11
133.3671518752615
 21
154.1187904662812
 31
0.0
  0
LINE
  5
2C6
330
1F
100
AcDbEntity
  8
6
  6
Continuous
 62
     1
370
    25
100
AcDbLine
 10
134.0671448752608
 20
154.1187904662812
 30
0.0
 11
134.0671448752608
 21
153.7687624662818
 31
0.0
  0
LINE
  5
2C7
330
1F
100
AcDbEntity
  8
6
  6
Continuous
 62
     1
370
    25
100
AcDbLine
 10
133.3671518752615
 20
154.1187904662812
 30
0.0
 11
134.0671448752608
 21
154.1187904662812
 31
0.0
  0
LINE
  5
2C8
330
1F
100
AcDbEntity
  8
6
  6
Continuous
 62
     1
370
    25
100
AcDbLine
 10
131.6171462752607
 20
157.2688534662812
 30
0.0
 11
131.6171462752607
 21
154.1188534662816
 31
0.0
  0
LINE
  5
2C9
330
1F
100
AcDbEntity
  8
6
  6
Continuous
 62
     1
370
    25
100
AcDbLine
 10
130.9171434752605
 20
157.2688534662812
 30
0.0
 11
130.9171434752605
 21
154.1188534662816
 31
0.0
  0
LINE
  5
2CA
330
1F
100
AcDbEntity
  8
6
  6
Continuous
 62
     1
370
    25
100
AcDbLine
 10
139.5971448752614
 20
145.3688254662812
 30
0.0
 11
132.7371420752614
 21
145.3688254662812
 31
0.0
  0
LINE
  5
2CB
330
1F
100
AcDbEntity
  8
6
  6
Continuous
 62
     1
370
    25
100
AcDbLine
 10
140.0171392752607
 20
144.6688254662814
 30
0.0
 11
132.3171476752612
 21
144.6688254662814
 31
0.0
  0
LINE
  5
2CC
330
1F
100
AcDbEntity
  8
6
  6
Continuous
 62
     1
370
    25
100
AcDbLine
 10
140.0171560752613
 20
143.9688534662815
 30
0.0
 11
132.3171308752606
 21
143.9688534662815
 31
0.0
  0
LINE
  5
2CD
330
1F
100
AcDbEntity
  8
6
  6
Continuous
 62
     1
370
    25
100
AcDbLine
 10
134.0671448752608
 20
146.7689024662805
 30
0.0
 11
135.4671588752606
 21
146.7689024662805
 31
0.0
  0
LINE
  5
2CE
330
1F
100
AcDbEntity
  8
6
  6
Continuous
 62
     1
370
    25
100
AcDbLine
 10
135.4671588752606
 20
148.8689164662811
 30
0.0
 11
134.0671448752608
 21
148.8689164662811
 31
0.0
  0
LINE
  5
2CF
330
1F
100
AcDbEntity
  8
6
  6
Continuous
 62
     1
370
    25
100
AcDbLine
 10
134.0671448752608
 20
150.2688324662814
 30
0.0
 11
135.4671588752606
 21
150.2688324662814
 31
0.0
  0
LINE
  5
2D0
330
1F
100
AcDbEntity
  8
6
  6
Continuous
 62
     1
370
    25
100
AcDbLine
 10
135.4671588752606
 20
152.368846466281
 30
0.0
 11
134.0671448752608
 21
152.368846466281
 31
0.0
  0
ARC
  5
2D1
330
1F
100
AcDbEntity
  8
6
  6
Continuous
 62
     1
370
    25
100
AcDbCircle
 10
140.0171560752613
 20
145.3688254662812
 30
0.0
 40
1.400000000000006
100
AcDbArc
 50
269.9999999999998
 51
0.0
  0
ARC
  5
2D2
330
1F
100
AcDbEntity
  8
6
  6
Continuous
 62
     1
370
    25
100
AcDbCircle
 10
139.5971448752614
 20
145.7888534662808
 30
0.0
 40
0.4200000000000017
100
AcDbArc
 50
269.9999999999998
 51
0.0
  0
ARC
  5
2D3
330
1F
100
AcDbEntity
  8
6
  6
Continuous
 62
     1
370
    25
100
AcDbCircle
 10
140.0171392752607
 20
145.3688254662812
 30
0.0
 40
0.7000000000000028
100
AcDbArc
 50
269.9999999999998
 51
0.0
  0
LINE
  5
2D4
330
1F
100
AcDbEntity
  8
6
  6
Continuous
 62
     1
370
    25
100
AcDbLine
 10
136.8671462752607
 20
146.4189164662813
 30
0.0
 11
138.2671504752605
 21
146.4189164662813
 31
0.0
  0
LINE
  5
2D5
330
1F
100
AcDbEntity
  8
6
  6
Continuous
 62
     1
370
    25
100
AcDbLine
 10
138.2671504752605
 20
146.4189164662813
 30
0.0
 11
138.2671504752605
 21
149.2189024662808
 31
0.0
  0
LINE
  5
2D6
330
1F
100
AcDbEntity
  8
6
  6
Continuous
 62
     1
370
    25
100
AcDbLine
 10
136.8671462752607
 20
149.2189024662808
 30
0.0
 11
136.8671462752607
 21
146.4189164662813
 31
0.0
  0
LINE
  5
2D7
330
1F
100
AcDbEntity
  8
6
  6
Continuous
 62
     1
370
    25
100
AcDbLine
 10
135.4671588752606
 20
146.7689024662805
 30
0.0
 11
135.4671588752606
 21
148.8689164662811
 31
0.0
  0
LINE
  5
2D8
330
1F
100
AcDbEntity
  8
6
  6
Continuous
 62
     1
370
    25
100
AcDbLine
 10
138.2671504752605
 20
149.2189024662808
 30
0.0
 11
136.8671462752607
 21
149.2189024662808
 31
0.0
  0
LINE
  5
2D9
330
1F
100
AcDbEntity
  8
6
  6
Continuous
 62
     1
370
    25
100
AcDbLine
 10
136.8671462752607
 20
149.9188464662812
 30
0.0
 11
138.2671504752605
 21
149.9188464662812
 31
0.0
  0
LINE
  5
2DA
330
1F
100
AcDbEntity
  8
6
  6
Continuous
 62
     1
370
    25
100
AcDbLine
 10
135.4671588752606
 20
150.2688324662814
 30
0.0
 11
135.4671588752606
 21
152.368846466281
 31
0.0
  0
ARC
  5
2DB
330
1F
100
AcDbEntity
  8
6
  6
Continuous
 62
     1
370
    25
100
AcDbCircle
 10
132.7371420752614
 20
145.7888534662808
 30
0.0
 40
0.4200000000000017
100
AcDbArc
 50
179.9999999999998
 51
269.9999999999998
  0
ARC
  5
2DC
330
1F
100
AcDbEntity
  8
6
  6
Continuous
 62
     1
370
    25
100
AcDbCircle
 10
132.3171476752612
 20
145.3688254662812
 30
0.0
 40
0.7000000000000028
100
AcDbArc
 50
179.9999999999998
 51
269.9999999999998
  0
ARC
  5
2DD
330
1F
100
AcDbEntity
  8
6
  6
Continuous
 62
     1
370
    25
100
AcDbCircle
 10
132.3171308752606
 20
145.3688254662812
 30
0.0
 40
1.400000000000006
100
AcDbArc
 50
179.9999999999998
 51
269.9999999999998
  0
LINE
  5
2DE
330
1F
100
AcDbEntity
  8
6
  6
Continuous
 62
     1
370
    25
100
AcDbLine
 10
133.3671518752615
 20
147.1189304662813
 30
0.0
 11
134.0671448752608
 21
147.1189304662813
 31
0.0
  0
LINE
  5
2DF
330
1F
100
AcDbEntity
  8
6
  6
Continuous
 62
     1
370
    25
100
AcDbLine
 10
134.0671448752608
 20
147.1189304662813
 30
0.0
 11
134.0671448752608
 21
146.7689024662805
 31
0.0
  0
LINE
  5
2E0
330
1F
100
AcDbEntity
  8
6
  6
Continuous
 62
     1
370
    25
100
AcDbLine
 10
133.3671518752615
 20
148.5189024662805
 30
0.0
 11
133.3671518752615
 21
147.1189304662813
 31
0.0
  0
LINE
  5
2E1
330
1F
100
AcDbEntity
  8
6
  6
Continuous
 62
     1
370
    25
100
AcDbLine
 10
134.0671448752608
 20
148.8689164662811
 30
0.0
 11
134.0671448752608
 21
148.5189024662805
 31
0.0
  0
LINE
  5
2E2
330
1F
100
AcDbEntity
  8
6
  6
Continuous
 62
     1
370
    25
100
AcDbLine
 10
134.0671448752608
 20
148.5189024662805
 30
0.0
 11
133.3671518752615
 21
148.5189024662805
 31
0.0
  0
LINE
  5
2E3
330
1F
100
AcDbEntity
  8
6
  6
Continuous
 62
     1
370
    25
100
AcDbLine
 10
129.237149075261
 20
148.7988394662817
 30
0.0
 11
129.237149075261
 21
150.4788534662813
 31
0.0
  0
LINE
  5
2E4
330
1F
100
AcDbEntity
  8
6
  6
Continuous
 62
     1
370
    25
100
AcDbLine
 10
130.2171406752612
 20
148.5188254662818
 30
0.0
 11
130.2171406752612
 21
149.9188394662811
 31
0.0
  0
LINE
  5
2E5
330
1F
100
AcDbEntity
  8
6
  6
Continuous
 62
     1
370
    25
100
AcDbLine
 10
129.5171392752607
 20
150.4788534662813
 30
0.0
 11
129.237149075261
 21
150.4788534662813
 31
0.0
  0
LINE
  5
2E6
330
1F
100
AcDbEntity
  8
6
  6
Continuous
 62
     1
370
    25
100
AcDbLine
 10
132.3171308752606
 20
149.9188394662811
 30
0.0
 11
130.2171406752612
 21
149.9188394662811
 31
0.0
  0
ARC
  5
2E7
330
1F
100
AcDbEntity
  8
6
  6
Continuous
 62
     1
370
    25
100
AcDbCircle
 10
129.237149075261
 20
148.9388534662813
 30
0.0
 40
0.4200000000000017
100
AcDbArc
 50
179.9999999999998
 51
269.9999999999998
  0
LINE
  5
2E8
330
1F
100
AcDbEntity
  8
6
  6
Continuous
 62
     1
370
    25
100
AcDbLine
 10
129.5171392752607
 20
148.5188254662818
 30
0.0
 11
129.5171392752607
 21
148.7988394662817
 31
0.0
  0
LINE
  5
2E9
330
1F
100
AcDbEntity
  8
6
  6
Continuous
 62
     1
370
    25
100
AcDbLine
 10
129.5171392752607
 20
148.7988394662817
 30
0.0
 11
129.237149075261
 21
148.7988394662817
 31
0.0
  0
LINE
  5
2EA
330
1F
100
AcDbEntity
  8
6
  6
Continuous
 62
     1
370
    25
100
AcDbLine
 10
129.237149075261
 20
148.5188254662818
 30
0.0
 11
132.3171308752606
 21
148.5188254662818
 31
0.0
  0
LINE
  5
2EB
330
1F
100
AcDbEntity
  8
6
  6
Continuous
 62
     1
370
    25
100
AcDbLine
 10
133.3671518752615
 20
150.6188604662812
 30
0.0
 11
134.0671448752608
 21
150.6188604662812
 31
0.0
  0
LINE
  5
2EC
330
1F
100
AcDbEntity
  8
6
  6
Continuous
 62
     1
370
    25
100
AcDbLine
 10
134.0671448752608
 20
150.6188604662812
 30
0.0
 11
134.0671448752608
 21
150.2688324662814
 31
0.0
  0
LINE
  5
2ED
330
1F
100
AcDbEntity
  8
6
  6
Continuous
 62
     1
370
    25
100
AcDbLine
 10
131.6171462752607
 20
145.3688254662812
 30
0.0
 11
131.6171462752607
 21
148.5188254662818
 31
0.0
  0
LINE
  5
2EE
330
1F
100
AcDbEntity
  8
6
  6
Continuous
 62
     1
370
    25
100
AcDbLine
 10
130.9171434752605
 20
145.3688254662812
 30
0.0
 11
130.9171434752605
 21
148.5188254662818
 31
0.0
  0
LINE
  5
2EF
330
1F
100
AcDbEntity
  8
6
  6
Continuous
 62
     1
370
    25
100
AcDbLine
 10
129.5171392752607
 20
152.1588254662812
 30
0.0
 11
129.237149075261
 21
152.1588254662812
 31
0.0
  0
LINE
  5
2F0
330
1F
100
AcDbEntity
  8
6
  6
Continuous
 62
     1
370
    25
100
AcDbLine
 10
134.0671448752608
 20
152.368846466281
 30
0.0
 11
134.0671448752608
 21
152.0188324662814
 31
0.0
  0
LINE
  5
2F1
330
1F
100
AcDbEntity
  8
6
  6
Continuous
 62
     1
370
    25
100
AcDbLine
 10
134.0671448752608
 20
152.0188324662814
 30
0.0
 11
133.3671518752615
 21
152.0188324662814
 31
0.0
  0
LINE
  5
2F2
330
1F
100
AcDbEntity
  8
6
  6
Continuous
 62
     1
370
    25
100
AcDbLine
 10
129.5171392752607
 20
150.4788534662813
 30
0.0
 11
129.5171392752607
 21
152.1588254662812
 31
0.0
  0
LINE
  5
2F3
330
1F
100
AcDbEntity
  8
6
  6
Continuous
 62
     1
370
    25
100
AcDbLine
 10
133.3671518752615
 20
152.0188324662814
 30
0.0
 11
133.3671518752615
 21
150.6188604662812
 31
0.0
  0
LINE
  5
2F4
330
1F
100
AcDbEntity
  8
6
  6
Continuous
 62
     1
370
    25
100
AcDbLine
 10
126.0160597607481
 20
154.118846466281
 30
0.0
 11
107.8160471607487
 21
154.118846466281
 31
0.0
  0
LINE
  5
2F5
330
1F
100
AcDbEntity
  8
6
  6
Continuous
 62
     1
370
    25
100
AcDbLine
 10
121.8160541607484
 20
151.8788464662813
 30
0.0
 11
109.2160527607482
 21
151.8788464662813
 31
0.0
  0
LINE
  5
2F6
330
1F
100
AcDbEntity
  8
6
  6
Continuous
 62
     1
370
    25
100
AcDbLine
 10
121.8160541607484
 20
149.6388604662808
 30
0.0
 11
109.2160527607482
 21
149.6388604662808
 31
0.0
  0
LINE
  5
2F7
330
1F
100
AcDbEntity
  8
6
  6
Continuous
 62
     1
370
    25
100
AcDbLine
 10
121.8160541607484
 20
150.758818466281
 30
0.0
 11
109.2160527607482
 21
150.758818466281
 31
0.0
  0
LINE
  5
2F8
330
1F
100
AcDbEntity
  8
6
  6
Continuous
 62
     1
370
    25
100
AcDbLine
 10
121.8160541607484
 20
152.9988184662817
 30
0.0
 11
109.2160527607482
 21
152.9988184662817
 31
0.0
  0
LINE
  5
2F9
330
1F
100
AcDbEntity
  8
6
  6
Continuous
 62
     1
370
    25
100
AcDbLine
 10
126.0160597607481
 20
148.5188324662814
 30
0.0
 11
107.8160471607487
 21
148.5188324662814
 31
0.0
  0
LINE
  5
2FA
330
1F
100
AcDbEntity
  8
6
  6
Continuous
 62
     1
370
    25
100
AcDbLine
 10
89.68259920440849
 20
153.4888460755065
 30
0.0
 11
58.88259920440831
 21
153.4888460755065
 31
0.0
  0
LINE
  5
2FB
330
1F
100
AcDbEntity
  8
6
  6
Continuous
 62
     1
370
    25
100
AcDbLine
 10
89.6825187582397
 20
149.148846082334
 30
0.0
 11
58.88251875823951
 21
149.1488458578525
 31
0.0
  0
LINE
  5
2FC
330
1F
100
AcDbEntity
  8
6
  6
Continuous
 62
     1
370
    25
100
AcDbLine
 10
89.6825187582397
 20
147.3988324662824
 30
0.0
 11
89.6825187582397
 21
155.2388324662821
 31
0.0
  0
LINE
  5
2FD
330
1F
100
AcDbEntity
  8
6
  6
Continuous
 62
     1
370
    25
100
AcDbLine
 10
107.8160471607487
 20
148.5188324662814
 30
0.0
 11
107.8160471607487
 21
154.118846466281
 31
0.0
  0
LINE
  5
2FE
330
1F
100
AcDbEntity
  8
6
  6
Continuous
 62
     1
370
    25
100
AcDbLine
 10
109.2160527607482
 20
148.5188324662814
 30
0.0
 11
109.2160527607482
 21
154.118846466281
 31
0.0
  0
LINE
  5
2FF
330
1F
100
AcDbEntity
  8
6
  6
Continuous
 62
     1
370
    25
100
AcDbLine
 10
126.0160597607481
 20
151.3188324662816
 30
0.0
 11
126.0160597607481
 21
158.6688464662812
 31
0.0
  0
ARC
  5
300
330
1F
100
AcDbEntity
  8
6
  6
Continuous
 62
     1
370
    25
100
AcDbCircle
 10
116.2160583607481
 20
157.2688464662807
 30
0.0
 40
1.400000000000006
100
AcDbArc
 50
89.99999999999991
 51
179.9999999999998
  0
LINE
  5
301
330
1F
100
AcDbEntity
  8
6
  6
Continuous
 62
     1
370
    25
100
AcDbLine
 10
113.4160919607482
 20
156.9188604662814
 30
0.0
 11
114.8160527607477
 21
156.9188604662814
 31
0.0
  0
LINE
  5
302
330
1F
100
AcDbEntity
  8
6
  6
Continuous
 62
     1
370
    25
100
AcDbLine
 10
113.4160919607482
 20
157.6188744662814
 30
0.0
 11
113.4160919607482
 21
154.1188464662815
 31
0.0
  0
LINE
  5
303
330
1F
100
AcDbEntity
  8
6
  6
Continuous
 62
     1
370
    25
100
AcDbLine
 10
114.8160527607477
 20
157.2688464662807
 30
0.0
 11
114.8160527607477
 21
154.118846466281
 31
0.0
  0
LINE
  5
304
330
1F
100
AcDbEntity
  8
6
  6
Continuous
 62
     1
370
    25
100
AcDbLine
 10
114.8160527607477
 20
156.9188604662814
 30
0.0
 11
114.8160527607477
 21
154.118846466281
 31
0.0
  0
LINE
  5
305
330
1F
100
AcDbEntity
  8
6
  6
Continuous
 62
     1
370
    25
100
AcDbLine
 10
116.2160583607481
 20
143.968818466281
 30
0.0
 11
126.0160597607481
 21
143.968818466281
 31
0.0
  0
LINE
  5
306
330
1F
100
AcDbEntity
  8
6
  6
Continuous
 62
     1
370
    25
100
AcDbLine
 10
114.8160527607477
 20
145.7188044662808
 30
0.0
 11
113.4160919607482
 21
145.7188044662808
 31
0.0
  0
LINE
  5
307
330
1F
100
AcDbEntity
  8
6
  6
Continuous
 62
     1
370
    25
100
AcDbLine
 10
113.4160919607482
 20
145.0187904662808
 30
0.0
 11
113.4160919607482
 21
148.5188184662812
 31
0.0
  0
LINE
  5
308
330
1F
100
AcDbEntity
  8
6
  6
Continuous
 62
     1
370
    25
100
AcDbLine
 10
114.8160527607477
 20
145.3688184662811
 30
0.0
 11
114.8160527607477
 21
148.5188324662814
 31
0.0
  0
LINE
  5
309
330
1F
100
AcDbEntity
  8
6
  6
Continuous
 62
     1
370
    25
100
AcDbLine
 10
114.8160527607477
 20
148.5188324662814
 30
0.0
 11
114.8160527607477
 21
145.7188044662808
 31
0.0
  0
ARC
  5
30A
330
1F
100
AcDbEntity
  8
6
  6
Continuous
 62
     1
370
    25
100
AcDbCircle
 10
116.2160583607481
 20
145.3688184662811
 30
0.0
 40
1.400000000000006
100
AcDbArc
 50
179.9999999999998
 51
269.9999999999998
  0
LINE
  5
30B
330
1F
100
AcDbEntity
  8
6
  6
Continuous
 62
     1
370
    25
100
AcDbLine
 10
121.8160541607484
 20
154.118846466281
 30
0.0
 11
121.8160541607484
 21
148.5188324662814
 31
0.0
  0
LINE
  5
30C
330
1F
100
AcDbEntity
  8
6
  6
Continuous
 62
     1
370
    25
100
AcDbLine
 10
126.0160597607481
 20
151.3188324662816
 30
0.0
 11
126.0160597607481
 21
143.968818466281
 31
0.0
  0
LINE
  5
30D
330
1F
100
AcDbEntity
  8
6
  6
Continuous
 62
     1
370
    25
100
AcDbLine
 10
124.6160471607489
 20
154.118846466281
 30
0.0
 11
124.6160471607489
 21
148.5188324662814
 31
0.0
  0
LINE
  5
30E
330
1F
100
AcDbEntity
  8
6
  6
Continuous
 62
     1
370
    25
100
AcDbLine
 10
116.2160583607481
 20
158.6688464662812
 30
0.0
 11
126.0160597607481
 21
158.6688464662812
 31
0.0
  0
LINE
  5
30F
330
1F
100
AcDbEntity
  8
6
  6
Continuous
 62
     1
370
    25
100
AcDbLine
 10
113.4160919607482
 20
157.6188744662814
 30
0.0
 11
102.4474370938495
 21
157.6188744662814
 31
0.0
  0
LINE
  5
310
330
1F
100
AcDbEntity
  8
6
  6
Continuous
 62
     1
370
    25
100
AcDbLine
 10
95.49043887095084
 20
155.2388324662821
 30
0.0
 11
89.6825187582397
 21
155.2388324662821
 31
0.0
  0
ARC
  5
311
330
1F
100
AcDbEntity
  8
6
  6
Continuous
 62
     1
370
    25
100
AcDbCircle
 10
102.5174034538366
 20
154.2874271996653
 30
0.0
 40
3.33218189506124
100
AcDbArc
 50
91.20313712916261
 51
128.5407048704771
  0
ARC
  5
312
330
1F
100
AcDbEntity
  8
6
  6
Continuous
 62
     1
370
    25
100
AcDbCircle
 10
95.15823510973294
 20
164.2429886539727
 30
0.0
 40
9.01028234803401
100
AcDbArc
 50
272.1129402668354
 51
301.7409359603876
  0
LINE
  5
313
330
1F
100
AcDbEntity
  8
6
  6
Continuous
 62
     1
370
    25
100
AcDbLine
 10
100.441219311201
 20
156.8937455968768
 30
0.0
 11
99.89835898366235
 21
156.5803250406403
 31
0.0
  0
LINE
  5
314
330
1F
100
AcDbEntity
  8
6
  6
Continuous
 62
     1
370
    25
100
AcDbLine
 10
113.4160919607482
 20
145.0187904662831
 30
0.0
 11
102.4474370938495
 21
145.0187904662831
 31
0.0
  0
LINE
  5
315
330
1F
100
AcDbEntity
  8
6
  6
Continuous
 62
     1
370
    25
100
AcDbLine
 10
95.49043887095084
 20
147.3988324662824
 30
0.0
 11
89.6825187582397
 21
147.3988324662824
 31
0.0
  0
ARC
  5
316
330
1F
100
AcDbEntity
  8
6
  6
Continuous
 62
     1
370
    25
100
AcDbCircle
 10
102.5174034538366
 20
148.3502377328992
 30
0.0
 40
3.33218189506124
100
AcDbArc
 50
231.4592951295223
 51
268.7968628708368
  0
ARC
  5
317
330
1F
100
AcDbEntity
  8
6
  6
Continuous
 62
     1
370
    25
100
AcDbCircle
 10
95.15823510973294
 20
138.3946762785918
 30
0.0
 40
9.01028234803401
100
AcDbArc
 50
58.25906403961194
 51
87.88705973316422
  0
LINE
  5
318
330
1F
100
AcDbEntity
  8
6
  6
Continuous
 62
     1
370
    25
100
AcDbLine
 10
100.441219311201
 20
145.7439193356878
 30
0.0
 11
99.89835898366235
 21
146.0573398919242
 31
0.0
  0
MTEXT
  5
319
330
1F
100
AcDbEntity
  8
2
  6
Continuous
 62
   151
370
     9
100
AcDbMText
 10
58.88259920440831
 20
170.2610404191824
 30
0.0
 40
5.2
 41
100.723182979432
 46
5.2
 71
     4
 72
     1
  1
{\fＭＳ ゴシック;\T1.067966;Details of Connector}
 73
     1
 44
1.0
1001
ACAD
1000
ACAD_MTEXT_DEFINED_HEIGHT_BEGIN
1070
    46
1040
5.2
1000
ACAD_MTEXT_DEFINED_HEIGHT_END
  0
MTEXT
  5
31A
330
1F
100
AcDbEntity
  8
2
  6
Continuous
 62
   151
370
     9
100
AcDbMText
 10
100.8825042813094
 20
130.8188724662815
 30
0.0
 40
4.0
 41
19.82250506336
 46
4.0
 71
     4
 72
     1
  1
{\fＭＳ ゴシック;\T1.147374;Light}
 73
     1
 44
1.0
1001
ACAD
1000
ACAD_MTEXT_DEFINED_HEIGHT_BEGIN
1070
    46
1040
4.0
1000
ACAD_MTEXT_DEFINED_HEIGHT_END
  0
MTEXT
  5
31B
330
1F
100
AcDbEntity
  8
2
  6
Continuous
 62
   151
370
     9
100
AcDbMText
 10
100.8825042813094
 20
120.818892466281
 30
0.0
 40
4.0
 41
36.87182151296
 46
4.0
 71
     4
 72
     1
  1
{\fＭＳ ゴシック;\T1.142132;SMR-03V-B}
 73
     1
 44
1.0
1001
ACAD
1000
ACAD_MTEXT_DEFINED_HEIGHT_BEGIN
1070
    46
1040
4.0
1000
ACAD_MTEXT_DEFINED_HEIGHT_END
  0
MTEXT
  5
31C
330
1F
100
AcDbEntity
  8
2
  6
Continuous
 62
   151
370
     9
100
AcDbMText
 10
100.8825042813094
 20
110.818892466281
 30
0.0
 40
4.0
 41
53.89326649792
 46
4.0
 71
     4
 72
     1
  1
{\fＭＳ ゴシック;\T1.150276;BYM-001T-P0.6}
 73
     1
 44
1.0
1001
ACAD
1000
ACAD_MTEXT_DEFINED_HEIGHT_BEGIN
1070
    46
1040
4.0
1000
ACAD_MTEXT_DEFINED_HEIGHT_END
  0
MTEXT
  5
31D
330
1F
100
AcDbEntity
  8
2
  6
Continuous
 62
   151
370
     9
100
AcDbMText
 10
148.8824842813099
 20
120.818892466281
 30
0.0
 40
4.0
 41
41.13018220248
 46
4.0
 71
     4
 72
     1
  1
{\fＭＳ ゴシック;\T1.142542;SMP-03V-BC}
 73
     1
 44
1.0
1001
ACAD
1000
ACAD_MTEXT_DEFINED_HEIGHT_BEGIN
1070
    46
1040
4.0
1000
ACAD_MTEXT_DEFINED_HEIGHT_END
  0
MTEXT
  5
31E
330
1F
100
AcDbEntity
  8
2
  6
Continuous
 62
   151
370
     9
100
AcDbMText
 10
148.8824842813099
 20
110.818892466281
 30
0.0
 40
4.0
 41
58.15543478679999
 46
4.0
 71
     4
 72
     1
  1
{\fＭＳ ゴシック;\T1.148710;BHF-001T-0.8SS}
 73
     1
 44
1.0
1001
ACAD
1000
ACAD_MTEXT_DEFINED_HEIGHT_BEGIN
1070
    46
1040
4.0
1000
ACAD_MTEXT_DEFINED_HEIGHT_END
  0
MTEXT
  5
31F
330
1F
100
AcDbEntity
  8
2
  6
Continuous
 62
   151
370
     9
100
AcDbMText
 10
148.8824842813099
 20
130.8188724662815
 30
0.0
 40
4.0
 41
59.79403988464001
 46
4.0
 71
     4
 72
     1
  1
{\fＭＳ ゴシック;\T1.108817;Power　Supply　}
 73
     1
 44
1.0
1001
ACAD
1000
ACAD_MTEXT_DEFINED_HEIGHT_BEGIN
1070
    46
1040
4.0
1000
ACAD_MTEXT_DEFINED_HEIGHT_END
  0
MTEXT
  5
320
330
1F
100
AcDbEntity
  8
2
  6
Continuous
 62
   151
370
     9
100
AcDbMText
 10
60.8824842813099
 20
120.818892466281
 30
0.0
 40
4.0
 41
36.84093669471999
 46
4.0
 71
     4
 72
     1
  1
{\fＭＳ ゴシック;\T1.158599;Connector}
 73
     1
 44
1.0
1001
ACAD
1000
ACAD_MTEXT_DEFINED_HEIGHT_BEGIN
1070
    46
1040
4.0
1000
ACAD_MTEXT_DEFINED_HEIGHT_END
  0
MTEXT
  5
321
330
1F
100
AcDbEntity
  8
2
  6
Continuous
 62
   151
370
     9
100
AcDbMText
 10
60.8824842813099
 20
110.818892466281
 30
0.0
 40
4.0
 41
28.34479054200001
 46
4.0
 71
     4
 72
     1
  1
{\fＭＳ ゴシック;\T1.145825;Contact}
 73
     1
 44
1.0
1001
ACAD
1000
ACAD_MTEXT_DEFINED_HEIGHT_BEGIN
1070
    46
1040
4.0
1000
ACAD_MTEXT_DEFINED_HEIGHT_END
  0
INSERT
  5
32B
330
1F
100
AcDbEntity
  8
0
100
AcDbBlockReference
  2
*G30
 10
0.0
 20
0.0
 30
0.0
  0
VIEWPORT
  5
6A
330
1B
100
AcDbEntity
 67
     1
  8
0
100
AcDbViewport
 10
420.0
 20
297.0
 30
0.0
 40
840.0
 41
594.0
 68
     1
 69
     1
 12
420.0
 22
297.0
 13
0.0
 23
0.0
 14
0.5
 24
0.5
 15
0.5
 25
0.5
 16
0.0
 26
0.0
 36
1.0
 17
0.0
 27
0.0
 37
0.0
 42
50.0
 43
0.0
 44
0.0
 45
9.0
 50
0.0
 51
0.0
 72
   100
 90
   557152
  1

281
     0
 71
     1
 74
     0
110
0.0
120
0.0
130
0.0
111
1.0
121
0.0
131
0.0
112
0.0
122
1.0
132
0.0
 79
     0
146
0.0
170
     0
 61
     5
292
     1
282
     1
141
0.0
142
0.0
 63
   256
  0
ENDSEC
  0
SECTION
  2
OBJECTS
  0
DICTIONARY
  5
C
330
0
100
AcDbDictionary
281
     1
  3
ACAD_DETAILVIEWSTYLE
350
330
  3
ACAD_GROUP
350
D
  3
ACAD_LAYOUT
350
1A
  3
ACAD_MATERIAL
350
43
  3
ACAD_MLEADERSTYLE
350
32F
  3
ACAD_MLINESTYLE
350
17
  3
ACAD_PLOTSETTINGS
350
19
  3
ACAD_PLOTSTYLENAME
350
E
  3
ACAD_SCALELIST
350
47
  3
ACAD_SECTIONVIEWSTYLE
350
331
  3
ACAD_TABLESTYLE
350
32E
  3
ACAD_VISUALSTYLE
350
2A
  3
AcDbVariableDictionary
350
32C
  0
SUN
  5
69
330
29
100
AcDbSun
 90
        1
290
     0
 63
     7
421
 16777215
 40
1.0
291
     1
 91
  2455826
 92
 54000000
292
     0
 70
     2
 71
   256
280
     1
  0
DICTIONARY
  5
330
102
{ACAD_REACTORS
330
C
102
}
330
C
100
AcDbDictionary
281
     1
  0
DICTIONARY
  5
D
102
{ACAD_REACTORS
330
C
102
}
330
C
100
AcDbDictionary
281
     1
  0
DICTIONARY
  5
1A
102
{ACAD_REACTORS
330
C
102
}
330
C
100
AcDbDictionary
281
     1
  3
Layout1
350
1E
  3
Layout2
350
26
  3
Model
350
22
  0
DICTIONARY
  5
43
102
{ACAD_REACTORS
330
C
102
}
330
C
100
AcDbDictionary
281
     1
  3
ByBlock
350
45
  3
ByLayer
350
44
  3
Global
350
46
  0
DICTIONARY
  5
32F
102
{ACAD_REACTORS
330
C
102
}
330
C
100
AcDbDictionary
281
     1
  0
DICTIONARY
  5
17
102
{ACAD_REACTORS
330
C
102
}
330
C
100
AcDbDictionary
281
     1
  3
Standard
350
18
  0
DICTIONARY
  5
19
102
{ACAD_REACTORS
330
C
102
}
330
C
100
AcDbDictionary
281
     1
  0
ACDBDICTIONARYWDFLT
  5
E
102
{ACAD_REACTORS
330
C
102
}
330
C
100
AcDbDictionary
281
     1
  3
Normal
350
F
100
AcDbDictionaryWithDefault
340
F
  0
DICTIONARY
  5
47
102
{ACAD_REACTORS
330
C
102
}
330
C
100
AcDbDictionary
281
     1
  3
A0
350
48
  3
A1
350
49
  3
A2
350
4A
  3
A3
350
4B
  3
A4
350
4C
  3
A5
350
4D
  3
A6
350
4E
  3
A7
350
4F
  3
A8
350
50
  3
A9
350
51
  3
B0
350
52
  3
B1
350
53
  3
B2
350
54
  3
B3
350
55
  3
B4
350
56
  3
B5
350
57
  3
B6
350
58
  3
B7
350
59
  3
B8
350
5A
  3
B9
350
5B
  3
C0
350
5C
  3
C1
350
5D
  3
C2
350
5E
  3
C3
350
5F
  3
C4
350
60
  3
C5
350
61
  3
C6
350
62
  3
C7
350
63
  3
C8
350
64
  3
C9
350
65
  3
D0
350
66
  3
D1
350
67
  3
D2
350
68
  0
DICTIONARY
  5
331
102
{ACAD_REACTORS
330
C
102
}
330
C
100
AcDbDictionary
281
     1
  0
DICTIONARY
  5
32E
102
{ACAD_REACTORS
330
C
102
}
330
C
100
AcDbDictionary
281
     1
  0
DICTIONARY
  5
2A
102
{ACAD_REACTORS
330
C
102
}
330
C
100
AcDbDictionary
281
     1
  3
2dWireframe
350
2F
  3
Basic
350
32
  3
Brighten
350
36
  3
ColorChange
350
3A
  3
Conceptual
350
34
  3
Dim
350
35
  3
EdgeColorOff
350
3D
  3
Facepattern
350
39
  3
Flat
350
2B
  3
FlatWithEdges
350
2C
  3
Gouraud
350
2D
  3
GouraudWithEdges
350
2E
  3
Hidden
350
31
  3
JitterOff
350
3B
  3
Linepattern
350
38
  3
OverhangOff
350
3C
  3
Realistic
350
33
  3
Shaded
350
42
  3
Shaded with edges
350
41
  3
Shades of Gray
350
3E
  3
Sketchy
350
3F
  3
Thicken
350
37
  3
Wireframe
350
30
  3
X-Ray
350
40
  0
DICTIONARY
  5
32C
102
{ACAD_REACTORS
330
C
102
}
330
C
100
AcDbDictionary
281
     1
  3
CANNOSCALE
350
32D
  0
LAYOUT
  5
1E
102
{ACAD_REACTORS
330
1A
102
}
330
1A
100
AcDbPlotSettings
  1

  2
none_device
  4

  6

 40
0.0
 41
0.0
 42
0.0
 43
0.0
 44
0.0
 45
0.0
 46
0.0
 47
0.0
 48
0.0
 49
0.0
140
0.0
141
0.0
142
1.0
143
1.0
 70
   688
 72
     0
 73
     0
 74
     5
  7

 75
    16
 76
     0
 77
     2
 78
   300
147
1.0
148
0.0
149
0.0
100
AcDbLayout
  1
Layout1
 70
     1
 71
     1
 10
0.0
 20
0.0
 11
420.0
 21
297.0
 12
0.0
 22
0.0
 32
0.0
 14
0.0
 24
0.0
 34
0.0
 15
420.0
 25
297.0
 35
0.0
146
0.0
 13
0.0
 23
0.0
 33
0.0
 16
1.0
 26
0.0
 36
0.0
 17
0.0
 27
1.0
 37
0.0
 76
     0
330
1B
331
6A
  0
LAYOUT
  5
26
102
{ACAD_REACTORS
330
1A
102
}
330
1A
100
AcDbPlotSettings
  1

  2
none_device
  4

  6

 40
0.0
 41
0.0
 42
0.0
 43
0.0
 44
0.0
 45
0.0
 46
0.0
 47
0.0
 48
0.0
 49
0.0
140
0.0
141
0.0
142
1.0
143
1.0
 70
   688
 72
     0
 73
     0
 74
     5
  7

 75
    16
 76
     0
 77
     2
 78
   300
147
1.0
148
0.0
149
0.0
100
AcDbLayout
  1
Layout2
 70
     1
 71
     2
 10
0.0
 20
0.0
 11
0.0
 21
0.0
 12
0.0
 22
0.0
 32
0.0
 14
0.0
 24
0.0
 34
0.0
 15
0.0
 25
0.0
 35
0.0
146
0.0
 13
0.0
 23
0.0
 33
0.0
 16
1.0
 26
0.0
 36
0.0
 17
0.0
 27
1.0
 37
0.0
 76
     0
330
23
  0
LAYOUT
  5
22
102
{ACAD_REACTORS
330
1A
102
}
330
1A
100
AcDbPlotSettings
  1

  2
none_device
  4
Letter_(8.50_x_11.00_Inches)
  6

 40
6.35
 41
6.35
 42
6.35000508
 43
6.35000508
 44
215.9
 45
279.4
 46
0.0
 47
0.0
 48
0.0
 49
0.0
140
0.0
141
0.0
142
1.0
143
1.0
 70
  1712
 72
     0
 73
     0
 74
     0
  7

 75
     0
 76
     0
 77
     2
 78
   300
147
1.0
148
0.0
149
0.0
100
AcDbLayout
  1
Model
 70
     1
 71
     0
 10
0.0
 20
0.0
 11
420.0
 21
297.0
 12
0.0
 22
0.0
 32
0.0
 14
58.8824842813099
 24
98.4267513078651
 34
0.0
 15
683.2193309645427
 25
505.4815418634894
 35
0.0
146
0.0
 13
0.0
 23
0.0
 33
0.0
 16
1.0
 26
0.0
 36
0.0
 17
0.0
 27
1.0
 37
0.0
 76
     0
330
1F
331
29
  0
MATERIAL
  5
45
102
{ACAD_REACTORS
330
43
102
}
330
43
100
AcDbMaterial
  1
ByBlock
 72
     1
 94
      127
  0
MATERIAL
  5
44
102
{ACAD_REACTORS
330
43
102
}
330
43
100
AcDbMaterial
  1
ByLayer
 72
     1
 94
      127
  0
MATERIAL
  5
46
102
{ACAD_REACTORS
330
43
102
}
330
43
100
AcDbMaterial
  1
Global
 72
     1
 94
      127
  0
MLINESTYLE
  5
18
102
{ACAD_REACTORS
330
17
102
}
330
17
100
AcDbMlineStyle
  2
Standard
 70
     0
  3

 62
   256
 51
90.0
 52
90.0
 71
     2
 49
0.5
 62
   256
  6
BYLAYER
 49
-0.5
 62
   256
  6
BYLAYER
  0
ACDBPLACEHOLDER
  5
F
102
{ACAD_REACTORS
330
E
102
}
330
E
  0
SCALE
  5
48
102
{ACAD_REACTORS
330
47
102
}
330
47
100
AcDbScale
 70
     0
300
1:1
140
1.0
141
1.0
290
     1
  0
SCALE
  5
49
102
{ACAD_REACTORS
330
47
102
}
330
47
100
AcDbScale
 70
     0
300
1:2
140
1.0
141
2.0
290
     0
  0
SCALE
  5
4A
102
{ACAD_REACTORS
330
47
102
}
330
47
100
AcDbScale
 70
     0
300
1:4
140
1.0
141
4.0
290
     0
  0
SCALE
  5
4B
102
{ACAD_REACTORS
330
47
102
}
330
47
100
AcDbScale
 70
     0
300
1:5
140
1.0
141
5.0
290
     0
  0
SCALE
  5
4C
102
{ACAD_REACTORS
330
47
102
}
330
47
100
AcDbScale
 70
     0
300
1:8
140
1.0
141
8.0
290
     0
  0
SCALE
  5
4D
102
{ACAD_REACTORS
330
47
102
}
330
47
100
AcDbScale
 70
     0
300
1:10
140
1.0
141
10.0
290
     0
  0
SCALE
  5
4E
102
{ACAD_REACTORS
330
47
102
}
330
47
100
AcDbScale
 70
     0
300
1:16
140
1.0
141
16.0
290
     0
  0
SCALE
  5
4F
102
{ACAD_REACTORS
330
47
102
}
330
47
100
AcDbScale
 70
     0
300
1:20
140
1.0
141
20.0
290
     0
  0
SCALE
  5
50
102
{ACAD_REACTORS
330
47
102
}
330
47
100
AcDbScale
 70
     0
300
1:30
140
1.0
141
30.0
290
     0
  0
SCALE
  5
51
102
{ACAD_REACTORS
330
47
102
}
330
47
100
AcDbScale
 70
     0
300
1:40
140
1.0
141
40.0
290
     0
  0
SCALE
  5
52
102
{ACAD_REACTORS
330
47
102
}
330
47
100
AcDbScale
 70
     0
300
1:50
140
1.0
141
50.0
290
     0
  0
SCALE
  5
53
102
{ACAD_REACTORS
330
47
102
}
330
47
100
AcDbScale
 70
     0
300
1:100
140
1.0
141
100.0
290
     0
  0
SCALE
  5
54
102
{ACAD_REACTORS
330
47
102
}
330
47
100
AcDbScale
 70
     0
300
2:1
140
2.0
141
1.0
290
     0
  0
SCALE
  5
55
102
{ACAD_REACTORS
330
47
102
}
330
47
100
AcDbScale
 70
     0
300
4:1
140
4.0
141
1.0
290
     0
  0
SCALE
  5
56
102
{ACAD_REACTORS
330
47
102
}
330
47
100
AcDbScale
 70
     0
300
8:1
140
8.0
141
1.0
290
     0
  0
SCALE
  5
57
102
{ACAD_REACTORS
330
47
102
}
330
47
100
AcDbScale
 70
     0
300
10:1
140
10.0
141
1.0
290
     0
  0
SCALE
  5
58
102
{ACAD_REACTORS
330
47
102
}
330
47
100
AcDbScale
 70
     0
300
100:1
140
100.0
141
1.0
290
     0
  0
SCALE
  5
59
102
{ACAD_REACTORS
330
47
102
}
330
47
100
AcDbScale
 70
     0
300
1/128" = 1'-0"
140
0.0078125
141
12.0
290
     0
  0
SCALE
  5
5A
102
{ACAD_REACTORS
330
47
102
}
330
47
100
AcDbScale
 70
     0
300
1/64" = 1'-0"
140
0.015625
141
12.0
290
     0
  0
SCALE
  5
5B
102
{ACAD_REACTORS
330
47
102
}
330
47
100
AcDbScale
 70
     0
300
1/32" = 1'-0"
140
0.03125
141
12.0
290
     0
  0
SCALE
  5
5C
102
{ACAD_REACTORS
330
47
102
}
330
47
100
AcDbScale
 70
     0
300
1/16" = 1'-0"
140
0.0625
141
12.0
290
     0
  0
SCALE
  5
5D
102
{ACAD_REACTORS
330
47
102
}
330
47
100
AcDbScale
 70
     0
300
3/32" = 1'-0"
140
0.09375
141
12.0
290
     0
  0
SCALE
  5
5E
102
{ACAD_REACTORS
330
47
102
}
330
47
100
AcDbScale
 70
     0
300
1/8" = 1'-0"
140
0.125
141
12.0
290
     0
  0
SCALE
  5
5F
102
{ACAD_REACTORS
330
47
102
}
330
47
100
AcDbScale
 70
     0
300
3/16" = 1'-0"
140
0.1875
141
12.0
290
     0
  0
SCALE
  5
60
102
{ACAD_REACTORS
330
47
102
}
330
47
100
AcDbScale
 70
     0
300
1/4" = 1'-0"
140
0.25
141
12.0
290
     0
  0
SCALE
  5
61
102
{ACAD_REACTORS
330
47
102
}
330
47
100
AcDbScale
 70
     0
300
3/8" = 1'-0"
140
0.375
141
12.0
290
     0
  0
SCALE
  5
62
102
{ACAD_REACTORS
330
47
102
}
330
47
100
AcDbScale
 70
     0
300
1/2" = 1'-0"
140
0.5
141
12.0
290
     0
  0
SCALE
  5
63
102
{ACAD_REACTORS
330
47
102
}
330
47
100
AcDbScale
 70
     0
300
3/4" = 1'-0"
140
0.75
141
12.0
290
     0
  0
SCALE
  5
64
102
{ACAD_REACTORS
330
47
102
}
330
47
100
AcDbScale
 70
     0
300
1" = 1'-0"
140
1.0
141
12.0
290
     0
  0
SCALE
  5
65
102
{ACAD_REACTORS
330
47
102
}
330
47
100
AcDbScale
 70
     0
300
1-1/2" = 1'-0"
140
1.5
141
12.0
290
     0
  0
SCALE
  5
66
102
{ACAD_REACTORS
330
47
102
}
330
47
100
AcDbScale
 70
     0
300
3" = 1'-0"
140
3.0
141
12.0
290
     0
  0
SCALE
  5
67
102
{ACAD_REACTORS
330
47
102
}
330
47
100
AcDbScale
 70
     0
300
6" = 1'-0"
140
6.0
141
12.0
290
     0
  0
SCALE
  5
68
102
{ACAD_REACTORS
330
47
102
}
330
47
100
AcDbScale
 70
     0
300
1'-0" = 1'-0"
140
12.0
141
12.0
290
     0
  0
VISUALSTYLE
  5
2F
102
{ACAD_REACTORS
330
2A
102
}
330
2A
100
AcDbVisualStyle
  2
2dWireframe
 70
     4
177
     3
291
     0
 70
    58
 90
        0
176
     1
 90
        2
176
     1
 90
        0
176
     1
 90
        0
176
     1
 40
0.6
176
     1
 40
30.0
176
     1
 62
     7
420
 16777215
176
     1
 90
        1
176
     1
 90
        4
176
     1
 62
     7
176
     1
 62
   257
176
     1
 90
        1
176
     1
 90
        1
176
     1
 40
1.0
176
     1
 90
        0
176
     1
 62
   257
176
     1
 40
1.0
176
     1
 90
        1
176
     1
 90
        6
176
     1
 90
        2
176
     1
 62
     7
176
     1
 90
        5
176
     1
 90
        0
176
     1
 90
        0
176
     1
290
     0
176
     1
 90
        1
176
     1
 40
0.0
176
     1
 90
        0
176
     1
290
     1
176
     1
290
     1
176
     1
290
     0
176
     1
290
     0
176
     1
290
     0
176
     1
290
     0
176
     1
290
     0
176
     1
290
     0
176
     1
290
     0
176
     1
 90
       50
176
     1
 40
0.0
176
     1
 40
1.0
176
     1
 90
        0
176
     1
 62
    18
420
        0
176
     1
 90
       50
176
     1
 90
        3
176
     1
 62
     5
420
      255
176
     1
290
     0
176
     1
 90
       50
176
     1
 90
       50
176
     1
 90
       50
176
     1
290
     0
176
     1
 90
       50
176
     1
 62
   256
176
     0
 40
1.0
176
     0
 90
        2
176
     1
  1
strokes_ogs.tif
176
     1
290
     0
176
     1
 40
1.0
176
     1
 40
1.0
176
     1
  0
VISUALSTYLE
  5
32
102
{ACAD_REACTORS
330
2A
102
}
330
2A
100
AcDbVisualStyle
  2
Basic
 70
     7
177
     3
291
     1
 70
    58
 90
        1
176
     1
 90
        0
176
     1
 90
        1
176
     1
 90
        0
176
     1
 40
0.6
176
     1
 40
30.0
176
     1
 62
     7
420
 16777215
176
     1
 90
        0
176
     1
 90
        4
176
     1
 62
     7
176
     1
 62
   257
176
     1
 90
        1
176
     1
 90
        1
176
     1
 40
1.0
176
     1
 90
        8
176
     1
 62
     7
176
     1
 40
1.0
176
     1
 90
        1
176
     1
 90
        6
176
     1
 90
        2
176
     1
 62
     7
176
     1
 90
        5
176
     1
 90
        0
176
     1
 90
        0
176
     1
290
     0
176
     1
 90
        1
176
     1
 40
0.0
176
     1
 90
        0
176
     1
290
     0
176
     1
290
     1
176
     1
290
     1
176
     1
290
     0
176
     1
290
     0
176
     1
290
     0
176
     1
290
     0
176
     1
290
     0
176
     1
290
     0
176
     1
 90
       50
176
     1
 40
0.0
176
     1
 40
1.0
176
     1
 90
        0
176
     1
 62
    18
420
        0
176
     1
 90
       50
176
     1
 90
        3
176
     1
 62
     5
420
      255
176
     1
290
     0
176
     1
 90
       50
176
     1
 90
       50
176
     1
 90
       50
176
     1
290
     0
176
     1
 90
       50
176
     1
 62
   256
176
     0
 40
1.0
176
     0
 90
        2
176
     1
  1
strokes_ogs.tif
176
     1
290
     0
176
     1
 40
1.0
176
     1
 40
1.0
176
     1
  0
VISUALSTYLE
  5
36
102
{ACAD_REACTORS
330
2A
102
}
330
2A
100
AcDbVisualStyle
  2
Brighten
 70
    12
177
     3
291
     1
 70
    58
 90
        2
176
     1
 90
        2
176
     1
 90
        0
176
     1
 90
        0
176
     1
 40
0.6
176
     1
 40
30.0
176
     1
 62
     7
420
 16777215
176
     1
 90
        1
176
     1
 90
        4
176
     1
 62
     7
176
     1
 62
   257
176
     1
 90
        1
176
     1
 90
        1
176
     1
 40
1.0
176
     1
 90
        8
176
     1
 62
     7
176
     1
 40
1.0
176
     1
 90
        1
176
     1
 90
        6
176
     1
 90
        2
176
     1
 62
     7
176
     1
 90
        5
176
     1
 90
        0
176
     1
 90
        0
176
     1
290
     0
176
     1
 90
        1
176
     1
 40
50.0
176
     1
 90
        0
176
     1
290
     0
176
     1
290
     1
176
     1
290
     1
176
     1
290
     0
176
     1
290
     0
176
     1
290
     0
176
     1
290
     0
176
     1
290
     0
176
     1
290
     0
176
     1
 90
       50
176
     1
 40
0.0
176
     1
 40
1.0
176
     1
 90
        0
176
     1
 62
    18
420
        0
176
     1
 90
       50
176
     1
 90
        3
176
     1
 62
     5
420
      255
176
     1
290
     0
176
     1
 90
       50
176
     1
 90
       50
176
     1
 90
       50
176
     1
290
     0
176
     1
 90
       50
176
     1
 62
   256
176
     0
 40
1.0
176
     0
 90
        2
176
     1
  1
strokes_ogs.tif
176
     1
290
     0
176
     1
 40
1.0
176
     1
 40
1.0
176
     1
  0
VISUALSTYLE
  5
3A
102
{ACAD_REACTORS
330
2A
102
}
330
2A
100
AcDbVisualStyle
  2
ColorChange
 70
    16
177
     3
291
     1
 70
    58
 90
        2
176
     1
 90
        2
176
     1
 90
        3
176
     1
 90
        0
176
     1
 40
0.6
176
     1
 40
30.0
176
     1
 62
     8
420
  8421504
176
     1
 90
        1
176
     1
 90
        4
176
     1
 62
     7
176
     1
 62
   257
176
     1
 90
        1
176
     1
 90
        1
176
     1
 40
1.0
176
     1
 90
        8
176
     1
 62
     8
420
  8421504
176
     1
 40
1.0
176
     1
 90
        1
176
     1
 90
        6
176
     1
 90
        2
176
     1
 62
     7
176
     1
 90
        5
176
     1
 90
        0
176
     1
 90
        0
176
     1
290
     0
176
     1
 90
        1
176
     1
 40
0.0
176
     1
 90
        0
176
     1
290
     0
176
     1
290
     1
176
     1
290
     1
176
     1
290
     0
176
     1
290
     0
176
     1
290
     0
176
     1
290
     0
176
     1
290
     0
176
     1
290
     0
176
     1
 90
       50
176
     1
 40
0.0
176
     1
 40
1.0
176
     1
 90
        0
176
     1
 62
    18
420
        0
176
     1
 90
       50
176
     1
 90
        3
176
     1
 62
     5
420
      255
176
     1
290
     0
176
     1
 90
       50
176
     1
 90
       50
176
     1
 90
       50
176
     1
290
     0
176
     1
 90
       50
176
     1
 62
   256
176
     0
 40
1.0
176
     0
 90
        2
176
     1
  1
strokes_ogs.tif
176
     1
290
     0
176
     1
 40
1.0
176
     1
 40
1.0
176
     1
  0
VISUALSTYLE
  5
34
102
{ACAD_REACTORS
330
2A
102
}
330
2A
100
AcDbVisualStyle
  2
Conceptual
 70
     9
177
     3
291
     0
 70
    58
 90
        3
176
     1
 90
        2
176
     1
 90
        0
176
     1
 90
        0
176
     1
 40
0.6
176
     1
 40
30.0
176
     1
 62
     7
420
 16777215
176
     1
 90
        2
176
     1
 90
        2
176
     1
 62
     7
176
     1
 62
   257
176
     1
 90
        1
176
     1
 90
        1
176
     1
 40
179.0
176
     1
 90
        8
176
     1
 62
     7
176
     1
 40
1.0
176
     1
 90
        1
176
     1
 90
        6
176
     1
 90
        2
176
     1
 62
     7
176
     1
 90
        3
176
     1
 90
        0
176
     1
 90
        0
176
     1
290
     0
176
     1
 90
        1
176
     1
 40
0.0
176
     1
 90
        0
176
     1
290
     0
176
     1
290
     1
176
     1
290
     1
176
     1
290
     0
176
     1
290
     0
176
     1
290
     0
176
     1
290
     0
176
     1
290
     0
176
     1
290
     0
176
     1
 90
       50
176
     1
 40
0.0
176
     1
 40
1.0
176
     1
 90
        0
176
     1
 62
    18
420
        0
176
     1
 90
       50
176
     1
 90
        3
176
     1
 62
     5
420
      255
176
     1
290
     0
176
     1
 90
       50
176
     1
 90
       50
176
     1
 90
       50
176
     1
290
     0
176
     1
 90
       50
176
     1
 62
   256
176
     0
 40
1.0
176
     0
 90
        2
176
     1
  1
strokes_ogs.tif
176
     1
290
     0
176
     1
 40
1.0
176
     1
 40
1.0
176
     1
  0
VISUALSTYLE
  5
35
102
{ACAD_REACTORS
330
2A
102
}
330
2A
100
AcDbVisualStyle
  2
Dim
 70
    11
177
     3
291
     1
 70
    58
 90
        2
176
     1
 90
        2
176
     1
 90
        0
176
     1
 90
        0
176
     1
 40
0.6
176
     1
 40
30.0
176
     1
 62
     7
420
 16777215
176
     1
 90
        1
176
     1
 90
        4
176
     1
 62
     7
176
     1
 62
   257
176
     1
 90
        1
176
     1
 90
        1
176
     1
 40
1.0
176
     1
 90
        8
176
     1
 62
     7
176
     1
 40
1.0
176
     1
 90
        1
176
     1
 90
        6
176
     1
 90
        2
176
     1
 62
     7
176
     1
 90
        5
176
     1
 90
        0
176
     1
 90
        0
176
     1
290
     0
176
     1
 90
        1
176
     1
 40
-50.0
176
     1
 90
        0
176
     1
290
     0
176
     1
290
     1
176
     1
290
     1
176
     1
290
     0
176
     1
290
     0
176
     1
290
     0
176
     1
290
     0
176
     1
290
     0
176
     1
290
     0
176
     1
 90
       50
176
     1
 40
0.0
176
     1
 40
1.0
176
     1
 90
        0
176
     1
 62
    18
420
        0
176
     1
 90
       50
176
     1
 90
        3
176
     1
 62
     5
420
      255
176
     1
290
     0
176
     1
 90
       50
176
     1
 90
       50
176
     1
 90
       50
176
     1
290
     0
176
     1
 90
       50
176
     1
 62
   256
176
     0
 40
1.0
176
     0
 90
        2
176
     1
  1
strokes_ogs.tif
176
     1
290
     0
176
     1
 40
1.0
176
     1
 40
1.0
176
     1
  0
VISUALSTYLE
  5
3D
102
{ACAD_REACTORS
330
2A
102
}
330
2A
100
AcDbVisualStyle
  2
EdgeColorOff
 70
    22
177
     3
291
     1
 70
    58
 90
        2
176
     0
 90
        2
176
     0
 90
        0
176
     0
 90
        0
176
     0
 40
0.6
176
     0
 40
30.0
176
     0
 62
     7
420
 16777215
176
     0
 90
        1
176
     0
 90
        4
176
     0
 62
     7
176
     0
 62
   257
176
     0
 90
        1
176
     0
 90
        1
176
     0
 40
1.0
176
     0
 90
        8
176
     2
 62
     7
176
     0
 40
1.0
176
     0
 90
        1
176
     0
 90
        6
176
     0
 90
        2
176
     0
 62
     7
176
     0
 90
        5
176
     0
 90
        0
176
     0
 90
        0
176
     0
290
     0
176
     0
 90
        1
176
     0
 40
0.0
176
     0
 90
        0
176
     0
290
     0
176
     0
290
     1
176
     0
290
     1
176
     0
290
     0
176
     0
290
     0
176
     0
290
     0
176
     0
290
     0
176
     0
290
     0
176
     0
290
     0
176
     0
 90
       50
176
     0
 40
0.0
176
     0
 40
1.0
176
     0
 90
        0
176
     0
 62
    18
420
        0
176
     0
 90
       50
176
     0
 90
        3
176
     0
 62
     5
420
      255
176
     0
290
     0
176
     0
 90
       50
176
     0
 90
       50
176
     0
 90
       50
176
     0
290
     0
176
     0
 90
       50
176
     0
 62
   256
176
     0
 40
1.0
176
     0
 90
        2
176
     0
  1
strokes_ogs.tif
176
     0
290
     0
176
     0
 40
1.0
176
     0
 40
1.0
176
     0
  0
VISUALSTYLE
  5
39
102
{ACAD_REACTORS
330
2A
102
}
330
2A
100
AcDbVisualStyle
  2
Facepattern
 70
    15
177
     3
291
     1
 70
    58
 90
        2
176
     1
 90
        2
176
     1
 90
        0
176
     1
 90
        0
176
     1
 40
0.6
176
     1
 40
30.0
176
     1
 62
     7
420
 16777215
176
     1
 90
        1
176
     1
 90
        4
176
     1
 62
     7
176
     1
 62
   257
176
     1
 90
        1
176
     1
 90
        1
176
     1
 40
1.0
176
     1
 90
        8
176
     1
 62
     7
176
     1
 40
1.0
176
     1
 90
        1
176
     1
 90
        6
176
     1
 90
        2
176
     1
 62
     7
176
     1
 90
        5
176
     1
 90
        0
176
     1
 90
        0
176
     1
290
     0
176
     1
 90
        1
176
     1
 40
0.0
176
     1
 90
        0
176
     1
290
     0
176
     1
290
     1
176
     1
290
     1
176
     1
290
     0
176
     1
290
     0
176
     1
290
     0
176
     1
290
     0
176
     1
290
     0
176
     1
290
     0
176
     1
 90
       50
176
     1
 40
0.0
176
     1
 40
1.0
176
     1
 90
        0
176
     1
 62
    18
420
        0
176
     1
 90
       50
176
     1
 90
        3
176
     1
 62
     5
420
      255
176
     1
290
     0
176
     1
 90
       50
176
     1
 90
       50
176
     1
 90
       50
176
     1
290
     0
176
     1
 90
       50
176
     1
 62
   256
176
     0
 40
1.0
176
     0
 90
        2
176
     1
  1
strokes_ogs.tif
176
     1
290
     0
176
     1
 40
1.0
176
     1
 40
1.0
176
     1
  0
VISUALSTYLE
  5
2B
102
{ACAD_REACTORS
330
2A
102
}
330
2A
100
AcDbVisualStyle
  2
Flat
 70
     0
177
     3
291
     1
 70
    58
 90
        2
176
     1
 90
        1
176
     1
 90
        1
176
     1
 90
        2
176
     1
 40
0.6
176
     1
 40
30.0
176
     1
 62
     7
420
 16777215
176
     1
 90
        0
176
     1
 90
        0
176
     1
 62
     7
176
     1
 62
   257
176
     1
 90
        1
176
     1
 90
        1
176
     1
 40
1.0
176
     1
 90
        8
176
     1
 62
     7
176
     1
 40
1.0
176
     1
 90
        1
176
     1
 90
        6
176
     1
 90
        2
176
     1
 62
     7
176
     1
 90
        5
176
     1
 90
        0
176
     1
 90
        0
176
     1
290
     0
176
     1
 90
       13
176
     1
 40
0.0
176
     1
 90
        0
176
     1
290
     0
176
     1
290
     1
176
     1
290
     1
176
     1
290
     0
176
     1
290
     0
176
     1
290
     0
176
     1
290
     0
176
     1
290
     0
176
     1
290
     0
176
     1
 90
       50
176
     1
 40
0.0
176
     1
 40
1.0
176
     1
 90
        0
176
     1
 62
    18
420
        0
176
     1
 90
       50
176
     1
 90
        3
176
     1
 62
     5
420
      255
176
     1
290
     0
176
     1
 90
       50
176
     1
 90
       50
176
     1
 90
       50
176
     1
290
     0
176
     1
 90
       50
176
     1
 62
   256
176
     0
 40
1.0
176
     0
 90
        2
176
     1
  1
strokes_ogs.tif
176
     1
290
     0
176
     1
 40
1.0
176
     1
 40
1.0
176
     1
  0
VISUALSTYLE
  5
2C
102
{ACAD_REACTORS
330
2A
102
}
330
2A
100
AcDbVisualStyle
  2
FlatWithEdges
 70
     1
177
     3
291
     1
 70
    58
 90
        2
176
     1
 90
        1
176
     1
 90
        1
176
     1
 90
        2
176
     1
 40
0.6
176
     1
 40
30.0
176
     1
 62
     7
420
 16777215
176
     1
 90
        1
176
     1
 90
        0
176
     1
 62
     7
176
     1
 62
   257
176
     1
 90
        1
176
     1
 90
        1
176
     1
 40
1.0
176
     1
 90
        0
176
     1
 62
   257
176
     1
 40
1.0
176
     1
 90
        1
176
     1
 90
        6
176
     1
 90
        2
176
     1
 62
     7
176
     1
 90
        5
176
     1
 90
        0
176
     1
 90
        0
176
     1
290
     0
176
     1
 90
       13
176
     1
 40
0.0
176
     1
 90
        0
176
     1
290
     0
176
     1
290
     1
176
     1
290
     1
176
     1
290
     0
176
     1
290
     0
176
     1
290
     0
176
     1
290
     0
176
     1
290
     0
176
     1
290
     0
176
     1
 90
       50
176
     1
 40
0.0
176
     1
 40
1.0
176
     1
 90
        0
176
     1
 62
    18
420
        0
176
     1
 90
       50
176
     1
 90
        3
176
     1
 62
     5
420
      255
176
     1
290
     0
176
     1
 90
       50
176
     1
 90
       50
176
     1
 90
       50
176
     1
290
     0
176
     1
 90
       50
176
     1
 62
   256
176
     0
 40
1.0
176
     0
 90
        2
176
     1
  1
strokes_ogs.tif
176
     1
290
     0
176
     1
 40
1.0
176
     1
 40
1.0
176
     1
  0
VISUALSTYLE
  5
2D
102
{ACAD_REACTORS
330
2A
102
}
330
2A
100
AcDbVisualStyle
  2
Gouraud
 70
     2
177
     3
291
     1
 70
    58
 90
        2
176
     1
 90
        2
176
     1
 90
        1
176
     1
 90
        2
176
     1
 40
0.6
176
     1
 40
30.0
176
     1
 62
     7
420
 16777215
176
     1
 90
        0
176
     1
 90
        0
176
     1
 62
     7
176
     1
 62
   257
176
     1
 90
        1
176
     1
 90
        1
176
     1
 40
1.0
176
     1
 90
        0
176
     1
 62
     7
176
     1
 40
1.0
176
     1
 90
        1
176
     1
 90
        6
176
     1
 90
        2
176
     1
 62
     7
176
     1
 90
        5
176
     1
 90
        0
176
     1
 90
        0
176
     1
290
     0
176
     1
 90
       13
176
     1
 40
0.0
176
     1
 90
        0
176
     1
290
     0
176
     1
290
     1
176
     1
290
     1
176
     1
290
     0
176
     1
290
     0
176
     1
290
     0
176
     1
290
     0
176
     1
290
     0
176
     1
290
     0
176
     1
 90
       50
176
     1
 40
0.0
176
     1
 40
1.0
176
     1
 90
        0
176
     1
 62
    18
420
        0
176
     1
 90
       50
176
     1
 90
        3
176
     1
 62
     5
420
      255
176
     1
290
     0
176
     1
 90
       50
176
     1
 90
       50
176
     1
 90
       50
176
     1
290
     0
176
     1
 90
       50
176
     1
 62
   256
176
     0
 40
1.0
176
     0
 90
        2
176
     1
  1
strokes_ogs.tif
176
     1
290
     0
176
     1
 40
1.0
176
     1
 40
1.0
176
     1
  0
VISUALSTYLE
  5
2E
102
{ACAD_REACTORS
330
2A
102
}
330
2A
100
AcDbVisualStyle
  2
GouraudWithEdges
 70
     3
177
     3
291
     1
 70
    58
 90
        2
176
     1
 90
        2
176
     1
 90
        1
176
     1
 90
        2
176
     1
 40
0.6
176
     1
 40
30.0
176
     1
 62
     7
420
 16777215
176
     1
 90
        1
176
     1
 90
        0
176
     1
 62
     7
176
     1
 62
   257
176
     1
 90
        1
176
     1
 90
        1
176
     1
 40
1.0
176
     1
 90
        0
176
     1
 62
   257
176
     1
 40
1.0
176
     1
 90
        1
176
     1
 90
        6
176
     1
 90
        2
176
     1
 62
     7
176
     1
 90
        5
176
     1
 90
        0
176
     1
 90
        0
176
     1
290
     0
176
     1
 90
       13
176
     1
 40
0.0
176
     1
 90
        0
176
     1
290
     0
176
     1
290
     1
176
     1
290
     1
176
     1
290
     0
176
     1
290
     0
176
     1
290
     0
176
     1
290
     0
176
     1
290
     0
176
     1
290
     0
176
     1
 90
       50
176
     1
 40
0.0
176
     1
 40
1.0
176
     1
 90
        0
176
     1
 62
    18
420
        0
176
     1
 90
       50
176
     1
 90
        3
176
     1
 62
     5
420
      255
176
     1
290
     0
176
     1
 90
       50
176
     1
 90
       50
176
     1
 90
       50
176
     1
290
     0
176
     1
 90
       50
176
     1
 62
   256
176
     0
 40
1.0
176
     0
 90
        2
176
     1
  1
strokes_ogs.tif
176
     1
290
     0
176
     1
 40
1.0
176
     1
 40
1.0
176
     1
  0
VISUALSTYLE
  5
31
102
{ACAD_REACTORS
330
2A
102
}
330
2A
100
AcDbVisualStyle
  2
Hidden
 70
     6
177
     3
291
     0
 70
    58
 90
        1
176
     1
 90
        2
176
     1
 90
        2
176
     1
 90
        0
176
     1
 40
0.6
176
     1
 40
30.0
176
     1
 62
     7
420
 16777215
176
     1
 90
        2
176
     1
 90
        2
176
     1
 62
     7
176
     1
 62
   257
176
     1
 90
        2
176
     1
 90
        1
176
     1
 40
40.0
176
     1
 90
        0
176
     1
 62
   257
176
     1
 40
1.0
176
     1
 90
        1
176
     1
 90
        6
176
     1
 90
        2
176
     1
 62
     7
176
     1
 90
        3
176
     1
 90
        0
176
     1
 90
        0
176
     1
290
     0
176
     1
 90
        1
176
     1
 40
0.0
176
     1
 90
        0
176
     1
290
     0
176
     1
290
     1
176
     1
290
     1
176
     1
290
     0
176
     1
290
     0
176
     1
290
     0
176
     1
290
     0
176
     1
290
     0
176
     1
290
     0
176
     1
 90
       50
176
     1
 40
0.0
176
     1
 40
1.0
176
     1
 90
        0
176
     1
 62
    18
420
        0
176
     1
 90
       50
176
     1
 90
        3
176
     1
 62
     5
420
      255
176
     1
290
     0
176
     1
 90
       50
176
     1
 90
       50
176
     1
 90
       50
176
     1
290
     0
176
     1
 90
       50
176
     1
 62
   256
176
     0
 40
1.0
176
     0
 90
        2
176
     1
  1
strokes_ogs.tif
176
     1
290
     0
176
     1
 40
1.0
176
     1
 40
1.0
176
     1
  0
VISUALSTYLE
  5
3B
102
{ACAD_REACTORS
330
2A
102
}
330
2A
100
AcDbVisualStyle
  2
JitterOff
 70
    20
177
     3
291
     1
 70
    58
 90
        2
176
     0
 90
        2
176
     0
 90
        0
176
     0
 90
        0
176
     0
 40
0.6
176
     0
 40
30.0
176
     0
 62
     7
420
 16777215
176
     0
 90
        1
176
     0
 90
        4
176
     0
 62
     7
176
     0
 62
   257
176
     0
 90
        1
176
     0
 90
        1
176
     0
 40
1.0
176
     0
 90
       10
176
     2
 62
     7
176
     0
 40
1.0
176
     0
 90
        1
176
     0
 90
        6
176
     0
 90
        2
176
     0
 62
     7
176
     0
 90
        5
176
     0
 90
        0
176
     0
 90
        0
176
     0
290
     0
176
     0
 90
        1
176
     0
 40
0.0
176
     0
 90
        0
176
     0
290
     0
176
     0
290
     1
176
     0
290
     1
176
     0
290
     0
176
     0
290
     0
176
     0
290
     0
176
     0
290
     0
176
     0
290
     0
176
     0
290
     0
176
     0
 90
       50
176
     0
 40
0.0
176
     0
 40
1.0
176
     0
 90
        0
176
     0
 62
    18
420
        0
176
     0
 90
       50
176
     0
 90
        3
176
     0
 62
     5
420
      255
176
     0
290
     0
176
     0
 90
       50
176
     0
 90
       50
176
     0
 90
       50
176
     0
290
     0
176
     0
 90
       50
176
     0
 62
   256
176
     0
 40
1.0
176
     0
 90
        2
176
     0
  1
strokes_ogs.tif
176
     0
290
     0
176
     0
 40
1.0
176
     0
 40
1.0
176
     0
  0
VISUALSTYLE
  5
38
102
{ACAD_REACTORS
330
2A
102
}
330
2A
100
AcDbVisualStyle
  2
Linepattern
 70
    14
177
     3
291
     1
 70
    58
 90
        2
176
     1
 90
        2
176
     1
 90
        0
176
     1
 90
        0
176
     1
 40
0.6
176
     1
 40
30.0
176
     1
 62
     7
420
 16777215
176
     1
 90
        1
176
     1
 90
        4
176
     1
 62
     7
176
     1
 62
   257
176
     1
 90
        7
176
     1
 90
        7
176
     1
 40
1.0
176
     1
 90
        8
176
     1
 62
     7
176
     1
 40
1.0
176
     1
 90
        1
176
     1
 90
        6
176
     1
 90
        2
176
     1
 62
     7
176
     1
 90
        5
176
     1
 90
        0
176
     1
 90
        0
176
     1
290
     0
176
     1
 90
        1
176
     1
 40
0.0
176
     1
 90
        0
176
     1
290
     0
176
     1
290
     1
176
     1
290
     1
176
     1
290
     0
176
     1
290
     0
176
     1
290
     0
176
     1
290
     0
176
     1
290
     0
176
     1
290
     0
176
     1
 90
       50
176
     1
 40
0.0
176
     1
 40
1.0
176
     1
 90
        0
176
     1
 62
    18
420
        0
176
     1
 90
       50
176
     1
 90
        3
176
     1
 62
     5
420
      255
176
     1
290
     0
176
     1
 90
       50
176
     1
 90
       50
176
     1
 90
       50
176
     1
290
     0
176
     1
 90
       50
176
     1
 62
   256
176
     0
 40
1.0
176
     0
 90
        2
176
     1
  1
strokes_ogs.tif
176
     1
290
     0
176
     1
 40
1.0
176
     1
 40
1.0
176
     1
  0
VISUALSTYLE
  5
3C
102
{ACAD_REACTORS
330
2A
102
}
330
2A
100
AcDbVisualStyle
  2
OverhangOff
 70
    21
177
     3
291
     1
 70
    58
 90
        2
176
     0
 90
        2
176
     0
 90
        0
176
     0
 90
        0
176
     0
 40
0.6
176
     0
 40
30.0
176
     0
 62
     7
420
 16777215
176
     0
 90
        1
176
     0
 90
        4
176
     0
 62
     7
176
     0
 62
   257
176
     0
 90
        1
176
     0
 90
        1
176
     0
 40
1.0
176
     0
 90
        9
176
     2
 62
     7
176
     0
 40
1.0
176
     0
 90
        1
176
     0
 90
        6
176
     0
 90
        2
176
     0
 62
     7
176
     0
 90
        5
176
     0
 90
        0
176
     0
 90
        0
176
     0
290
     0
176
     0
 90
        1
176
     0
 40
0.0
176
     0
 90
        0
176
     0
290
     0
176
     0
290
     1
176
     0
290
     1
176
     0
290
     0
176
     0
290
     0
176
     0
290
     0
176
     0
290
     0
176
     0
290
     0
176
     0
290
     0
176
     0
 90
       50
176
     0
 40
0.0
176
     0
 40
1.0
176
     0
 90
        0
176
     0
 62
    18
420
        0
176
     0
 90
       50
176
     0
 90
        3
176
     0
 62
     5
420
      255
176
     0
290
     0
176
     0
 90
       50
176
     0
 90
       50
176
     0
 90
       50
176
     0
290
     0
176
     0
 90
       50
176
     0
 62
   256
176
     0
 40
1.0
176
     0
 90
        2
176
     0
  1
strokes_ogs.tif
176
     0
290
     0
176
     0
 40
1.0
176
     0
 40
1.0
176
     0
  0
VISUALSTYLE
  5
33
102
{ACAD_REACTORS
330
2A
102
}
330
2A
100
AcDbVisualStyle
  2
Realistic
 70
     8
177
     3
291
     0
 70
    58
 90
        2
176
     1
 90
        3
176
     1
 90
        0
176
     1
 90
        2
176
     1
 40
0.6
176
     1
 40
30.0
176
     1
 62
     7
420
 16777215
176
     1
 90
        0
176
     1
 90
        0
176
     1
 62
     7
176
     1
 62
   257
176
     1
 90
        1
176
     1
 90
        1
176
     1
 40
1.0
176
     1
 90
        8
176
     1
 62
   257
176
     1
 40
1.0
176
     1
 90
        1
176
     1
 90
        6
176
     1
 90
        2
176
     1
 62
     7
176
     1
 90
        3
176
     1
 90
        0
176
     1
 90
        0
176
     1
290
     0
176
     1
 90
       13
176
     1
 40
0.0
176
     1
 90
        0
176
     1
290
     0
176
     1
290
     1
176
     1
290
     1
176
     1
290
     0
176
     1
290
     0
176
     1
290
     0
176
     1
290
     0
176
     1
290
     0
176
     1
290
     0
176
     1
 90
       50
176
     1
 40
0.0
176
     1
 40
1.0
176
     1
 90
        0
176
     1
 62
    18
420
        0
176
     1
 90
       50
176
     1
 90
        3
176
     1
 62
     5
420
      255
176
     1
290
     0
176
     1
 90
       50
176
     1
 90
       50
176
     1
 90
       50
176
     1
290
     0
176
     1
 90
       50
176
     1
 62
   256
176
     0
 40
1.0
176
     0
 90
        2
176
     1
  1
strokes_ogs.tif
176
     1
290
     0
176
     1
 40
1.0
176
     1
 40
1.0
176
     1
  0
VISUALSTYLE
  5
42
102
{ACAD_REACTORS
330
2A
102
}
330
2A
100
AcDbVisualStyle
  2
Shaded
 70
    27
177
     3
291
     0
 70
    58
 90
        2
176
     1
 90
        2
176
     1
 90
        1
176
     1
 90
        2
176
     1
 40
0.6
176
     1
 40
30.0
176
     1
 62
     7
420
 16777215
176
     1
 90
        0
176
     1
 90
        4
176
     1
 62
     7
176
     1
 62
   257
176
     1
 90
        1
176
     1
 90
        1
176
     1
 40
1.0
176
     1
 90
        8
176
     1
 62
   257
176
     1
 40
1.0
176
     1
 90
        1
176
     1
 90
        6
176
     1
 90
        2
176
     1
 62
     8
420
  7895160
176
     1
 90
        3
176
     1
 90
        0
176
     1
 90
        0
176
     1
290
     0
176
     1
 90
        5
176
     1
 40
0.0
176
     1
 90
        0
176
     1
290
     0
176
     1
290
     1
176
     1
290
     1
176
     1
290
     0
176
     1
290
     0
176
     1
290
     0
176
     1
290
     0
176
     1
290
     0
176
     1
290
     0
176
     1
 90
       50
176
     1
 40
0.0
176
     1
 40
1.0
176
     1
 90
        0
176
     1
 62
    18
420
        0
176
     1
 90
       50
176
     1
 90
        3
176
     1
 62
     5
420
      255
176
     1
290
     0
176
     1
 90
       50
176
     1
 90
       50
176
     1
 90
       50
176
     1
290
     0
176
     1
 90
       50
176
     1
 62
   256
176
     0
 40
1.0
176
     0
 90
        2
176
     1
  1
strokes_ogs.tif
176
     1
290
     0
176
     1
 40
1.0
176
     1
 40
1.0
176
     1
  0
VISUALSTYLE
  5
41
102
{ACAD_REACTORS
330
2A
102
}
330
2A
100
AcDbVisualStyle
  2
Shaded with edges
 70
    26
177
     3
291
     0
 70
    58
 90
        2
176
     1
 90
        2
176
     1
 90
        1
176
     1
 90
        2
176
     1
 40
0.6
176
     1
 40
30.0
176
     1
 62
     7
420
 16777215
176
     1
 90
        1
176
     1
 90
       10
176
     1
 62
     7
176
     1
 62
   257
176
     1
 90
        2
176
     1
 90
        1
176
     1
 40
1.0
176
     1
 90
        8
176
     1
 62
   257
176
     1
 40
1.0
176
     1
 90
        1
176
     1
 90
        6
176
     1
 90
        2
176
     1
 62
     7
176
     1
 90
        3
176
     1
 90
        0
176
     1
 90
        0
176
     1
290
     0
176
     1
 90
        5
176
     1
 40
0.0
176
     1
 90
        0
176
     1
290
     0
176
     1
290
     1
176
     1
290
     1
176
     1
290
     0
176
     1
290
     0
176
     1
290
     0
176
     1
290
     0
176
     1
290
     0
176
     1
290
     0
176
     1
 90
       50
176
     1
 40
0.0
176
     1
 40
1.0
176
     1
 90
        0
176
     1
 62
    18
420
        0
176
     1
 90
       50
176
     1
 90
        3
176
     1
 62
     5
420
      255
176
     1
290
     0
176
     1
 90
       50
176
     1
 90
       50
176
     1
 90
       50
176
     1
290
     0
176
     1
 90
       50
176
     1
 62
   256
176
     0
 40
1.0
176
     0
 90
        2
176
     1
  1
strokes_ogs.tif
176
     1
290
     0
176
     1
 40
1.0
176
     1
 40
1.0
176
     1
  0
VISUALSTYLE
  5
3E
102
{ACAD_REACTORS
330
2A
102
}
330
2A
100
AcDbVisualStyle
  2
Shades of Gray
 70
    23
177
     3
291
     0
 70
    58
 90
        2
176
     1
 90
        2
176
     1
 90
        3
176
     1
 90
        0
176
     1
 40
0.6
176
     1
 40
30.0
176
     1
 62
     7
420
 16777215
176
     1
 90
        2
176
     1
 90
        2
176
     1
 62
     7
176
     1
 62
     7
176
     1
 90
        1
176
     1
 90
        1
176
     1
 40
40.0
176
     1
 90
        8
176
     1
 62
     7
176
     1
 40
1.0
176
     1
 90
        1
176
     1
 90
        6
176
     1
 90
        2
176
     1
 62
     7
176
     1
 90
        3
176
     1
 90
        0
176
     1
 90
        0
176
     1
290
     0
176
     1
 90
        1
176
     1
 40
0.0
176
     1
 90
        0
176
     1
290
     0
176
     1
290
     1
176
     1
290
     1
176
     1
290
     0
176
     1
290
     0
176
     1
290
     0
176
     1
290
     0
176
     1
290
     0
176
     1
290
     0
176
     1
 90
       50
176
     1
 40
0.0
176
     1
 40
1.0
176
     1
 90
        0
176
     1
 62
    18
420
        0
176
     1
 90
       50
176
     1
 90
        3
176
     1
 62
     5
420
      255
176
     1
290
     0
176
     1
 90
       50
176
     1
 90
       50
176
     1
 90
       50
176
     1
290
     0
176
     1
 90
       50
176
     1
 62
   256
176
     0
 40
1.0
176
     0
 90
        2
176
     1
  1
strokes_ogs.tif
176
     1
290
     0
176
     1
 40
1.0
176
     1
 40
1.0
176
     1
  0
VISUALSTYLE
  5
3F
102
{ACAD_REACTORS
330
2A
102
}
330
2A
100
AcDbVisualStyle
  2
Sketchy
 70
    24
177
     3
291
     0
 70
    58
 90
        1
176
     1
 90
        2
176
     1
 90
        2
176
     1
 90
        0
176
     1
 40
0.6
176
     1
 40
30.0
176
     1
 62
     7
420
 16777215
176
     1
 90
        2
176
     1
 90
        2
176
     1
 62
     7
176
     1
 62
     7
176
     1
 90
        1
176
     1
 90
        1
176
     1
 40
40.0
176
     1
 90
       11
176
     1
 62
     7
176
     1
 40
1.0
176
     1
 90
        1
176
     1
 90
        6
176
     1
 90
        2
176
     1
 62
     7
176
     1
 90
        6
176
     1
 90
        0
176
     1
 90
        0
176
     1
290
     0
176
     1
 90
        1
176
     1
 40
0.0
176
     1
 90
        0
176
     1
290
     0
176
     1
290
     1
176
     1
290
     1
176
     1
290
     0
176
     1
290
     0
176
     1
290
     0
176
     1
290
     0
176
     1
290
     0
176
     1
290
     0
176
     1
 90
       50
176
     1
 40
0.0
176
     1
 40
1.0
176
     1
 90
        0
176
     1
 62
    18
420
        0
176
     1
 90
       50
176
     1
 90
        3
176
     1
 62
     5
420
      255
176
     1
290
     0
176
     1
 90
       50
176
     1
 90
       50
176
     1
 90
       50
176
     1
290
     0
176
     1
 90
       50
176
     1
 62
   256
176
     0
 40
1.0
176
     0
 90
        2
176
     1
  1
strokes_ogs.tif
176
     1
290
     0
176
     1
 40
1.0
176
     1
 40
1.0
176
     1
  0
VISUALSTYLE
  5
37
102
{ACAD_REACTORS
330
2A
102
}
330
2A
100
AcDbVisualStyle
  2
Thicken
 70
    13
177
     3
291
     1
 70
    58
 90
        2
176
     1
 90
        2
176
     1
 90
        0
176
     1
 90
        0
176
     1
 40
0.6
176
     1
 40
30.0
176
     1
 62
     7
420
 16777215
176
     1
 90
        1
176
     1
 90
        4
176
     1
 62
     7
176
     1
 62
   257
176
     1
 90
        1
176
     1
 90
        1
176
     1
 40
1.0
176
     1
 90
       12
176
     1
 62
     7
176
     1
 40
1.0
176
     1
 90
        1
176
     1
 90
        6
176
     1
 90
        2
176
     1
 62
     7
176
     1
 90
        5
176
     1
 90
        0
176
     1
 90
        0
176
     1
290
     0
176
     1
 90
        1
176
     1
 40
0.0
176
     1
 90
        0
176
     1
290
     0
176
     1
290
     1
176
     1
290
     1
176
     1
290
     0
176
     1
290
     0
176
     1
290
     0
176
     1
290
     0
176
     1
290
     0
176
     1
290
     0
176
     1
 90
       50
176
     1
 40
0.0
176
     1
 40
1.0
176
     1
 90
        0
176
     1
 62
    18
420
        0
176
     1
 90
       50
176
     1
 90
        3
176
     1
 62
     5
420
      255
176
     1
290
     0
176
     1
 90
       50
176
     1
 90
       50
176
     1
 90
       50
176
     1
290
     0
176
     1
 90
       50
176
     1
 62
   256
176
     0
 40
1.0
176
     0
 90
        2
176
     1
  1
strokes_ogs.tif
176
     1
290
     0
176
     1
 40
1.0
176
     1
 40
1.0
176
     1
  0
VISUALSTYLE
  5
30
102
{ACAD_REACTORS
330
2A
102
}
330
2A
100
AcDbVisualStyle
  2
Wireframe
 70
     5
177
     3
291
     0
 70
    58
 90
        0
176
     1
 90
        2
176
     1
 90
        0
176
     1
 90
        0
176
     1
 40
0.6
176
     1
 40
30.0
176
     1
 62
     7
420
 16777215
176
     1
 90
        1
176
     1
 90
        4
176
     1
 62
     7
176
     1
 62
   257
176
     1
 90
        1
176
     1
 90
        1
176
     1
 40
1.0
176
     1
 90
        0
176
     1
 62
   257
176
     1
 40
1.0
176
     1
 90
        1
176
     1
 90
        6
176
     1
 90
        2
176
     1
 62
     7
176
     1
 90
        3
176
     1
 90
        0
176
     1
 90
        0
176
     1
290
     0
176
     1
 90
        1
176
     1
 40
0.0
176
     1
 90
        0
176
     1
290
     0
176
     1
290
     1
176
     1
290
     1
176
     1
290
     0
176
     1
290
     0
176
     1
290
     0
176
     1
290
     0
176
     1
290
     0
176
     1
290
     0
176
     1
 90
       50
176
     1
 40
0.0
176
     1
 40
1.0
176
     1
 90
        0
176
     1
 62
    18
420
        0
176
     1
 90
       50
176
     1
 90
        3
176
     1
 62
     5
420
      255
176
     1
290
     0
176
     1
 90
       50
176
     1
 90
       50
176
     1
 90
       50
176
     1
290
     0
176
     1
 90
       50
176
     1
 62
   256
176
     0
 40
1.0
176
     0
 90
        2
176
     1
  1
strokes_ogs.tif
176
     1
290
     0
176
     1
 40
1.0
176
     1
 40
1.0
176
     1
  0
VISUALSTYLE
  5
40
102
{ACAD_REACTORS
330
2A
102
}
330
2A
100
AcDbVisualStyle
  2
X-Ray
 70
    25
177
     3
291
     0
 70
    58
 90
        2
176
     1
 90
        2
176
     1
 90
        1
176
     1
 90
        1
176
     1
 40
0.5
176
     1
 40
30.0
176
     1
 62
     7
420
 16777215
176
     1
 90
        1
176
     1
 90
        0
176
     1
 62
     7
176
     1
 62
   257
176
     1
 90
        1
176
     1
 90
        1
176
     1
 40
1.0
176
     1
 90
        8
176
     1
 62
     7
176
     1
 40
1.0
176
     1
 90
        1
176
     1
 90
        6
176
     1
 90
        2
176
     1
 62
     7
176
     1
 90
        3
176
     1
 90
        0
176
     1
 90
        0
176
     1
290
     0
176
     1
 90
       13
176
     1
 40
0.0
176
     1
 90
        0
176
     1
290
     0
176
     1
290
     1
176
     1
290
     1
176
     1
290
     0
176
     1
290
     0
176
     1
290
     0
176
     1
290
     0
176
     1
290
     0
176
     1
290
     0
176
     1
 90
       50
176
     1
 40
0.0
176
     1
 40
1.0
176
     1
 90
        0
176
     1
 62
    18
420
        0
176
     1
 90
       50
176
     1
 90
        3
176
     1
 62
     5
420
      255
176
     1
290
     0
176
     1
 90
       50
176
     1
 90
       50
176
     1
 90
       50
176
     1
290
     0
176
     1
 90
       50
176
     1
 62
   256
176
     0
 40
1.0
176
     0
 90
        2
176
     1
  1
strokes_ogs.tif
176
     1
290
     0
176
     1
 40
1.0
176
     1
 40
1.0
176
     1
  0
DICTIONARYVAR
  5
32D
102
{ACAD_REACTORS
330
32C
102
}
330
32C
100
DictionaryVariables
280
     0
  1
1:1
  0
ENDSEC
  0
EOF
