  0
SECTION
  2
HEADER
  9
$ACADVER
  1
AC1027
  9
$ACADMAINTVER
 70
     8
  9
$DWGCODEPAGE
  3
ANSI_932
  9
$REQUIREDVERSIONS
160
                 0
  9
$INSBASE
 10
0.0
 20
0.0
 30
0.0
  9
$EXTMIN
 10
51.76932755611551
 20
38.64894905801339
 30
0.0
  9
$EXTMAX
 10
683.2193309645427
 20
512.7739633979197
 30
0.0
  9
$LIMMIN
 10
0.0
 20
0.0
  9
$LIMMAX
 10
420.0
 20
297.0
  9
$ORTHOMODE
 70
     0
  9
$REGENMODE
 70
     1
  9
$FILLMODE
 70
     1
  9
$QTEXTMODE
 70
     0
  9
$MIRRTEXT
 70
     1
  9
$LTSCALE
 40
0.5
  9
$ATTMODE
 70
     1
  9
$TEXTSIZE
 40
5.6
  9
$TRACEWID
 40
0.05
  9
$TEXTSTYLE
  7
Standard
  9
$CLAYER
  8
0
  9
$CELTYPE
  6
ByLayer
  9
$CECOLOR
 62
   256
  9
$CELTSCALE
 40
1.0
  9
$DISPSILH
 70
     0
  9
$DIMSCALE
 40
1.0
  9
$DIMASZ
 40
1.55291427
  9
$DIMEXO
 40
2.0
  9
$DIMDLI
 40
30.0
  9
$DIMRND
 40
0.0
  9
$DIMDLE
 40
0.0
  9
$DIMEXE
 40
2.0
  9
$DIMTP
 40
0.0
  9
$DIMTM
 40
0.0
  9
$DIMTXT
 40
2.8
  9
$DIMCEN
 40
0.09
  9
$DIMTSZ
 40
0.0
  9
$DIMTOL
 70
     0
  9
$DIMLIM
 70
     0
  9
$DIMTIH
 70
     0
  9
$DIMTOH
 70
     0
  9
$DIMSE1
 70
     0
  9
$DIMSE2
 70
     0
  9
$DIMTAD
 70
     3
  9
$DIMZIN
 70
     8
  9
$DIMBLK
  1

  9
$DIMASO
 70
     1
  9
$DIMSHO
 70
     1
  9
$DIMPOST
  1

  9
$DIMAPOST
  1

  9
$DIMALT
 70
     0
  9
$DIMALTD
 70
     2
  9
$DIMALTF
 40
25.4
  9
$DIMLFAC
 40
1.0
  9
$DIMTOFL
 70
     1
  9
$DIMTVP
 40
0.7
  9
$DIMTIX
 70
     0
  9
$DIMSOXD
 70
     0
  9
$DIMSAH
 70
     0
  9
$DIMBLK1
  1

  9
$DIMBLK2
  1

  9
$DIMSTYLE
  2
Standard
  9
$DIMCLRD
 70
     0
  9
$DIMCLRE
 70
     0
  9
$DIMCLRT
 70
     0
  9
$DIMTFAC
 40
0.5
  9
$DIMGAP
 40
0.09
  9
$DIMJUST
 70
     0
  9
$DIMSD1
 70
     0
  9
$DIMSD2
 70
     0
  9
$DIMTOLJ
 70
     1
  9
$DIMTZIN
 70
     8
  9
$DIMALTZ
 70
     0
  9
$DIMALTTZ
 70
     0
  9
$DIMUPT
 70
     1
  9
$DIMDEC
 70
     2
  9
$DIMTDEC
 70
     4
  9
$DIMALTU
 70
     2
  9
$DIMALTTD
 70
     2
  9
$DIMTXSTY
  7
Standard
  9
$DIMAUNIT
 70
     0
  9
$DIMADEC
 70
     0
  9
$DIMALTRND
 40
0.0
  9
$DIMAZIN
 70
     0
  9
$DIMDSEP
 70
    46
  9
$DIMATFIT
 70
     2
  9
$DIMFRAC
 70
     0
  9
$DIMLDRBLK
  1

  9
$DIMLUNIT
 70
     2
  9
$DIMLWD
 70
    -2
  9
$DIMLWE
 70
    -2
  9
$DIMTMOVE
 70
     2
  9
$DIMFXL
 40
1.0
  9
$DIMFXLON
 70
     0
  9
$DIMJOGANG
 40
0.7853981633974483
  9
$DIMTFILL
 70
     0
  9
$DIMTFILLCLR
 70
     0
  9
$DIMARCSYM
 70
     0
  9
$DIMLTYPE
  6

  9
$DIMLTEX1
  6

  9
$DIMLTEX2
  6

  9
$DIMTXTDIRECTION
 70
     0
  9
$LUNITS
 70
     2
  9
$LUPREC
 70
     4
  9
$SKETCHINC
 40
0.1
  9
$FILLETRAD
 40
0.5
  9
$AUNITS
 70
     0
  9
$AUPREC
 70
     0
  9
$MENU
  1
.
  9
$ELEVATION
 40
0.0
  9
$PELEVATION
 40
0.0
  9
$THICKNESS
 40
0.0
  9
$LIMCHECK
 70
     0
  9
$CHAMFERA
 40
0.0
  9
$CHAMFERB
 40
0.0
  9
$CHAMFERC
 40
0.0
  9
$CHAMFERD
 40
0.0
  9
$SKPOLY
 70
     0
  9
$TDCREATE
 40
2460053.945648148
  9
$TDUCREATE
 40
2460053.570648148
  9
$TDUPDATE
 40
2460053.570658669
  9
$TDUUPDATE
 40
2460053.195658669
  9
$TDINDWG
 40
0.0000000116
  9
$TDUSRTIMER
 40
0.0000000116
  9
$USRTIMER
 70
     1
  9
$ANGBASE
 50
0.0
  9
$ANGDIR
 70
     0
  9
$PDMODE
 70
     0
  9
$PDSIZE
 40
0.0
  9
$PLINEWID
 40
0.0
  9
$SPLFRAME
 70
     0
  9
$SPLINETYPE
 70
     6
  9
$SPLINESEGS
 70
     8
  9
$HANDSEED
  5
30A
  9
$SURFTAB1
 70
     6
  9
$SURFTAB2
 70
     6
  9
$SURFTYPE
 70
     6
  9
$SURFU
 70
     6
  9
$SURFV
 70
     6
  9
$UCSBASE
  2

  9
$UCSNAME
  2

  9
$UCSORG
 10
0.0
 20
0.0
 30
0.0
  9
$UCSXDIR
 10
1.0
 20
0.0
 30
0.0
  9
$UCSYDIR
 10
0.0
 20
1.0
 30
0.0
  9
$UCSORTHOREF
  2

  9
$UCSORTHOVIEW
 70
     0
  9
$UCSORGTOP
 10
0.0
 20
0.0
 30
0.0
  9
$UCSORGBOTTOM
 10
0.0
 20
0.0
 30
0.0
  9
$UCSORGLEFT
 10
0.0
 20
0.0
 30
0.0
  9
$UCSORGRIGHT
 10
0.0
 20
0.0
 30
0.0
  9
$UCSORGFRONT
 10
0.0
 20
0.0
 30
0.0
  9
$UCSORGBACK
 10
0.0
 20
0.0
 30
0.0
  9
$PUCSBASE
  2

  9
$PUCSNAME
  2

  9
$PUCSORG
 10
0.0
 20
0.0
 30
0.0
  9
$PUCSXDIR
 10
1.0
 20
0.0
 30
0.0
  9
$PUCSYDIR
 10
0.0
 20
1.0
 30
0.0
  9
$PUCSORTHOREF
  2

  9
$PUCSORTHOVIEW
 70
     0
  9
$PUCSORGTOP
 10
0.0
 20
0.0
 30
0.0
  9
$PUCSORGBOTTOM
 10
0.0
 20
0.0
 30
0.0
  9
$PUCSORGLEFT
 10
0.0
 20
0.0
 30
0.0
  9
$PUCSORGRIGHT
 10
0.0
 20
0.0
 30
0.0
  9
$PUCSORGFRONT
 10
0.0
 20
0.0
 30
0.0
  9
$PUCSORGBACK
 10
0.0
 20
0.0
 30
0.0
  9
$USERI1
 70
     0
  9
$USERI2
 70
     0
  9
$USERI3
 70
     0
  9
$USERI4
 70
     0
  9
$USERI5
 70
     0
  9
$USERR1
 40
0.0
  9
$USERR2
 40
0.0
  9
$USERR3
 40
0.0
  9
$USERR4
 40
0.0
  9
$USERR5
 40
0.0
  9
$WORLDVIEW
 70
     1
  9
$SHADEDGE
 70
     3
  9
$SHADEDIF
 70
    70
  9
$TILEMODE
 70
     1
  9
$MAXACTVP
 70
    64
  9
$PINSBASE
 10
0.0
 20
0.0
 30
0.0
  9
$PLIMCHECK
 70
     0
  9
$PEXTMIN
 10
0.0
 20
0.0
 30
0.0
  9
$PEXTMAX
 10
420.0
 20
297.0
 30
0.0
  9
$PLIMMIN
 10
0.0
 20
0.0
  9
$PLIMMAX
 10
420.0
 20
297.0
  9
$UNITMODE
 70
     0
  9
$VISRETAIN
 70
     1
  9
$PLINEGEN
 70
     0
  9
$PSLTSCALE
 70
     1
  9
$TREEDEPTH
 70
  3020
  9
$CMLSTYLE
  2
Standard
  9
$CMLJUST
 70
     0
  9
$CMLSCALE
 40
1.0
  9
$PROXYGRAPHICS
 70
     1
  9
$MEASUREMENT
 70
     1
  9
$CELWEIGHT
370
    -1
  9
$ENDCAPS
280
     0
  9
$JOINSTYLE
280
     0
  9
$LWDISPLAY
290
     0
  9
$INSUNITS
 70
     4
  9
$HYPERLINKBASE
  1

  9
$STYLESHEET
  1

  9
$XEDIT
290
     1
  9
$CEPSNTYPE
380
     0
  9
$PSTYLEMODE
290
     1
  9
$FINGERPRINTGUID
  2
{B80D6C9B-3A40-413D-9B53-ACAA454393FA}
  9
$VERSIONGUID
  2
{FAEB1C32-E019-11D5-929B-00C0DF256EC4}
  9
$EXTNAMES
290
     1
  9
$PSVPSCALE
 40
0.0
  9
$OLESTARTUP
290
     0
  9
$SORTENTS
280
   127
  9
$INDEXCTL
280
     0
  9
$HIDETEXT
280
     1
  9
$XCLIPFRAME
280
     2
  9
$HALOGAP
280
     0
  9
$OBSCOLOR
 70
   257
  9
$OBSLTYPE
280
     0
  9
$INTERSECTIONDISPLAY
280
     0
  9
$INTERSECTIONCOLOR
 70
   257
  9
$DIMASSOC
280
     1
  9
$PROJECTNAME
  1

  9
$CAMERADISPLAY
290
     0
  9
$LENSLENGTH
 40
50.0
  9
$CAMERAHEIGHT
 40
0.0
  9
$STEPSPERSEC
 40
2.0
  9
$STEPSIZE
 40
6.0
  9
$3DDWFPREC
 40
2.0
  9
$PSOLWIDTH
 40
0.25
  9
$PSOLHEIGHT
 40
4.0
  9
$LOFTANG1
 40
1.570796326794897
  9
$LOFTANG2
 40
1.570796326794897
  9
$LOFTMAG1
 40
0.0
  9
$LOFTMAG2
 40
0.0
  9
$LOFTPARAM
 70
     7
  9
$LOFTNORMALS
280
     1
  9
$LATITUDE
 40
37.795
  9
$LONGITUDE
 40
-122.394
  9
$NORTHDIRECTION
 40
0.0
  9
$TIMEZONE
 70
 -8000
  9
$LIGHTGLYPHDISPLAY
280
     1
  9
$TILEMODELIGHTSYNCH
280
     1
  9
$CMATERIAL
347
44
  9
$SOLIDHIST
280
     1
  9
$SHOWHIST
280
     1
  9
$DWFFRAME
280
     2
  9
$DGNFRAME
280
     2
  9
$REALWORLDSCALE
290
     1
  9
$INTERFERECOLOR
 62
   256
  9
$CSHADOW
280
     0
  9
$SHADOWPLANELOCATION
 40
0.0
  0
ENDSEC
  0
SECTION
  2
CLASSES
  0
CLASS
  1
ACDBDICTIONARYWDFLT
  2
AcDbDictionaryWithDefault
  3
ObjectDBX Classes
 90
        0
 91
        4
280
     0
281
     0
  0
CLASS
  1
VISUALSTYLE
  2
AcDbVisualStyle
  3
ObjectDBX Classes
 90
     4095
 91
        4
280
     0
281
     0
  0
CLASS
  1
MATERIAL
  2
AcDbMaterial
  3
ObjectDBX Classes
 90
     1153
 91
        4
280
     0
281
     0
  0
CLASS
  1
SCALE
  2
AcDbScale
  3
ObjectDBX Classes
 90
     1153
 91
        4
280
     0
281
     0
  0
CLASS
  1
SUN
  2
AcDbSun
  3
SCENEOE
 90
     1153
 91
        4
280
     0
281
     0
  0
CLASS
  1
DICTIONARYVAR
  2
AcDbDictionaryVar
  3
ObjectDBX Classes
 90
        0
 91
        4
280
     0
281
     0
  0
ENDSEC
  0
SECTION
  2
TABLES
  0
TABLE
  2
VPORT
  5
8
330
0
100
AcDbSymbolTable
 70
     1
  0
VPORT
  5
29
330
8
100
AcDbSymbolTableRecord
100
AcDbViewportTableRecord
  2
*Active
 70
     0
 10
0.0
 20
0.0
 11
1.0
 21
1.0
 12
10.42990654205607
 22
4.5
 13
0.0
 23
0.0
 14
0.5
 24
0.5
 15
0.5
 25
0.5
 16
0.0
 26
0.0
 36
1.0
 17
0.0
 27
0.0
 37
0.0
 40
9.0
 41
1.972972972850329
 42
50.0
 43
0.0
 44
0.0
 50
0.0
 51
0.0
 71
     0
 72
   100
 73
     1
 74
     3
 75
     0
 76
     0
 77
     0
 78
     0
281
     0
 65
     1
110
0.0
120
0.0
130
0.0
111
1.0
121
0.0
131
0.0
112
0.0
122
1.0
132
0.0
 79
     0
146
0.0
 60
     3
 61
     5
292
     1
282
     1
141
0.0
142
0.0
 63
   250
361
69
  0
ENDTAB
  0
TABLE
  2
LTYPE
  5
5
330
0
100
AcDbSymbolTable
 70
     9
  0
LTYPE
  5
14
330
5
100
AcDbSymbolTableRecord
100
AcDbLinetypeTableRecord
  2
ByBlock
 70
     0
  3

 72
    65
 73
     0
 40
0.0
  0
LTYPE
  5
15
330
5
100
AcDbSymbolTableRecord
100
AcDbLinetypeTableRecord
  2
ByLayer
 70
     0
  3

 72
    65
 73
     0
 40
0.0
  0
LTYPE
  5
16
330
5
100
AcDbSymbolTableRecord
100
AcDbLinetypeTableRecord
  2
Continuous
 70
     0
  3
Solid line
 72
    65
 73
     0
 40
0.0
  0
LTYPE
  5
B9
330
5
100
AcDbSymbolTableRecord
100
AcDbLinetypeTableRecord
  2
DOT
 70
     0
  3
DOT
 72
    65
 73
     2
 40
4.0
 49
6.0
 74
     0
 49
-2.0
 74
     0
  0
LTYPE
  5
BA
330
5
100
AcDbSymbolTableRecord
100
AcDbLinetypeTableRecord
  2
HIDDEN
 70
     0
  3
HIDDEN
 72
    65
 73
     2
 40
4.2
 49
8.4
 74
     0
 49
-4.2
 74
     0
  0
LTYPE
  5
BB
330
5
100
AcDbSymbolTableRecord
100
AcDbLinetypeTableRecord
  2
DASHDOT
 70
     0
  3
DASHDOT
 72
    65
 73
     4
 40
14.5
 49
30.0
 74
     0
 49
-9.0
 74
     0
 49
2.5
 74
     0
 49
-9.0
 74
     0
  0
LTYPE
  5
BC
330
5
100
AcDbSymbolTableRecord
100
AcDbLinetypeTableRecord
  2
PHANTOM
 70
     0
  3
PHANTOM
 72
    65
 73
     6
 40
12.0
 49
30.0
 74
     0
 49
-9.0
 74
     0
 49
2.5
 74
     0
 49
-5.0
 74
     0
 49
2.5
 74
     0
 49
-9.0
 74
     0
  0
LTYPE
  5
BD
330
5
100
AcDbSymbolTableRecord
100
AcDbLinetypeTableRecord
  2
ACAD_ISO14W100
 70
     0
  3
ACAD_ISO14W100
 72
    65
 73
     8
 40
1.5
 49
12.0
 74
     0
 49
-3.0
 74
     0
 49
0.5
 74
     0
 49
-3.0
 74
     0
 49
0.5
 74
     0
 49
-3.0
 74
     0
 49
0.5
 74
     0
 49
-3.0
 74
     0
  0
LTYPE
  5
BE
330
5
100
AcDbSymbolTableRecord
100
AcDbLinetypeTableRecord
  2
ACAD_ISO06W100
 70
     0
  3
ACAD_ISO06W100
 72
    65
 73
     8
 40
13.5
 49
24.0
 74
     0
 49
-3.0
 74
     0
 49
0.5
 74
     0
 49
-3.0
 74
     0
 49
0.5
 74
     0
 49
-3.0
 74
     0
 49
0.5
 74
     0
 49
-3.0
 74
     0
  0
LTYPE
  5
BF
330
5
100
AcDbSymbolTableRecord
100
AcDbLinetypeTableRecord
  2
ACAD_ISO11W100
 70
     0
  3
ACAD_ISO11W100
 72
    65
 73
     6
 40
15.5
 49
12.0
 74
     0
 49
-3.0
 74
     0
 49
12.0
 74
     0
 49
-3.0
 74
     0
 49
0.5
 74
     0
 49
-3.0
 74
     0
  0
LTYPE
  5
C0
330
5
100
AcDbSymbolTableRecord
100
AcDbLinetypeTableRecord
  2
ACAD_ISO13W100
 70
     0
  3
ACAD_ISO13W100
 72
    65
 73
     8
 40
13.0
 49
12.0
 74
     0
 49
-3.0
 74
     0
 49
12.0
 74
     0
 49
-3.0
 74
     0
 49
0.5
 74
     0
 49
-3.0
 74
     0
 49
0.5
 74
     0
 49
-3.0
 74
     0
  0
ENDTAB
  0
TABLE
  2
LAYER
  5
2
330
0
100
AcDbSymbolTable
 70
    11
  0
LAYER
  5
10
330
2
100
AcDbSymbolTableRecord
100
AcDbLayerTableRecord
  2
0
 70
     0
 62
     7
  6
Continuous
370
    -3
390
F
347
46
348
0
  0
LAYER
  5
C1
330
2
100
AcDbSymbolTableRecord
100
AcDbLayerTableRecord
  2
1
 70
     0
 62
     7
  6
Continuous
370
     9
390
F
347
46
348
0
  0
LAYER
  5
C2
330
2
100
AcDbSymbolTableRecord
100
AcDbLayerTableRecord
  2
2
 70
     0
 62
     7
  6
Continuous
370
     9
390
F
347
46
348
0
  0
LAYER
  5
C3
330
2
100
AcDbSymbolTableRecord
100
AcDbLayerTableRecord
  2
3
 70
     0
 62
   151
  6
Continuous
370
    20
390
F
347
46
348
0
  0
LAYER
  5
C4
330
2
100
AcDbSymbolTableRecord
100
AcDbLayerTableRecord
  2
4
 70
     0
 62
     1
  6
DASHDOT
370
     9
390
F
347
46
348
0
  0
LAYER
  5
C5
330
2
100
AcDbSymbolTableRecord
100
AcDbLayerTableRecord
  2
5
 70
     0
 62
     1
  6
Continuous
370
    25
390
F
347
46
348
0
  0
LAYER
  5
C6
330
2
100
AcDbSymbolTableRecord
100
AcDbLayerTableRecord
  2
6
 70
     0
 62
     6
  6
Continuous
370
     9
390
F
347
46
348
0
  0
LAYER
  5
C7
330
2
100
AcDbSymbolTableRecord
100
AcDbLayerTableRecord
  2
7
 70
     0
 62
     3
  6
Continuous
370
    40
390
F
347
46
348
0
  0
LAYER
  5
C8
330
2
100
AcDbSymbolTableRecord
100
AcDbLayerTableRecord
  2
8
 70
     0
 62
     4
  6
Continuous
370
     9
390
F
347
46
348
0
  0
LAYER
  5
C9
330
2
100
AcDbSymbolTableRecord
100
AcDbLayerTableRecord
  2
9
 70
     0
 62
     7
  6
Continuous
370
    25
390
F
347
46
348
0
  0
LAYER
  5
CA
330
2
100
AcDbSymbolTableRecord
100
AcDbLayerTableRecord
  2
10
 70
     0
 62
     2
  6
Continuous
370
     9
390
F
347
46
348
0
  0
ENDTAB
  0
TABLE
  2
STYLE
  5
3
330
0
100
AcDbSymbolTable
 70
     3
  0
STYLE
  5
11
330
3
100
AcDbSymbolTableRecord
100
AcDbTextStyleTableRecord
  2
Standard
 70
     0
 40
0.0
 41
1.0
 50
0.0
 71
     0
 42
5.6
  3
txt
  4
bigfont
  0
STYLE
  5
6C
330
3
100
AcDbSymbolTableRecord
100
AcDbTextStyleTableRecord
  2
T_STANDARD
 70
     4
 40
10.0
 41
1.0
 50
0.0
 71
     0
 42
5.6
  3
txt
  4
bigfont
1001
ACAD
1000

1071
      256
  0
STYLE
  5
1AF
330
3
100
AcDbSymbolTableRecord
100
AcDbTextStyleTableRecord
  2
ＭＳ ゴシック
 70
     0
 40
0.0
 41
1.0
 50
0.0
 71
     0
 42
5.6
  3

  4

1001
ACAD
1000
ＭＳ ゴシック
1071
      256
  0
ENDTAB
  0
TABLE
  2
VIEW
  5
6
330
0
100
AcDbSymbolTable
 70
     0
  0
ENDTAB
  0
TABLE
  2
UCS
  5
7
330
0
100
AcDbSymbolTable
 70
     0
  0
ENDTAB
  0
TABLE
  2
APPID
  5
9
330
0
100
AcDbSymbolTable
 70
     2
  0
APPID
  5
12
330
9
100
AcDbSymbolTableRecord
100
AcDbRegAppTableRecord
  2
ACAD
 70
     0
  0
APPID
  5
6B
330
9
100
AcDbSymbolTableRecord
100
AcDbRegAppTableRecord
  2
ODA
 70
     0
  0
ENDTAB
  0
TABLE
  2
DIMSTYLE
  5
A
330
0
100
AcDbSymbolTable
 70
     1
100
AcDbDimStyleTable
  0
DIMSTYLE
105
27
102
{ACAD_REACTORS
330
1B9
330
1C3
330
1CD
330
2A7
330
2B1
330
2BB
330
2C5
330
2CF
330
2D9
330
2E3
330
2ED
330
2F7
102
}
330
A
100
AcDbSymbolTableRecord
100
AcDbDimStyleTableRecord
  2
Standard
 70
     0
178
     0
340
11
  0
ENDTAB
  0
TABLE
  2
BLOCK_RECORD
  5
1
330
0
100
AcDbSymbolTable
 70
    28
  0
BLOCK_RECORD
  5
1F
330
1
100
AcDbSymbolTableRecord
100
AcDbBlockTableRecord
  2
*Model_Space
340
22
 70
     0
280
     1
281
     0
  0
BLOCK_RECORD
  5
1B
330
1
100
AcDbSymbolTableRecord
100
AcDbBlockTableRecord
  2
*Paper_Space
340
1E
 70
     0
280
     1
281
     0
  0
BLOCK_RECORD
  5
23
330
1
100
AcDbSymbolTableRecord
100
AcDbBlockTableRecord
  2
*Paper_Space0
340
26
 70
     0
280
     1
281
     0
  0
BLOCK_RECORD
  5
6D
330
1
100
AcDbSymbolTableRecord
100
AcDbBlockTableRecord
  2
_ORIGIN
340
0
 70
     0
280
     1
281
     0
  0
BLOCK_RECORD
  5
72
330
1
100
AcDbSymbolTableRecord
100
AcDbBlockTableRecord
  2
_DOTBLANK
340
0
 70
     0
280
     1
281
     0
  0
BLOCK_RECORD
  5
77
330
1
100
AcDbSymbolTableRecord
100
AcDbBlockTableRecord
  2
_DOT
340
0
 70
     0
280
     1
281
     0
  0
BLOCK_RECORD
  5
7C
330
1
100
AcDbSymbolTableRecord
100
AcDbBlockTableRecord
  2
_OPEN
340
0
102
{BLKREFS
331
297
102
}
 70
     0
280
     1
281
     0
  0
BLOCK_RECORD
  5
82
330
1
100
AcDbSymbolTableRecord
100
AcDbBlockTableRecord
  2
_CLOSED
340
0
 70
     0
280
     1
281
     0
  0
BLOCK_RECORD
  5
89
330
1
100
AcDbSymbolTableRecord
100
AcDbBlockTableRecord
  2
_CLOSEDBLANK
340
0
 70
     0
280
     1
281
     0
  0
BLOCK_RECORD
  5
8F
330
1
100
AcDbSymbolTableRecord
100
AcDbBlockTableRecord
  2
_ARROWFILLED
340
0
102
{BLKREFS
331
1B7
331
1B8
331
1C1
331
1C2
331
1CB
331
1CC
331
2A5
331
2A6
331
2AF
331
2B0
331
2B9
331
2BA
331
2C3
331
2C4
331
2CD
331
2CE
331
2D7
331
2D8
331
2E1
331
2E2
331
2EB
331
2EC
331
2F5
331
2F6
102
}
 70
     0
280
     1
281
     0
  0
BLOCK_RECORD
  5
93
330
1
100
AcDbSymbolTableRecord
100
AcDbBlockTableRecord
  2
_BOXBLANK
340
0
 70
     0
280
     1
281
     0
  0
BLOCK_RECORD
  5
9B
330
1
100
AcDbSymbolTableRecord
100
AcDbBlockTableRecord
  2
_BOXFILLED
340
0
 70
     0
280
     1
281
     0
  0
BLOCK_RECORD
  5
A0
330
1
100
AcDbSymbolTableRecord
100
AcDbBlockTableRecord
  2
_INTEGRAL
340
0
 70
     0
280
     1
281
     0
  0
BLOCK_RECORD
  5
A5
330
1
100
AcDbSymbolTableRecord
100
AcDbBlockTableRecord
  2
_OBLIQUE
340
0
 70
     0
280
     1
281
     0
  0
BLOCK_RECORD
  5
A9
330
1
100
AcDbSymbolTableRecord
100
AcDbBlockTableRecord
  2
_NONE
340
0
 70
     0
280
     1
281
     0
  0
BLOCK_RECORD
  5
AC
330
1
100
AcDbSymbolTableRecord
100
AcDbBlockTableRecord
  2
MARK_OPEN
340
0
 70
     0
280
     1
281
     0
  0
BLOCK_RECORD
  5
B1
330
1
100
AcDbSymbolTableRecord
100
AcDbBlockTableRecord
  2
MARK_ORIGIN
340
0
 70
     0
280
     1
281
     0
  0
BLOCK_RECORD
  5
B5
330
1
100
AcDbSymbolTableRecord
100
AcDbBlockTableRecord
  2
MARK_DOT
340
0
 70
     0
280
     1
281
     0
  0
BLOCK_RECORD
  5
1B0
330
1
100
AcDbSymbolTableRecord
100
AcDbBlockTableRecord
  2
Dim1
340
0
 70
     0
280
     1
281
     0
  0
BLOCK_RECORD
  5
1BA
330
1
100
AcDbSymbolTableRecord
100
AcDbBlockTableRecord
  2
Dim2
340
0
 70
     0
280
     1
281
     0
  0
BLOCK_RECORD
  5
1C4
330
1
100
AcDbSymbolTableRecord
100
AcDbBlockTableRecord
  2
Dim3
340
0
 70
     0
280
     1
281
     0
  0
BLOCK_RECORD
  5
29E
330
1
100
AcDbSymbolTableRecord
100
AcDbBlockTableRecord
  2
Dim4
340
0
 70
     0
280
     1
281
     0
  0
BLOCK_RECORD
  5
2A8
330
1
100
AcDbSymbolTableRecord
100
AcDbBlockTableRecord
  2
Dim5
340
0
 70
     0
280
     1
281
     0
  0
BLOCK_RECORD
  5
2B2
330
1
100
AcDbSymbolTableRecord
100
AcDbBlockTableRecord
  2
Dim6
340
0
 70
     0
280
     1
281
     0
  0
BLOCK_RECORD
  5
2BC
330
1
100
AcDbSymbolTableRecord
100
AcDbBlockTableRecord
  2
Dim7
340
0
 70
     0
280
     1
281
     0
  0
BLOCK_RECORD
  5
2C6
330
1
100
AcDbSymbolTableRecord
100
AcDbBlockTableRecord
  2
Dim8
340
0
 70
     0
280
     1
281
     0
  0
BLOCK_RECORD
  5
2D0
330
1
100
AcDbSymbolTableRecord
100
AcDbBlockTableRecord
  2
Dim9
340
0
 70
     0
280
     1
281
     0
  0
BLOCK_RECORD
  5
2DA
330
1
100
AcDbSymbolTableRecord
100
AcDbBlockTableRecord
  2
Dim10
340
0
 70
     0
280
     1
281
     0
  0
BLOCK_RECORD
  5
2E4
330
1
100
AcDbSymbolTableRecord
100
AcDbBlockTableRecord
  2
Dim11
340
0
 70
     0
280
     1
281
     0
  0
BLOCK_RECORD
  5
2EE
330
1
100
AcDbSymbolTableRecord
100
AcDbBlockTableRecord
  2
Dim12
340
0
 70
     0
280
     1
281
     0
  0
ENDTAB
  0
ENDSEC
  0
SECTION
  2
BLOCKS
  0
BLOCK
  5
20
330
1F
100
AcDbEntity
  8
0
100
AcDbBlockBegin
  2
*Model_Space
 70
     0
 10
0.0
 20
0.0
 30
0.0
  3
*Model_Space
  1
*Model_Space
  0
ENDBLK
  5
21
330
1F
100
AcDbEntity
  8
0
100
AcDbBlockEnd
  0
BLOCK
  5
1C
330
1B
100
AcDbEntity
 67
     1
  8
0
100
AcDbBlockBegin
  2
*Paper_Space
 70
     0
 10
0.0
 20
0.0
 30
0.0
  3
*Paper_Space
  1
*Paper_Space
  0
ENDBLK
  5
1D
330
1B
100
AcDbEntity
 67
     1
  8
0
100
AcDbBlockEnd
  0
BLOCK
  5
24
330
23
100
AcDbEntity
  8
0
100
AcDbBlockBegin
  2
*Paper_Space0
 70
     0
 10
0.0
 20
0.0
 30
0.0
  3
*Paper_Space0
  1
*Paper_Space0
  0
ENDBLK
  5
25
330
23
100
AcDbEntity
  8
0
100
AcDbBlockEnd
  0
BLOCK
  5
70
330
6D
100
AcDbEntity
  8
0
100
AcDbBlockBegin
  2
_ORIGIN
 70
     0
 10
0.0
 20
0.0
 30
0.0
  3
_ORIGIN
  1
_ORIGIN
  0
CIRCLE
  5
6E
330
6D
100
AcDbEntity
  8
0
 62
     0
100
AcDbCircle
 10
0.0
 20
0.0
 30
0.0
 40
0.5
  0
LINE
  5
6F
330
6D
100
AcDbEntity
  8
0
 62
     0
100
AcDbLine
 10
0.0
 20
0.0
 30
0.0
 11
-1.0
 21
0.0
 31
0.0
  0
ENDBLK
  5
71
330
6D
100
AcDbEntity
  8
0
100
AcDbBlockEnd
  0
BLOCK
  5
75
330
72
100
AcDbEntity
  8
0
100
AcDbBlockBegin
  2
_DOTBLANK
 70
     0
 10
0.0
 20
0.0
 30
0.0
  3
_DOTBLANK
  1
_DOTBLANK
  0
CIRCLE
  5
73
330
72
100
AcDbEntity
  8
0
 62
     0
100
AcDbCircle
 10
0.0
 20
0.0
 30
0.0
 40
0.5
  0
LINE
  5
74
330
72
100
AcDbEntity
  8
0
 62
     0
100
AcDbLine
 10
-0.5
 20
0.0
 30
0.0
 11
-1.0
 21
0.0
 31
0.0
  0
ENDBLK
  5
76
330
72
100
AcDbEntity
  8
0
100
AcDbBlockEnd
  0
BLOCK
  5
7A
330
77
100
AcDbEntity
  8
0
100
AcDbBlockBegin
  2
_DOT
 70
     0
 10
0.0
 20
0.0
 30
0.0
  3
_DOT
  1
_DOT
  0
LWPOLYLINE
  5
78
330
77
100
AcDbEntity
  8
0
 62
     0
100
AcDbPolyline
 90
        2
 70
     1
 43
0.5
 10
-0.25
 20
0.0
 42
1.0
 10
0.25
 20
0.0
 42
1.0
  0
LINE
  5
79
330
77
100
AcDbEntity
  8
0
 62
     0
100
AcDbLine
 10
-0.5
 20
0.0
 30
0.0
 11
-1.0
 21
0.0
 31
0.0
  0
ENDBLK
  5
7B
330
77
100
AcDbEntity
  8
0
100
AcDbBlockEnd
  0
BLOCK
  5
80
330
7C
100
AcDbEntity
  8
0
100
AcDbBlockBegin
  2
_OPEN
 70
     0
 10
0.0
 20
0.0
 30
0.0
  3
_OPEN
  1
_OPEN
  0
LINE
  5
7D
330
7C
100
AcDbEntity
  8
0
 62
     0
100
AcDbLine
 10
0.0
 20
0.0
 30
0.0
 11
-1.0
 21
0.1666666666666667
 31
0.0
  0
LINE
  5
7E
330
7C
100
AcDbEntity
  8
0
 62
     0
100
AcDbLine
 10
0.0
 20
0.0
 30
0.0
 11
-1.0
 21
-0.1666666666666667
 31
0.0
  0
LINE
  5
7F
330
7C
100
AcDbEntity
  8
0
 62
     0
100
AcDbLine
 10
0.0
 20
0.0
 30
0.0
 11
-1.0
 21
0.0
 31
0.0
  0
ENDBLK
  5
81
330
7C
100
AcDbEntity
  8
0
100
AcDbBlockEnd
  0
BLOCK
  5
87
330
82
100
AcDbEntity
  8
0
100
AcDbBlockBegin
  2
_CLOSED
 70
     0
 10
0.0
 20
0.0
 30
0.0
  3
_CLOSED
  1
_CLOSED
  0
LINE
  5
83
330
82
100
AcDbEntity
  8
0
 62
     0
100
AcDbLine
 10
0.0
 20
0.0
 30
0.0
 11
-1.0
 21
0.1666666666666667
 31
0.0
  0
LINE
  5
84
330
82
100
AcDbEntity
  8
0
 62
     0
100
AcDbLine
 10
0.0
 20
0.0
 30
0.0
 11
-1.0
 21
-0.1666666666666667
 31
0.0
  0
LINE
  5
85
330
82
100
AcDbEntity
  8
0
 62
     0
100
AcDbLine
 10
-1.0
 20
0.1666666666666667
 30
0.0
 11
-1.0
 21
-0.1666666666666667
 31
0.0
  0
LINE
  5
86
330
82
100
AcDbEntity
  8
0
 62
     0
100
AcDbLine
 10
0.0
 20
0.0
 30
0.0
 11
-1.0
 21
0.0
 31
0.0
  0
ENDBLK
  5
88
330
82
100
AcDbEntity
  8
0
100
AcDbBlockEnd
  0
BLOCK
  5
8D
330
89
100
AcDbEntity
  8
0
100
AcDbBlockBegin
  2
_CLOSEDBLANK
 70
     0
 10
0.0
 20
0.0
 30
0.0
  3
_CLOSEDBLANK
  1
_CLOSEDBLANK
  0
LINE
  5
8A
330
89
100
AcDbEntity
  8
0
 62
     0
100
AcDbLine
 10
0.0
 20
0.0
 30
0.0
 11
-1.0
 21
0.1666666666666667
 31
0.0
  0
LINE
  5
8B
330
89
100
AcDbEntity
  8
0
 62
     0
100
AcDbLine
 10
0.0
 20
0.0
 30
0.0
 11
-1.0
 21
-0.1666666666666667
 31
0.0
  0
LINE
  5
8C
330
89
100
AcDbEntity
  8
0
 62
     0
100
AcDbLine
 10
-1.0
 20
0.1666666666666667
 30
0.0
 11
-1.0
 21
-0.1666666666666667
 31
0.0
  0
ENDBLK
  5
8E
330
89
100
AcDbEntity
  8
0
100
AcDbBlockEnd
  0
BLOCK
  5
91
330
8F
100
AcDbEntity
  8
0
100
AcDbBlockBegin
  2
_ARROWFILLED
 70
     0
 10
0.0
 20
0.0
 30
0.0
  3
_ARROWFILLED
  1
_ARROWFILLED
  0
SOLID
  5
90
330
8F
100
AcDbEntity
  8
0
 62
     0
100
AcDbTrace
 10
0.0
 20
0.0
 30
0.0
 11
-1.0
 21
-0.1666666666666667
 31
0.0
 12
-1.0
 22
0.1666666666666667
 32
0.0
 13
0.0
 23
0.0
 33
0.0
  0
ENDBLK
  5
92
330
8F
100
AcDbEntity
  8
0
100
AcDbBlockEnd
  0
BLOCK
  5
99
330
93
100
AcDbEntity
  8
0
100
AcDbBlockBegin
  2
_BOXBLANK
 70
     0
 10
0.0
 20
0.0
 30
0.0
  3
_BOXBLANK
  1
_BOXBLANK
  0
LINE
  5
94
330
93
100
AcDbEntity
  8
0
 62
     0
100
AcDbLine
 10
-0.5
 20
-0.5
 30
0.0
 11
0.5
 21
-0.5
 31
0.0
  0
LINE
  5
95
330
93
100
AcDbEntity
  8
0
 62
     0
100
AcDbLine
 10
0.5
 20
-0.5
 30
0.0
 11
0.5
 21
0.5
 31
0.0
  0
LINE
  5
96
330
93
100
AcDbEntity
  8
0
 62
     0
100
AcDbLine
 10
0.5
 20
0.5
 30
0.0
 11
-0.5
 21
0.5
 31
0.0
  0
LINE
  5
97
330
93
100
AcDbEntity
  8
0
 62
     0
100
AcDbLine
 10
-0.5
 20
0.5
 30
0.0
 11
-0.5
 21
-0.5
 31
0.0
  0
LINE
  5
98
330
93
100
AcDbEntity
  8
0
 62
     0
100
AcDbLine
 10
-0.5
 20
0.0
 30
0.0
 11
-1.0
 21
0.0
 31
0.0
  0
ENDBLK
  5
9A
330
93
100
AcDbEntity
  8
0
100
AcDbBlockEnd
  0
BLOCK
  5
9E
330
9B
100
AcDbEntity
  8
0
100
AcDbBlockBegin
  2
_BOXFILLED
 70
     0
 10
0.0
 20
0.0
 30
0.0
  3
_BOXFILLED
  1
_BOXFILLED
  0
SOLID
  5
9C
330
9B
100
AcDbEntity
  8
0
 62
     0
100
AcDbTrace
 10
-0.5
 20
0.5
 30
0.0
 11
0.5
 21
0.5
 31
0.0
 12
-0.5
 22
-0.5
 32
0.0
 13
0.5
 23
-0.5
 33
0.0
  0
LINE
  5
9D
330
9B
100
AcDbEntity
  8
0
 62
     0
100
AcDbLine
 10
-0.5
 20
0.0
 30
0.0
 11
-1.0
 21
0.0
 31
0.0
  0
ENDBLK
  5
9F
330
9B
100
AcDbEntity
  8
0
100
AcDbBlockEnd
  0
BLOCK
  5
A3
330
A0
100
AcDbEntity
  8
0
100
AcDbBlockBegin
  2
_INTEGRAL
 70
     0
 10
0.0
 20
0.0
 30
0.0
  3
_INTEGRAL
  1
_INTEGRAL
  0
ARC
  5
A1
330
A0
100
AcDbEntity
  8
0
 62
     0
100
AcDbCircle
 10
0.444888
 20
-0.0913346
 30
0.0
 40
0.4541666
100
AcDbArc
 50
101.9999999999999
 51
167.9999999999998
  0
ARC
  5
A2
330
A0
100
AcDbEntity
  8
0
 62
     0
100
AcDbCircle
 10
-0.444888
 20
0.0913346
 30
0.0
 40
0.4541666
100
AcDbArc
 50
281.9999999999997
 51
347.9999999999997
  0
ENDBLK
  5
A4
330
A0
100
AcDbEntity
  8
0
100
AcDbBlockEnd
  0
BLOCK
  5
A7
330
A5
100
AcDbEntity
  8
0
100
AcDbBlockBegin
  2
_OBLIQUE
 70
     0
 10
0.0
 20
0.0
 30
0.0
  3
_OBLIQUE
  1
_OBLIQUE
  0
LINE
  5
A6
330
A5
100
AcDbEntity
  8
0
 62
     0
100
AcDbLine
 10
-0.5
 20
-0.5
 30
0.0
 11
0.5
 21
0.5
 31
0.0
  0
ENDBLK
  5
A8
330
A5
100
AcDbEntity
  8
0
100
AcDbBlockEnd
  0
BLOCK
  5
AA
330
A9
100
AcDbEntity
  8
0
100
AcDbBlockBegin
  2
_NONE
 70
     0
 10
0.0
 20
0.0
 30
0.0
  3
_NONE
  1
_NONE
  0
ENDBLK
  5
AB
330
A9
100
AcDbEntity
  8
0
100
AcDbBlockEnd
  0
BLOCK
  5
AF
330
AC
100
AcDbEntity
  8
0
100
AcDbBlockBegin
  2
MARK_OPEN
 70
     0
 10
0.0
 20
0.0
 30
0.0
  3
MARK_OPEN
  1
MARK_OPEN
  0
LINE
  5
AD
330
AC
100
AcDbEntity
  8
0
 62
     0
100
AcDbLine
 10
0.0
 20
0.0
 30
0.0
 11
-1.0
 21
0.1666666666666667
 31
0.0
  0
LINE
  5
AE
330
AC
100
AcDbEntity
  8
0
 62
     0
100
AcDbLine
 10
0.0
 20
0.0
 30
0.0
 11
-1.0
 21
-0.1666666666666667
 31
0.0
  0
ENDBLK
  5
B0
330
AC
100
AcDbEntity
  8
0
100
AcDbBlockEnd
  0
BLOCK
  5
B3
330
B1
100
AcDbEntity
  8
0
100
AcDbBlockBegin
  2
MARK_ORIGIN
 70
     0
 10
0.0
 20
0.0
 30
0.0
  3
MARK_ORIGIN
  1
MARK_ORIGIN
  0
CIRCLE
  5
B2
330
B1
100
AcDbEntity
  8
0
 62
     0
100
AcDbCircle
 10
0.0
 20
0.0
 30
0.0
 40
0.5
  0
ENDBLK
  5
B4
330
B1
100
AcDbEntity
  8
0
100
AcDbBlockEnd
  0
BLOCK
  5
B7
330
B5
100
AcDbEntity
  8
0
100
AcDbBlockBegin
  2
MARK_DOT
 70
     0
 10
0.0
 20
0.0
 30
0.0
  3
MARK_DOT
  1
MARK_DOT
  0
LWPOLYLINE
  5
B6
330
B5
100
AcDbEntity
  8
0
 62
     0
100
AcDbPolyline
 90
        2
 70
     1
 43
0.5
 10
-0.25
 20
0.0
 42
1.0
 10
0.25
 20
0.0
 42
1.0
  0
ENDBLK
  5
B8
330
B5
100
AcDbEntity
  8
0
100
AcDbBlockEnd
  0
BLOCK
  5
1B1
330
1B0
100
AcDbEntity
  8
0
100
AcDbBlockBegin
  2
Dim1
 70
     0
 10
0.0
 20
0.0
 30
0.0
  3
Dim1
  1
Dim1
  0
LINE
  5
1B3
330
1B0
100
AcDbEntity
  8
8
  6
Continuous
 62
     4
370
     9
100
AcDbLine
 10
657.7193309645427
 20
442.9195126135633
 30
0.0
 11
682.5593699011015
 21
442.9195126135633
 31
0.0
  0
LINE
  5
1B4
330
1B0
100
AcDbEntity
  8
8
  6
Continuous
 62
     4
370
     9
100
AcDbLine
 10
646.7193309645427
 20
445.9195126135633
 30
0.0
 11
682.5593699011015
 21
445.9195126135632
 31
0.0
  0
LINE
  5
1B5
330
1B0
100
AcDbEntity
  8
8
  6
Continuous
 62
     4
370
     9
100
AcDbLine
 10
679.5593699011015
 20
431.4195126135633
 30
0.0
 11
679.5593699011015
 21
453.9195126135632
 31
0.0
  0
MTEXT
  5
1B6
330
1B0
100
AcDbEntity
  8
8
  6
Continuous
 62
     4
370
     9
100
AcDbMText
 10
679.5593699011015
 20
431.4195126135633
 30
0.0
 40
6.0
 41
57.14285714285714
 46
6.0
 71
     6
 72
     1
  1
(3)
  7
ＭＳ ゴシック
 11
1.615544574432587E-15
 21
1.0
 31
0.0
 73
     1
 44
1.0
1001
ACAD
1000
ACAD_MTEXT_DEFINED_HEIGHT_BEGIN
1070
    46
1040
6.0
1000
ACAD_MTEXT_DEFINED_HEIGHT_END
  0
INSERT
  5
1B7
330
1B0
100
AcDbEntity
  8
8
  6
Continuous
 62
     4
370
     9
100
AcDbBlockReference
  2
_ARROWFILLED
 10
679.5593699011015
 20
442.9195126135633
 30
0.0
 41
4.0
 42
4.0
 43
4.0
 50
89.99999999999959
  0
INSERT
  5
1B8
330
1B0
100
AcDbEntity
  8
8
  6
Continuous
 62
     4
370
     9
100
AcDbBlockReference
  2
_ARROWFILLED
 10
679.5593699011015
 20
445.9195126135632
 30
0.0
 41
4.0
 42
4.0
 43
4.0
 50
269.9999999999998
  0
ENDBLK
  5
1B2
330
1B0
100
AcDbEntity
  8
0
100
AcDbBlockEnd
  0
BLOCK
  5
1BB
330
1BA
100
AcDbEntity
  8
0
100
AcDbBlockBegin
  2
Dim2
 70
     0
 10
0.0
 20
0.0
 30
0.0
  3
Dim2
  1
Dim2
  0
LINE
  5
1BD
330
1BA
100
AcDbEntity
  8
8
  6
Continuous
 62
     4
370
     9
100
AcDbLine
 10
655.7193309645427
 20
444.9195126135633
 30
0.0
 11
655.7193309645427
 21
460.7731646458719
 31
0.0
  0
LINE
  5
1BE
330
1BA
100
AcDbEntity
  8
8
  6
Continuous
 62
     4
370
     9
100
AcDbLine
 10
635.2193309645427
 20
435.0195126135618
 30
0.0
 11
635.2193309645427
 21
460.7731646458719
 31
0.0
  0
LINE
  5
1BF
330
1BA
100
AcDbEntity
  8
8
  6
Continuous
 62
     4
370
     9
100
AcDbLine
 10
665.2193309645427
 20
457.7731646458719
 30
0.0
 11
635.2193309645427
 21
457.7731646458719
 31
0.0
  0
MTEXT
  5
1C0
330
1BA
100
AcDbEntity
  8
8
  6
Continuous
 62
     4
370
     9
100
AcDbMText
 10
665.2193309645427
 20
457.7731646458719
 30
0.0
 40
6.0
 41
128.5714285714286
 46
6.0
 71
     4
 72
     1
  1
(20.5)
  7
ＭＳ ゴシック
 73
     1
 44
1.0
1001
ACAD
1000
ACAD_MTEXT_DEFINED_HEIGHT_BEGIN
1070
    46
1040
6.0
1000
ACAD_MTEXT_DEFINED_HEIGHT_END
  0
INSERT
  5
1C1
330
1BA
100
AcDbEntity
  8
8
  6
Continuous
 62
     4
370
     9
100
AcDbBlockReference
  2
_ARROWFILLED
 10
655.7193309645427
 20
457.7731646458719
 30
0.0
 41
4.0
 42
4.0
 43
4.0
 50
359.9999999999997
  0
INSERT
  5
1C2
330
1BA
100
AcDbEntity
  8
8
  6
Continuous
 62
     4
370
     9
100
AcDbBlockReference
  2
_ARROWFILLED
 10
635.2193309645427
 20
457.7731646458719
 30
0.0
 41
4.0
 42
4.0
 43
4.0
 50
179.9999999999998
  0
ENDBLK
  5
1BC
330
1BA
100
AcDbEntity
  8
0
100
AcDbBlockEnd
  0
BLOCK
  5
1C5
330
1C4
100
AcDbEntity
  8
0
100
AcDbBlockBegin
  2
Dim3
 70
     0
 10
0.0
 20
0.0
 30
0.0
  3
Dim3
  1
Dim3
  0
LINE
  5
1C7
330
1C4
100
AcDbEntity
  8
8
  6
Continuous
 62
     4
370
     9
100
AcDbLine
 10
655.7193309645427
 20
180.9195126135633
 30
0.0
 11
655.7193309645427
 21
165.2371658016395
 31
0.0
  0
LINE
  5
1C8
330
1C4
100
AcDbEntity
  8
8
  6
Continuous
 62
     4
370
     9
100
AcDbLine
 10
654.7193309645409
 20
180.9195126135633
 30
0.0
 11
654.7193309645409
 21
165.2371658016395
 31
0.0
  0
LINE
  5
1C9
330
1C4
100
AcDbEntity
  8
8
  6
Continuous
 62
     4
370
     9
100
AcDbLine
 10
665.2193309645427
 20
168.2371658016395
 30
0.0
 11
646.7193309645409
 21
168.2371658016395
 31
0.0
  0
MTEXT
  5
1CA
330
1C4
100
AcDbEntity
  8
8
  6
Continuous
 62
     4
370
     9
100
AcDbMText
 10
665.2193309645427
 20
168.2371658016395
 30
0.0
 40
6.0
 41
7.142857142857143
 46
6.0
 71
     4
 72
     1
  1
1
  7
ＭＳ ゴシック
 73
     1
 44
1.0
1001
ACAD
1000
ACAD_MTEXT_DEFINED_HEIGHT_BEGIN
1070
    46
1040
6.0
1000
ACAD_MTEXT_DEFINED_HEIGHT_END
  0
INSERT
  5
1CB
330
1C4
100
AcDbEntity
  8
8
  6
Continuous
 62
     4
370
     9
100
AcDbBlockReference
  2
_ARROWFILLED
 10
655.7193309645427
 20
168.2371658016395
 30
0.0
 41
4.0
 42
4.0
 43
4.0
 50
179.9999999999995
  0
INSERT
  5
1CC
330
1C4
100
AcDbEntity
  8
8
  6
Continuous
 62
     4
370
     9
100
AcDbBlockReference
  2
_ARROWFILLED
 10
654.7193309645409
 20
168.2371658016395
 30
0.0
 41
4.0
 42
4.0
 43
4.0
 50
359.9999999999997
  0
ENDBLK
  5
1C6
330
1C4
100
AcDbEntity
  8
0
100
AcDbBlockEnd
  0
BLOCK
  5
29F
330
29E
100
AcDbEntity
  8
0
100
AcDbBlockBegin
  2
Dim4
 70
     0
 10
0.0
 20
0.0
 30
0.0
  3
Dim4
  1
Dim4
  0
LINE
  5
2A1
330
29E
100
AcDbEntity
  8
8
  6
Continuous
 62
     4
370
     9
100
AcDbLine
 10
326.203241943861
 20
180.3195126135633
 30
0.0
 11
326.2032419438609
 21
153.7191728422954
 31
0.0
  0
LINE
  5
2A2
330
29E
100
AcDbEntity
  8
8
  6
Continuous
 62
     4
370
     9
100
AcDbLine
 10
396.2032419438592
 20
180.3195126135633
 30
0.0
 11
396.2032419438592
 21
153.7191728422954
 31
0.0
  0
LINE
  5
2A3
330
29E
100
AcDbEntity
  8
8
  6
Continuous
 62
     4
370
     9
100
AcDbLine
 10
326.2032419438609
 20
156.7191728422954
 30
0.0
 11
396.2032419438592
 21
156.7191728422954
 31
0.0
  0
MTEXT
  5
2A4
330
29E
100
AcDbEntity
  8
8
  6
Continuous
 62
     4
370
     9
100
AcDbMText
 10
361.2032419438601
 20
156.7191728422954
 30
0.0
 40
6.0
 41
48.57142857142856
 46
6.0
 71
     8
 72
     1
  1
70
  7
ＭＳ ゴシック
 73
     1
 44
1.0
1001
ACAD
1000
ACAD_MTEXT_DEFINED_HEIGHT_BEGIN
1070
    46
1040
6.0
1000
ACAD_MTEXT_DEFINED_HEIGHT_END
  0
INSERT
  5
2A5
330
29E
100
AcDbEntity
  8
8
  6
Continuous
 62
     4
370
     9
100
AcDbBlockReference
  2
_ARROWFILLED
 10
326.2032419438609
 20
156.7191728422954
 30
0.0
 41
4.0
 42
4.0
 43
4.0
 50
179.9999999999998
  0
INSERT
  5
2A6
330
29E
100
AcDbEntity
  8
8
  6
Continuous
 62
     4
370
     9
100
AcDbBlockReference
  2
_ARROWFILLED
 10
396.2032419438592
 20
156.7191728422954
 30
0.0
 41
4.0
 42
4.0
 43
4.0
 50
359.9999999999997
  0
ENDBLK
  5
2A0
330
29E
100
AcDbEntity
  8
0
100
AcDbBlockEnd
  0
BLOCK
  5
2A9
330
2A8
100
AcDbEntity
  8
0
100
AcDbBlockBegin
  2
Dim5
 70
     0
 10
0.0
 20
0.0
 30
0.0
  3
Dim5
  1
Dim5
  0
LINE
  5
2AB
330
2A8
100
AcDbEntity
  8
8
  6
Continuous
 62
     4
370
     9
100
AcDbLine
 10
286.2032419438601
 20
180.3195126135633
 30
0.0
 11
286.2032419438601
 21
136.4961147363301
 31
0.0
  0
LINE
  5
2AC
330
2A8
100
AcDbEntity
  8
8
  6
Continuous
 62
     4
370
     9
100
AcDbLine
 10
436.2032419438601
 20
180.3195126135633
 30
0.0
 11
436.2032419438601
 21
136.4961147363301
 31
0.0
  0
LINE
  5
2AD
330
2A8
100
AcDbEntity
  8
8
  6
Continuous
 62
     4
370
     9
100
AcDbLine
 10
286.2032419438601
 20
139.4961147363301
 30
0.0
 11
436.2032419438601
 21
139.4961147363301
 31
0.0
  0
MTEXT
  5
2AE
330
2A8
100
AcDbEntity
  8
8
  6
Continuous
 62
     4
370
     9
100
AcDbMText
 10
361.2032419438601
 20
139.4961147363301
 30
0.0
 40
6.0
 41
72.85714285714286
 46
6.0
 71
     8
 72
     1
  1
150
  7
ＭＳ ゴシック
 73
     1
 44
1.0
1001
ACAD
1000
ACAD_MTEXT_DEFINED_HEIGHT_BEGIN
1070
    46
1040
6.0
1000
ACAD_MTEXT_DEFINED_HEIGHT_END
  0
INSERT
  5
2AF
330
2A8
100
AcDbEntity
  8
8
  6
Continuous
 62
     4
370
     9
100
AcDbBlockReference
  2
_ARROWFILLED
 10
286.2032419438601
 20
139.4961147363301
 30
0.0
 41
4.0
 42
4.0
 43
4.0
 50
179.9999999999998
  0
INSERT
  5
2B0
330
2A8
100
AcDbEntity
  8
8
  6
Continuous
 62
     4
370
     9
100
AcDbBlockReference
  2
_ARROWFILLED
 10
436.2032419438601
 20
139.4961147363301
 30
0.0
 41
4.0
 42
4.0
 43
4.0
 50
359.9999999999997
  0
ENDBLK
  5
2AA
330
2A8
100
AcDbEntity
  8
0
100
AcDbBlockEnd
  0
BLOCK
  5
2B3
330
2B2
100
AcDbEntity
  8
0
100
AcDbBlockBegin
  2
Dim6
 70
     0
 10
0.0
 20
0.0
 30
0.0
  3
Dim6
  1
Dim6
  0
LINE
  5
2B5
330
2B2
100
AcDbEntity
  8
8
  6
Continuous
 62
     4
370
     9
100
AcDbLine
 10
261.2032419438601
 20
210.9195126135633
 30
0.0
 11
261.20324194386
 21
118.7511464426539
 31
0.0
  0
LINE
  5
2B6
330
2B2
100
AcDbEntity
  8
8
  6
Continuous
 62
     4
370
     9
100
AcDbLine
 10
461.2032419438601
 20
210.9195126135633
 30
0.0
 11
461.20324194386
 21
118.7511464426539
 31
0.0
  0
LINE
  5
2B7
330
2B2
100
AcDbEntity
  8
8
  6
Continuous
 62
     4
370
     9
100
AcDbLine
 10
261.20324194386
 20
121.7511464426539
 30
0.0
 11
461.20324194386
 21
121.7511464426539
 31
0.0
  0
MTEXT
  5
2B8
330
2B2
100
AcDbEntity
  8
8
  6
Continuous
 62
     4
370
     9
100
AcDbMText
 10
361.2032419438601
 20
121.7511464426539
 30
0.0
 40
6.0
 41
77.14285714285714
 46
6.0
 71
     8
 72
     1
  1
200
  7
ＭＳ ゴシック
 73
     1
 44
1.0
1001
ACAD
1000
ACAD_MTEXT_DEFINED_HEIGHT_BEGIN
1070
    46
1040
6.0
1000
ACAD_MTEXT_DEFINED_HEIGHT_END
  0
INSERT
  5
2B9
330
2B2
100
AcDbEntity
  8
8
  6
Continuous
 62
     4
370
     9
100
AcDbBlockReference
  2
_ARROWFILLED
 10
261.20324194386
 20
121.7511464426539
 30
0.0
 41
4.0
 42
4.0
 43
4.0
 50
179.9999999999998
  0
INSERT
  5
2BA
330
2B2
100
AcDbEntity
  8
8
  6
Continuous
 62
     4
370
     9
100
AcDbBlockReference
  2
_ARROWFILLED
 10
461.20324194386
 20
121.7511464426539
 30
0.0
 41
4.0
 42
4.0
 43
4.0
 50
359.9999999999997
  0
ENDBLK
  5
2B4
330
2B2
100
AcDbEntity
  8
0
100
AcDbBlockEnd
  0
BLOCK
  5
2BD
330
2BC
100
AcDbEntity
  8
0
100
AcDbBlockBegin
  2
Dim7
 70
     0
 10
0.0
 20
0.0
 30
0.0
  3
Dim7
  1
Dim7
  0
LINE
  5
2BF
330
2BC
100
AcDbEntity
  8
8
  6
Continuous
 62
     4
370
     9
100
AcDbLine
 10
246.2032419438601
 20
195.9195126135623
 30
0.0
 11
246.20324194386
 21
102.1177616860773
 31
0.0
  0
LINE
  5
2C0
330
2BC
100
AcDbEntity
  8
8
  6
Continuous
 62
     4
370
     9
100
AcDbLine
 10
476.2032419438601
 20
195.9195126135633
 30
0.0
 11
476.20324194386
 21
102.1177616860773
 31
0.0
  0
LINE
  5
2C1
330
2BC
100
AcDbEntity
  8
8
  6
Continuous
 62
     4
370
     9
100
AcDbLine
 10
246.20324194386
 20
105.1177616860773
 30
0.0
 11
476.20324194386
 21
105.1177616860773
 31
0.0
  0
MTEXT
  5
2C2
330
2BC
100
AcDbEntity
  8
8
  6
Continuous
 62
     4
370
     9
100
AcDbMText
 10
361.2032419438601
 20
105.1177616860773
 30
0.0
 40
6.0
 41
77.14285714285714
 46
6.0
 71
     8
 72
     1
  1
230
  7
ＭＳ ゴシック
 73
     1
 44
1.0
1001
ACAD
1000
ACAD_MTEXT_DEFINED_HEIGHT_BEGIN
1070
    46
1040
6.0
1000
ACAD_MTEXT_DEFINED_HEIGHT_END
  0
INSERT
  5
2C3
330
2BC
100
AcDbEntity
  8
8
  6
Continuous
 62
     4
370
     9
100
AcDbBlockReference
  2
_ARROWFILLED
 10
246.20324194386
 20
105.1177616860773
 30
0.0
 41
4.0
 42
4.0
 43
4.0
 50
179.9999999999998
  0
INSERT
  5
2C4
330
2BC
100
AcDbEntity
  8
8
  6
Continuous
 62
     4
370
     9
100
AcDbBlockReference
  2
_ARROWFILLED
 10
476.20324194386
 20
105.1177616860773
 30
0.0
 41
4.0
 42
4.0
 43
4.0
 50
359.9999999999997
  0
ENDBLK
  5
2BE
330
2BC
100
AcDbEntity
  8
0
100
AcDbBlockEnd
  0
BLOCK
  5
2C7
330
2C6
100
AcDbEntity
  8
0
100
AcDbBlockBegin
  2
Dim8
 70
     0
 10
0.0
 20
0.0
 30
0.0
  3
Dim8
  1
Dim8
  0
LINE
  5
2C9
330
2C6
100
AcDbEntity
  8
8
  6
Continuous
 62
     4
370
     9
100
AcDbLine
 10
463.2032419438601
 20
212.9195126135633
 30
0.0
 11
503.5045551727253
 21
212.9195126135632
 31
0.0
  0
LINE
  5
2CA
330
2C6
100
AcDbEntity
  8
8
  6
Continuous
 62
     4
370
     9
100
AcDbLine
 10
463.2032419438601
 20
412.9195126135633
 30
0.0
 11
503.5045551727253
 21
412.9195126135632
 31
0.0
  0
LINE
  5
2CB
330
2C6
100
AcDbEntity
  8
8
  6
Continuous
 62
     4
370
     9
100
AcDbLine
 10
500.5045551727253
 20
212.9195126135632
 30
0.0
 11
500.5045551727253
 21
412.9195126135632
 31
0.0
  0
MTEXT
  5
2CC
330
2C6
100
AcDbEntity
  8
8
  6
Continuous
 62
     4
370
     9
100
AcDbMText
 10
500.5045551727253
 20
312.9195126135633
 30
0.0
 40
6.0
 41
77.14285714285714
 46
6.0
 71
     8
 72
     1
  1
200
  7
ＭＳ ゴシック
 11
1.615544574432587E-15
 21
1.0
 31
0.0
 73
     1
 44
1.0
1001
ACAD
1000
ACAD_MTEXT_DEFINED_HEIGHT_BEGIN
1070
    46
1040
6.0
1000
ACAD_MTEXT_DEFINED_HEIGHT_END
  0
INSERT
  5
2CD
330
2C6
100
AcDbEntity
  8
8
  6
Continuous
 62
     4
370
     9
100
AcDbBlockReference
  2
_ARROWFILLED
 10
500.5045551727253
 20
212.9195126135632
 30
0.0
 41
4.0
 42
4.0
 43
4.0
 50
269.9999999999998
  0
INSERT
  5
2CE
330
2C6
100
AcDbEntity
  8
8
  6
Continuous
 62
     4
370
     9
100
AcDbBlockReference
  2
_ARROWFILLED
 10
500.5045551727253
 20
412.9195126135632
 30
0.0
 41
4.0
 42
4.0
 43
4.0
 50
89.99999999999991
  0
ENDBLK
  5
2C8
330
2C6
100
AcDbEntity
  8
0
100
AcDbBlockEnd
  0
BLOCK
  5
2D1
330
2D0
100
AcDbEntity
  8
0
100
AcDbBlockBegin
  2
Dim9
 70
     0
 10
0.0
 20
0.0
 30
0.0
  3
Dim9
  1
Dim9
  0
LINE
  5
2D3
330
2D0
100
AcDbEntity
  8
8
  6
Continuous
 62
     4
370
     9
100
AcDbLine
 10
478.2032419438601
 20
197.9195126135633
 30
0.0
 11
521.1952828474841
 21
197.9195126135632
 31
0.0
  0
LINE
  5
2D4
330
2D0
100
AcDbEntity
  8
8
  6
Continuous
 62
     4
370
     9
100
AcDbLine
 10
478.2032419438601
 20
427.9195126135633
 30
0.0
 11
521.1952828474841
 21
427.9195126135632
 31
0.0
  0
LINE
  5
2D5
330
2D0
100
AcDbEntity
  8
8
  6
Continuous
 62
     4
370
     9
100
AcDbLine
 10
518.1952828474841
 20
197.9195126135632
 30
0.0
 11
518.1952828474841
 21
427.9195126135632
 31
0.0
  0
MTEXT
  5
2D6
330
2D0
100
AcDbEntity
  8
8
  6
Continuous
 62
     4
370
     9
100
AcDbMText
 10
518.1952828474841
 20
312.9195126135633
 30
0.0
 40
6.0
 41
77.14285714285714
 46
6.0
 71
     8
 72
     1
  1
230
  7
ＭＳ ゴシック
 11
1.615544574432587E-15
 21
1.0
 31
0.0
 73
     1
 44
1.0
1001
ACAD
1000
ACAD_MTEXT_DEFINED_HEIGHT_BEGIN
1070
    46
1040
6.0
1000
ACAD_MTEXT_DEFINED_HEIGHT_END
  0
INSERT
  5
2D7
330
2D0
100
AcDbEntity
  8
8
  6
Continuous
 62
     4
370
     9
100
AcDbBlockReference
  2
_ARROWFILLED
 10
518.1952828474841
 20
197.9195126135632
 30
0.0
 41
4.0
 42
4.0
 43
4.0
 50
269.9999999999998
  0
INSERT
  5
2D8
330
2D0
100
AcDbEntity
  8
8
  6
Continuous
 62
     4
370
     9
100
AcDbBlockReference
  2
_ARROWFILLED
 10
518.1952828474841
 20
427.9195126135632
 30
0.0
 41
4.0
 42
4.0
 43
4.0
 50
89.99999999999991
  0
ENDBLK
  5
2D2
330
2D0
100
AcDbEntity
  8
0
100
AcDbBlockEnd
  0
BLOCK
  5
2DB
330
2DA
100
AcDbEntity
  8
0
100
AcDbBlockBegin
  2
Dim10
 70
     0
 10
0.0
 20
0.0
 30
0.0
  3
Dim10
  1
Dim10
  0
LINE
  5
2DD
330
2DA
100
AcDbEntity
  8
8
  6
Continuous
 62
     4
370
     9
100
AcDbLine
 10
445.80324194386
 20
189.9195126135633
 30
0.0
 11
539.948566633002
 21
189.919512613563
 31
0.0
  0
LINE
  5
2DE
330
2DA
100
AcDbEntity
  8
8
  6
Continuous
 62
     4
370
     9
100
AcDbLine
 10
445.80324194386
 20
435.9195126135633
 30
0.0
 11
539.948566633002
 21
435.919512613563
 31
0.0
  0
LINE
  5
2DF
330
2DA
100
AcDbEntity
  8
8
  6
Continuous
 62
     4
370
     9
100
AcDbLine
 10
536.948566633002
 20
189.919512613563
 30
0.0
 11
536.948566633002
 21
435.919512613563
 31
0.0
  0
MTEXT
  5
2E0
330
2DA
100
AcDbEntity
  8
8
  6
Continuous
 62
     4
370
     9
100
AcDbMText
 10
536.948566633002
 20
312.9195126135633
 30
0.0
 40
6.0
 41
77.14285714285714
 46
6.0
 71
     8
 72
     1
  1
246
  7
ＭＳ ゴシック
 11
1.615544574432587E-15
 21
1.0
 31
0.0
 73
     1
 44
1.0
1001
ACAD
1000
ACAD_MTEXT_DEFINED_HEIGHT_BEGIN
1070
    46
1040
6.0
1000
ACAD_MTEXT_DEFINED_HEIGHT_END
  0
INSERT
  5
2E1
330
2DA
100
AcDbEntity
  8
8
  6
Continuous
 62
     4
370
     9
100
AcDbBlockReference
  2
_ARROWFILLED
 10
536.948566633002
 20
189.919512613563
 30
0.0
 41
4.0
 42
4.0
 43
4.0
 50
269.9999999999998
  0
INSERT
  5
2E2
330
2DA
100
AcDbEntity
  8
8
  6
Continuous
 62
     4
370
     9
100
AcDbBlockReference
  2
_ARROWFILLED
 10
536.948566633002
 20
435.919512613563
 30
0.0
 41
4.0
 42
4.0
 43
4.0
 50
89.99999999999991
  0
ENDBLK
  5
2DC
330
2DA
100
AcDbEntity
  8
0
100
AcDbBlockEnd
  0
BLOCK
  5
2E5
330
2E4
100
AcDbEntity
  8
0
100
AcDbBlockBegin
  2
Dim11
 70
     0
 10
0.0
 20
0.0
 30
0.0
  3
Dim11
  1
Dim11
  0
LINE
  5
2E7
330
2E4
100
AcDbEntity
  8
8
  6
Continuous
 62
     4
370
     9
100
AcDbLine
 10
458.203241943861
 20
442.9195126135633
 30
0.0
 11
557.809356097061
 21
442.919512613563
 31
0.0
  0
LINE
  5
2E8
330
2E4
100
AcDbEntity
  8
8
  6
Continuous
 62
     4
370
     9
100
AcDbLine
 10
458.203241943861
 20
182.9195126135642
 30
0.0
 11
557.809356097061
 21
182.9195126135639
 31
0.0
  0
LINE
  5
2E9
330
2E4
100
AcDbEntity
  8
8
  6
Continuous
 62
     4
370
     9
100
AcDbLine
 10
554.809356097061
 20
442.919512613563
 30
0.0
 11
554.809356097061
 21
182.9195126135639
 31
0.0
  0
MTEXT
  5
2EA
330
2E4
100
AcDbEntity
  8
8
  6
Continuous
 62
     4
370
     9
100
AcDbMText
 10
554.809356097061
 20
312.9195126135637
 30
0.0
 40
6.0
 41
77.14285714285714
 46
6.0
 71
     8
 72
     1
  1
260
  7
ＭＳ ゴシック
 11
1.615544574432587E-15
 21
1.0
 31
0.0
 73
     1
 44
1.0
1001
ACAD
1000
ACAD_MTEXT_DEFINED_HEIGHT_BEGIN
1070
    46
1040
6.0
1000
ACAD_MTEXT_DEFINED_HEIGHT_END
  0
INSERT
  5
2EB
330
2E4
100
AcDbEntity
  8
8
  6
Continuous
 62
     4
370
     9
100
AcDbBlockReference
  2
_ARROWFILLED
 10
554.809356097061
 20
442.919512613563
 30
0.0
 41
4.0
 42
4.0
 43
4.0
 50
89.99999999999991
  0
INSERT
  5
2EC
330
2E4
100
AcDbEntity
  8
8
  6
Continuous
 62
     4
370
     9
100
AcDbBlockReference
  2
_ARROWFILLED
 10
554.809356097061
 20
182.9195126135639
 30
0.0
 41
4.0
 42
4.0
 43
4.0
 50
269.9999999999998
  0
ENDBLK
  5
2E6
330
2E4
100
AcDbEntity
  8
0
100
AcDbBlockEnd
  0
BLOCK
  5
2EF
330
2EE
100
AcDbEntity
  8
0
100
AcDbBlockBegin
  2
Dim12
 70
     0
 10
0.0
 20
0.0
 30
0.0
  3
Dim12
  1
Dim12
  0
LINE
  5
2F1
330
2EE
100
AcDbEntity
  8
8
  6
Continuous
 62
     4
370
     9
100
AcDbLine
 10
610.7193309645427
 20
195.9195126135633
 30
0.0
 11
610.7193309645426
 21
147.7959519882347
 31
0.0
  0
LINE
  5
2F2
330
2EE
100
AcDbEntity
  8
8
  6
Continuous
 62
     4
370
     9
100
AcDbLine
 10
655.7193309645427
 20
180.9195126135633
 30
0.0
 11
655.7193309645427
 21
147.7959519882347
 31
0.0
  0
LINE
  5
2F3
330
2EE
100
AcDbEntity
  8
8
  6
Continuous
 62
     4
370
     9
100
AcDbLine
 10
610.7193309645426
 20
150.7959519882347
 30
0.0
 11
655.7193309645427
 21
150.7959519882347
 31
0.0
  0
MTEXT
  5
2F4
330
2EE
100
AcDbEntity
  8
8
  6
Continuous
 62
     4
370
     9
100
AcDbMText
 10
633.2193309645427
 20
150.7959519882347
 30
0.0
 40
6.0
 41
48.57142857142856
 46
6.0
 71
     8
 72
     1
  1
45
  7
ＭＳ ゴシック
 73
     1
 44
1.0
1001
ACAD
1000
ACAD_MTEXT_DEFINED_HEIGHT_BEGIN
1070
    46
1040
6.0
1000
ACAD_MTEXT_DEFINED_HEIGHT_END
  0
INSERT
  5
2F5
330
2EE
100
AcDbEntity
  8
8
  6
Continuous
 62
     4
370
     9
100
AcDbBlockReference
  2
_ARROWFILLED
 10
610.7193309645426
 20
150.7959519882347
 30
0.0
 41
4.0
 42
4.0
 43
4.0
 50
179.9999999999998
  0
INSERT
  5
2F6
330
2EE
100
AcDbEntity
  8
8
  6
Continuous
 62
     4
370
     9
100
AcDbBlockReference
  2
_ARROWFILLED
 10
655.7193309645427
 20
150.7959519882347
 30
0.0
 41
4.0
 42
4.0
 43
4.0
 50
359.9999999999997
  0
ENDBLK
  5
2F0
330
2EE
100
AcDbEntity
  8
0
100
AcDbBlockEnd
  0
ENDSEC
  0
SECTION
  2
ENTITIES
  0
POLYLINE
  5
CB
330
1F
100
AcDbEntity
  8
9
  6
Continuous
 62
     7
370
    25
100
AcDb2dPolyline
 66
     1
 10
0.0
 20
0.0
 30
0.0
  0
VERTEX
  5
CC
330
CB
100
AcDbEntity
  8
9
  6
Continuous
 62
     7
370
    25
100
AcDbVertex
100
AcDb2dVertex
 10
461.2032419438601
 20
212.9195126135633
 30
0.0
  0
VERTEX
  5
CD
330
CB
100
AcDbEntity
  8
9
  6
Continuous
 62
     7
370
    25
100
AcDbVertex
100
AcDb2dVertex
 10
461.2032419438601
 20
412.9195126135633
 30
0.0
  0
VERTEX
  5
CE
330
CB
100
AcDbEntity
  8
9
  6
Continuous
 62
     7
370
    25
100
AcDbVertex
100
AcDb2dVertex
 10
261.2032419438601
 20
412.9195126135633
 30
0.0
  0
VERTEX
  5
CF
330
CB
100
AcDbEntity
  8
9
  6
Continuous
 62
     7
370
    25
100
AcDbVertex
100
AcDb2dVertex
 10
261.2032419438601
 20
212.9195126135633
 30
0.0
  0
VERTEX
  5
D0
330
CB
100
AcDbEntity
  8
9
  6
Continuous
 62
     7
370
    25
100
AcDbVertex
100
AcDb2dVertex
 10
461.2032419438601
 20
212.9195126135633
 30
0.0
  0
SEQEND
  5
D1
330
CB
100
AcDbEntity
  8
9
  6
Continuous
 62
     7
370
    25
  0
LINE
  5
D2
330
1F
100
AcDbEntity
  8
9
  6
Continuous
 62
     7
370
    25
100
AcDbLine
 10
476.2032419438601
 20
427.9195126135633
 30
0.0
 11
476.2032419438601
 21
197.9195126135633
 31
0.0
  0
LINE
  5
D3
330
1F
100
AcDbEntity
  8
9
  6
Continuous
 62
     7
370
    25
100
AcDbLine
 10
476.2032419438601
 20
197.9195126135633
 30
0.0
 11
246.2032419438601
 21
197.9195126135623
 31
0.0
  0
LINE
  5
D4
330
1F
100
AcDbEntity
  8
9
  6
Continuous
 62
     7
370
    25
100
AcDbLine
 10
476.2032419438601
 20
427.9195126135633
 30
0.0
 11
246.2032419438601
 21
427.9195126135633
 31
0.0
  0
LINE
  5
D5
330
1F
100
AcDbEntity
  8
9
  6
Continuous
 62
     7
370
    25
100
AcDbLine
 10
246.2032419438601
 20
427.9195126135633
 30
0.0
 11
246.2032419438601
 21
197.9195126135623
 31
0.0
  0
LINE
  5
D6
330
1F
100
AcDbEntity
  8
9
  6
Continuous
 62
     7
370
    25
100
AcDbLine
 10
649.1693309645425
 20
197.6028459468967
 30
0.0
 11
642.269330964542
 21
197.6028459468967
 31
0.0
  0
ARC
  5
D7
330
1F
100
AcDbEntity
  8
9
  6
Continuous
 62
     7
370
    25
100
AcDbCircle
 10
645.7193309645427
 20
200.5698634907562
 30
0.0
 40
4.550350877192955
100
AcDbArc
 50
220.6956985254003
 51
319.304301474599
  0
LINE
  5
D8
330
1F
100
AcDbEntity
  8
9
  6
Continuous
 62
     7
370
    25
100
AcDbLine
 10
649.1693309645425
 20
197.9195126135633
 30
0.0
 11
649.1693309645425
 21
197.6028459468967
 31
0.0
  0
LINE
  5
D9
330
1F
100
AcDbEntity
  8
9
  6
Continuous
 62
     7
370
    25
100
AcDbLine
 10
642.269330964542
 20
197.9195126135633
 30
0.0
 11
642.269330964542
 21
197.6028459468967
 31
0.0
  0
LINE
  5
DA
330
1F
100
AcDbEntity
  8
9
  6
Continuous
 62
     7
370
    25
100
AcDbLine
 10
610.7193309645427
 20
427.9195126135633
 30
0.0
 11
610.7193309645427
 21
197.9195126135633
 31
0.0
  0
LINE
  5
DB
330
1F
100
AcDbEntity
  8
9
  6
Continuous
 62
     7
370
    25
100
AcDbLine
 10
655.7193309645427
 20
442.9195126135633
 30
0.0
 11
655.7193309645427
 21
182.9195126135633
 31
0.0
  0
LINE
  5
DC
330
1F
100
AcDbEntity
  8
9
  6
Continuous
 62
     7
370
    25
100
AcDbLine
 10
654.7193309645427
 20
442.9195126135633
 30
0.0
 11
654.7193309645409
 21
182.9195126135633
 31
0.0
  0
LINE
  5
DD
330
1F
100
AcDbEntity
  8
9
  6
Continuous
 62
     7
370
    25
100
AcDbLine
 10
610.7193309645427
 20
427.9195126135633
 30
0.0
 11
654.7193309645427
 21
427.9195126135614
 31
0.0
  0
LINE
  5
DE
330
1F
100
AcDbEntity
  8
9
  6
Continuous
 62
     7
370
    25
100
AcDbLine
 10
654.7193309645427
 20
426.9195126135614
 30
0.0
 11
655.7193309645427
 21
426.9195126135614
 31
0.0
  0
LINE
  5
DF
330
1F
100
AcDbEntity
  8
9
  6
Continuous
 62
     7
370
    25
100
AcDbLine
 10
654.7193309645427
 20
442.9195126135633
 30
0.0
 11
655.7193309645427
 21
442.9195126135633
 31
0.0
  0
LINE
  5
E0
330
1F
100
AcDbEntity
  8
9
  6
Continuous
 62
     7
370
    25
100
AcDbLine
 10
610.7193309645427
 20
197.9195126135633
 30
0.0
 11
654.7193309645409
 21
197.9195126135633
 31
0.0
  0
LINE
  5
E1
330
1F
100
AcDbEntity
  8
9
  6
Continuous
 62
     7
370
    25
100
AcDbLine
 10
654.7193309645409
 20
198.9195126135633
 30
0.0
 11
655.7193309645427
 21
198.9195126135633
 31
0.0
  0
LINE
  5
E2
330
1F
100
AcDbEntity
  8
9
  6
Continuous
 62
     7
370
    25
100
AcDbLine
 10
654.7193309645427
 20
182.9195126135633
 30
0.0
 11
655.7193309645427
 21
182.9195126135633
 31
0.0
  0
LINE
  5
E3
330
1F
100
AcDbEntity
  8
9
  6
Continuous
 62
     7
370
    25
100
AcDbLine
 10
461.2032419438601
 20
187.9195126135633
 30
0.0
 11
461.2032419438601
 21
197.9195126135633
 31
0.0
  0
ARC
  5
E4
330
1F
100
AcDbEntity
  8
9
  6
Continuous
 62
     7
370
    25
100
AcDbCircle
 10
456.203241943861
 20
187.9195126135633
 30
0.0
 40
5.0
100
AcDbArc
 50
269.9999999999998
 51
0.0
  0
LINE
  5
E5
330
1F
100
AcDbEntity
  8
9
  6
Continuous
 62
     7
370
    25
100
AcDbLine
 10
266.2032419438601
 20
182.9195126135633
 30
0.0
 11
456.203241943861
 21
182.9195126135642
 31
0.0
  0
LINE
  5
E6
330
1F
100
AcDbEntity
  8
9
  6
Continuous
 62
     7
370
    25
100
AcDbLine
 10
261.2032419438601
 20
187.9195126135633
 30
0.0
 11
261.2032419438601
 21
197.9195126135633
 31
0.0
  0
ARC
  5
E7
330
1F
100
AcDbEntity
  8
9
  6
Continuous
 62
     7
370
    25
100
AcDbCircle
 10
266.2032419438592
 20
187.9195126135633
 30
0.0
 40
5.0
100
AcDbArc
 50
179.9999999999998
 51
269.9999999999998
  0
LINE
  5
E8
330
1F
100
AcDbEntity
  8
9
  6
Continuous
 62
     7
370
    25
100
AcDbLine
 10
456.2032419438601
 20
442.9195126135633
 30
0.0
 11
373.7032419438592
 21
442.9195126135633
 31
0.0
  0
ARC
  5
E9
330
1F
100
AcDbEntity
  8
9
  6
Continuous
 62
     7
370
    25
100
AcDbCircle
 10
373.7032419438592
 20
437.9195126135633
 30
0.0
 40
5.0
100
AcDbArc
 50
89.99999999999991
 51
179.9999999999998
  0
LINE
  5
EA
330
1F
100
AcDbEntity
  8
9
  6
Continuous
 62
     7
370
    25
100
AcDbLine
 10
461.2032419438601
 20
437.9195126135633
 30
0.0
 11
461.2032419438601
 21
427.9195126135633
 31
0.0
  0
LINE
  5
EB
330
1F
100
AcDbEntity
  8
9
  6
Continuous
 62
     7
370
    25
100
AcDbLine
 10
368.7032419438592
 20
437.9195126135633
 30
0.0
 11
368.7032419438592
 21
427.9195126135633
 31
0.0
  0
ARC
  5
EC
330
1F
100
AcDbEntity
  8
9
  6
Continuous
 62
     7
370
    25
100
AcDbCircle
 10
456.203241943861
 20
437.9195126135633
 30
0.0
 40
5.0
100
AcDbArc
 50
0.0
 51
89.99999999999991
  0
LINE
  5
ED
330
1F
100
AcDbEntity
  8
9
  6
Continuous
 62
     7
370
    25
100
AcDbLine
 10
266.2032419438601
 20
442.9195126135633
 30
0.0
 11
348.7032419438601
 21
442.9195126135633
 31
0.0
  0
ARC
  5
EE
330
1F
100
AcDbEntity
  8
9
  6
Continuous
 62
     7
370
    25
100
AcDbCircle
 10
348.7032419438601
 20
437.9195126135633
 30
0.0
 40
5.0
100
AcDbArc
 50
0.0
 51
89.99999999999991
  0
LINE
  5
EF
330
1F
100
AcDbEntity
  8
9
  6
Continuous
 62
     7
370
    25
100
AcDbLine
 10
261.2032419438601
 20
437.9195126135633
 30
0.0
 11
261.2032419438601
 21
427.9195126135633
 31
0.0
  0
LINE
  5
F0
330
1F
100
AcDbEntity
  8
9
  6
Continuous
 62
     7
370
    25
100
AcDbLine
 10
353.7032419438601
 20
437.9195126135633
 30
0.0
 11
353.7032419438601
 21
427.9195126135633
 31
0.0
  0
ARC
  5
F1
330
1F
100
AcDbEntity
  8
9
  6
Continuous
 62
     7
370
    25
100
AcDbCircle
 10
266.2032419438592
 20
437.9195126135633
 30
0.0
 40
5.0
100
AcDbArc
 50
89.99999999999991
 51
179.9999999999998
  0
LINE
  5
F2
330
1F
100
AcDbEntity
  8
9
  6
Continuous
 62
     7
370
    25
100
AcDbLine
 10
636.2193309645427
 20
434.9195126135633
 30
0.0
 11
642.2193309645427
 21
434.9195126135633
 31
0.0
  0
LINE
  5
F3
330
1F
100
AcDbEntity
  8
9
  6
Continuous
 62
     7
370
    25
100
AcDbLine
 10
639.7193309645427
 20
445.9195126135633
 30
0.0
 11
644.7193309645427
 21
445.9195126135633
 31
0.0
  0
ARC
  5
F4
330
1F
100
AcDbEntity
  8
9
  6
Continuous
 62
     7
370
    25
100
AcDbCircle
 10
639.7193309645427
 20
442.9195126135633
 30
0.0
 40
3.0
100
AcDbArc
 50
89.99999999999991
 51
179.9999999999998
  0
LINE
  5
F5
330
1F
100
AcDbEntity
  8
9
  6
Continuous
 62
     7
370
    25
100
AcDbLine
 10
636.2193309645427
 20
442.9195126135633
 30
0.0
 11
648.2193309645427
 21
442.9195126135633
 31
0.0
  0
LINE
  5
F6
330
1F
100
AcDbEntity
  8
9
  6
Continuous
 62
     7
370
    25
100
AcDbLine
 10
636.2193309645427
 20
434.9195126135633
 30
0.0
 11
636.2193309645427
 21
442.9195126135633
 31
0.0
  0
LINE
  5
F7
330
1F
100
AcDbEntity
  8
9
  6
Continuous
 62
     7
370
    25
100
AcDbLine
 10
637.2193309645427
 20
433.0195126135618
 30
0.0
 11
637.2193309645427
 21
434.9195126135633
 31
0.0
  0
LINE
  5
F8
330
1F
100
AcDbEntity
  8
9
  6
Continuous
 62
     7
370
    25
100
AcDbLine
 10
648.2193309645427
 20
434.9195126135633
 30
0.0
 11
642.2193309645427
 21
434.9195126135633
 31
0.0
  0
LINE
  5
F9
330
1F
100
AcDbEntity
  8
9
  6
Continuous
 62
     7
370
    25
100
AcDbLine
 10
642.2193309645427
 20
434.9195126135633
 30
0.0
 11
642.2193309645427
 21
442.9195126135633
 31
0.0
  0
LINE
  5
FA
330
1F
100
AcDbEntity
  8
9
  6
Continuous
 62
     7
370
    25
100
AcDbLine
 10
647.2193309645427
 20
433.0195126135618
 30
0.0
 11
647.2193309645427
 21
434.9195126135633
 31
0.0
  0
ARC
  5
FB
330
1F
100
AcDbEntity
  8
9
  6
Continuous
 62
     7
370
    25
100
AcDbCircle
 10
644.7193309645427
 20
442.9195126135633
 30
0.0
 40
3.0
100
AcDbArc
 50
0.0
 51
89.99999999999991
  0
LINE
  5
FC
330
1F
100
AcDbEntity
  8
9
  6
Continuous
 62
     7
370
    25
100
AcDbLine
 10
648.2193309645427
 20
434.9195126135633
 30
0.0
 11
648.2193309645427
 21
442.9195126135633
 31
0.0
  0
LINE
  5
FD
330
1F
100
AcDbEntity
  8
9
  6
Continuous
 62
     7
370
    25
100
AcDbLine
 10
354.9532419438601
 20
428.4195126135633
 30
0.0
 11
354.9532419438601
 21
427.9195126135633
 31
0.0
  0
LINE
  5
FE
330
1F
100
AcDbEntity
  8
9
  6
Continuous
 62
     7
370
    25
100
AcDbLine
 10
354.2032419438601
 20
428.4195126135633
 30
0.0
 11
354.2032419438601
 21
433.0195126135618
 31
0.0
  0
LINE
  5
FF
330
1F
100
AcDbEntity
  8
9
  6
Continuous
 62
     7
370
    25
100
AcDbLine
 10
357.7032419438601
 20
428.4195126135633
 30
0.0
 11
357.7032419438601
 21
433.0195126135618
 31
0.0
  0
LINE
  5
100
330
1F
100
AcDbEntity
  8
9
  6
Continuous
 62
     7
370
    25
100
AcDbLine
 10
368.2032419438601
 20
428.4195126135633
 30
0.0
 11
368.2032419438601
 21
433.0195126135618
 31
0.0
  0
LINE
  5
101
330
1F
100
AcDbEntity
  8
9
  6
Continuous
 62
     7
370
    25
100
AcDbLine
 10
364.7032419438601
 20
428.4195126135633
 30
0.0
 11
364.7032419438601
 21
433.0195126135618
 31
0.0
  0
LINE
  5
102
330
1F
100
AcDbEntity
  8
9
  6
Continuous
 62
     7
370
    25
100
AcDbLine
 10
354.2032419438601
 20
433.0195126135618
 30
0.0
 11
361.2032419438601
 21
433.0195126135618
 31
0.0
  0
LINE
  5
103
330
1F
100
AcDbEntity
  8
9
  6
Continuous
 62
     7
370
    25
100
AcDbLine
 10
355.2032419438601
 20
434.9195126135633
 30
0.0
 11
361.2032419438601
 21
434.9195126135633
 31
0.0
  0
LINE
  5
104
330
1F
100
AcDbEntity
  8
9
  6
Continuous
 62
     7
370
    25
100
AcDbLine
 10
358.7032419438601
 20
445.9195126135633
 30
0.0
 11
363.7032419438601
 21
445.9195126135633
 31
0.0
  0
ARC
  5
105
330
1F
100
AcDbEntity
  8
9
  6
Continuous
 62
     7
370
    25
100
AcDbCircle
 10
358.7032419438601
 20
442.9195126135633
 30
0.0
 40
3.0
100
AcDbArc
 50
89.99999999999991
 51
179.9999999999998
  0
LINE
  5
106
330
1F
100
AcDbEntity
  8
9
  6
Continuous
 62
     7
370
    25
100
AcDbLine
 10
355.2032419438601
 20
442.9195126135633
 30
0.0
 11
367.2032419438601
 21
442.9195126135633
 31
0.0
  0
LINE
  5
107
330
1F
100
AcDbEntity
  8
9
  6
Continuous
 62
     7
370
    25
100
AcDbLine
 10
355.2032419438601
 20
434.9195126135633
 30
0.0
 11
355.2032419438601
 21
442.9195126135633
 31
0.0
  0
LINE
  5
108
330
1F
100
AcDbEntity
  8
9
  6
Continuous
 62
     7
370
    25
100
AcDbLine
 10
356.2032419438601
 20
433.0195126135618
 30
0.0
 11
356.2032419438601
 21
434.9195126135633
 31
0.0
  0
LINE
  5
109
330
1F
100
AcDbEntity
  8
9
  6
Continuous
 62
     7
370
    25
100
AcDbLine
 10
368.2032419438601
 20
433.0195126135618
 30
0.0
 11
361.2032419438601
 21
433.0195126135618
 31
0.0
  0
LINE
  5
10A
330
1F
100
AcDbEntity
  8
9
  6
Continuous
 62
     7
370
    25
100
AcDbLine
 10
367.2032419438601
 20
434.9195126135633
 30
0.0
 11
361.2032419438601
 21
434.9195126135633
 31
0.0
  0
LINE
  5
10B
330
1F
100
AcDbEntity
  8
9
  6
Continuous
 62
     7
370
    25
100
AcDbLine
 10
361.2032419438601
 20
434.9195126135633
 30
0.0
 11
361.2032419438601
 21
442.9195126135633
 31
0.0
  0
LINE
  5
10C
330
1F
100
AcDbEntity
  8
9
  6
Continuous
 62
     7
370
    25
100
AcDbLine
 10
354.2032419438601
 20
428.4195126135633
 30
0.0
 11
361.2032419438601
 21
428.4195126135633
 31
0.0
  0
LINE
  5
10D
330
1F
100
AcDbEntity
  8
9
  6
Continuous
 62
     7
370
    25
100
AcDbLine
 10
368.2032419438601
 20
428.4195126135633
 30
0.0
 11
361.2032419438601
 21
428.4195126135633
 31
0.0
  0
LINE
  5
10E
330
1F
100
AcDbEntity
  8
9
  6
Continuous
 62
     7
370
    25
100
AcDbLine
 10
367.4532419438601
 20
428.4195126135633
 30
0.0
 11
367.4532419438601
 21
427.9195126135633
 31
0.0
  0
LINE
  5
10F
330
1F
100
AcDbEntity
  8
9
  6
Continuous
 62
     7
370
    25
100
AcDbLine
 10
366.2032419438601
 20
433.0195126135618
 30
0.0
 11
366.2032419438601
 21
434.9195126135633
 31
0.0
  0
ARC
  5
110
330
1F
100
AcDbEntity
  8
9
  6
Continuous
 62
     7
370
    25
100
AcDbCircle
 10
363.7032419438601
 20
442.9195126135633
 30
0.0
 40
3.0
100
AcDbArc
 50
0.0
 51
89.99999999999991
  0
LINE
  5
111
330
1F
100
AcDbEntity
  8
9
  6
Continuous
 62
     7
370
    25
100
AcDbLine
 10
367.2032419438601
 20
434.9195126135633
 30
0.0
 11
367.2032419438601
 21
442.9195126135633
 31
0.0
  0
ARC
  5
112
330
1F
100
AcDbEntity
  8
9
  6
Continuous
 62
     7
370
    25
100
AcDbCircle
 10
644.9193309645425
 20
312.1195126135631
 30
0.0
 40
0.5
100
AcDbArc
 50
0.0
 51
89.99999999999991
  0
ARC
  5
113
330
1F
100
AcDbEntity
  8
9
  6
Continuous
 62
     7
370
    25
100
AcDbCircle
 10
646.5193309645429
 20
312.1195126135631
 30
0.0
 40
0.5
100
AcDbArc
 50
89.99999999999991
 51
179.9999999999998
  0
CIRCLE
  5
114
330
1F
100
AcDbEntity
  8
9
  6
Continuous
 62
     7
370
    25
100
AcDbCircle
 10
645.7193309645427
 20
312.9195126135633
 30
0.0
 40
3.450000000000045
  0
LINE
  5
115
330
1F
100
AcDbEntity
  8
9
  6
Continuous
 62
     7
370
    25
100
AcDbLine
 10
645.4193309645425
 20
312.1195126135631
 30
0.0
 11
645.4193309645425
 21
311.4695126135625
 31
0.0
  0
LINE
  5
116
330
1F
100
AcDbEntity
  8
9
  6
Continuous
 62
     7
370
    25
100
AcDbLine
 10
646.0193309645429
 20
312.1195126135631
 30
0.0
 11
646.0193309645429
 21
311.4695126135625
 31
0.0
  0
LINE
  5
117
330
1F
100
AcDbEntity
  8
9
  6
Continuous
 62
     7
370
    25
100
AcDbLine
 10
645.4193309645425
 20
311.4695126135625
 30
0.0
 11
646.0193309645429
 21
311.4695126135625
 31
0.0
  0
LINE
  5
118
330
1F
100
AcDbEntity
  8
9
  6
Continuous
 62
     7
370
    25
100
AcDbLine
 10
644.9193309645425
 20
313.2195126135625
 30
0.0
 11
644.2693309645429
 21
313.2195126135625
 31
0.0
  0
LINE
  5
119
330
1F
100
AcDbEntity
  8
9
  6
Continuous
 62
     7
370
    25
100
AcDbLine
 10
644.9193309645425
 20
312.6195126135631
 30
0.0
 11
644.2693309645429
 21
312.6195126135631
 31
0.0
  0
ARC
  5
11A
330
1F
100
AcDbEntity
  8
9
  6
Continuous
 62
     7
370
    25
100
AcDbCircle
 10
646.5193309645429
 20
313.7195126135625
 30
0.0
 40
0.5
100
AcDbArc
 50
179.9999999999998
 51
269.9999999999998
  0
ARC
  5
11B
330
1F
100
AcDbEntity
  8
9
  6
Continuous
 62
     7
370
    25
100
AcDbCircle
 10
644.9193309645425
 20
313.7195126135625
 30
0.0
 40
0.5
100
AcDbArc
 50
269.9999999999998
 51
0.0
  0
LINE
  5
11C
330
1F
100
AcDbEntity
  8
9
  6
Continuous
 62
     7
370
    25
100
AcDbLine
 10
646.0193309645429
 20
313.7195126135625
 30
0.0
 11
646.0193309645429
 21
314.3695126135631
 31
0.0
  0
LINE
  5
11D
330
1F
100
AcDbEntity
  8
9
  6
Continuous
 62
     7
370
    25
100
AcDbLine
 10
645.4193309645425
 20
313.7195126135625
 30
0.0
 11
645.4193309645425
 21
314.3695126135631
 31
0.0
  0
LINE
  5
11E
330
1F
100
AcDbEntity
  8
9
  6
Continuous
 62
     7
370
    25
100
AcDbLine
 10
646.5193309645429
 20
313.2195126135625
 30
0.0
 11
647.1693309645425
 21
313.2195126135625
 31
0.0
  0
LINE
  5
11F
330
1F
100
AcDbEntity
  8
9
  6
Continuous
 62
     7
370
    25
100
AcDbLine
 10
646.5193309645429
 20
312.6195126135631
 30
0.0
 11
647.1693309645425
 21
312.6195126135631
 31
0.0
  0
LINE
  5
120
330
1F
100
AcDbEntity
  8
9
  6
Continuous
 62
     7
370
    25
100
AcDbLine
 10
647.1693309645425
 20
312.6195126135631
 30
0.0
 11
647.1693309645425
 21
313.2195126135625
 31
0.0
  0
LINE
  5
121
330
1F
100
AcDbEntity
  8
9
  6
Continuous
 62
     7
370
    25
100
AcDbLine
 10
646.0193309645429
 20
314.3695126135631
 30
0.0
 11
645.4193309645425
 21
314.3695126135631
 31
0.0
  0
LINE
  5
122
330
1F
100
AcDbEntity
  8
9
  6
Continuous
 62
     7
370
    25
100
AcDbLine
 10
644.2693309645429
 20
313.2195126135625
 30
0.0
 11
644.2693309645429
 21
312.6195126135631
 31
0.0
  0
LINE
  5
123
330
1F
100
AcDbEntity
  8
9
  6
Continuous
 62
     7
370
    25
100
AcDbLine
 10
259.6532419438618
 20
197.6028459468967
 30
0.0
 11
252.7532419438621
 21
197.6028459468967
 31
0.0
  0
ARC
  5
124
330
1F
100
AcDbEntity
  8
9
  6
Continuous
 62
     7
370
    25
100
AcDbCircle
 10
256.2032419438619
 20
200.5698634907562
 30
0.0
 40
4.550350877192955
100
AcDbArc
 50
220.6956985254003
 51
319.304301474599
  0
LINE
  5
125
330
1F
100
AcDbEntity
  8
9
  6
Continuous
 62
     7
370
    25
100
AcDbLine
 10
259.6532419438618
 20
197.9195126135633
 30
0.0
 11
259.6532419438618
 21
197.6028459468967
 31
0.0
  0
LINE
  5
126
330
1F
100
AcDbEntity
  8
9
  6
Continuous
 62
     7
370
    25
100
AcDbLine
 10
252.7532419438621
 20
197.9195126135633
 30
0.0
 11
252.7532419438621
 21
197.6028459468967
 31
0.0
  0
LINE
  5
127
330
1F
100
AcDbEntity
  8
9
  6
Continuous
 62
     7
370
    25
100
AcDbLine
 10
281.1532419438618
 20
197.6028459468967
 30
0.0
 11
274.2532419438612
 21
197.6028459468967
 31
0.0
  0
ARC
  5
128
330
1F
100
AcDbEntity
  8
9
  6
Continuous
 62
     7
370
    25
100
AcDbCircle
 10
277.7032419438619
 20
200.5698634907562
 30
0.0
 40
4.550350877192955
100
AcDbArc
 50
220.6956985254003
 51
319.304301474599
  0
LINE
  5
129
330
1F
100
AcDbEntity
  8
9
  6
Continuous
 62
     7
370
    25
100
AcDbLine
 10
281.1532419438618
 20
197.9195126135633
 30
0.0
 11
281.1532419438618
 21
197.6028459468967
 31
0.0
  0
LINE
  5
12A
330
1F
100
AcDbEntity
  8
9
  6
Continuous
 62
     7
370
    25
100
AcDbLine
 10
274.2532419438612
 20
197.9195126135633
 30
0.0
 11
274.2532419438612
 21
197.6028459468967
 31
0.0
  0
LINE
  5
12B
330
1F
100
AcDbEntity
  8
9
  6
Continuous
 62
     7
370
    25
100
AcDbLine
 10
259.6532419438618
 20
428.2361792802308
 30
0.0
 11
252.7532419438621
 21
428.2361792802308
 31
0.0
  0
ARC
  5
12C
330
1F
100
AcDbEntity
  8
9
  6
Continuous
 62
     7
370
    25
100
AcDbCircle
 10
256.2032419438619
 20
425.2691617363703
 30
0.0
 40
4.550350877192955
100
AcDbArc
 50
40.69569852540071
 51
139.3043014745993
  0
LINE
  5
12D
330
1F
100
AcDbEntity
  8
9
  6
Continuous
 62
     7
370
    25
100
AcDbLine
 10
259.6532419438618
 20
427.9195126135633
 30
0.0
 11
259.6532419438618
 21
428.2361792802308
 31
0.0
  0
LINE
  5
12E
330
1F
100
AcDbEntity
  8
9
  6
Continuous
 62
     7
370
    25
100
AcDbLine
 10
252.7532419438621
 20
427.9195126135633
 30
0.0
 11
252.7532419438621
 21
428.2361792802308
 31
0.0
  0
LINE
  5
12F
330
1F
100
AcDbEntity
  8
9
  6
Continuous
 62
     7
370
    25
100
AcDbLine
 10
281.1532419438618
 20
428.2361792802308
 30
0.0
 11
274.2532419438612
 21
428.2361792802308
 31
0.0
  0
ARC
  5
130
330
1F
100
AcDbEntity
  8
9
  6
Continuous
 62
     7
370
    25
100
AcDbCircle
 10
277.7032419438619
 20
425.2691617363703
 30
0.0
 40
4.550350877192955
100
AcDbArc
 50
40.69569852540071
 51
139.3043014745993
  0
LINE
  5
131
330
1F
100
AcDbEntity
  8
9
  6
Continuous
 62
     7
370
    25
100
AcDbLine
 10
281.1532419438618
 20
427.9195126135633
 30
0.0
 11
281.1532419438618
 21
428.2361792802308
 31
0.0
  0
LINE
  5
132
330
1F
100
AcDbEntity
  8
9
  6
Continuous
 62
     7
370
    25
100
AcDbLine
 10
274.2532419438612
 20
427.9195126135633
 30
0.0
 11
274.2532419438612
 21
428.2361792802308
 31
0.0
  0
LINE
  5
133
330
1F
100
AcDbEntity
  8
9
  6
Continuous
 62
     7
370
    25
100
AcDbLine
 10
352.6532419438599
 20
428.2361792802308
 30
0.0
 11
345.7532419438603
 21
428.2361792802308
 31
0.0
  0
ARC
  5
134
330
1F
100
AcDbEntity
  8
9
  6
Continuous
 62
     7
370
    25
100
AcDbCircle
 10
349.2032419438601
 20
425.2691617363703
 30
0.0
 40
4.550350877192955
100
AcDbArc
 50
40.69569852540071
 51
139.3043014745993
  0
LINE
  5
135
330
1F
100
AcDbEntity
  8
9
  6
Continuous
 62
     7
370
    25
100
AcDbLine
 10
352.6532419438599
 20
427.9195126135633
 30
0.0
 11
352.6532419438599
 21
428.2361792802308
 31
0.0
  0
LINE
  5
136
330
1F
100
AcDbEntity
  8
9
  6
Continuous
 62
     7
370
    25
100
AcDbLine
 10
345.7532419438603
 20
427.9195126135633
 30
0.0
 11
345.7532419438603
 21
428.2361792802308
 31
0.0
  0
LINE
  5
137
330
1F
100
AcDbEntity
  8
9
  6
Continuous
 62
     7
370
    25
100
AcDbLine
 10
462.7532419438585
 20
428.2361792802299
 30
0.0
 11
469.653241943859
 21
428.2361792802299
 31
0.0
  0
ARC
  5
138
330
1F
100
AcDbEntity
  8
9
  6
Continuous
 62
     7
370
    25
100
AcDbCircle
 10
466.2032419438583
 20
425.2691617363703
 30
0.0
 40
4.550350877192955
100
AcDbArc
 50
40.69569852540071
 51
139.3043014745993
  0
LINE
  5
139
330
1F
100
AcDbEntity
  8
9
  6
Continuous
 62
     7
370
    25
100
AcDbLine
 10
462.7532419438585
 20
427.9195126135633
 30
0.0
 11
462.7532419438585
 21
428.2361792802299
 31
0.0
  0
LINE
  5
13A
330
1F
100
AcDbEntity
  8
9
  6
Continuous
 62
     7
370
    25
100
AcDbLine
 10
469.653241943859
 20
427.9195126135633
 30
0.0
 11
469.653241943859
 21
428.2361792802299
 31
0.0
  0
LINE
  5
13B
330
1F
100
AcDbEntity
  8
9
  6
Continuous
 62
     7
370
    25
100
AcDbLine
 10
441.2532419438594
 20
428.2361792802299
 30
0.0
 11
448.153241943859
 21
428.2361792802299
 31
0.0
  0
ARC
  5
13C
330
1F
100
AcDbEntity
  8
9
  6
Continuous
 62
     7
370
    25
100
AcDbCircle
 10
444.7032419438592
 20
425.2691617363703
 30
0.0
 40
4.550350877192955
100
AcDbArc
 50
40.69569852540071
 51
139.3043014745993
  0
LINE
  5
13D
330
1F
100
AcDbEntity
  8
9
  6
Continuous
 62
     7
370
    25
100
AcDbLine
 10
441.2532419438594
 20
427.9195126135633
 30
0.0
 11
441.2532419438594
 21
428.2361792802299
 31
0.0
  0
LINE
  5
13E
330
1F
100
AcDbEntity
  8
9
  6
Continuous
 62
     7
370
    25
100
AcDbLine
 10
448.153241943859
 20
427.9195126135633
 30
0.0
 11
448.153241943859
 21
428.2361792802299
 31
0.0
  0
LINE
  5
13F
330
1F
100
AcDbEntity
  8
9
  6
Continuous
 62
     7
370
    25
100
AcDbLine
 10
369.7532419438603
 20
428.2361792802308
 30
0.0
 11
376.6532419438608
 21
428.2361792802308
 31
0.0
  0
ARC
  5
140
330
1F
100
AcDbEntity
  8
9
  6
Continuous
 62
     7
370
    25
100
AcDbCircle
 10
373.2032419438601
 20
425.2691617363703
 30
0.0
 40
4.550350877192955
100
AcDbArc
 50
40.69569852540071
 51
139.3043014745993
  0
LINE
  5
141
330
1F
100
AcDbEntity
  8
9
  6
Continuous
 62
     7
370
    25
100
AcDbLine
 10
369.7532419438603
 20
427.9195126135633
 30
0.0
 11
369.7532419438603
 21
428.2361792802308
 31
0.0
  0
LINE
  5
142
330
1F
100
AcDbEntity
  8
9
  6
Continuous
 62
     7
370
    25
100
AcDbLine
 10
376.6532419438608
 20
427.9195126135633
 30
0.0
 11
376.6532419438608
 21
428.2361792802308
 31
0.0
  0
LINE
  5
143
330
1F
100
AcDbEntity
  8
9
  6
Continuous
 62
     7
370
    25
100
AcDbLine
 10
462.7532419438585
 20
197.6028459468967
 30
0.0
 11
469.653241943859
 21
197.6028459468967
 31
0.0
  0
ARC
  5
144
330
1F
100
AcDbEntity
  8
9
  6
Continuous
 62
     7
370
    25
100
AcDbCircle
 10
466.2032419438583
 20
200.5698634907562
 30
0.0
 40
4.550350877192955
100
AcDbArc
 50
220.6956985254003
 51
319.304301474599
  0
LINE
  5
145
330
1F
100
AcDbEntity
  8
9
  6
Continuous
 62
     7
370
    25
100
AcDbLine
 10
462.7532419438585
 20
197.9195126135633
 30
0.0
 11
462.7532419438585
 21
197.6028459468967
 31
0.0
  0
LINE
  5
146
330
1F
100
AcDbEntity
  8
9
  6
Continuous
 62
     7
370
    25
100
AcDbLine
 10
469.653241943859
 20
197.9195126135633
 30
0.0
 11
469.653241943859
 21
197.6028459468967
 31
0.0
  0
LINE
  5
147
330
1F
100
AcDbEntity
  8
9
  6
Continuous
 62
     7
370
    25
100
AcDbLine
 10
441.2532419438594
 20
197.6028459468967
 30
0.0
 11
448.153241943859
 21
197.6028459468967
 31
0.0
  0
ARC
  5
148
330
1F
100
AcDbEntity
  8
9
  6
Continuous
 62
     7
370
    25
100
AcDbCircle
 10
444.7032419438592
 20
200.5698634907562
 30
0.0
 40
4.550350877192955
100
AcDbArc
 50
220.6956985254003
 51
319.304301474599
  0
LINE
  5
149
330
1F
100
AcDbEntity
  8
9
  6
Continuous
 62
     7
370
    25
100
AcDbLine
 10
441.2532419438594
 20
197.9195126135633
 30
0.0
 11
441.2532419438594
 21
197.6028459468967
 31
0.0
  0
LINE
  5
14A
330
1F
100
AcDbEntity
  8
9
  6
Continuous
 62
     7
370
    25
100
AcDbLine
 10
448.153241943859
 20
197.9195126135633
 30
0.0
 11
448.153241943859
 21
197.6028459468967
 31
0.0
  0
LINE
  5
14B
330
1F
100
AcDbEntity
  8
9
  6
Continuous
 62
     7
370
    25
100
AcDbLine
 10
476.5199086105267
 20
316.3695126135622
 30
0.0
 11
476.5199086105267
 21
309.4695126135625
 31
0.0
  0
ARC
  5
14C
330
1F
100
AcDbEntity
  8
9
  6
Continuous
 62
     7
370
    25
100
AcDbCircle
 10
473.5528910666671
 20
312.9195126135633
 30
0.0
 40
4.550350877192955
100
AcDbArc
 50
310.6956985253476
 51
49.30430147465209
  0
LINE
  5
14D
330
1F
100
AcDbEntity
  8
9
  6
Continuous
 62
     7
370
    25
100
AcDbLine
 10
476.2032419438601
 20
316.3695126135622
 30
0.0
 11
476.5199086105267
 21
316.3695126135622
 31
0.0
  0
LINE
  5
14E
330
1F
100
AcDbEntity
  8
9
  6
Continuous
 62
     7
370
    25
100
AcDbLine
 10
476.2032419438601
 20
309.4695126135625
 30
0.0
 11
476.5199086105267
 21
309.4695126135625
 31
0.0
  0
LINE
  5
14F
330
1F
100
AcDbEntity
  8
9
  6
Continuous
 62
     7
370
    25
100
AcDbLine
 10
245.8865752771926
 20
316.3695126135622
 30
0.0
 11
245.8865752771926
 21
309.4695126135625
 31
0.0
  0
ARC
  5
150
330
1F
100
AcDbEntity
  8
9
  6
Continuous
 62
     7
370
    25
100
AcDbCircle
 10
248.8535928210531
 20
312.9195126135633
 30
0.0
 40
4.550350877192983
100
AcDbArc
 50
130.6956985253479
 51
229.3043014746517
  0
LINE
  5
151
330
1F
100
AcDbEntity
  8
9
  6
Continuous
 62
     7
370
    25
100
AcDbLine
 10
246.2032419438601
 20
316.3695126135622
 30
0.0
 11
245.8865752771926
 21
316.3695126135622
 31
0.0
  0
LINE
  5
152
330
1F
100
AcDbEntity
  8
9
  6
Continuous
 62
     7
370
    25
100
AcDbLine
 10
246.2032419438601
 20
309.4695126135625
 30
0.0
 11
245.8865752771926
 21
309.4695126135625
 31
0.0
  0
LINE
  5
153
330
1F
100
AcDbEntity
  8
5
  6
Continuous
 62
     1
370
    25
100
AcDbLine
 10
363.7986610054149
 20
455.4531274402639
 30
0.0
 11
364.369062255415
 21
457.7436008777636
 31
0.0
  0
LINE
  5
154
330
1F
100
AcDbEntity
  8
5
  6
Continuous
 62
     1
370
    25
100
AcDbLine
 10
363.4723325679151
 20
453.0908046277641
 30
0.0
 11
363.7986610054149
 21
455.4531274402639
 31
0.0
  0
LINE
  5
155
330
1F
100
AcDbEntity
  8
5
  6
Continuous
 62
     1
370
    25
100
AcDbLine
 10
363.2954725679147
 20
450.6844633777641
 30
0.0
 11
363.4723325679151
 21
453.0908046277641
 31
0.0
  0
LINE
  5
156
330
1F
100
AcDbEntity
  8
5
  6
Continuous
 62
     1
370
    25
100
AcDbLine
 10
363.0534268890706
 20
445.9195126135633
 30
0.0
 11
363.2954725679147
 21
450.6844633777641
 31
0.0
  0
LINE
  5
157
330
1F
100
AcDbEntity
  8
5
  6
Continuous
 62
     1
370
    25
100
AcDbLine
 10
359.602341849165
 20
450.9136668152637
 30
0.0
 11
359.7909400991648
 21
453.4800561902643
 31
0.0
  0
LINE
  5
158
330
1F
100
AcDbEntity
  8
5
  6
Continuous
 62
     1
370
    25
100
AcDbLine
 10
359.7909400991648
 20
453.4800561902643
 30
0.0
 11
360.1605273179148
 21
456.1553527527635
 31
0.0
  0
LINE
  5
159
330
1F
100
AcDbEntity
  8
5
  6
Continuous
 62
     1
370
    25
100
AcDbLine
 10
359.3530569986506
 20
445.9195126135633
 30
0.0
 11
359.602341849165
 21
450.9136668152637
 31
0.0
  0
LINE
  5
15A
330
1F
100
AcDbEntity
  8
5
  6
Continuous
 62
     1
370
    25
100
AcDbLine
 10
364.8490100679146
 20
459.028148377764
 30
0.0
 11
365.5081617524438
 21
460.4510599211676
 31
0.0
  0
LINE
  5
15B
330
1F
100
AcDbEntity
  8
5
  6
Continuous
 62
     1
370
    25
100
AcDbLine
 10
360.8295196929148
 20
458.8417261902637
 30
0.0
 11
361.4324231304145
 21
460.4552961902641
 31
0.0
  0
LINE
  5
15C
330
1F
100
AcDbEntity
  8
5
  6
Continuous
 62
     1
370
    25
100
AcDbLine
 10
364.369062255415
 20
457.7436008777636
 30
0.0
 11
364.8490100679146
 21
459.028148377764
 31
0.0
  0
LINE
  5
15D
330
1F
100
AcDbEntity
  8
5
  6
Continuous
 62
     1
370
    25
100
AcDbLine
 10
360.1605273179148
 20
456.1553527527635
 30
0.0
 11
360.8295196929148
 21
458.8417261902637
 31
0.0
  0
LINE
  5
15E
330
1F
100
AcDbEntity
  8
5
  6
Continuous
 62
     1
370
    25
100
AcDbLine
 10
364.9527372554148
 20
465.6705386902636
 30
0.0
 11
365.7689456929147
 21
466.4015661902645
 31
0.0
  0
LINE
  5
15F
330
1F
100
AcDbEntity
  8
5
  6
Continuous
 62
     1
370
    25
100
AcDbLine
 10
363.7609788179152
 20
464.3644502527636
 30
0.0
 11
364.9527372554148
 21
465.6705386902636
 31
0.0
  0
LINE
  5
160
330
1F
100
AcDbEntity
  8
5
  6
Continuous
 62
     1
370
    25
100
AcDbLine
 10
366.6411397554148
 20
462.0316233777644
 30
0.0
 11
367.5601619429144
 21
463.0387980652636
 31
0.0
  0
LINE
  5
161
330
1F
100
AcDbEntity
  8
5
  6
Continuous
 62
     1
370
    25
100
AcDbLine
 10
361.8837780366648
 20
461.4297374402636
 30
0.0
 11
362.7233450366648
 21
462.9168830652638
 31
0.0
  0
LINE
  5
162
330
1F
100
AcDbEntity
  8
5
  6
Continuous
 62
     1
370
    25
100
AcDbLine
 10
362.7233450366648
 20
462.9168830652638
 30
0.0
 11
363.7609788179152
 21
464.3644502527636
 31
0.0
  0
LINE
  5
163
330
1F
100
AcDbEntity
  8
5
  6
Continuous
 62
     1
370
    25
100
AcDbLine
 10
361.4324231304145
 20
460.4552961902641
 30
0.0
 11
361.8837780366648
 21
461.4297374402636
 31
0.0
  0
LINE
  5
164
330
1F
100
AcDbEntity
  8
5
  6
Continuous
 62
     1
370
    25
100
AcDbLine
 10
365.5081617524438
 20
460.4510599211676
 30
0.0
 11
366.6411397554148
 21
462.0316233777644
 31
0.0
  0
LINE
  5
165
330
1F
100
AcDbEntity
  8
5
  6
Continuous
 62
     1
370
    25
100
AcDbLine
 10
371.1762413179149
 20
465.2178321277638
 30
0.0
 11
371.8472594429149
 21
465.3783311902639
 31
0.0
  0
LINE
  5
166
330
1F
100
AcDbEntity
  8
5
  6
Continuous
 62
     1
370
    25
100
AcDbLine
 10
371.1640544429147
 20
469.0192699402637
 30
0.0
 11
372.6548885054144
 21
469.2235446277641
 31
0.0
  0
LINE
  5
167
330
1F
100
AcDbEntity
  8
5
  6
Continuous
 62
     1
370
    25
100
AcDbLine
 10
370.171471630415
 20
468.7818571277644
 30
0.0
 11
371.1640544429147
 21
469.0192699402637
 31
0.0
  0
LINE
  5
168
330
1F
100
AcDbEntity
  8
5
  6
Continuous
 62
     1
370
    25
100
AcDbLine
 10
369.4215510054146
 20
468.5376686902641
 30
0.0
 11
370.171471630415
 21
468.7818571277644
 31
0.0
  0
LINE
  5
169
330
1F
100
AcDbEntity
  8
5
  6
Continuous
 62
     1
370
    25
100
AcDbLine
 10
369.9579353804147
 20
464.7448565027639
 30
0.0
 11
370.7211991304148
 21
465.069635565264
 31
0.0
  0
LINE
  5
16A
330
1F
100
AcDbEntity
  8
5
  6
Continuous
 62
     1
370
    25
100
AcDbLine
 10
370.7211991304148
 20
465.069635565264
 30
0.0
 11
371.1762413179149
 21
465.2178321277638
 31
0.0
  0
LINE
  5
16B
330
1F
100
AcDbEntity
  8
5
  6
Continuous
 62
     1
370
    25
100
AcDbLine
 10
369.2266419429143
 20
464.3411518152639
 30
0.0
 11
369.9579353804147
 21
464.7448565027639
 31
0.0
  0
LINE
  5
16C
330
1F
100
AcDbEntity
  8
5
  6
Continuous
 62
     1
370
    25
100
AcDbLine
 10
368.532996005415
 20
463.8686965027641
 30
0.0
 11
369.2266419429143
 21
464.3411518152639
 31
0.0
  0
LINE
  5
16D
330
1F
100
AcDbEntity
  8
5
  6
Continuous
 62
     1
370
    25
100
AcDbLine
 10
367.2868822554146
 20
467.4966274402645
 30
0.0
 11
368.3352194429144
 21
468.0753883777638
 31
0.0
  0
LINE
  5
16E
330
1F
100
AcDbEntity
  8
5
  6
Continuous
 62
     1
370
    25
100
AcDbLine
 10
368.3352194429144
 20
468.0753883777638
 30
0.0
 11
369.4215510054146
 21
468.5376686902641
 31
0.0
  0
LINE
  5
16F
330
1F
100
AcDbEntity
  8
5
  6
Continuous
 62
     1
370
    25
100
AcDbLine
 10
366.3443650679146
 20
466.854700565264
 30
0.0
 11
367.2868822554146
 21
467.4966274402645
 31
0.0
  0
LINE
  5
170
330
1F
100
AcDbEntity
  8
5
  6
Continuous
 62
     1
370
    25
100
AcDbLine
 10
365.7689456929147
 20
466.4015661902645
 30
0.0
 11
366.3443650679146
 21
466.854700565264
 31
0.0
  0
LINE
  5
171
330
1F
100
AcDbEntity
  8
5
  6
Continuous
 62
     1
370
    25
100
AcDbLine
 10
367.5601619429144
 20
463.0387980652636
 30
0.0
 11
368.1501731929147
 21
463.5672158777638
 31
0.0
  0
LINE
  5
172
330
1F
100
AcDbEntity
  8
5
  6
Continuous
 62
     1
370
    25
100
AcDbLine
 10
368.1501731929147
 20
463.5672158777638
 30
0.0
 11
368.532996005415
 21
463.8686965027641
 31
0.0
  0
LINE
  5
173
330
1F
100
AcDbEntity
  8
5
  6
Continuous
 62
     1
370
    25
100
AcDbLine
 10
387.5444631929149
 20
474.7086443152643
 30
0.0
 11
387.6803110054143
 21
475.7041871277638
 31
0.0
  0
LINE
  5
174
330
1F
100
AcDbEntity
  8
5
  6
Continuous
 62
     1
370
    25
100
AcDbLine
 10
383.8910253804142
 20
475.3010490027641
 30
0.0
 11
383.9993197554149
 21
476.0949302527638
 31
0.0
  0
LINE
  5
175
330
1F
100
AcDbEntity
  8
5
  6
Continuous
 62
     1
370
    25
100
AcDbLine
 10
387.3739741304144
 20
473.8022715027641
 30
0.0
 11
387.5444631929149
 21
474.7086443152643
 31
0.0
  0
LINE
  5
176
330
1F
100
AcDbEntity
  8
5
  6
Continuous
 62
     1
370
    25
100
AcDbLine
 10
386.9544403804148
 20
472.2623777527638
 30
0.0
 11
387.3739741304144
 21
473.8022715027641
 31
0.0
  0
LINE
  5
177
330
1F
100
AcDbEntity
  8
5
  6
Continuous
 62
     1
370
    25
100
AcDbLine
 10
381.6396563179142
 20
471.181087440264
 30
0.0
 11
382.2821613179149
 21
471.553029940264
 31
0.0
  0
LINE
  5
178
330
1F
100
AcDbEntity
  8
5
  6
Continuous
 62
     1
370
    25
100
AcDbLine
 10
380.7994325679147
 20
470.8317958777639
 30
0.0
 11
381.6396563179142
 21
471.181087440264
 31
0.0
  0
LINE
  5
179
330
1F
100
AcDbEntity
  8
5
  6
Continuous
 62
     1
370
    25
100
AcDbLine
 10
379.7299013179145
 20
470.4787811902638
 30
0.0
 11
380.7994325679147
 21
470.8317958777639
 31
0.0
  0
LINE
  5
17A
330
1F
100
AcDbEntity
  8
5
  6
Continuous
 62
     1
370
    25
100
AcDbLine
 10
383.4487713179142
 20
473.4707052527642
 30
0.0
 11
383.7651444429148
 21
474.6318693152639
 31
0.0
  0
LINE
  5
17B
330
1F
100
AcDbEntity
  8
5
  6
Continuous
 62
     1
370
    25
100
AcDbLine
 10
383.7651444429148
 20
474.6318693152639
 30
0.0
 11
383.8910253804142
 21
475.3010490027641
 31
0.0
  0
LINE
  5
17C
330
1F
100
AcDbEntity
  8
5
  6
Continuous
 62
     1
370
    25
100
AcDbLine
 10
383.0663416304151
 20
472.5607249402642
 30
0.0
 11
383.4487713179142
 21
473.4707052527642
 31
0.0
  0
LINE
  5
17D
330
1F
100
AcDbEntity
  8
5
  6
Continuous
 62
     1
370
    25
100
AcDbLine
 10
382.2821613179149
 20
471.553029940264
 30
0.0
 11
382.4286697554144
 21
471.6692908777636
 31
0.0
  0
LINE
  5
17E
330
1F
100
AcDbEntity
  8
5
  6
Continuous
 62
     1
370
    25
100
AcDbLine
 10
382.4286697554144
 20
471.6692908777636
 30
0.0
 11
382.6084203804148
 21
471.8581990027637
 31
0.0
  0
LINE
  5
17F
330
1F
100
AcDbEntity
  8
5
  6
Continuous
 62
     1
370
    25
100
AcDbLine
 10
382.6084203804148
 20
471.8581990027637
 30
0.0
 11
383.0663416304151
 21
472.5607249402642
 31
0.0
  0
LINE
  5
180
330
1F
100
AcDbEntity
  8
5
  6
Continuous
 62
     1
370
    25
100
AcDbLine
 10
384.3700713179151
 20
468.4864699402638
 30
0.0
 11
384.9310606929148
 21
468.9315915027641
 31
0.0
  0
LINE
  5
181
330
1F
100
AcDbEntity
  8
5
  6
Continuous
 62
     1
370
    25
100
AcDbLine
 10
383.2836935054147
 20
467.8575508777635
 30
0.0
 11
384.3700713179151
 21
468.4864699402638
 31
0.0
  0
LINE
  5
182
330
1F
100
AcDbEntity
  8
5
  6
Continuous
 62
     1
370
    25
100
AcDbLine
 10
380.1168750679144
 20
466.7308546277641
 30
0.0
 11
380.8444106929146
 21
466.9502761902636
 31
0.0
  0
LINE
  5
183
330
1F
100
AcDbEntity
  8
5
  6
Continuous
 62
     1
370
    25
100
AcDbLine
 10
379.5577356929143
 20
466.5640424402641
 30
0.0
 11
380.1168750679144
 21
466.7308546277641
 31
0.0
  0
LINE
  5
184
330
1F
100
AcDbEntity
  8
5
  6
Continuous
 62
     1
370
    25
100
AcDbLine
 10
380.8444106929146
 20
466.9502761902636
 30
0.0
 11
382.0911603804152
 21
467.3618318152635
 31
0.0
  0
LINE
  5
185
330
1F
100
AcDbEntity
  8
5
  6
Continuous
 62
     1
370
    25
100
AcDbLine
 10
378.6019216304148
 20
466.2895140027636
 30
0.0
 11
379.5577356929143
 21
466.5640424402641
 31
0.0
  0
LINE
  5
186
330
1F
100
AcDbEntity
  8
5
  6
Continuous
 62
     1
370
    25
100
AcDbLine
 10
382.0911603804152
 20
467.3618318152635
 30
0.0
 11
383.2836935054147
 21
467.8575508777635
 31
0.0
  0
LINE
  5
187
330
1F
100
AcDbEntity
  8
5
  6
Continuous
 62
     1
370
    25
100
AcDbLine
 10
384.9310606929148
 20
468.9315915027641
 30
0.0
 11
385.5228063179147
 21
469.5536077527636
 31
0.0
  0
LINE
  5
188
330
1F
100
AcDbEntity
  8
5
  6
Continuous
 62
     1
370
    25
100
AcDbLine
 10
385.5228063179147
 20
469.5536077527636
 30
0.0
 11
386.348126005415
 21
470.8196552527638
 31
0.0
  0
LINE
  5
189
330
1F
100
AcDbEntity
  8
5
  6
Continuous
 62
     1
370
    25
100
AcDbLine
 10
379.0517606929152
 20
470.2741943152637
 30
0.0
 11
379.7299013179145
 21
470.4787811902638
 31
0.0
  0
LINE
  5
18A
330
1F
100
AcDbEntity
  8
5
  6
Continuous
 62
     1
370
    25
100
AcDbLine
 10
373.0314675679147
 20
465.5405530652638
 30
0.0
 11
374.2343491304155
 21
465.6220918152644
 31
0.0
  0
LINE
  5
18B
330
1F
100
AcDbEntity
  8
5
  6
Continuous
 62
     1
370
    25
100
AcDbLine
 10
374.2343491304155
 20
465.6220918152644
 30
0.0
 11
375.4374156929152
 21
465.6975371277636
 31
0.0
  0
LINE
  5
18C
330
1F
100
AcDbEntity
  8
5
  6
Continuous
 62
     1
370
    25
100
AcDbLine
 10
375.4374156929152
 20
465.6975371277636
 30
0.0
 11
376.1279860054146
 21
465.7679990027641
 31
0.0
  0
LINE
  5
18D
330
1F
100
AcDbEntity
  8
5
  6
Continuous
 62
     1
370
    25
100
AcDbLine
 10
371.8472594429149
 20
465.3783311902639
 30
0.0
 11
373.0314675679147
 21
465.5405530652638
 31
0.0
  0
LINE
  5
18E
330
1F
100
AcDbEntity
  8
5
  6
Continuous
 62
     1
370
    25
100
AcDbLine
 10
377.649021317915
 20
466.0463083777636
 30
0.0
 11
378.6019216304148
 21
466.2895140027636
 31
0.0
  0
LINE
  5
18F
330
1F
100
AcDbEntity
  8
5
  6
Continuous
 62
     1
370
    25
100
AcDbLine
 10
376.6902125679144
 20
465.8517346277636
 30
0.0
 11
377.649021317915
 21
466.0463083777636
 31
0.0
  0
LINE
  5
190
330
1F
100
AcDbEntity
  8
5
  6
Continuous
 62
     1
370
    25
100
AcDbLine
 10
376.1279860054146
 20
465.7679990027641
 30
0.0
 11
376.6902125679144
 21
465.8517346277636
 31
0.0
  0
LINE
  5
191
330
1F
100
AcDbEntity
  8
5
  6
Continuous
 62
     1
370
    25
100
AcDbLine
 10
373.9923922554153
 20
469.3141830652635
 30
0.0
 11
375.1336688179144
 21
469.385766502764
 31
0.0
  0
LINE
  5
192
330
1F
100
AcDbEntity
  8
5
  6
Continuous
 62
     1
370
    25
100
AcDbLine
 10
375.1336688179144
 20
469.385766502764
 30
0.0
 11
375.6672781929146
 21
469.4401796277639
 31
0.0
  0
LINE
  5
193
330
1F
100
AcDbEntity
  8
5
  6
Continuous
 62
     1
370
    25
100
AcDbLine
 10
375.6672781929146
 20
469.4401796277639
 30
0.0
 11
376.0493031929145
 21
469.4970902527643
 31
0.0
  0
LINE
  5
194
330
1F
100
AcDbEntity
  8
5
  6
Continuous
 62
     1
370
    25
100
AcDbLine
 10
377.6335160054141
 20
469.8609621277642
 30
0.0
 11
378.5190300679151
 21
470.1153255652639
 31
0.0
  0
LINE
  5
195
330
1F
100
AcDbEntity
  8
5
  6
Continuous
 62
     1
370
    25
100
AcDbLine
 10
376.0493031929145
 20
469.4970902527643
 30
0.0
 11
376.8230656929145
 21
469.6541090027636
 31
0.0
  0
LINE
  5
196
330
1F
100
AcDbEntity
  8
5
  6
Continuous
 62
     1
370
    25
100
AcDbLine
 10
376.8230656929145
 20
469.6541090027636
 30
0.0
 11
377.6335160054141
 21
469.8609621277642
 31
0.0
  0
LINE
  5
197
330
1F
100
AcDbEntity
  8
5
  6
Continuous
 62
     1
370
    25
100
AcDbLine
 10
378.5190300679151
 20
470.1153255652639
 30
0.0
 11
379.0517606929152
 21
470.2741943152637
 31
0.0
  0
LINE
  5
198
330
1F
100
AcDbEntity
  8
5
  6
Continuous
 62
     1
370
    25
100
AcDbLine
 10
386.348126005415
 20
470.8196552527638
 30
0.0
 11
386.9544403804148
 21
472.2623777527638
 31
0.0
  0
LINE
  5
199
330
1F
100
AcDbEntity
  8
5
  6
Continuous
 62
     1
370
    25
100
AcDbLine
 10
372.6548885054144
 20
469.2235446277641
 30
0.0
 11
373.9923922554153
 21
469.3141830652635
 31
0.0
  0
ARC
  5
19A
330
1F
100
AcDbEntity
  8
5
  6
Continuous
 62
     1
370
    25
100
AcDbCircle
 10
385.044739757539
 20
477.4391475549687
 30
0.0
 40
1.387286231200903
100
AcDbArc
 50
48.17903441841954
 51
131.8148257719852
  0
ARC
  5
19B
330
1F
100
AcDbEntity
  8
5
  6
Continuous
 62
     1
370
    25
100
AcDbCircle
 10
386.8947894429148
 20
479.5072260417514
 30
0.0
 40
1.38753494312067
100
AcDbArc
 50
228.190975672626
 51
311.8090243273733
  0
ARC
  5
19C
330
1F
100
AcDbEntity
  8
5
  6
Continuous
 62
     1
370
    25
100
AcDbCircle
 10
386.8947894429148
 20
477.4392781965757
 30
0.0
 40
1.387155743325138
100
AcDbArc
 50
48.1769656671226
 51
131.8230343328774
  0
ARC
  5
19D
330
1F
100
AcDbEntity
  8
5
  6
Continuous
 62
     1
370
    25
100
AcDbCircle
 10
386.8947894429148
 20
480.4982084040525
 30
0.0
 40
1.387515022395519
100
AcDbArc
 50
228.1902399436289
 51
311.8097600563705
  0
ARC
  5
19E
330
1F
100
AcDbEntity
  8
5
  6
Continuous
 62
     1
370
    25
100
AcDbCircle
 10
385.0447951267643
 20
478.4300891292228
 30
0.0
 40
1.387299627082427
100
AcDbArc
 50
48.18259787108775
 51
131.8173991288928
  0
LINE
  5
19F
330
1F
100
AcDbEntity
  8
5
  6
Continuous
 62
     1
370
    25
100
AcDbLine
 10
384.1120656929152
 20
477.5782995652639
 30
0.0
 11
384.1198008647489
 21
478.4730968438048
 31
0.0
  0
LINE
  5
1A0
330
1F
100
AcDbEntity
  8
5
  6
Continuous
 62
     1
370
    25
100
AcDbLine
 10
387.8091288179148
 20
477.3995999715139
 30
0.0
 11
387.819789442915
 21
478.4729977215143
 31
0.0
  0
LINE
  5
1A1
330
1F
100
AcDbEntity
  8
5
  6
Continuous
 62
     1
370
    25
100
AcDbLine
 10
387.819789442915
 20
479.4640068098875
 30
0.0
 11
387.819789442915
 21
486.8214341104135
 31
0.0
  0
LINE
  5
1A2
330
1F
100
AcDbEntity
  8
5
  6
Continuous
 62
     1
370
    25
100
AcDbLine
 10
387.6803110054143
 20
475.7041871277638
 30
0.0
 11
387.8091288179148
 21
477.3995999715139
 31
0.0
  0
ARC
  5
1A3
330
1F
100
AcDbEntity
  8
5
  6
Continuous
 62
     1
370
    25
100
AcDbCircle
 10
385.0447951809065
 20
480.4981933816684
 30
0.0
 40
1.387499999999989
100
AcDbArc
 50
228.1900000000089
 51
311.8099970000235
  0
LINE
  5
1A4
330
1F
100
AcDbEntity
  8
5
  6
Continuous
 62
     1
370
    25
100
AcDbLine
 10
384.1198008647489
 20
479.4640068583199
 30
0.0
 11
384.1198008647489
 21
486.8214341104135
 31
0.0
  0
LINE
  5
1A5
330
1F
100
AcDbEntity
  8
5
  6
Continuous
 62
     1
370
    25
100
AcDbLine
 10
383.9993197554149
 20
476.0949302527638
 30
0.0
 11
384.1120656929152
 21
477.5782995652639
 31
0.0
  0
HATCH
  5
1A6
330
1F
100
AcDbEntity
  8
10
  6
Continuous
 62
     2
370
     9
100
AcDbHatch
 10
0.0
 20
0.0
 30
0.0
210
0.0
220
0.0
230
1.0
  2

 70
     0
 71
     0
 91
        1
 92
        0
 93
        4
 72
     1
 10
461.2032419438601
 20
412.9195126135633
 11
261.2032419438601
 21
412.9195126135633
 72
     1
 10
261.2032419438601
 20
412.9195126135633
 11
261.2032419438601
 21
212.9195126135633
 72
     1
 10
261.2032419438601
 20
212.9195126135633
 11
461.2032419438601
 21
212.9195126135633
 72
     1
 10
461.2032419438601
 20
212.9195126135633
 11
461.2032419438601
 21
412.9195126135633
 97
        0
 75
     0
 76
     2
 52
0.0
 41
0.5
 77
     0
 78
     2
 53
45.0
 43
-4358.675338800325
 44
1968.671123219228
 45
-6.735192090802229
 46
6.735192090802229
 79
     0
 53
135.0
 43
-4358.675338800325
 44
1968.671123219228
 45
-6.735192090802229
 46
-6.735192090802002
 79
     0
 98
        0
  0
LINE
  5
1A7
330
1F
100
AcDbEntity
  8
4
  6
DASHDOT
 62
     1
370
     9
100
AcDbLine
 10
361.2032419438601
 20
172.9195126135637
 30
0.0
 11
361.2032419438601
 21
452.9195126135633
 31
0.0
  0
LINE
  5
1A8
330
1F
100
AcDbEntity
  8
4
  6
DASHDOT
 62
     1
370
     9
100
AcDbLine
 10
486.2032419438601
 20
312.9195126135633
 30
0.0
 11
236.2032419438601
 21
312.9195126135633
 31
0.0
  0
MTEXT
  5
1A9
330
1F
100
AcDbEntity
  8
8
  6
Continuous
 62
     4
370
     9
100
AcDbMText
 10
394.8445691957904
 20
475.2209197911488
 30
0.0
 40
6.0
 41
17.004855
 46
6.0
 71
     7
 72
     1
  1
{\fＭＳ ゴシック;\T0.750000;L500}
 73
     1
 44
1.0
1001
ACAD
1000
ACAD_MTEXT_DEFINED_HEIGHT_BEGIN
1070
    46
1040
6.0
1000
ACAD_MTEXT_DEFINED_HEIGHT_END
  0
LINE
  5
1AA
330
1F
100
AcDbEntity
  8
5
  6
Continuous
 62
     1
370
    25
100
AcDbLine
 10
640.3693309645432
 20
445.9195126135633
 30
0.0
 11
640.3693425127276
 21
464.6434211238425
 31
0.0
  0
ARC
  5
1AB
330
1F
100
AcDbEntity
  8
5
  6
Continuous
 62
     1
370
    25
100
AcDbCircle
 10
641.2943366484087
 20
465.6773385219244
 30
0.0
 40
1.387299296151127
100
AcDbArc
 50
228.1825956443178
 51
311.8174143556935
  0
ARC
  5
1AC
330
1F
100
AcDbEntity
  8
5
  6
Continuous
 62
     1
370
    25
100
AcDbCircle
 10
643.1443309645429
 20
463.6092192471865
 30
0.0
 40
1.387515353286972
100
AcDbArc
 50
48.19025216455618
 51
131.8097478354438
  0
ARC
  5
1AD
330
1F
100
AcDbEntity
  8
5
  6
Continuous
 62
     1
370
    25
100
AcDbCircle
 10
641.2943368288852
 20
463.6092346004939
 30
0.0
 40
1.387500000000045
100
AcDbArc
 50
48.1900099999833
 51
131.8100000000091
  0
LINE
  5
1AE
330
1F
100
AcDbEntity
  8
5
  6
Continuous
 62
     1
370
    25
100
AcDbLine
 10
644.069330964543
 20
445.9195126135633
 30
0.0
 11
644.069330964543
 21
464.6434212852841
 31
0.0
  0
DIMENSION
  5
1B9
330
1F
100
AcDbEntity
  8
8
  6
Continuous
 62
     4
370
     9
100
AcDbDimension
280
     0
  2
Dim1
 10
679.5593699011015
 20
445.9195126135632
 30
0.0
 11
679.5593699011015
 21
426.9195126135633
 31
0.0
 70
   160
  1
(<>
 71
     5
 42
-1.0
 73
     0
 74
     0
 75
     0
  3
Standard
100
AcDbAlignedDimension
 13
655.7193309645427
 23
442.9195126135633
 33
0.0
 14
644.7193309645427
 24
445.9195126135633
 34
0.0
 50
89.99999999999991
100
AcDbRotatedDimension
1001
ACAD
1000
DSTYLE
1002
{
1070
   279
1070
     2
1070
   340
1005
1AF
1070
   140
1040
6.0
1070
    40
1040
1.0
1070
   147
1040
0.0
1070
    76
1070
     0
1070
    75
1070
     0
1070
   344
1005
0
1070
   343
1005
0
1070
   173
1070
     1
1070
   289
1070
     2
1070
   288
1070
     1
1070
    77
1070
     1
1070
   172
1070
     1
1070
   174
1070
     0
1070
    74
1070
     0
1070
    73
1070
     0
1070
   284
1070
     8
1070
    78
1070
     8
1070
    42
1040
2.0
1070
    44
1040
3.0
1070
    43
1040
30.0
1070
   271
1070
     2
1070
    41
1040
4.0
1002
}
  0
DIMENSION
  5
1C3
330
1F
100
AcDbEntity
  8
8
  6
Continuous
 62
     4
370
     9
100
AcDbDimension
280
     0
  2
Dim2
 10
635.2193309645427
 20
457.7731646458719
 30
0.0
 11
674.2193309645427
 21
457.7731646458719
 31
0.0
 70
   160
  1
(<>
 71
     5
 42
-1.0
 73
     0
 74
     0
 75
     0
  3
Standard
100
AcDbAlignedDimension
 13
655.7193309645427
 23
442.9195126135633
 33
0.0
 14
635.2193309645427
 24
433.0195126135618
 34
0.0
 50
179.9999999999998
100
AcDbRotatedDimension
1001
ACAD
1000
DSTYLE
1002
{
1070
   279
1070
     2
1070
   340
1005
1AF
1070
   140
1040
6.0
1070
    40
1040
1.0
1070
   147
1040
0.0
1070
    76
1070
     0
1070
    75
1070
     0
1070
   344
1005
0
1070
   343
1005
0
1070
   173
1070
     1
1070
   289
1070
     2
1070
   288
1070
     1
1070
    77
1070
     1
1070
   172
1070
     1
1070
   174
1070
     0
1070
    74
1070
     0
1070
    73
1070
     0
1070
   284
1070
     8
1070
    78
1070
     8
1070
    42
1040
2.0
1070
    44
1040
3.0
1070
    43
1040
30.0
1070
   271
1070
     2
1070
    41
1040
4.0
1002
}
  0
DIMENSION
  5
1CD
330
1F
100
AcDbEntity
  8
8
  6
Continuous
 62
     4
370
     9
100
AcDbDimension
280
     0
  2
Dim3
 10
654.7193309645409
 20
168.2371658016395
 30
0.0
 11
666.7193309645427
 21
168.2371658016395
 31
0.0
 70
   160
  1
<>
 71
     5
 42
-1.0
 73
     0
 74
     0
 75
     0
  3
Standard
100
AcDbAlignedDimension
 13
655.7193309645427
 23
182.9195126135633
 33
0.0
 14
654.7193309645409
 24
182.9195126135633
 34
0.0
 50
179.9999999999998
100
AcDbRotatedDimension
1001
ACAD
1000
DSTYLE
1002
{
1070
   279
1070
     2
1070
   340
1005
1AF
1070
   140
1040
6.0
1070
    40
1040
1.0
1070
   147
1040
0.0
1070
    76
1070
     0
1070
    75
1070
     0
1070
   344
1005
0
1070
   343
1005
0
1070
   173
1070
     1
1070
   289
1070
     2
1070
   288
1070
     1
1070
    77
1070
     1
1070
   172
1070
     1
1070
   174
1070
     0
1070
    74
1070
     0
1070
    73
1070
     0
1070
   284
1070
     8
1070
    78
1070
     8
1070
    42
1040
2.0
1070
    44
1040
3.0
1070
    43
1040
30.0
1070
   271
1070
     2
1070
    41
1040
4.0
1002
}
  0
LINE
  5
1CE
330
1F
100
AcDbEntity
  8
9
  6
Continuous
 62
     7
370
    25
100
AcDbLine
 10
635.9693309645427
 20
428.4195126135633
 30
0.0
 11
635.9693309645427
 21
427.9195126135633
 31
0.0
  0
LINE
  5
1CF
330
1F
100
AcDbEntity
  8
9
  6
Continuous
 62
     7
370
    25
100
AcDbLine
 10
635.2193309645427
 20
428.4195126135633
 30
0.0
 11
635.2193309645427
 21
433.0195126135627
 31
0.0
  0
LINE
  5
1D0
330
1F
100
AcDbEntity
  8
9
  6
Continuous
 62
     7
370
    25
100
AcDbLine
 10
638.7193309645427
 20
428.4195126135633
 30
0.0
 11
638.7193309645427
 21
433.0195126135627
 31
0.0
  0
LINE
  5
1D1
330
1F
100
AcDbEntity
  8
9
  6
Continuous
 62
     7
370
    25
100
AcDbLine
 10
649.2193309645436
 20
428.4195126135635
 30
0.0
 11
649.2193309645427
 21
433.0195126135627
 31
0.0
  0
LINE
  5
1D2
330
1F
100
AcDbEntity
  8
9
  6
Continuous
 62
     7
370
    25
100
AcDbLine
 10
645.7193309645427
 20
429.8195126135627
 30
0.0
 11
645.7193309645427
 21
433.0195126135627
 31
0.0
  0
LINE
  5
1D3
330
1F
100
AcDbEntity
  8
9
  6
Continuous
 62
     7
370
    25
100
AcDbLine
 10
635.2193309645427
 20
433.0195126135627
 30
0.0
 11
642.2193309645427
 21
433.0195126135627
 31
0.0
  0
LINE
  5
1D4
330
1F
100
AcDbEntity
  8
9
  6
Continuous
 62
     7
370
    25
100
AcDbLine
 10
649.2193309645427
 20
433.0195126135627
 30
0.0
 11
642.2193309645427
 21
433.0195126135627
 31
0.0
  0
LINE
  5
1D5
330
1F
100
AcDbEntity
  8
9
  6
Continuous
 62
     7
370
    25
100
AcDbLine
 10
635.2193309645427
 20
428.4195126135633
 30
0.0
 11
642.435890321538
 21
428.419512613563
 31
0.0
  0
LINE
  5
1D6
330
1F
100
AcDbEntity
  8
9
  6
Continuous
 62
     7
370
    25
100
AcDbLine
 10
649.1693309645425
 20
427.9195126135626
 30
0.0
 11
642.269330964542
 21
427.9195126135626
 31
0.0
  0
LINE
  5
1D7
330
1F
100
AcDbEntity
  8
9
  6
Continuous
 62
     7
370
    25
100
AcDbLine
 10
649.1693309645425
 20
428.2361792802296
 30
0.0
 11
642.269330964542
 21
428.2361792802296
 31
0.0
  0
ARC
  5
1D8
330
1F
100
AcDbEntity
  8
9
  6
Continuous
 62
     7
370
    25
100
AcDbCircle
 10
645.7193309645427
 20
425.2691617363696
 30
0.0
 40
4.550350877192955
100
AcDbArc
 50
40.69569852540071
 51
139.3043014745993
  0
LINE
  5
1D9
330
1F
100
AcDbEntity
  8
9
  6
Continuous
 62
     7
370
    25
100
AcDbLine
 10
649.1693309645425
 20
427.9195126135626
 30
0.0
 11
649.1693309645425
 21
428.2361792802296
 31
0.0
  0
LINE
  5
1DA
330
1F
100
AcDbEntity
  8
9
  6
Continuous
 62
     7
370
    25
100
AcDbLine
 10
642.269330964542
 20
427.9195126135626
 30
0.0
 11
642.269330964542
 21
428.2361792802296
 31
0.0
  0
LINE
  5
1DB
330
1F
100
AcDbEntity
  8
9
  6
Continuous
 62
     7
370
    25
100
AcDbLine
 10
649.2193309645427
 20
428.4195126135633
 30
0.0
 11
649.0027716075474
 21
428.4195126135633
 31
0.0
  0
LINE
  5
1DC
330
1F
100
AcDbEntity
  8
9
  6
Continuous
 62
     7
370
    25
100
AcDbLine
 10
642.435890321538
 20
428.419512613563
 30
0.0
 11
642.0027716075474
 21
428.419512613563
 31
0.0
  0
CIRCLE
  5
1DD
330
1F
100
AcDbEntity
  8
9
  6
Continuous
 62
     7
370
    25
100
AcDbCircle
 10
286.2032419438601
 20
435.9195126135633
 30
0.0
 40
2.600000000000023
  0
CIRCLE
  5
1DE
330
1F
100
AcDbEntity
  8
9
  6
Continuous
 62
     7
370
    25
100
AcDbCircle
 10
326.203241943861
 20
435.9195126135633
 30
0.0
 40
2.600000000000023
  0
CIRCLE
  5
1DF
330
1F
100
AcDbEntity
  8
9
  6
Continuous
 62
     7
370
    25
100
AcDbCircle
 10
396.2032419438592
 20
435.9195126135633
 30
0.0
 40
2.600000000000023
  0
CIRCLE
  5
1E0
330
1F
100
AcDbEntity
  8
9
  6
Continuous
 62
     7
370
    25
100
AcDbCircle
 10
436.2032419438601
 20
435.9195126135633
 30
0.0
 40
2.600000000000023
  0
CIRCLE
  5
1E1
330
1F
100
AcDbEntity
  8
9
  6
Continuous
 62
     7
370
    25
100
AcDbCircle
 10
436.2032419438601
 20
189.9195126135633
 30
0.0
 40
2.600000000000023
  0
CIRCLE
  5
1E2
330
1F
100
AcDbEntity
  8
9
  6
Continuous
 62
     7
370
    25
100
AcDbCircle
 10
396.2032419438592
 20
189.9195126135633
 30
0.0
 40
2.600000000000023
  0
CIRCLE
  5
1E3
330
1F
100
AcDbEntity
  8
9
  6
Continuous
 62
     7
370
    25
100
AcDbCircle
 10
326.203241943861
 20
189.9195126135633
 30
0.0
 40
2.600000000000023
  0
CIRCLE
  5
1E4
330
1F
100
AcDbEntity
  8
9
  6
Continuous
 62
     7
370
    25
100
AcDbCircle
 10
286.2032419438601
 20
189.9195126135633
 30
0.0
 40
2.600000000000023
  0
LINE
  5
1E5
330
1F
100
AcDbEntity
  8
6
  6
Continuous
 62
     6
370
     9
100
AcDbLine
 10
51.76932755611574
 20
68.64894905801339
 30
0.0
 11
195.7693275561156
 21
68.64894905801339
 31
0.0
  0
LINE
  5
1E6
330
1F
100
AcDbEntity
  8
6
  6
Continuous
 62
     6
370
     9
100
AcDbLine
 10
51.76932755611574
 20
58.64892905801344
 30
0.0
 11
195.7693275561156
 21
58.64892905801344
 31
0.0
  0
LINE
  5
1E7
330
1F
100
AcDbEntity
  8
6
  6
Continuous
 62
     6
370
     9
100
AcDbLine
 10
51.76932755611574
 20
48.64894905801339
 30
0.0
 11
195.7693275561156
 21
48.64894905801339
 31
0.0
  0
LINE
  5
1E8
330
1F
100
AcDbEntity
  8
6
  6
Continuous
 62
     6
370
     9
100
AcDbLine
 10
51.76932755611551
 20
38.64894905801339
 30
0.0
 11
195.7693275561156
 21
38.64894905801339
 31
0.0
  0
LINE
  5
1E9
330
1F
100
AcDbEntity
  8
6
  6
Continuous
 62
     6
370
     9
100
AcDbLine
 10
51.76932755611574
 20
68.64894905801339
 30
0.0
 11
91.76934755611569
 21
58.64892905801344
 31
0.0
  0
LINE
  5
1EA
330
1F
100
AcDbEntity
  8
6
  6
Continuous
 62
     6
370
     9
100
AcDbLine
 10
51.76932755611574
 20
68.64894905801339
 30
0.0
 11
51.76932755611551
 21
38.64894905801339
 31
0.0
  0
LINE
  5
1EB
330
1F
100
AcDbEntity
  8
6
  6
Continuous
 62
     6
370
     9
100
AcDbLine
 10
91.76934755611569
 20
68.64894905801339
 30
0.0
 11
91.76934755611569
 21
38.64894905801339
 31
0.0
  0
LINE
  5
1EC
330
1F
100
AcDbEntity
  8
6
  6
Continuous
 62
     6
370
     9
100
AcDbLine
 10
139.7693275561156
 20
68.64894905801339
 30
0.0
 11
139.7693275561156
 21
38.64894905801339
 31
0.0
  0
LINE
  5
1ED
330
1F
100
AcDbEntity
  8
6
  6
Continuous
 62
     6
370
     9
100
AcDbLine
 10
139.7693275561156
 20
68.64894905801339
 30
0.0
 11
139.7693275561156
 21
38.64894905801339
 31
0.0
  0
LINE
  5
1EE
330
1F
100
AcDbEntity
  8
6
  6
Continuous
 62
     6
370
     9
100
AcDbLine
 10
195.7693275561156
 20
68.64894905801339
 30
0.0
 11
195.7693275561156
 21
38.64894905801339
 31
0.0
  0
LINE
  5
1EF
330
1F
100
AcDbEntity
  8
5
  6
Continuous
 62
     1
370
    25
100
AcDbLine
 10
144.3693175561158
 20
85.34888905801336
 30
0.0
 11
144.3693175561158
 21
87.7489090580134
 31
0.0
  0
LINE
  5
1F0
330
1F
100
AcDbEntity
  8
5
  6
Continuous
 62
     1
370
    25
100
AcDbLine
 10
161.7693095561159
 20
75.64888905801331
 30
0.0
 11
161.7693095561159
 21
92.64892905801321
 31
0.0
  0
LINE
  5
1F1
330
1F
100
AcDbEntity
  8
5
  6
Continuous
 62
     1
370
    25
100
AcDbLine
 10
160.7693055561159
 20
92.64892905801321
 30
0.0
 11
160.7693055561159
 21
75.64888905801331
 31
0.0
  0
LINE
  5
1F2
330
1F
100
AcDbEntity
  8
5
  6
Continuous
 62
     1
370
    25
100
AcDbLine
 10
159.7693275561156
 20
92.0488890580134
 30
0.0
 11
159.7693275561156
 21
76.24892905801335
 31
0.0
  0
LINE
  5
1F3
330
1F
100
AcDbEntity
  8
5
  6
Continuous
 62
     1
370
    25
100
AcDbLine
 10
148.7692915561157
 20
92.0488890580134
 30
0.0
 11
148.7692915561157
 21
76.24892905801335
 31
0.0
  0
LINE
  5
1F4
330
1F
100
AcDbEntity
  8
5
  6
Continuous
 62
     1
370
    25
100
AcDbLine
 10
143.7692995561157
 20
87.54886905801345
 30
0.0
 11
143.7692995561157
 21
80.74892905801335
 31
0.0
  0
LINE
  5
1F5
330
1F
100
AcDbEntity
  8
5
  6
Continuous
 62
     1
370
    25
100
AcDbLine
 10
155.2693135561159
 20
86.14889905801328
 30
0.0
 11
155.2693135561159
 21
82.14891905801323
 31
0.0
  0
LINE
  5
1F6
330
1F
100
AcDbEntity
  8
5
  6
Continuous
 62
     1
370
    25
100
AcDbLine
 10
157.2693195561156
 20
82.14891905801323
 30
0.0
 11
157.2693195561156
 21
86.14889905801328
 31
0.0
  0
LINE
  5
1F7
330
1F
100
AcDbEntity
  8
5
  6
Continuous
 62
     1
370
    25
100
AcDbLine
 10
149.3693075561156
 20
92.64892905801321
 30
0.0
 11
159.1693115561158
 21
92.64892905801321
 31
0.0
  0
LINE
  5
1F8
330
1F
100
AcDbEntity
  8
5
  6
Continuous
 62
     1
370
    25
100
AcDbLine
 10
148.7693155561157
 20
93.64892905801321
 30
0.0
 11
159.7693035561157
 21
93.64892905801321
 31
0.0
  0
LINE
  5
1F9
330
1F
100
AcDbEntity
  8
5
  6
Continuous
 62
     1
370
    25
100
AcDbLine
 10
159.7693275561156
 20
94.64888905801331
 30
0.0
 11
148.7692915561157
 21
94.64888905801331
 31
0.0
  0
LINE
  5
1FA
330
1F
100
AcDbEntity
  8
5
  6
Continuous
 62
     1
370
    25
100
AcDbLine
 10
153.2693315561156
 20
90.64881905801349
 30
0.0
 11
151.2693115561157
 21
90.64881905801349
 31
0.0
  0
LINE
  5
1FB
330
1F
100
AcDbEntity
  8
5
  6
Continuous
 62
     1
370
    25
100
AcDbLine
 10
151.2693115561157
 20
87.64879905801354
 30
0.0
 11
153.2693315561156
 21
87.64879905801354
 31
0.0
  0
LINE
  5
1FC
330
1F
100
AcDbEntity
  8
5
  6
Continuous
 62
     1
370
    25
100
AcDbLine
 10
157.2693195561156
 20
86.14889905801328
 30
0.0
 11
155.2693135561159
 21
86.14889905801328
 31
0.0
  0
ARC
  5
1FD
330
1F
100
AcDbEntity
  8
5
  6
Continuous
 62
     1
370
    25
100
AcDbCircle
 10
159.7693275561156
 20
92.64892905801321
 30
0.0
 40
2.0
100
AcDbArc
 50
0.0
 51
89.99999999999991
  0
ARC
  5
1FE
330
1F
100
AcDbEntity
  8
5
  6
Continuous
 62
     1
370
    25
100
AcDbCircle
 10
159.1693115561158
 20
92.0488890580134
 30
0.0
 40
0.5999999999999943
100
AcDbArc
 50
0.0
 51
89.99999999999991
  0
ARC
  5
1FF
330
1F
100
AcDbEntity
  8
5
  6
Continuous
 62
     1
370
    25
100
AcDbCircle
 10
159.7693035561157
 20
92.64892905801321
 30
0.0
 40
1.0
100
AcDbArc
 50
0.0
 51
89.99999999999991
  0
LINE
  5
200
330
1F
100
AcDbEntity
  8
5
  6
Continuous
 62
     1
370
    25
100
AcDbLine
 10
157.2693195561156
 20
91.14879905801354
 30
0.0
 11
155.2693135561159
 21
91.14879905801354
 31
0.0
  0
LINE
  5
201
330
1F
100
AcDbEntity
  8
5
  6
Continuous
 62
     1
370
    25
100
AcDbLine
 10
153.2693315561156
 20
87.64879905801354
 30
0.0
 11
153.2693315561156
 21
90.64881905801349
 31
0.0
  0
LINE
  5
202
330
1F
100
AcDbEntity
  8
5
  6
Continuous
 62
     1
370
    25
100
AcDbLine
 10
155.2693135561159
 20
91.14879905801354
 30
0.0
 11
155.2693135561159
 21
87.14881905801349
 31
0.0
  0
LINE
  5
203
330
1F
100
AcDbEntity
  8
5
  6
Continuous
 62
     1
370
    25
100
AcDbLine
 10
157.2693195561156
 20
87.14881905801349
 30
0.0
 11
157.2693195561156
 21
91.14879905801354
 31
0.0
  0
LINE
  5
204
330
1F
100
AcDbEntity
  8
5
  6
Continuous
 62
     1
370
    25
100
AcDbLine
 10
155.2693135561159
 20
87.14881905801349
 30
0.0
 11
157.2693195561156
 21
87.14881905801349
 31
0.0
  0
LINE
  5
205
330
1F
100
AcDbEntity
  8
5
  6
Continuous
 62
     1
370
    25
100
AcDbLine
 10
145.7693055561159
 20
86.14890905801326
 30
0.0
 11
145.7693055561159
 21
88.14892905801321
 31
0.0
  0
ARC
  5
206
330
1F
100
AcDbEntity
  8
5
  6
Continuous
 62
     1
370
    25
100
AcDbCircle
 10
144.3693175561158
 20
87.54886905801345
 30
0.0
 40
0.5999999999999943
100
AcDbArc
 50
89.99999999999991
 51
179.9999999999998
  0
LINE
  5
207
330
1F
100
AcDbEntity
  8
5
  6
Continuous
 62
     1
370
    25
100
AcDbLine
 10
144.7693035561157
 20
87.7489090580134
 30
0.0
 11
144.7693035561157
 21
88.14892905801321
 31
0.0
  0
LINE
  5
208
330
1F
100
AcDbEntity
  8
5
  6
Continuous
 62
     1
370
    25
100
AcDbLine
 10
144.3693175561158
 20
87.7489090580134
 30
0.0
 11
144.7693035561157
 21
87.7489090580134
 31
0.0
  0
LINE
  5
209
330
1F
100
AcDbEntity
  8
5
  6
Continuous
 62
     1
370
    25
100
AcDbLine
 10
145.7693055561159
 20
86.14890905801326
 30
0.0
 11
148.7692915561157
 21
86.14890905801326
 31
0.0
  0
LINE
  5
20A
330
1F
100
AcDbEntity
  8
5
  6
Continuous
 62
     1
370
    25
100
AcDbLine
 10
144.3693175561158
 20
88.14892905801321
 30
0.0
 11
148.7692915561157
 21
88.14892905801321
 31
0.0
  0
ARC
  5
20B
330
1F
100
AcDbEntity
  8
5
  6
Continuous
 62
     1
370
    25
100
AcDbCircle
 10
149.3693075561156
 20
92.0488890580134
 30
0.0
 40
0.5999999999999943
100
AcDbArc
 50
89.99999999999991
 51
179.9999999999998
  0
ARC
  5
20C
330
1F
100
AcDbEntity
  8
5
  6
Continuous
 62
     1
370
    25
100
AcDbCircle
 10
148.7693155561157
 20
92.64892905801321
 30
0.0
 40
1.0
100
AcDbArc
 50
89.99999999999991
 51
179.9999999999998
  0
ARC
  5
20D
330
1F
100
AcDbEntity
  8
5
  6
Continuous
 62
     1
370
    25
100
AcDbCircle
 10
148.7692915561157
 20
92.64892905801321
 30
0.0
 40
2.0
100
AcDbArc
 50
89.99999999999991
 51
179.9999999999998
  0
LINE
  5
20E
330
1F
100
AcDbEntity
  8
5
  6
Continuous
 62
     1
370
    25
100
AcDbLine
 10
151.2693115561157
 20
90.14879905801354
 30
0.0
 11
150.2693215561159
 21
90.14879905801354
 31
0.0
  0
LINE
  5
20F
330
1F
100
AcDbEntity
  8
5
  6
Continuous
 62
     1
370
    25
100
AcDbLine
 10
151.2693115561157
 20
90.64881905801349
 30
0.0
 11
151.2693115561157
 21
90.14879905801354
 31
0.0
  0
LINE
  5
210
330
1F
100
AcDbEntity
  8
5
  6
Continuous
 62
     1
370
    25
100
AcDbLine
 10
150.2693215561159
 20
90.14879905801354
 30
0.0
 11
150.2693215561159
 21
88.14883905801344
 31
0.0
  0
LINE
  5
211
330
1F
100
AcDbEntity
  8
5
  6
Continuous
 62
     1
370
    25
100
AcDbLine
 10
151.2693115561157
 20
88.14883905801344
 30
0.0
 11
151.2693115561157
 21
87.64879905801354
 31
0.0
  0
LINE
  5
212
330
1F
100
AcDbEntity
  8
5
  6
Continuous
 62
     1
370
    25
100
AcDbLine
 10
150.2693215561159
 20
88.14883905801344
 30
0.0
 11
151.2693115561157
 21
88.14883905801344
 31
0.0
  0
LINE
  5
213
330
1F
100
AcDbEntity
  8
5
  6
Continuous
 62
     1
370
    25
100
AcDbLine
 10
147.7693135561159
 20
92.64892905801321
 30
0.0
 11
147.7693135561159
 21
88.14892905801321
 31
0.0
  0
LINE
  5
214
330
1F
100
AcDbEntity
  8
5
  6
Continuous
 62
     1
370
    25
100
AcDbLine
 10
146.7693095561159
 20
92.64892905801321
 30
0.0
 11
146.7693095561159
 21
88.14892905801321
 31
0.0
  0
LINE
  5
215
330
1F
100
AcDbEntity
  8
5
  6
Continuous
 62
     1
370
    25
100
AcDbLine
 10
159.1693115561158
 20
75.64888905801331
 30
0.0
 11
149.3693075561156
 21
75.64888905801331
 31
0.0
  0
LINE
  5
216
330
1F
100
AcDbEntity
  8
5
  6
Continuous
 62
     1
370
    25
100
AcDbLine
 10
159.7693035561157
 20
74.64888905801331
 30
0.0
 11
148.7693155561157
 21
74.64888905801331
 31
0.0
  0
LINE
  5
217
330
1F
100
AcDbEntity
  8
5
  6
Continuous
 62
     1
370
    25
100
AcDbLine
 10
159.7693275561156
 20
73.64892905801321
 30
0.0
 11
148.7692915561157
 21
73.64892905801321
 31
0.0
  0
LINE
  5
218
330
1F
100
AcDbEntity
  8
5
  6
Continuous
 62
     1
370
    25
100
AcDbLine
 10
151.2693115561157
 20
77.64899905801303
 30
0.0
 11
153.2693315561156
 21
77.64899905801303
 31
0.0
  0
LINE
  5
219
330
1F
100
AcDbEntity
  8
5
  6
Continuous
 62
     1
370
    25
100
AcDbLine
 10
153.2693315561156
 20
80.64901905801298
 30
0.0
 11
151.2693115561157
 21
80.64901905801298
 31
0.0
  0
LINE
  5
21A
330
1F
100
AcDbEntity
  8
5
  6
Continuous
 62
     1
370
    25
100
AcDbLine
 10
151.2693115561157
 20
82.64889905801328
 30
0.0
 11
153.2693315561156
 21
82.64889905801328
 31
0.0
  0
LINE
  5
21B
330
1F
100
AcDbEntity
  8
5
  6
Continuous
 62
     1
370
    25
100
AcDbLine
 10
153.2693315561156
 20
85.64891905801323
 30
0.0
 11
151.2693115561157
 21
85.64891905801323
 31
0.0
  0
ARC
  5
21C
330
1F
100
AcDbEntity
  8
5
  6
Continuous
 62
     1
370
    25
100
AcDbCircle
 10
159.7693275561156
 20
75.64888905801331
 30
0.0
 40
2.0
100
AcDbArc
 50
269.9999999999998
 51
0.0
  0
ARC
  5
21D
330
1F
100
AcDbEntity
  8
5
  6
Continuous
 62
     1
370
    25
100
AcDbCircle
 10
159.1693115561158
 20
76.24892905801335
 30
0.0
 40
0.5999999999999943
100
AcDbArc
 50
269.9999999999998
 51
0.0
  0
ARC
  5
21E
330
1F
100
AcDbEntity
  8
5
  6
Continuous
 62
     1
370
    25
100
AcDbCircle
 10
159.7693035561157
 20
75.64888905801331
 30
0.0
 40
1.0
100
AcDbArc
 50
269.9999999999998
 51
0.0
  0
LINE
  5
21F
330
1F
100
AcDbEntity
  8
5
  6
Continuous
 62
     1
370
    25
100
AcDbLine
 10
155.2693135561159
 20
77.14901905801298
 30
0.0
 11
157.2693195561156
 21
77.14901905801298
 31
0.0
  0
LINE
  5
220
330
1F
100
AcDbEntity
  8
5
  6
Continuous
 62
     1
370
    25
100
AcDbLine
 10
157.2693195561156
 20
77.14901905801298
 30
0.0
 11
157.2693195561156
 21
81.14899905801303
 31
0.0
  0
LINE
  5
221
330
1F
100
AcDbEntity
  8
5
  6
Continuous
 62
     1
370
    25
100
AcDbLine
 10
155.2693135561159
 20
81.14899905801303
 30
0.0
 11
155.2693135561159
 21
77.14901905801298
 31
0.0
  0
LINE
  5
222
330
1F
100
AcDbEntity
  8
5
  6
Continuous
 62
     1
370
    25
100
AcDbLine
 10
153.2693315561156
 20
77.64899905801303
 30
0.0
 11
153.2693315561156
 21
80.64901905801298
 31
0.0
  0
LINE
  5
223
330
1F
100
AcDbEntity
  8
5
  6
Continuous
 62
     1
370
    25
100
AcDbLine
 10
157.2693195561156
 20
81.14899905801303
 30
0.0
 11
155.2693135561159
 21
81.14899905801303
 31
0.0
  0
LINE
  5
224
330
1F
100
AcDbEntity
  8
5
  6
Continuous
 62
     1
370
    25
100
AcDbLine
 10
155.2693135561159
 20
82.14891905801323
 30
0.0
 11
157.2693195561156
 21
82.14891905801323
 31
0.0
  0
LINE
  5
225
330
1F
100
AcDbEntity
  8
5
  6
Continuous
 62
     1
370
    25
100
AcDbLine
 10
153.2693315561156
 20
82.64889905801328
 30
0.0
 11
153.2693315561156
 21
85.64891905801323
 31
0.0
  0
ARC
  5
226
330
1F
100
AcDbEntity
  8
5
  6
Continuous
 62
     1
370
    25
100
AcDbCircle
 10
149.3693075561156
 20
76.24892905801335
 30
0.0
 40
0.5999999999999943
100
AcDbArc
 50
179.9999999999998
 51
269.9999999999998
  0
ARC
  5
227
330
1F
100
AcDbEntity
  8
5
  6
Continuous
 62
     1
370
    25
100
AcDbCircle
 10
148.7693155561157
 20
75.64888905801331
 30
0.0
 40
1.0
100
AcDbArc
 50
179.9999999999998
 51
269.9999999999998
  0
ARC
  5
228
330
1F
100
AcDbEntity
  8
5
  6
Continuous
 62
     1
370
    25
100
AcDbCircle
 10
148.7692915561157
 20
75.64888905801331
 30
0.0
 40
2.0
100
AcDbArc
 50
179.9999999999998
 51
269.9999999999998
  0
LINE
  5
229
330
1F
100
AcDbEntity
  8
5
  6
Continuous
 62
     1
370
    25
100
AcDbLine
 10
150.2693215561159
 20
78.14903905801293
 30
0.0
 11
151.2693115561157
 21
78.14903905801293
 31
0.0
  0
LINE
  5
22A
330
1F
100
AcDbEntity
  8
5
  6
Continuous
 62
     1
370
    25
100
AcDbLine
 10
151.2693115561157
 20
78.14903905801293
 30
0.0
 11
151.2693115561157
 21
77.64899905801303
 31
0.0
  0
LINE
  5
22B
330
1F
100
AcDbEntity
  8
5
  6
Continuous
 62
     1
370
    25
100
AcDbLine
 10
150.2693215561159
 20
80.14899905801303
 30
0.0
 11
150.2693215561159
 21
78.14903905801293
 31
0.0
  0
LINE
  5
22C
330
1F
100
AcDbEntity
  8
5
  6
Continuous
 62
     1
370
    25
100
AcDbLine
 10
151.2693115561157
 20
80.64901905801298
 30
0.0
 11
151.2693115561157
 21
80.14899905801303
 31
0.0
  0
LINE
  5
22D
330
1F
100
AcDbEntity
  8
5
  6
Continuous
 62
     1
370
    25
100
AcDbLine
 10
151.2693115561157
 20
80.14899905801303
 30
0.0
 11
150.2693215561159
 21
80.14899905801303
 31
0.0
  0
LINE
  5
22E
330
1F
100
AcDbEntity
  8
5
  6
Continuous
 62
     1
370
    25
100
AcDbLine
 10
144.3693175561158
 20
80.54890905801335
 30
0.0
 11
144.3693175561158
 21
82.94892905801339
 31
0.0
  0
LINE
  5
22F
330
1F
100
AcDbEntity
  8
5
  6
Continuous
 62
     1
370
    25
100
AcDbLine
 10
145.7693055561159
 20
80.14888905801331
 30
0.0
 11
145.7693055561159
 21
82.14890905801326
 31
0.0
  0
LINE
  5
230
330
1F
100
AcDbEntity
  8
5
  6
Continuous
 62
     1
370
    25
100
AcDbLine
 10
144.7693035561157
 20
82.94892905801339
 30
0.0
 11
144.3693175561158
 21
82.94892905801339
 31
0.0
  0
LINE
  5
231
330
1F
100
AcDbEntity
  8
5
  6
Continuous
 62
     1
370
    25
100
AcDbLine
 10
148.7692915561157
 20
82.14890905801326
 30
0.0
 11
145.7693055561159
 21
82.14890905801326
 31
0.0
  0
ARC
  5
232
330
1F
100
AcDbEntity
  8
5
  6
Continuous
 62
     1
370
    25
100
AcDbCircle
 10
144.3693175561158
 20
80.74892905801335
 30
0.0
 40
0.5999999999999943
100
AcDbArc
 50
179.9999999999998
 51
269.9999999999998
  0
LINE
  5
233
330
1F
100
AcDbEntity
  8
5
  6
Continuous
 62
     1
370
    25
100
AcDbLine
 10
144.7693035561157
 20
80.14888905801331
 30
0.0
 11
144.7693035561157
 21
80.54890905801335
 31
0.0
  0
LINE
  5
234
330
1F
100
AcDbEntity
  8
5
  6
Continuous
 62
     1
370
    25
100
AcDbLine
 10
144.7693035561157
 20
80.54890905801335
 30
0.0
 11
144.3693175561158
 21
80.54890905801335
 31
0.0
  0
LINE
  5
235
330
1F
100
AcDbEntity
  8
5
  6
Continuous
 62
     1
370
    25
100
AcDbLine
 10
144.3693175561158
 20
80.14888905801331
 30
0.0
 11
148.7692915561157
 21
80.14888905801331
 31
0.0
  0
LINE
  5
236
330
1F
100
AcDbEntity
  8
5
  6
Continuous
 62
     1
370
    25
100
AcDbLine
 10
150.2693215561159
 20
83.14893905801318
 30
0.0
 11
151.2693115561157
 21
83.14893905801318
 31
0.0
  0
LINE
  5
237
330
1F
100
AcDbEntity
  8
5
  6
Continuous
 62
     1
370
    25
100
AcDbLine
 10
151.2693115561157
 20
83.14893905801318
 30
0.0
 11
151.2693115561157
 21
82.64889905801328
 31
0.0
  0
LINE
  5
238
330
1F
100
AcDbEntity
  8
5
  6
Continuous
 62
     1
370
    25
100
AcDbLine
 10
147.7693135561159
 20
75.64888905801331
 30
0.0
 11
147.7693135561159
 21
80.14888905801331
 31
0.0
  0
LINE
  5
239
330
1F
100
AcDbEntity
  8
5
  6
Continuous
 62
     1
370
    25
100
AcDbLine
 10
146.7693095561159
 20
75.64888905801331
 30
0.0
 11
146.7693095561159
 21
80.14888905801331
 31
0.0
  0
LINE
  5
23A
330
1F
100
AcDbEntity
  8
5
  6
Continuous
 62
     1
370
    25
100
AcDbLine
 10
144.7693035561157
 20
85.34888905801336
 30
0.0
 11
144.3693175561158
 21
85.34888905801336
 31
0.0
  0
LINE
  5
23B
330
1F
100
AcDbEntity
  8
5
  6
Continuous
 62
     1
370
    25
100
AcDbLine
 10
151.2693115561157
 20
85.64891905801323
 30
0.0
 11
151.2693115561157
 21
85.14889905801328
 31
0.0
  0
LINE
  5
23C
330
1F
100
AcDbEntity
  8
5
  6
Continuous
 62
     1
370
    25
100
AcDbLine
 10
151.2693115561157
 20
85.14889905801328
 30
0.0
 11
150.2693215561159
 21
85.14889905801328
 31
0.0
  0
LINE
  5
23D
330
1F
100
AcDbEntity
  8
5
  6
Continuous
 62
     1
370
    25
100
AcDbLine
 10
144.7693035561157
 20
82.94892905801339
 30
0.0
 11
144.7693035561157
 21
85.34888905801336
 31
0.0
  0
LINE
  5
23E
330
1F
100
AcDbEntity
  8
5
  6
Continuous
 62
     1
370
    25
100
AcDbLine
 10
150.2693215561159
 20
85.14889905801328
 30
0.0
 11
150.2693215561159
 21
83.14893905801318
 31
0.0
  0
LINE
  5
23F
330
1F
100
AcDbEntity
  8
5
  6
Continuous
 62
     1
370
    25
100
AcDbLine
 10
381.4697594429151
 20
503.7739863979198
 30
0.0
 11
381.4697594429149
 21
495.9392329215632
 31
0.0
  0
LINE
  5
240
330
1F
100
AcDbEntity
  8
5
  6
Continuous
 62
     1
370
    25
100
AcDbLine
 10
383.9697794429153
 20
512.7739633979197
 30
0.0
 11
383.9697794429153
 21
499.7739543979196
 31
0.0
  0
LINE
  5
241
330
1F
100
AcDbEntity
  8
5
  6
Continuous
 62
     1
370
    25
100
AcDbLine
 10
385.5697794429152
 20
509.7739593979197
 30
0.0
 11
385.5697794429152
 21
500.7739583979196
 31
0.0
  0
LINE
  5
242
330
1F
100
AcDbEntity
  8
5
  6
Continuous
 62
     1
370
    25
100
AcDbLine
 10
387.1697694429154
 20
509.7739593979197
 30
0.0
 11
387.1697694429154
 21
500.7739583979196
 31
0.0
  0
LINE
  5
243
330
1F
100
AcDbEntity
  8
5
  6
Continuous
 62
     1
370
    25
100
AcDbLine
 10
386.3697994429153
 20
509.7739593979197
 30
0.0
 11
386.3697994429153
 21
500.7739583979196
 31
0.0
  0
LINE
  5
244
330
1F
100
AcDbEntity
  8
5
  6
Continuous
 62
     1
370
    25
100
AcDbLine
 10
384.7697994429154
 20
509.7739593979197
 30
0.0
 11
384.7697994429154
 21
500.7739583979196
 31
0.0
  0
LINE
  5
245
330
1F
100
AcDbEntity
  8
5
  6
Continuous
 62
     1
370
    25
100
AcDbLine
 10
390.4698194429157
 20
503.7739863979198
 30
0.0
 11
390.4698194429157
 21
495.9392329215632
 31
0.0
  0
LINE
  5
246
330
1F
100
AcDbEntity
  8
5
  6
Continuous
 62
     1
370
    25
100
AcDbLine
 10
387.9697894429155
 20
512.7739633979197
 30
0.0
 11
387.9697894429155
 21
499.7739543979196
 31
0.0
  0
LINE
  5
247
330
1F
100
AcDbEntity
  8
5
  6
Continuous
 62
     1
370
    25
100
AcDbLine
 10
382.4795296536608
 20
493.118462842858
 30
0.0
 11
382.4795296536613
 21
486.8214341104135
 31
0.0
  0
LINE
  5
248
330
1F
100
AcDbEntity
  8
5
  6
Continuous
 62
     1
370
    25
100
AcDbLine
 10
389.4600492321679
 20
493.118462842858
 30
0.0
 11
389.4600492321679
 21
486.8214341104135
 31
0.0
  0
LINE
  5
249
330
1F
100
AcDbEntity
  8
5
  6
Continuous
 62
     1
370
    25
100
AcDbLine
 10
389.4600492321679
 20
486.8214341104135
 30
0.0
 11
382.4795296536613
 21
486.8214341104135
 31
0.0
  0
ARC
  5
24A
330
1F
100
AcDbEntity
  8
5
  6
Continuous
 62
     1
370
    25
100
AcDbCircle
 10
383.4697594429149
 20
495.9392329215636
 30
0.0
 40
2.0
100
AcDbArc
 50
180.0000000000127
 51
210.0000000000147
  0
ARC
  5
24B
330
1F
100
AcDbEntity
  8
5
  6
Continuous
 62
     1
370
    25
100
AcDbCircle
 10
380.4795296536618
 20
493.118462842858
 30
0.0
 40
2.0
100
AcDbArc
 50
0.0
 51
30.00000000001508
  0
LINE
  5
24C
330
1F
100
AcDbEntity
  8
5
  6
Continuous
 62
     1
370
    25
100
AcDbLine
 10
381.737708635347
 20
494.9392329215636
 30
0.0
 11
382.2115804612301
 21
494.1184628428584
 31
0.0
  0
ARC
  5
24D
330
1F
100
AcDbEntity
  8
5
  6
Continuous
 62
     1
370
    25
100
AcDbCircle
 10
388.4698194429157
 20
495.9392329215636
 30
0.0
 40
2.0
100
AcDbArc
 50
329.9999999999845
 51
359.9999999999866
  0
ARC
  5
24E
330
1F
100
AcDbEntity
  8
5
  6
Continuous
 62
     1
370
    25
100
AcDbCircle
 10
391.4600492321688
 20
493.118462842858
 30
0.0
 40
2.0
100
AcDbArc
 50
149.9999999999849
 51
179.9999999999998
  0
LINE
  5
24F
330
1F
100
AcDbEntity
  8
5
  6
Continuous
 62
     1
370
    25
100
AcDbLine
 10
390.2018702504838
 20
494.9392329215636
 30
0.0
 11
389.7279984246006
 21
494.1184628428584
 31
0.0
  0
LINE
  5
250
330
1F
100
AcDbEntity
  8
5
  6
Continuous
 62
     1
370
    25
100
AcDbLine
 10
387.9697894429155
 20
499.7739543979196
 30
0.0
 11
383.9697794429153
 21
499.7739543979196
 31
0.0
  0
LINE
  5
251
330
1F
100
AcDbEntity
  8
5
  6
Continuous
 62
     1
370
    25
100
AcDbLine
 10
387.9697894429155
 20
500.7739583979196
 30
0.0
 11
383.9697794429153
 21
500.7739583979196
 31
0.0
  0
LINE
  5
252
330
1F
100
AcDbEntity
  8
5
  6
Continuous
 62
     1
370
    25
100
AcDbLine
 10
385.9697894429155
 20
512.7739633979197
 30
0.0
 11
380.7197794429153
 21
512.7739633979197
 31
0.0
  0
ARC
  5
253
330
1F
100
AcDbEntity
  8
5
  6
Continuous
 62
     1
370
    25
100
AcDbCircle
 10
381.7197794429153
 20
505.7739623979196
 30
0.0
 40
1.0
100
AcDbArc
 50
179.9999999999998
 51
269.9999999999998
  0
LINE
  5
254
330
1F
100
AcDbEntity
  8
5
  6
Continuous
 62
     1
370
    25
100
AcDbLine
 10
381.9697694429155
 20
503.7739863979198
 30
0.0
 11
381.9697694429155
 21
504.7739583979196
 31
0.0
  0
LINE
  5
255
330
1F
100
AcDbEntity
  8
5
  6
Continuous
 62
     1
370
    25
100
AcDbLine
 10
381.4697594429151
 20
503.7739863979198
 30
0.0
 11
383.9697794429153
 21
503.7739863979198
 31
0.0
  0
LINE
  5
256
330
1F
100
AcDbEntity
  8
5
  6
Continuous
 62
     1
370
    25
100
AcDbLine
 10
381.7197794429153
 20
504.7739583979196
 30
0.0
 11
383.9697794429153
 21
504.7739583979196
 31
0.0
  0
LINE
  5
257
330
1F
100
AcDbEntity
  8
5
  6
Continuous
 62
     1
370
    25
100
AcDbLine
 10
381.9697694429155
 20
504.7739583979196
 30
0.0
 11
383.9697794429153
 21
504.7739583979196
 31
0.0
  0
LINE
  5
258
330
1F
100
AcDbEntity
  8
5
  6
Continuous
 62
     1
370
    25
100
AcDbLine
 10
391.2197994429152
 20
505.7739623979196
 30
0.0
 11
391.2197994429152
 21
512.7739633979197
 31
0.0
  0
LINE
  5
259
330
1F
100
AcDbEntity
  8
5
  6
Continuous
 62
     1
370
    25
100
AcDbLine
 10
389.9698094429154
 20
504.7739583979196
 30
0.0
 11
389.9698094429154
 21
503.7739863979198
 31
0.0
  0
LINE
  5
25A
330
1F
100
AcDbEntity
  8
5
  6
Continuous
 62
     1
370
    25
100
AcDbLine
 10
390.4698194429157
 20
503.7739863979198
 30
0.0
 11
387.9697994429157
 21
503.7739863979198
 31
0.0
  0
LINE
  5
25B
330
1F
100
AcDbEntity
  8
5
  6
Continuous
 62
     1
370
    25
100
AcDbLine
 10
390.2197994429152
 20
504.7739583979196
 30
0.0
 11
387.9697894429155
 21
504.7739583979196
 31
0.0
  0
LINE
  5
25C
330
1F
100
AcDbEntity
  8
5
  6
Continuous
 62
     1
370
    25
100
AcDbLine
 10
387.9697894429155
 20
504.7739583979196
 30
0.0
 11
389.9698094429154
 21
504.7739583979196
 31
0.0
  0
ARC
  5
25D
330
1F
100
AcDbEntity
  8
5
  6
Continuous
 62
     1
370
    25
100
AcDbCircle
 10
390.2197994429152
 20
505.7739623979196
 30
0.0
 40
1.0
100
AcDbArc
 50
269.9999999999998
 51
0.0
  0
LINE
  5
25E
330
1F
100
AcDbEntity
  8
5
  6
Continuous
 62
     1
370
    25
100
AcDbLine
 10
383.9697794429153
 20
509.7739593979197
 30
0.0
 11
387.9697894429155
 21
509.7739593979197
 31
0.0
  0
LINE
  5
25F
330
1F
100
AcDbEntity
  8
5
  6
Continuous
 62
     1
370
    25
100
AcDbLine
 10
385.9697894429155
 20
512.7739633979197
 30
0.0
 11
391.2197994429152
 21
512.7739633979197
 31
0.0
  0
LINE
  5
260
330
1F
100
AcDbEntity
  8
5
  6
Continuous
 62
     1
370
    25
100
AcDbLine
 10
383.9697794429153
 20
511.7739543979196
 30
0.0
 11
387.9697894429155
 21
511.7739543979196
 31
0.0
  0
LINE
  5
261
330
1F
100
AcDbEntity
  8
5
  6
Continuous
 62
     1
370
    25
100
AcDbLine
 10
380.7197794429153
 20
505.7739623979196
 30
0.0
 11
380.7197794429153
 21
512.7739633979197
 31
0.0
  0
LINE
  5
262
330
1F
100
AcDbEntity
  8
4
  6
DASHDOT
 62
     1
370
     9
100
AcDbLine
 10
278.6032419438602
 20
435.9195126135633
 30
0.0
 11
293.80324194386
 21
435.9195126135633
 31
0.0
  0
LINE
  5
263
330
1F
100
AcDbEntity
  8
4
  6
DASHDOT
 62
     1
370
     9
100
AcDbLine
 10
286.2032419438601
 20
428.3195126135633
 30
0.0
 11
286.2032419438601
 21
443.5195126135632
 31
0.0
  0
LINE
  5
264
330
1F
100
AcDbEntity
  8
4
  6
DASHDOT
 62
     1
370
     9
100
AcDbLine
 10
318.6032419438611
 20
435.9195126135633
 30
0.0
 11
333.8032419438609
 21
435.9195126135633
 31
0.0
  0
LINE
  5
265
330
1F
100
AcDbEntity
  8
4
  6
DASHDOT
 62
     1
370
     9
100
AcDbLine
 10
326.203241943861
 20
428.3195126135633
 30
0.0
 11
326.203241943861
 21
443.5195126135632
 31
0.0
  0
LINE
  5
266
330
1F
100
AcDbEntity
  8
4
  6
DASHDOT
 62
     1
370
     9
100
AcDbLine
 10
388.6032419438593
 20
435.9195126135633
 30
0.0
 11
403.8032419438591
 21
435.9195126135633
 31
0.0
  0
LINE
  5
267
330
1F
100
AcDbEntity
  8
4
  6
DASHDOT
 62
     1
370
     9
100
AcDbLine
 10
396.2032419438592
 20
428.3195126135633
 30
0.0
 11
396.2032419438592
 21
443.5195126135632
 31
0.0
  0
LINE
  5
268
330
1F
100
AcDbEntity
  8
4
  6
DASHDOT
 62
     1
370
     9
100
AcDbLine
 10
428.6032419438602
 20
435.9195126135633
 30
0.0
 11
443.80324194386
 21
435.9195126135633
 31
0.0
  0
LINE
  5
269
330
1F
100
AcDbEntity
  8
4
  6
DASHDOT
 62
     1
370
     9
100
AcDbLine
 10
436.2032419438601
 20
428.3195126135633
 30
0.0
 11
436.2032419438601
 21
443.5195126135632
 31
0.0
  0
LINE
  5
26A
330
1F
100
AcDbEntity
  8
4
  6
DASHDOT
 62
     1
370
     9
100
AcDbLine
 10
278.6032419438602
 20
189.9195126135633
 30
0.0
 11
293.80324194386
 21
189.9195126135633
 31
0.0
  0
LINE
  5
26B
330
1F
100
AcDbEntity
  8
4
  6
DASHDOT
 62
     1
370
     9
100
AcDbLine
 10
286.2032419438601
 20
182.3195126135633
 30
0.0
 11
286.2032419438601
 21
197.5195126135632
 31
0.0
  0
LINE
  5
26C
330
1F
100
AcDbEntity
  8
4
  6
DASHDOT
 62
     1
370
     9
100
AcDbLine
 10
318.6032419438611
 20
189.9195126135633
 30
0.0
 11
333.8032419438609
 21
189.9195126135633
 31
0.0
  0
LINE
  5
26D
330
1F
100
AcDbEntity
  8
4
  6
DASHDOT
 62
     1
370
     9
100
AcDbLine
 10
326.203241943861
 20
182.3195126135633
 30
0.0
 11
326.203241943861
 21
197.5195126135632
 31
0.0
  0
LINE
  5
26E
330
1F
100
AcDbEntity
  8
4
  6
DASHDOT
 62
     1
370
     9
100
AcDbLine
 10
388.6032419438593
 20
189.9195126135633
 30
0.0
 11
403.8032419438591
 21
189.9195126135633
 31
0.0
  0
LINE
  5
26F
330
1F
100
AcDbEntity
  8
4
  6
DASHDOT
 62
     1
370
     9
100
AcDbLine
 10
396.2032419438592
 20
182.3195126135633
 30
0.0
 11
396.2032419438592
 21
197.5195126135632
 31
0.0
  0
LINE
  5
270
330
1F
100
AcDbEntity
  8
4
  6
DASHDOT
 62
     1
370
     9
100
AcDbLine
 10
428.6032419438602
 20
189.9195126135633
 30
0.0
 11
443.80324194386
 21
189.9195126135633
 31
0.0
  0
LINE
  5
271
330
1F
100
AcDbEntity
  8
4
  6
DASHDOT
 62
     1
370
     9
100
AcDbLine
 10
436.2032419438601
 20
182.3195126135633
 30
0.0
 11
436.2032419438601
 21
197.5195126135632
 31
0.0
  0
LINE
  5
272
330
1F
100
AcDbEntity
  8
5
  6
Continuous
 62
     1
370
    25
100
AcDbLine
 10
137.7693275561156
 20
88.14888905921292
 30
0.0
 11
111.7693095483158
 21
88.14888905921292
 31
0.0
  0
LINE
  5
273
330
1F
100
AcDbEntity
  8
5
  6
Continuous
 62
     1
370
    25
100
AcDbLine
 10
131.7693195543155
 20
84.94888905825292
 30
0.0
 11
113.7693175489147
 21
84.94888905825292
 31
0.0
  0
LINE
  5
274
330
1F
100
AcDbEntity
  8
5
  6
Continuous
 62
     1
370
    25
100
AcDbLine
 10
131.7693195543155
 20
81.74890905729252
 30
0.0
 11
113.7693175489147
 21
81.74890905729252
 31
0.0
  0
LINE
  5
275
330
1F
100
AcDbEntity
  8
5
  6
Continuous
 62
     1
370
    25
100
AcDbLine
 10
131.7693195543155
 20
83.34884905777282
 30
0.0
 11
113.7693175489147
 21
83.34884905777282
 31
0.0
  0
LINE
  5
276
330
1F
100
AcDbEntity
  8
5
  6
Continuous
 62
     1
370
    25
100
AcDbLine
 10
131.7693195543155
 20
86.5488490587335
 30
0.0
 11
113.7693175489147
 21
86.5488490587335
 31
0.0
  0
LINE
  5
277
330
1F
100
AcDbEntity
  8
5
  6
Continuous
 62
     1
370
    25
100
AcDbLine
 10
137.7693275561156
 20
80.14886905681342
 30
0.0
 11
111.7693095483158
 21
80.14886905681342
 31
0.0
  0
LINE
  5
278
330
1F
100
AcDbEntity
  8
5
  6
Continuous
 62
     1
370
    25
100
AcDbLine
 10
85.86438388862996
 20
87.24888850069362
 30
0.0
 11
51.76932755611574
 21
87.24888850069362
 31
0.0
  0
LINE
  5
279
330
1F
100
AcDbEntity
  8
5
  6
Continuous
 62
     1
370
    25
100
AcDbLine
 10
85.86426896553087
 20
81.0488885085871
 30
0.0
 11
51.76932755611574
 21
81.04888826009065
 31
0.0
  0
LINE
  5
27A
330
1F
100
AcDbEntity
  8
5
  6
Continuous
 62
     1
370
    25
100
AcDbLine
 10
85.86426896553155
 20
78.54886905633488
 30
0.0
 11
85.86426896553155
 21
89.74886905969444
 31
0.0
  0
LINE
  5
27B
330
1F
100
AcDbEntity
  8
5
  6
Continuous
 62
     1
370
    25
100
AcDbLine
 10
111.7693095483158
 20
80.14886905681342
 30
0.0
 11
111.7693095483158
 21
88.14888905921292
 31
0.0
  0
LINE
  5
27C
330
1F
100
AcDbEntity
  8
5
  6
Continuous
 62
     1
370
    25
100
AcDbLine
 10
113.7693175489147
 20
80.14886905681342
 30
0.0
 11
113.7693175489147
 21
88.14888905921292
 31
0.0
  0
LINE
  5
27D
330
1F
100
AcDbEntity
  8
5
  6
Continuous
 62
     1
370
    25
100
AcDbLine
 10
137.7693275561156
 20
84.14886905801336
 30
0.0
 11
137.7693275561156
 21
94.64888906116286
 31
0.0
  0
ARC
  5
27E
330
1F
100
AcDbEntity
  8
5
  6
Continuous
 62
     1
370
    25
100
AcDbCircle
 10
123.7693255519158
 20
92.64888906056272
 30
0.0
 40
2.000000000599996
100
AcDbArc
 50
89.99999999999991
 51
179.9999999999998
  0
LINE
  5
27F
330
1F
100
AcDbEntity
  8
5
  6
Continuous
 62
     1
370
    25
100
AcDbLine
 10
119.7693735507154
 20
92.14890906041313
 30
0.0
 11
121.7693175513144
 21
92.14890906041313
 31
0.0
  0
LINE
  5
280
330
1F
100
AcDbEntity
  8
5
  6
Continuous
 62
     1
370
    25
100
AcDbLine
 10
119.7693735507154
 20
93.14892906071348
 30
0.0
 11
119.7693735507154
 21
88.14888905921357
 31
0.0
  0
LINE
  5
281
330
1F
100
AcDbEntity
  8
5
  6
Continuous
 62
     1
370
    25
100
AcDbLine
 10
121.7693175513144
 20
92.64888906056272
 30
0.0
 11
121.7693175513144
 21
88.14888905921292
 31
0.0
  0
LINE
  5
282
330
1F
100
AcDbEntity
  8
5
  6
Continuous
 62
     1
370
    25
100
AcDbLine
 10
121.7693175513144
 20
92.14890906041313
 30
0.0
 11
121.7693175513144
 21
88.14888905921292
 31
0.0
  0
LINE
  5
283
330
1F
100
AcDbEntity
  8
5
  6
Continuous
 62
     1
370
    25
100
AcDbLine
 10
123.7693255519158
 20
73.64884905486288
 30
0.0
 11
137.7693275561156
 21
73.64884905486288
 31
0.0
  0
LINE
  5
284
330
1F
100
AcDbEntity
  8
5
  6
Continuous
 62
     1
370
    25
100
AcDbLine
 10
121.7693175513144
 20
76.14882905561261
 30
0.0
 11
119.7693735507154
 21
76.14882905561261
 31
0.0
  0
LINE
  5
285
330
1F
100
AcDbEntity
  8
5
  6
Continuous
 62
     1
370
    25
100
AcDbLine
 10
119.7693735507154
 20
75.14880905531291
 30
0.0
 11
119.7693735507154
 21
80.14884905681282
 31
0.0
  0
LINE
  5
286
330
1F
100
AcDbEntity
  8
5
  6
Continuous
 62
     1
370
    25
100
AcDbLine
 10
121.7693175513144
 20
75.64884905546302
 30
0.0
 11
121.7693175513144
 21
80.14886905681342
 31
0.0
  0
LINE
  5
287
330
1F
100
AcDbEntity
  8
5
  6
Continuous
 62
     1
370
    25
100
AcDbLine
 10
121.7693175513144
 20
80.14886905681342
 30
0.0
 11
121.7693175513144
 21
76.14882905561261
 31
0.0
  0
ARC
  5
288
330
1F
100
AcDbEntity
  8
5
  6
Continuous
 62
     1
370
    25
100
AcDbCircle
 10
123.7693255519158
 20
75.64884905546302
 30
0.0
 40
2.000000000599996
100
AcDbArc
 50
179.9999999999998
 51
269.9999999999998
  0
LINE
  5
289
330
1F
100
AcDbEntity
  8
5
  6
Continuous
 62
     1
370
    25
100
AcDbLine
 10
131.7693195543155
 20
88.14888905921292
 30
0.0
 11
131.7693195543155
 21
80.14886905681342
 31
0.0
  0
LINE
  5
28A
330
1F
100
AcDbEntity
  8
5
  6
Continuous
 62
     1
370
    25
100
AcDbLine
 10
137.7693275561156
 20
84.14886905801336
 30
0.0
 11
137.7693275561156
 21
73.64884905486288
 31
0.0
  0
LINE
  5
28B
330
1F
100
AcDbEntity
  8
5
  6
Continuous
 62
     1
370
    25
100
AcDbLine
 10
135.7693095555156
 20
88.14888905921292
 30
0.0
 11
135.7693095555156
 21
80.14886905681342
 31
0.0
  0
LINE
  5
28C
330
1F
100
AcDbEntity
  8
5
  6
Continuous
 62
     1
370
    25
100
AcDbLine
 10
123.7693255519158
 20
94.64888906116286
 30
0.0
 11
137.7693275561156
 21
94.64888906116286
 31
0.0
  0
LINE
  5
28D
330
1F
100
AcDbEntity
  8
5
  6
Continuous
 62
     1
370
    25
100
AcDbLine
 10
119.7693735507154
 20
93.14892906071348
 30
0.0
 11
104.099866593302
 21
93.14892906071348
 31
0.0
  0
LINE
  5
28E
330
1F
100
AcDbEntity
  8
5
  6
Continuous
 62
     1
370
    25
100
AcDbLine
 10
94.1612977004653
 20
89.74886905969444
 30
0.0
 11
85.86426896553155
 21
89.74886905969444
 31
0.0
  0
ARC
  5
28F
330
1F
100
AcDbEntity
  8
5
  6
Continuous
 62
     1
370
    25
100
AcDbCircle
 10
104.1998185361707
 20
88.38971867840554
 30
0.0
 40
4.760259851515556
100
AcDbArc
 50
91.20313712916293
 51
128.540704870493
  0
ARC
  5
290
330
1F
100
AcDbEntity
  8
5
  6
Continuous
 62
     1
370
    25
100
AcDbCircle
 10
93.68672089858285
 20
102.6119493316827
 30
0.0
 40
12.87183192962442
100
AcDbArc
 50
272.1129402668363
 51
301.7409359603909
  0
LINE
  5
291
330
1F
100
AcDbEntity
  8
5
  6
Continuous
 62
     1
370
    25
100
AcDbLine
 10
101.2338411886586
 20
92.1130306755389
 30
0.0
 11
100.4583264347992
 21
91.66528702363821
 31
0.0
  0
LINE
  5
292
330
1F
100
AcDbEntity
  8
5
  6
Continuous
 62
     1
370
    25
100
AcDbLine
 10
119.7693735507154
 20
75.14880905531582
 30
0.0
 11
104.099866593302
 21
75.14880905531582
 31
0.0
  0
LINE
  5
293
330
1F
100
AcDbEntity
  8
5
  6
Continuous
 62
     1
370
    25
100
AcDbLine
 10
94.1612977004653
 20
78.54886905633488
 30
0.0
 11
85.86426896553155
 21
78.54886905633488
 31
0.0
  0
ARC
  5
294
330
1F
100
AcDbEntity
  8
5
  6
Continuous
 62
     1
370
    25
100
AcDbCircle
 10
104.1998185361707
 20
79.90801943762376
 30
0.0
 40
4.760259851515556
100
AcDbArc
 50
231.459295129517
 51
268.7968628708367
  0
ARC
  5
295
330
1F
100
AcDbEntity
  8
5
  6
Continuous
 62
     1
370
    25
100
AcDbCircle
 10
93.68672089858285
 20
65.68578878434657
 30
0.0
 40
12.87183192962442
100
AcDbArc
 50
58.25906403960879
 51
87.88705973316323
  0
LINE
  5
296
330
1F
100
AcDbEntity
  8
5
  6
Continuous
 62
     1
370
    25
100
AcDbLine
 10
101.2338411886586
 20
76.18470744049041
 30
0.0
 11
100.4583264347992
 21
76.6324510923911
 31
0.0
  0
INSERT
  5
297
330
1F
100
AcDbEntity
  8
8
  6
Continuous
 62
     4
370
     9
100
AcDbBlockReference
  2
_OPEN
 10
437.4308460429379
 20
438.2114524417279
 30
0.0
 41
4.0
 42
4.0
 43
4.0
 50
241.8640244780036
  0
POLYLINE
  5
298
330
1F
100
AcDbEntity
  8
8
  6
Continuous
 62
     4
370
     9
100
AcDb2dPolyline
 66
     1
 10
0.0
 20
0.0
 30
0.0
  0
VERTEX
  5
299
330
298
100
AcDbEntity
  8
8
  6
Continuous
 62
     4
370
     9
100
AcDbVertex
100
AcDb2dVertex
 10
437.4308460429379
 20
438.2114524417279
 30
0.0
  0
VERTEX
  5
29A
330
298
100
AcDbEntity
  8
8
  6
Continuous
 62
     4
370
     9
100
AcDbVertex
100
AcDb2dVertex
 10
454.8895031450629
 20
470.8592577881968
 30
0.0
  0
VERTEX
  5
29B
330
298
100
AcDbEntity
  8
8
  6
Continuous
 62
     4
370
     9
100
AcDbVertex
100
AcDb2dVertex
 10
480.2495031450628
 20
470.8592577881968
 30
0.0
  0
SEQEND
  5
29C
330
298
100
AcDbEntity
  8
8
  6
Continuous
 62
     4
370
     9
  0
MTEXT
  5
29D
330
1F
100
AcDbEntity
  8
8
  6
Continuous
 62
     4
370
     9
100
AcDbMText
 10
457.2495031450629
 20
478.0592577881968
 30
0.0
 40
6.0
 41
32.587333062
 46
6.0
 71
     1
 72
     1
  1
{\fＭＳ ゴシック;\T1.016260;8-Ø5.2}
 73
     1
 44
1.0
1001
ACAD
1000
ACAD_MTEXT_DEFINED_HEIGHT_BEGIN
1070
    46
1040
6.0
1000
ACAD_MTEXT_DEFINED_HEIGHT_END
  0
DIMENSION
  5
2A7
330
1F
100
AcDbEntity
  8
8
  6
Continuous
 62
     4
370
     9
100
AcDbDimension
280
     0
  2
Dim4
 10
396.2032419438592
 20
156.7191728422954
 30
0.0
 11
361.2032419438601
 21
156.7191728422954
 31
0.0
 70
   160
  1
<>
 71
     8
 42
-1.0
 73
     0
 74
     0
 75
     0
  3
Standard
100
AcDbAlignedDimension
 13
326.203241943861
 23
182.3195126135633
 33
0.0
 14
396.2032419438592
 24
182.3195126135633
 34
0.0
100
AcDbRotatedDimension
1001
ACAD
1000
DSTYLE
1002
{
1070
   279
1070
     1
1070
   340
1005
1AF
1070
   140
1040
6.0
1070
    40
1040
1.0
1070
   147
1040
0.0
1070
    76
1070
     0
1070
    75
1070
     0
1070
   344
1005
0
1070
   343
1005
0
1070
   173
1070
     1
1070
   289
1070
     2
1070
   288
1070
     1
1070
    77
1070
     1
1070
   172
1070
     1
1070
   174
1070
     0
1070
    74
1070
     0
1070
    73
1070
     0
1070
   284
1070
     8
1070
    78
1070
     8
1070
    42
1040
2.0
1070
    44
1040
3.0
1070
    43
1040
30.0
1070
   271
1070
     2
1070
    41
1040
4.0
1002
}
  0
DIMENSION
  5
2B1
330
1F
100
AcDbEntity
  8
8
  6
Continuous
 62
     4
370
     9
100
AcDbDimension
280
     0
  2
Dim5
 10
436.2032419438601
 20
139.4961147363301
 30
0.0
 11
361.2032419438601
 21
139.4961147363301
 31
0.0
 70
   160
  1
<>
 71
     8
 42
-1.0
 73
     0
 74
     0
 75
     0
  3
Standard
100
AcDbAlignedDimension
 13
286.2032419438601
 23
182.3195126135633
 33
0.0
 14
436.2032419438601
 24
182.3195126135633
 34
0.0
100
AcDbRotatedDimension
1001
ACAD
1000
DSTYLE
1002
{
1070
   279
1070
     1
1070
   340
1005
1AF
1070
   140
1040
6.0
1070
    40
1040
1.0
1070
   147
1040
0.0
1070
    76
1070
     0
1070
    75
1070
     0
1070
   344
1005
0
1070
   343
1005
0
1070
   173
1070
     1
1070
   289
1070
     2
1070
   288
1070
     1
1070
    77
1070
     1
1070
   172
1070
     1
1070
   174
1070
     0
1070
    74
1070
     0
1070
    73
1070
     0
1070
   284
1070
     8
1070
    78
1070
     8
1070
    42
1040
2.0
1070
    44
1040
3.0
1070
    43
1040
30.0
1070
   271
1070
     2
1070
    41
1040
4.0
1002
}
  0
DIMENSION
  5
2BB
330
1F
100
AcDbEntity
  8
8
  6
Continuous
 62
     4
370
     9
100
AcDbDimension
280
     0
  2
Dim6
 10
461.20324194386
 20
121.7511464426539
 30
0.0
 11
361.2032419438601
 21
121.7511464426539
 31
0.0
 70
   160
  1
<>
 71
     8
 42
-1.0
 73
     0
 74
     0
 75
     0
  3
Standard
100
AcDbAlignedDimension
 13
261.2032419438601
 23
212.9195126135633
 33
0.0
 14
461.2032419438601
 24
212.9195126135633
 34
0.0
100
AcDbRotatedDimension
1001
ACAD
1000
DSTYLE
1002
{
1070
   279
1070
     1
1070
   340
1005
1AF
1070
   140
1040
6.0
1070
    40
1040
1.0
1070
   147
1040
0.0
1070
    76
1070
     0
1070
    75
1070
     0
1070
   344
1005
0
1070
   343
1005
0
1070
   173
1070
     1
1070
   289
1070
     2
1070
   288
1070
     1
1070
    77
1070
     1
1070
   172
1070
     1
1070
   174
1070
     0
1070
    74
1070
     0
1070
    73
1070
     0
1070
   284
1070
     8
1070
    78
1070
     8
1070
    42
1040
2.0
1070
    44
1040
3.0
1070
    43
1040
30.0
1070
   271
1070
     2
1070
    41
1040
4.0
1002
}
  0
DIMENSION
  5
2C5
330
1F
100
AcDbEntity
  8
8
  6
Continuous
 62
     4
370
     9
100
AcDbDimension
280
     0
  2
Dim7
 10
476.20324194386
 20
105.1177616860773
 30
0.0
 11
361.2032419438601
 21
105.1177616860773
 31
0.0
 70
   160
  1
<>
 71
     8
 42
-1.0
 73
     0
 74
     0
 75
     0
  3
Standard
100
AcDbAlignedDimension
 13
246.2032419438601
 23
197.9195126135623
 33
0.0
 14
476.2032419438601
 24
197.9195126135633
 34
0.0
100
AcDbRotatedDimension
1001
ACAD
1000
DSTYLE
1002
{
1070
   279
1070
     1
1070
   340
1005
1AF
1070
   140
1040
6.0
1070
    40
1040
1.0
1070
   147
1040
0.0
1070
    76
1070
     0
1070
    75
1070
     0
1070
   344
1005
0
1070
   343
1005
0
1070
   173
1070
     1
1070
   289
1070
     2
1070
   288
1070
     1
1070
    77
1070
     1
1070
   172
1070
     1
1070
   174
1070
     0
1070
    74
1070
     0
1070
    73
1070
     0
1070
   284
1070
     8
1070
    78
1070
     8
1070
    42
1040
2.0
1070
    44
1040
3.0
1070
    43
1040
30.0
1070
   271
1070
     2
1070
    41
1040
4.0
1002
}
  0
DIMENSION
  5
2CF
330
1F
100
AcDbEntity
  8
8
  6
Continuous
 62
     4
370
     9
100
AcDbDimension
280
     0
  2
Dim8
 10
500.5045551727253
 20
412.9195126135632
 30
0.0
 11
500.5045551727253
 21
312.9195126135633
 31
0.0
 70
   160
  1
<>
 71
     8
 42
-1.0
 73
     0
 74
     0
 75
     0
  3
Standard
100
AcDbAlignedDimension
 13
461.2032419438601
 23
212.9195126135633
 33
0.0
 14
461.2032419438601
 24
412.9195126135633
 34
0.0
 50
89.99999999999991
100
AcDbRotatedDimension
1001
ACAD
1000
DSTYLE
1002
{
1070
   279
1070
     1
1070
   340
1005
1AF
1070
   140
1040
6.0
1070
    40
1040
1.0
1070
   147
1040
0.0
1070
    76
1070
     0
1070
    75
1070
     0
1070
   344
1005
0
1070
   343
1005
0
1070
   173
1070
     1
1070
   289
1070
     2
1070
   288
1070
     1
1070
    77
1070
     1
1070
   172
1070
     1
1070
   174
1070
     0
1070
    74
1070
     0
1070
    73
1070
     0
1070
   284
1070
     8
1070
    78
1070
     8
1070
    42
1040
2.0
1070
    44
1040
3.0
1070
    43
1040
30.0
1070
   271
1070
     2
1070
    41
1040
4.0
1002
}
  0
DIMENSION
  5
2D9
330
1F
100
AcDbEntity
  8
8
  6
Continuous
 62
     4
370
     9
100
AcDbDimension
280
     0
  2
Dim9
 10
518.1952828474841
 20
427.9195126135632
 30
0.0
 11
518.1952828474841
 21
312.9195126135633
 31
0.0
 70
   160
  1
<>
 71
     8
 42
-1.0
 73
     0
 74
     0
 75
     0
  3
Standard
100
AcDbAlignedDimension
 13
476.2032419438601
 23
197.9195126135633
 33
0.0
 14
476.2032419438601
 24
427.9195126135633
 34
0.0
 50
89.99999999999991
100
AcDbRotatedDimension
1001
ACAD
1000
DSTYLE
1002
{
1070
   279
1070
     1
1070
   340
1005
1AF
1070
   140
1040
6.0
1070
    40
1040
1.0
1070
   147
1040
0.0
1070
    76
1070
     0
1070
    75
1070
     0
1070
   344
1005
0
1070
   343
1005
0
1070
   173
1070
     1
1070
   289
1070
     2
1070
   288
1070
     1
1070
    77
1070
     1
1070
   172
1070
     1
1070
   174
1070
     0
1070
    74
1070
     0
1070
    73
1070
     0
1070
   284
1070
     8
1070
    78
1070
     8
1070
    42
1040
2.0
1070
    44
1040
3.0
1070
    43
1040
30.0
1070
   271
1070
     2
1070
    41
1040
4.0
1002
}
  0
DIMENSION
  5
2E3
330
1F
100
AcDbEntity
  8
8
  6
Continuous
 62
     4
370
     9
100
AcDbDimension
280
     0
  2
Dim10
 10
536.948566633002
 20
435.919512613563
 30
0.0
 11
536.948566633002
 21
312.9195126135633
 31
0.0
 70
   160
  1
<>
 71
     8
 42
-1.0
 73
     0
 74
     0
 75
     0
  3
Standard
100
AcDbAlignedDimension
 13
443.80324194386
 23
189.9195126135633
 33
0.0
 14
443.80324194386
 24
435.9195126135633
 34
0.0
 50
89.99999999999991
100
AcDbRotatedDimension
1001
ACAD
1000
DSTYLE
1002
{
1070
   279
1070
     1
1070
   340
1005
1AF
1070
   140
1040
6.0
1070
    40
1040
1.0
1070
   147
1040
0.0
1070
    76
1070
     0
1070
    75
1070
     0
1070
   344
1005
0
1070
   343
1005
0
1070
   173
1070
     1
1070
   289
1070
     2
1070
   288
1070
     1
1070
    77
1070
     1
1070
   172
1070
     1
1070
   174
1070
     0
1070
    74
1070
     0
1070
    73
1070
     0
1070
   284
1070
     8
1070
    78
1070
     8
1070
    42
1040
2.0
1070
    44
1040
3.0
1070
    43
1040
30.0
1070
   271
1070
     2
1070
    41
1040
4.0
1002
}
  0
DIMENSION
  5
2ED
330
1F
100
AcDbEntity
  8
8
  6
Continuous
 62
     4
370
     9
100
AcDbDimension
280
     0
  2
Dim11
 10
554.809356097061
 20
182.9195126135639
 30
0.0
 11
554.809356097061
 21
312.9195126135637
 31
0.0
 70
   160
  1
<>
 71
     8
 42
-1.0
 73
     0
 74
     0
 75
     0
 53
89.99999999999991
  3
Standard
100
AcDbAlignedDimension
 13
456.203241943861
 23
442.9195126135633
 33
0.0
 14
456.203241943861
 24
182.9195126135642
 34
0.0
 50
-89.99999999999991
100
AcDbRotatedDimension
1001
ACAD
1000
DSTYLE
1002
{
1070
   279
1070
     1
1070
   340
1005
1AF
1070
   140
1040
6.0
1070
    40
1040
1.0
1070
   147
1040
0.0
1070
    76
1070
     0
1070
    75
1070
     0
1070
   344
1005
0
1070
   343
1005
0
1070
   173
1070
     1
1070
   289
1070
     2
1070
   288
1070
     1
1070
    77
1070
     1
1070
   172
1070
     1
1070
   174
1070
     0
1070
    74
1070
     0
1070
    73
1070
     0
1070
   284
1070
     8
1070
    78
1070
     8
1070
    42
1040
2.0
1070
    44
1040
3.0
1070
    43
1040
30.0
1070
   271
1070
     2
1070
    41
1040
4.0
1002
}
  0
DIMENSION
  5
2F7
330
1F
100
AcDbEntity
  8
8
  6
Continuous
 62
     4
370
     9
100
AcDbDimension
280
     0
  2
Dim12
 10
655.7193309645427
 20
150.7959519882347
 30
0.0
 11
633.2193309645427
 21
150.7959519882347
 31
0.0
 70
   160
  1
<>
 71
     8
 42
-1.0
 73
     0
 74
     0
 75
     0
  3
Standard
100
AcDbAlignedDimension
 13
610.7193309645427
 23
197.9195126135633
 33
0.0
 14
655.7193309645427
 24
182.9195126135633
 34
0.0
100
AcDbRotatedDimension
1001
ACAD
1000
DSTYLE
1002
{
1070
   279
1070
     1
1070
   340
1005
1AF
1070
   140
1040
6.0
1070
    40
1040
1.0
1070
   147
1040
0.0
1070
    76
1070
     0
1070
    75
1070
     0
1070
   344
1005
0
1070
   343
1005
0
1070
   173
1070
     1
1070
   289
1070
     2
1070
   288
1070
     1
1070
    77
1070
     1
1070
   172
1070
     1
1070
   174
1070
     0
1070
    74
1070
     0
1070
    73
1070
     0
1070
   284
1070
     8
1070
    78
1070
     8
1070
    42
1040
2.0
1070
    44
1040
3.0
1070
    43
1040
30.0
1070
   271
1070
     2
1070
    41
1040
4.0
1002
}
  0
MTEXT
  5
2F8
330
1F
100
AcDbEntity
  8
3
  6
Continuous
 62
   151
370
     9
100
AcDbMText
 10
169.7693275561156
 20
75.98224239134652
 30
0.0
 40
4.0
 41
11.44733
 46
4.0
 71
     7
 72
     1
  1
{\fＭＳ ゴシック;\T1.125000;3 -}
 73
     1
 44
1.0
1001
ACAD
1000
ACAD_MTEXT_DEFINED_HEIGHT_BEGIN
1070
    46
1040
4.0
1000
ACAD_MTEXT_DEFINED_HEIGHT_END
  0
MTEXT
  5
2F9
330
1F
100
AcDbEntity
  8
3
  6
Continuous
 62
   151
370
     9
100
AcDbMText
 10
169.7693275561156
 20
81.98224239134652
 30
0.0
 40
4.0
 41
15.572075
 46
4.0
 71
     7
 72
     1
  1
{\fＭＳ ゴシック;\T1.125000;2 NC}
 73
     1
 44
1.0
1001
ACAD
1000
ACAD_MTEXT_DEFINED_HEIGHT_BEGIN
1070
    46
1040
4.0
1000
ACAD_MTEXT_DEFINED_HEIGHT_END
  0
MTEXT
  5
2FA
330
1F
100
AcDbEntity
  8
3
  6
Continuous
 62
   151
370
     9
100
AcDbMText
 10
169.7693275561156
 20
88.64890905801326
 30
0.0
 40
4.0
 41
11.28801499712
 46
4.0
 71
     7
 72
     1
  1
{\fＭＳ ゴシック;\T1.154216;1 +}
 73
     1
 44
1.0
1001
ACAD
1000
ACAD_MTEXT_DEFINED_HEIGHT_BEGIN
1070
    46
1040
4.0
1000
ACAD_MTEXT_DEFINED_HEIGHT_END
  0
MTEXT
  5
2FB
330
1F
100
AcDbEntity
  8
3
  6
Continuous
 62
   151
370
     9
100
AcDbMText
 10
143.7693275561156
 20
50.64894905801339
 30
0.0
 40
5.0
 41
39.35764946632499
 46
5.0
 71
     7
 72
     1
  1
{\fＭＳ ゴシック;\W0.750000;\T1.168182;SMP-03V-BC}
 73
     1
 44
1.0
1001
ACAD
1000
ACAD_MTEXT_DEFINED_HEIGHT_BEGIN
1070
    46
1040
5.0
1000
ACAD_MTEXT_DEFINED_HEIGHT_END
  0
MTEXT
  5
2FC
330
1F
100
AcDbEntity
  8
3
  6
Continuous
 62
   151
370
     9
100
AcDbMText
 10
143.7693275561156
 20
40.64894905801339
 30
0.0
 40
5.0
 41
55.67412099941249
 46
5.0
 71
     7
 72
     1
  1
{\fＭＳ ゴシック;\W0.750000;\T1.174363;BHF-001T-0.8SS}
 73
     1
 44
1.0
1001
ACAD
1000
ACAD_MTEXT_DEFINED_HEIGHT_BEGIN
1070
    46
1040
5.0
1000
ACAD_MTEXT_DEFINED_HEIGHT_END
  0
MTEXT
  5
2FD
330
1F
100
AcDbEntity
  8
3
  6
Continuous
 62
   151
370
     9
100
AcDbMText
 10
143.7693275561156
 20
60.64892905801344
 30
0.0
 40
5.0
 41
57.114534615
 46
5.0
 71
     7
 72
     1
  1
{\fＭＳ ゴシック;\W0.750000;\T1.134300;Power　Supply　}
 73
     1
 44
1.0
1001
ACAD
1000
ACAD_MTEXT_DEFINED_HEIGHT_BEGIN
1070
    46
1040
5.0
1000
ACAD_MTEXT_DEFINED_HEIGHT_END
  0
MTEXT
  5
2FE
330
1F
100
AcDbEntity
  8
3
  6
Continuous
 62
   151
370
     9
100
AcDbMText
 10
55.76932755611574
 20
97.73362928543088
 30
0.0
 40
6.0
 41
90.79646973646501
 46
6.0
 71
     7
 72
     1
  1
{\fＭＳ ゴシック;\W0.750000;\T1.114027;Details of Connector}
 73
     1
 44
1.0
1001
ACAD
1000
ACAD_MTEXT_DEFINED_HEIGHT_BEGIN
1070
    46
1040
6.0
1000
ACAD_MTEXT_DEFINED_HEIGHT_END
  0
MTEXT
  5
2FF
330
1F
100
AcDbEntity
  8
3
  6
Continuous
 62
   151
370
     9
100
AcDbMText
 10
95.76934755611569
 20
50.64894905801339
 30
0.0
 40
5.0
 41
35.2766751303
 46
5.0
 71
     7
 72
     1
  1
{\fＭＳ ゴシック;\W0.750000;\T1.167769;SMR-03V-B}
 73
     1
 44
1.0
1001
ACAD
1000
ACAD_MTEXT_DEFINED_HEIGHT_BEGIN
1070
    46
1040
5.0
1000
ACAD_MTEXT_DEFINED_HEIGHT_END
  0
MTEXT
  5
300
330
1F
100
AcDbEntity
  8
3
  6
Continuous
 62
   151
370
     9
100
AcDbMText
 10
95.76934755611569
 20
40.64894905801339
 30
0.0
 40
5.0
 41
51.58969808954998
 46
5.0
 71
     7
 72
     1
  1
{\fＭＳ ゴシック;\W0.750000;\T1.175931;BYM-001T-P0.6}
 73
     1
 44
1.0
1001
ACAD
1000
ACAD_MTEXT_DEFINED_HEIGHT_BEGIN
1070
    46
1040
5.0
1000
ACAD_MTEXT_DEFINED_HEIGHT_END
  0
MTEXT
  5
301
330
1F
100
AcDbEntity
  8
3
  6
Continuous
 62
   151
370
     9
100
AcDbMText
 10
95.76934755611569
 20
60.64892905801344
 30
0.0
 40
5.0
 41
18.93826972785
 46
5.0
 71
     7
 72
     1
  1
{\fＭＳ ゴシック;\W0.750000;\T1.173011;Light}
 73
     1
 44
1.0
1001
ACAD
1000
ACAD_MTEXT_DEFINED_HEIGHT_BEGIN
1070
    46
1040
5.0
1000
ACAD_MTEXT_DEFINED_HEIGHT_END
  0
MTEXT
  5
302
330
1F
100
AcDbEntity
  8
3
  6
Continuous
 62
   151
370
     9
100
AcDbMText
 10
55.76932755611574
 20
40.64894905801339
 30
0.0
 40
5.0
 41
27.105310234125
 46
5.0
 71
     7
 72
     1
  1
{\fＭＳ ゴシック;\W0.750000;\T1.171465;Contact}
 73
     1
 44
1.0
1001
ACAD
1000
ACAD_MTEXT_DEFINED_HEIGHT_BEGIN
1070
    46
1040
5.0
1000
ACAD_MTEXT_DEFINED_HEIGHT_END
  0
MTEXT
  5
303
330
1F
100
AcDbEntity
  8
3
  6
Continuous
 62
   151
370
     9
100
AcDbMText
 10
55.76932755611574
 20
50.64894905801339
 30
0.0
 40
5.0
 41
35.2485506742
 46
5.0
 71
     7
 72
     1
  1
{\fＭＳ ゴシック;\W0.750000;\T1.184266;Connector}
 73
     1
 44
1.0
1001
ACAD
1000
ACAD_MTEXT_DEFINED_HEIGHT_BEGIN
1070
    46
1040
5.0
1000
ACAD_MTEXT_DEFINED_HEIGHT_END
  0
VIEWPORT
  5
6A
330
1B
100
AcDbEntity
 67
     1
  8
0
100
AcDbViewport
 10
420.0
 20
297.0
 30
0.0
 40
840.0
 41
594.0
 68
     1
 69
     1
 12
420.0
 22
297.0
 13
0.0
 23
0.0
 14
0.5
 24
0.5
 15
0.5
 25
0.5
 16
0.0
 26
0.0
 36
1.0
 17
0.0
 27
0.0
 37
0.0
 42
50.0
 43
0.0
 44
0.0
 45
9.0
 50
0.0
 51
0.0
 72
   100
 90
   557152
  1

281
     0
 71
     1
 74
     0
110
0.0
120
0.0
130
0.0
111
1.0
121
0.0
131
0.0
112
0.0
122
1.0
132
0.0
 79
     0
146
0.0
170
     0
 61
     5
292
     1
282
     1
141
0.0
142
0.0
 63
   256
  0
ENDSEC
  0
SECTION
  2
OBJECTS
  0
DICTIONARY
  5
C
330
0
100
AcDbDictionary
281
     1
  3
ACAD_DETAILVIEWSTYLE
350
308
  3
ACAD_GROUP
350
D
  3
ACAD_LAYOUT
350
1A
  3
ACAD_MATERIAL
350
43
  3
ACAD_MLEADERSTYLE
350
307
  3
ACAD_MLINESTYLE
350
17
  3
ACAD_PLOTSETTINGS
350
19
  3
ACAD_PLOTSTYLENAME
350
E
  3
ACAD_SCALELIST
350
47
  3
ACAD_SECTIONVIEWSTYLE
350
309
  3
ACAD_TABLESTYLE
350
306
  3
ACAD_VISUALSTYLE
350
2A
  3
AcDbVariableDictionary
350
304
  0
SUN
  5
69
330
29
100
AcDbSun
 90
        1
290
     0
 63
     7
421
 16777215
 40
1.0
291
     1
 91
  2455826
 92
 54000000
292
     0
 70
     2
 71
   256
280
     1
  0
DICTIONARY
  5
308
102
{ACAD_REACTORS
330
C
102
}
330
C
100
AcDbDictionary
281
     1
  0
DICTIONARY
  5
D
102
{ACAD_REACTORS
330
C
102
}
330
C
100
AcDbDictionary
281
     1
  0
DICTIONARY
  5
1A
102
{ACAD_REACTORS
330
C
102
}
330
C
100
AcDbDictionary
281
     1
  3
Layout1
350
1E
  3
Layout2
350
26
  3
Model
350
22
  0
DICTIONARY
  5
43
102
{ACAD_REACTORS
330
C
102
}
330
C
100
AcDbDictionary
281
     1
  3
ByBlock
350
45
  3
ByLayer
350
44
  3
Global
350
46
  0
DICTIONARY
  5
307
102
{ACAD_REACTORS
330
C
102
}
330
C
100
AcDbDictionary
281
     1
  0
DICTIONARY
  5
17
102
{ACAD_REACTORS
330
C
102
}
330
C
100
AcDbDictionary
281
     1
  3
Standard
350
18
  0
DICTIONARY
  5
19
102
{ACAD_REACTORS
330
C
102
}
330
C
100
AcDbDictionary
281
     1
  0
ACDBDICTIONARYWDFLT
  5
E
102
{ACAD_REACTORS
330
C
102
}
330
C
100
AcDbDictionary
281
     1
  3
Normal
350
F
100
AcDbDictionaryWithDefault
340
F
  0
DICTIONARY
  5
47
102
{ACAD_REACTORS
330
C
102
}
330
C
100
AcDbDictionary
281
     1
  3
A0
350
48
  3
A1
350
49
  3
A2
350
4A
  3
A3
350
4B
  3
A4
350
4C
  3
A5
350
4D
  3
A6
350
4E
  3
A7
350
4F
  3
A8
350
50
  3
A9
350
51
  3
B0
350
52
  3
B1
350
53
  3
B2
350
54
  3
B3
350
55
  3
B4
350
56
  3
B5
350
57
  3
B6
350
58
  3
B7
350
59
  3
B8
350
5A
  3
B9
350
5B
  3
C0
350
5C
  3
C1
350
5D
  3
C2
350
5E
  3
C3
350
5F
  3
C4
350
60
  3
C5
350
61
  3
C6
350
62
  3
C7
350
63
  3
C8
350
64
  3
C9
350
65
  3
D0
350
66
  3
D1
350
67
  3
D2
350
68
  0
DICTIONARY
  5
309
102
{ACAD_REACTORS
330
C
102
}
330
C
100
AcDbDictionary
281
     1
  0
DICTIONARY
  5
306
102
{ACAD_REACTORS
330
C
102
}
330
C
100
AcDbDictionary
281
     1
  0
DICTIONARY
  5
2A
102
{ACAD_REACTORS
330
C
102
}
330
C
100
AcDbDictionary
281
     1
  3
2dWireframe
350
2F
  3
Basic
350
32
  3
Brighten
350
36
  3
ColorChange
350
3A
  3
Conceptual
350
34
  3
Dim
350
35
  3
EdgeColorOff
350
3D
  3
Facepattern
350
39
  3
Flat
350
2B
  3
FlatWithEdges
350
2C
  3
Gouraud
350
2D
  3
GouraudWithEdges
350
2E
  3
Hidden
350
31
  3
JitterOff
350
3B
  3
Linepattern
350
38
  3
OverhangOff
350
3C
  3
Realistic
350
33
  3
Shaded
350
42
  3
Shaded with edges
350
41
  3
Shades of Gray
350
3E
  3
Sketchy
350
3F
  3
Thicken
350
37
  3
Wireframe
350
30
  3
X-Ray
350
40
  0
DICTIONARY
  5
304
102
{ACAD_REACTORS
330
C
102
}
330
C
100
AcDbDictionary
281
     1
  3
CANNOSCALE
350
305
  0
LAYOUT
  5
1E
102
{ACAD_REACTORS
330
1A
102
}
330
1A
100
AcDbPlotSettings
  1

  2
none_device
  4

  6

 40
0.0
 41
0.0
 42
0.0
 43
0.0
 44
0.0
 45
0.0
 46
0.0
 47
0.0
 48
0.0
 49
0.0
140
0.0
141
0.0
142
1.0
143
1.0
 70
   688
 72
     0
 73
     0
 74
     5
  7

 75
    16
 76
     0
 77
     2
 78
   300
147
1.0
148
0.0
149
0.0
100
AcDbLayout
  1
Layout1
 70
     1
 71
     1
 10
0.0
 20
0.0
 11
420.0
 21
297.0
 12
0.0
 22
0.0
 32
0.0
 14
0.0
 24
0.0
 34
0.0
 15
420.0
 25
297.0
 35
0.0
146
0.0
 13
0.0
 23
0.0
 33
0.0
 16
1.0
 26
0.0
 36
0.0
 17
0.0
 27
1.0
 37
0.0
 76
     0
330
1B
331
6A
  0
LAYOUT
  5
26
102
{ACAD_REACTORS
330
1A
102
}
330
1A
100
AcDbPlotSettings
  1

  2
none_device
  4

  6

 40
0.0
 41
0.0
 42
0.0
 43
0.0
 44
0.0
 45
0.0
 46
0.0
 47
0.0
 48
0.0
 49
0.0
140
0.0
141
0.0
142
1.0
143
1.0
 70
   688
 72
     0
 73
     0
 74
     5
  7

 75
    16
 76
     0
 77
     2
 78
   300
147
1.0
148
0.0
149
0.0
100
AcDbLayout
  1
Layout2
 70
     1
 71
     2
 10
0.0
 20
0.0
 11
0.0
 21
0.0
 12
0.0
 22
0.0
 32
0.0
 14
0.0
 24
0.0
 34
0.0
 15
0.0
 25
0.0
 35
0.0
146
0.0
 13
0.0
 23
0.0
 33
0.0
 16
1.0
 26
0.0
 36
0.0
 17
0.0
 27
1.0
 37
0.0
 76
     0
330
23
  0
LAYOUT
  5
22
102
{ACAD_REACTORS
330
1A
102
}
330
1A
100
AcDbPlotSettings
  1

  2
none_device
  4
Letter_(8.50_x_11.00_Inches)
  6

 40
6.35
 41
6.35
 42
6.35000508
 43
6.35000508
 44
215.9
 45
279.4
 46
0.0
 47
0.0
 48
0.0
 49
0.0
140
0.0
141
0.0
142
1.0
143
1.0
 70
  1712
 72
     0
 73
     0
 74
     0
  7

 75
     0
 76
     0
 77
     2
 78
   300
147
1.0
148
0.0
149
0.0
100
AcDbLayout
  1
Model
 70
     1
 71
     0
 10
0.0
 20
0.0
 11
420.0
 21
297.0
 12
0.0
 22
0.0
 32
0.0
 14
51.76932755611551
 24
38.64894905801339
 34
0.0
 15
683.2193309645427
 25
512.7739633979197
 35
0.0
146
0.0
 13
0.0
 23
0.0
 33
0.0
 16
1.0
 26
0.0
 36
0.0
 17
0.0
 27
1.0
 37
0.0
 76
     0
330
1F
331
29
  0
MATERIAL
  5
45
102
{ACAD_REACTORS
330
43
102
}
330
43
100
AcDbMaterial
  1
ByBlock
 72
     1
 94
      127
  0
MATERIAL
  5
44
102
{ACAD_REACTORS
330
43
102
}
330
43
100
AcDbMaterial
  1
ByLayer
 72
     1
 94
      127
  0
MATERIAL
  5
46
102
{ACAD_REACTORS
330
43
102
}
330
43
100
AcDbMaterial
  1
Global
 72
     1
 94
      127
  0
MLINESTYLE
  5
18
102
{ACAD_REACTORS
330
17
102
}
330
17
100
AcDbMlineStyle
  2
Standard
 70
     0
  3

 62
   256
 51
90.0
 52
90.0
 71
     2
 49
0.5
 62
   256
  6
BYLAYER
 49
-0.5
 62
   256
  6
BYLAYER
  0
ACDBPLACEHOLDER
  5
F
102
{ACAD_REACTORS
330
E
102
}
330
E
  0
SCALE
  5
48
102
{ACAD_REACTORS
330
47
102
}
330
47
100
AcDbScale
 70
     0
300
1:1
140
1.0
141
1.0
290
     1
  0
SCALE
  5
49
102
{ACAD_REACTORS
330
47
102
}
330
47
100
AcDbScale
 70
     0
300
1:2
140
1.0
141
2.0
290
     0
  0
SCALE
  5
4A
102
{ACAD_REACTORS
330
47
102
}
330
47
100
AcDbScale
 70
     0
300
1:4
140
1.0
141
4.0
290
     0
  0
SCALE
  5
4B
102
{ACAD_REACTORS
330
47
102
}
330
47
100
AcDbScale
 70
     0
300
1:5
140
1.0
141
5.0
290
     0
  0
SCALE
  5
4C
102
{ACAD_REACTORS
330
47
102
}
330
47
100
AcDbScale
 70
     0
300
1:8
140
1.0
141
8.0
290
     0
  0
SCALE
  5
4D
102
{ACAD_REACTORS
330
47
102
}
330
47
100
AcDbScale
 70
     0
300
1:10
140
1.0
141
10.0
290
     0
  0
SCALE
  5
4E
102
{ACAD_REACTORS
330
47
102
}
330
47
100
AcDbScale
 70
     0
300
1:16
140
1.0
141
16.0
290
     0
  0
SCALE
  5
4F
102
{ACAD_REACTORS
330
47
102
}
330
47
100
AcDbScale
 70
     0
300
1:20
140
1.0
141
20.0
290
     0
  0
SCALE
  5
50
102
{ACAD_REACTORS
330
47
102
}
330
47
100
AcDbScale
 70
     0
300
1:30
140
1.0
141
30.0
290
     0
  0
SCALE
  5
51
102
{ACAD_REACTORS
330
47
102
}
330
47
100
AcDbScale
 70
     0
300
1:40
140
1.0
141
40.0
290
     0
  0
SCALE
  5
52
102
{ACAD_REACTORS
330
47
102
}
330
47
100
AcDbScale
 70
     0
300
1:50
140
1.0
141
50.0
290
     0
  0
SCALE
  5
53
102
{ACAD_REACTORS
330
47
102
}
330
47
100
AcDbScale
 70
     0
300
1:100
140
1.0
141
100.0
290
     0
  0
SCALE
  5
54
102
{ACAD_REACTORS
330
47
102
}
330
47
100
AcDbScale
 70
     0
300
2:1
140
2.0
141
1.0
290
     0
  0
SCALE
  5
55
102
{ACAD_REACTORS
330
47
102
}
330
47
100
AcDbScale
 70
     0
300
4:1
140
4.0
141
1.0
290
     0
  0
SCALE
  5
56
102
{ACAD_REACTORS
330
47
102
}
330
47
100
AcDbScale
 70
     0
300
8:1
140
8.0
141
1.0
290
     0
  0
SCALE
  5
57
102
{ACAD_REACTORS
330
47
102
}
330
47
100
AcDbScale
 70
     0
300
10:1
140
10.0
141
1.0
290
     0
  0
SCALE
  5
58
102
{ACAD_REACTORS
330
47
102
}
330
47
100
AcDbScale
 70
     0
300
100:1
140
100.0
141
1.0
290
     0
  0
SCALE
  5
59
102
{ACAD_REACTORS
330
47
102
}
330
47
100
AcDbScale
 70
     0
300
1/128" = 1'-0"
140
0.0078125
141
12.0
290
     0
  0
SCALE
  5
5A
102
{ACAD_REACTORS
330
47
102
}
330
47
100
AcDbScale
 70
     0
300
1/64" = 1'-0"
140
0.015625
141
12.0
290
     0
  0
SCALE
  5
5B
102
{ACAD_REACTORS
330
47
102
}
330
47
100
AcDbScale
 70
     0
300
1/32" = 1'-0"
140
0.03125
141
12.0
290
     0
  0
SCALE
  5
5C
102
{ACAD_REACTORS
330
47
102
}
330
47
100
AcDbScale
 70
     0
300
1/16" = 1'-0"
140
0.0625
141
12.0
290
     0
  0
SCALE
  5
5D
102
{ACAD_REACTORS
330
47
102
}
330
47
100
AcDbScale
 70
     0
300
3/32" = 1'-0"
140
0.09375
141
12.0
290
     0
  0
SCALE
  5
5E
102
{ACAD_REACTORS
330
47
102
}
330
47
100
AcDbScale
 70
     0
300
1/8" = 1'-0"
140
0.125
141
12.0
290
     0
  0
SCALE
  5
5F
102
{ACAD_REACTORS
330
47
102
}
330
47
100
AcDbScale
 70
     0
300
3/16" = 1'-0"
140
0.1875
141
12.0
290
     0
  0
SCALE
  5
60
102
{ACAD_REACTORS
330
47
102
}
330
47
100
AcDbScale
 70
     0
300
1/4" = 1'-0"
140
0.25
141
12.0
290
     0
  0
SCALE
  5
61
102
{ACAD_REACTORS
330
47
102
}
330
47
100
AcDbScale
 70
     0
300
3/8" = 1'-0"
140
0.375
141
12.0
290
     0
  0
SCALE
  5
62
102
{ACAD_REACTORS
330
47
102
}
330
47
100
AcDbScale
 70
     0
300
1/2" = 1'-0"
140
0.5
141
12.0
290
     0
  0
SCALE
  5
63
102
{ACAD_REACTORS
330
47
102
}
330
47
100
AcDbScale
 70
     0
300
3/4" = 1'-0"
140
0.75
141
12.0
290
     0
  0
SCALE
  5
64
102
{ACAD_REACTORS
330
47
102
}
330
47
100
AcDbScale
 70
     0
300
1" = 1'-0"
140
1.0
141
12.0
290
     0
  0
SCALE
  5
65
102
{ACAD_REACTORS
330
47
102
}
330
47
100
AcDbScale
 70
     0
300
1-1/2" = 1'-0"
140
1.5
141
12.0
290
     0
  0
SCALE
  5
66
102
{ACAD_REACTORS
330
47
102
}
330
47
100
AcDbScale
 70
     0
300
3" = 1'-0"
140
3.0
141
12.0
290
     0
  0
SCALE
  5
67
102
{ACAD_REACTORS
330
47
102
}
330
47
100
AcDbScale
 70
     0
300
6" = 1'-0"
140
6.0
141
12.0
290
     0
  0
SCALE
  5
68
102
{ACAD_REACTORS
330
47
102
}
330
47
100
AcDbScale
 70
     0
300
1'-0" = 1'-0"
140
12.0
141
12.0
290
     0
  0
VISUALSTYLE
  5
2F
102
{ACAD_REACTORS
330
2A
102
}
330
2A
100
AcDbVisualStyle
  2
2dWireframe
 70
     4
177
     3
291
     0
 70
    58
 90
        0
176
     1
 90
        2
176
     1
 90
        0
176
     1
 90
        0
176
     1
 40
0.6
176
     1
 40
30.0
176
     1
 62
     7
420
 16777215
176
     1
 90
        1
176
     1
 90
        4
176
     1
 62
     7
176
     1
 62
   257
176
     1
 90
        1
176
     1
 90
        1
176
     1
 40
1.0
176
     1
 90
        0
176
     1
 62
   257
176
     1
 40
1.0
176
     1
 90
        1
176
     1
 90
        6
176
     1
 90
        2
176
     1
 62
     7
176
     1
 90
        5
176
     1
 90
        0
176
     1
 90
        0
176
     1
290
     0
176
     1
 90
        1
176
     1
 40
0.0
176
     1
 90
        0
176
     1
290
     1
176
     1
290
     1
176
     1
290
     0
176
     1
290
     0
176
     1
290
     0
176
     1
290
     0
176
     1
290
     0
176
     1
290
     0
176
     1
290
     0
176
     1
 90
       50
176
     1
 40
0.0
176
     1
 40
1.0
176
     1
 90
        0
176
     1
 62
    18
420
        0
176
     1
 90
       50
176
     1
 90
        3
176
     1
 62
     5
420
      255
176
     1
290
     0
176
     1
 90
       50
176
     1
 90
       50
176
     1
 90
       50
176
     1
290
     0
176
     1
 90
       50
176
     1
 62
   256
176
     0
 40
1.0
176
     0
 90
        2
176
     1
  1
strokes_ogs.tif
176
     1
290
     0
176
     1
 40
1.0
176
     1
 40
1.0
176
     1
  0
VISUALSTYLE
  5
32
102
{ACAD_REACTORS
330
2A
102
}
330
2A
100
AcDbVisualStyle
  2
Basic
 70
     7
177
     3
291
     1
 70
    58
 90
        1
176
     1
 90
        0
176
     1
 90
        1
176
     1
 90
        0
176
     1
 40
0.6
176
     1
 40
30.0
176
     1
 62
     7
420
 16777215
176
     1
 90
        0
176
     1
 90
        4
176
     1
 62
     7
176
     1
 62
   257
176
     1
 90
        1
176
     1
 90
        1
176
     1
 40
1.0
176
     1
 90
        8
176
     1
 62
     7
176
     1
 40
1.0
176
     1
 90
        1
176
     1
 90
        6
176
     1
 90
        2
176
     1
 62
     7
176
     1
 90
        5
176
     1
 90
        0
176
     1
 90
        0
176
     1
290
     0
176
     1
 90
        1
176
     1
 40
0.0
176
     1
 90
        0
176
     1
290
     0
176
     1
290
     1
176
     1
290
     1
176
     1
290
     0
176
     1
290
     0
176
     1
290
     0
176
     1
290
     0
176
     1
290
     0
176
     1
290
     0
176
     1
 90
       50
176
     1
 40
0.0
176
     1
 40
1.0
176
     1
 90
        0
176
     1
 62
    18
420
        0
176
     1
 90
       50
176
     1
 90
        3
176
     1
 62
     5
420
      255
176
     1
290
     0
176
     1
 90
       50
176
     1
 90
       50
176
     1
 90
       50
176
     1
290
     0
176
     1
 90
       50
176
     1
 62
   256
176
     0
 40
1.0
176
     0
 90
        2
176
     1
  1
strokes_ogs.tif
176
     1
290
     0
176
     1
 40
1.0
176
     1
 40
1.0
176
     1
  0
VISUALSTYLE
  5
36
102
{ACAD_REACTORS
330
2A
102
}
330
2A
100
AcDbVisualStyle
  2
Brighten
 70
    12
177
     3
291
     1
 70
    58
 90
        2
176
     1
 90
        2
176
     1
 90
        0
176
     1
 90
        0
176
     1
 40
0.6
176
     1
 40
30.0
176
     1
 62
     7
420
 16777215
176
     1
 90
        1
176
     1
 90
        4
176
     1
 62
     7
176
     1
 62
   257
176
     1
 90
        1
176
     1
 90
        1
176
     1
 40
1.0
176
     1
 90
        8
176
     1
 62
     7
176
     1
 40
1.0
176
     1
 90
        1
176
     1
 90
        6
176
     1
 90
        2
176
     1
 62
     7
176
     1
 90
        5
176
     1
 90
        0
176
     1
 90
        0
176
     1
290
     0
176
     1
 90
        1
176
     1
 40
50.0
176
     1
 90
        0
176
     1
290
     0
176
     1
290
     1
176
     1
290
     1
176
     1
290
     0
176
     1
290
     0
176
     1
290
     0
176
     1
290
     0
176
     1
290
     0
176
     1
290
     0
176
     1
 90
       50
176
     1
 40
0.0
176
     1
 40
1.0
176
     1
 90
        0
176
     1
 62
    18
420
        0
176
     1
 90
       50
176
     1
 90
        3
176
     1
 62
     5
420
      255
176
     1
290
     0
176
     1
 90
       50
176
     1
 90
       50
176
     1
 90
       50
176
     1
290
     0
176
     1
 90
       50
176
     1
 62
   256
176
     0
 40
1.0
176
     0
 90
        2
176
     1
  1
strokes_ogs.tif
176
     1
290
     0
176
     1
 40
1.0
176
     1
 40
1.0
176
     1
  0
VISUALSTYLE
  5
3A
102
{ACAD_REACTORS
330
2A
102
}
330
2A
100
AcDbVisualStyle
  2
ColorChange
 70
    16
177
     3
291
     1
 70
    58
 90
        2
176
     1
 90
        2
176
     1
 90
        3
176
     1
 90
        0
176
     1
 40
0.6
176
     1
 40
30.0
176
     1
 62
     8
420
  8421504
176
     1
 90
        1
176
     1
 90
        4
176
     1
 62
     7
176
     1
 62
   257
176
     1
 90
        1
176
     1
 90
        1
176
     1
 40
1.0
176
     1
 90
        8
176
     1
 62
     8
420
  8421504
176
     1
 40
1.0
176
     1
 90
        1
176
     1
 90
        6
176
     1
 90
        2
176
     1
 62
     7
176
     1
 90
        5
176
     1
 90
        0
176
     1
 90
        0
176
     1
290
     0
176
     1
 90
        1
176
     1
 40
0.0
176
     1
 90
        0
176
     1
290
     0
176
     1
290
     1
176
     1
290
     1
176
     1
290
     0
176
     1
290
     0
176
     1
290
     0
176
     1
290
     0
176
     1
290
     0
176
     1
290
     0
176
     1
 90
       50
176
     1
 40
0.0
176
     1
 40
1.0
176
     1
 90
        0
176
     1
 62
    18
420
        0
176
     1
 90
       50
176
     1
 90
        3
176
     1
 62
     5
420
      255
176
     1
290
     0
176
     1
 90
       50
176
     1
 90
       50
176
     1
 90
       50
176
     1
290
     0
176
     1
 90
       50
176
     1
 62
   256
176
     0
 40
1.0
176
     0
 90
        2
176
     1
  1
strokes_ogs.tif
176
     1
290
     0
176
     1
 40
1.0
176
     1
 40
1.0
176
     1
  0
VISUALSTYLE
  5
34
102
{ACAD_REACTORS
330
2A
102
}
330
2A
100
AcDbVisualStyle
  2
Conceptual
 70
     9
177
     3
291
     0
 70
    58
 90
        3
176
     1
 90
        2
176
     1
 90
        0
176
     1
 90
        0
176
     1
 40
0.6
176
     1
 40
30.0
176
     1
 62
     7
420
 16777215
176
     1
 90
        2
176
     1
 90
        2
176
     1
 62
     7
176
     1
 62
   257
176
     1
 90
        1
176
     1
 90
        1
176
     1
 40
179.0
176
     1
 90
        8
176
     1
 62
     7
176
     1
 40
1.0
176
     1
 90
        1
176
     1
 90
        6
176
     1
 90
        2
176
     1
 62
     7
176
     1
 90
        3
176
     1
 90
        0
176
     1
 90
        0
176
     1
290
     0
176
     1
 90
        1
176
     1
 40
0.0
176
     1
 90
        0
176
     1
290
     0
176
     1
290
     1
176
     1
290
     1
176
     1
290
     0
176
     1
290
     0
176
     1
290
     0
176
     1
290
     0
176
     1
290
     0
176
     1
290
     0
176
     1
 90
       50
176
     1
 40
0.0
176
     1
 40
1.0
176
     1
 90
        0
176
     1
 62
    18
420
        0
176
     1
 90
       50
176
     1
 90
        3
176
     1
 62
     5
420
      255
176
     1
290
     0
176
     1
 90
       50
176
     1
 90
       50
176
     1
 90
       50
176
     1
290
     0
176
     1
 90
       50
176
     1
 62
   256
176
     0
 40
1.0
176
     0
 90
        2
176
     1
  1
strokes_ogs.tif
176
     1
290
     0
176
     1
 40
1.0
176
     1
 40
1.0
176
     1
  0
VISUALSTYLE
  5
35
102
{ACAD_REACTORS
330
2A
102
}
330
2A
100
AcDbVisualStyle
  2
Dim
 70
    11
177
     3
291
     1
 70
    58
 90
        2
176
     1
 90
        2
176
     1
 90
        0
176
     1
 90
        0
176
     1
 40
0.6
176
     1
 40
30.0
176
     1
 62
     7
420
 16777215
176
     1
 90
        1
176
     1
 90
        4
176
     1
 62
     7
176
     1
 62
   257
176
     1
 90
        1
176
     1
 90
        1
176
     1
 40
1.0
176
     1
 90
        8
176
     1
 62
     7
176
     1
 40
1.0
176
     1
 90
        1
176
     1
 90
        6
176
     1
 90
        2
176
     1
 62
     7
176
     1
 90
        5
176
     1
 90
        0
176
     1
 90
        0
176
     1
290
     0
176
     1
 90
        1
176
     1
 40
-50.0
176
     1
 90
        0
176
     1
290
     0
176
     1
290
     1
176
     1
290
     1
176
     1
290
     0
176
     1
290
     0
176
     1
290
     0
176
     1
290
     0
176
     1
290
     0
176
     1
290
     0
176
     1
 90
       50
176
     1
 40
0.0
176
     1
 40
1.0
176
     1
 90
        0
176
     1
 62
    18
420
        0
176
     1
 90
       50
176
     1
 90
        3
176
     1
 62
     5
420
      255
176
     1
290
     0
176
     1
 90
       50
176
     1
 90
       50
176
     1
 90
       50
176
     1
290
     0
176
     1
 90
       50
176
     1
 62
   256
176
     0
 40
1.0
176
     0
 90
        2
176
     1
  1
strokes_ogs.tif
176
     1
290
     0
176
     1
 40
1.0
176
     1
 40
1.0
176
     1
  0
VISUALSTYLE
  5
3D
102
{ACAD_REACTORS
330
2A
102
}
330
2A
100
AcDbVisualStyle
  2
EdgeColorOff
 70
    22
177
     3
291
     1
 70
    58
 90
        2
176
     0
 90
        2
176
     0
 90
        0
176
     0
 90
        0
176
     0
 40
0.6
176
     0
 40
30.0
176
     0
 62
     7
420
 16777215
176
     0
 90
        1
176
     0
 90
        4
176
     0
 62
     7
176
     0
 62
   257
176
     0
 90
        1
176
     0
 90
        1
176
     0
 40
1.0
176
     0
 90
        8
176
     2
 62
     7
176
     0
 40
1.0
176
     0
 90
        1
176
     0
 90
        6
176
     0
 90
        2
176
     0
 62
     7
176
     0
 90
        5
176
     0
 90
        0
176
     0
 90
        0
176
     0
290
     0
176
     0
 90
        1
176
     0
 40
0.0
176
     0
 90
        0
176
     0
290
     0
176
     0
290
     1
176
     0
290
     1
176
     0
290
     0
176
     0
290
     0
176
     0
290
     0
176
     0
290
     0
176
     0
290
     0
176
     0
290
     0
176
     0
 90
       50
176
     0
 40
0.0
176
     0
 40
1.0
176
     0
 90
        0
176
     0
 62
    18
420
        0
176
     0
 90
       50
176
     0
 90
        3
176
     0
 62
     5
420
      255
176
     0
290
     0
176
     0
 90
       50
176
     0
 90
       50
176
     0
 90
       50
176
     0
290
     0
176
     0
 90
       50
176
     0
 62
   256
176
     0
 40
1.0
176
     0
 90
        2
176
     0
  1
strokes_ogs.tif
176
     0
290
     0
176
     0
 40
1.0
176
     0
 40
1.0
176
     0
  0
VISUALSTYLE
  5
39
102
{ACAD_REACTORS
330
2A
102
}
330
2A
100
AcDbVisualStyle
  2
Facepattern
 70
    15
177
     3
291
     1
 70
    58
 90
        2
176
     1
 90
        2
176
     1
 90
        0
176
     1
 90
        0
176
     1
 40
0.6
176
     1
 40
30.0
176
     1
 62
     7
420
 16777215
176
     1
 90
        1
176
     1
 90
        4
176
     1
 62
     7
176
     1
 62
   257
176
     1
 90
        1
176
     1
 90
        1
176
     1
 40
1.0
176
     1
 90
        8
176
     1
 62
     7
176
     1
 40
1.0
176
     1
 90
        1
176
     1
 90
        6
176
     1
 90
        2
176
     1
 62
     7
176
     1
 90
        5
176
     1
 90
        0
176
     1
 90
        0
176
     1
290
     0
176
     1
 90
        1
176
     1
 40
0.0
176
     1
 90
        0
176
     1
290
     0
176
     1
290
     1
176
     1
290
     1
176
     1
290
     0
176
     1
290
     0
176
     1
290
     0
176
     1
290
     0
176
     1
290
     0
176
     1
290
     0
176
     1
 90
       50
176
     1
 40
0.0
176
     1
 40
1.0
176
     1
 90
        0
176
     1
 62
    18
420
        0
176
     1
 90
       50
176
     1
 90
        3
176
     1
 62
     5
420
      255
176
     1
290
     0
176
     1
 90
       50
176
     1
 90
       50
176
     1
 90
       50
176
     1
290
     0
176
     1
 90
       50
176
     1
 62
   256
176
     0
 40
1.0
176
     0
 90
        2
176
     1
  1
strokes_ogs.tif
176
     1
290
     0
176
     1
 40
1.0
176
     1
 40
1.0
176
     1
  0
VISUALSTYLE
  5
2B
102
{ACAD_REACTORS
330
2A
102
}
330
2A
100
AcDbVisualStyle
  2
Flat
 70
     0
177
     3
291
     1
 70
    58
 90
        2
176
     1
 90
        1
176
     1
 90
        1
176
     1
 90
        2
176
     1
 40
0.6
176
     1
 40
30.0
176
     1
 62
     7
420
 16777215
176
     1
 90
        0
176
     1
 90
        0
176
     1
 62
     7
176
     1
 62
   257
176
     1
 90
        1
176
     1
 90
        1
176
     1
 40
1.0
176
     1
 90
        8
176
     1
 62
     7
176
     1
 40
1.0
176
     1
 90
        1
176
     1
 90
        6
176
     1
 90
        2
176
     1
 62
     7
176
     1
 90
        5
176
     1
 90
        0
176
     1
 90
        0
176
     1
290
     0
176
     1
 90
       13
176
     1
 40
0.0
176
     1
 90
        0
176
     1
290
     0
176
     1
290
     1
176
     1
290
     1
176
     1
290
     0
176
     1
290
     0
176
     1
290
     0
176
     1
290
     0
176
     1
290
     0
176
     1
290
     0
176
     1
 90
       50
176
     1
 40
0.0
176
     1
 40
1.0
176
     1
 90
        0
176
     1
 62
    18
420
        0
176
     1
 90
       50
176
     1
 90
        3
176
     1
 62
     5
420
      255
176
     1
290
     0
176
     1
 90
       50
176
     1
 90
       50
176
     1
 90
       50
176
     1
290
     0
176
     1
 90
       50
176
     1
 62
   256
176
     0
 40
1.0
176
     0
 90
        2
176
     1
  1
strokes_ogs.tif
176
     1
290
     0
176
     1
 40
1.0
176
     1
 40
1.0
176
     1
  0
VISUALSTYLE
  5
2C
102
{ACAD_REACTORS
330
2A
102
}
330
2A
100
AcDbVisualStyle
  2
FlatWithEdges
 70
     1
177
     3
291
     1
 70
    58
 90
        2
176
     1
 90
        1
176
     1
 90
        1
176
     1
 90
        2
176
     1
 40
0.6
176
     1
 40
30.0
176
     1
 62
     7
420
 16777215
176
     1
 90
        1
176
     1
 90
        0
176
     1
 62
     7
176
     1
 62
   257
176
     1
 90
        1
176
     1
 90
        1
176
     1
 40
1.0
176
     1
 90
        0
176
     1
 62
   257
176
     1
 40
1.0
176
     1
 90
        1
176
     1
 90
        6
176
     1
 90
        2
176
     1
 62
     7
176
     1
 90
        5
176
     1
 90
        0
176
     1
 90
        0
176
     1
290
     0
176
     1
 90
       13
176
     1
 40
0.0
176
     1
 90
        0
176
     1
290
     0
176
     1
290
     1
176
     1
290
     1
176
     1
290
     0
176
     1
290
     0
176
     1
290
     0
176
     1
290
     0
176
     1
290
     0
176
     1
290
     0
176
     1
 90
       50
176
     1
 40
0.0
176
     1
 40
1.0
176
     1
 90
        0
176
     1
 62
    18
420
        0
176
     1
 90
       50
176
     1
 90
        3
176
     1
 62
     5
420
      255
176
     1
290
     0
176
     1
 90
       50
176
     1
 90
       50
176
     1
 90
       50
176
     1
290
     0
176
     1
 90
       50
176
     1
 62
   256
176
     0
 40
1.0
176
     0
 90
        2
176
     1
  1
strokes_ogs.tif
176
     1
290
     0
176
     1
 40
1.0
176
     1
 40
1.0
176
     1
  0
VISUALSTYLE
  5
2D
102
{ACAD_REACTORS
330
2A
102
}
330
2A
100
AcDbVisualStyle
  2
Gouraud
 70
     2
177
     3
291
     1
 70
    58
 90
        2
176
     1
 90
        2
176
     1
 90
        1
176
     1
 90
        2
176
     1
 40
0.6
176
     1
 40
30.0
176
     1
 62
     7
420
 16777215
176
     1
 90
        0
176
     1
 90
        0
176
     1
 62
     7
176
     1
 62
   257
176
     1
 90
        1
176
     1
 90
        1
176
     1
 40
1.0
176
     1
 90
        0
176
     1
 62
     7
176
     1
 40
1.0
176
     1
 90
        1
176
     1
 90
        6
176
     1
 90
        2
176
     1
 62
     7
176
     1
 90
        5
176
     1
 90
        0
176
     1
 90
        0
176
     1
290
     0
176
     1
 90
       13
176
     1
 40
0.0
176
     1
 90
        0
176
     1
290
     0
176
     1
290
     1
176
     1
290
     1
176
     1
290
     0
176
     1
290
     0
176
     1
290
     0
176
     1
290
     0
176
     1
290
     0
176
     1
290
     0
176
     1
 90
       50
176
     1
 40
0.0
176
     1
 40
1.0
176
     1
 90
        0
176
     1
 62
    18
420
        0
176
     1
 90
       50
176
     1
 90
        3
176
     1
 62
     5
420
      255
176
     1
290
     0
176
     1
 90
       50
176
     1
 90
       50
176
     1
 90
       50
176
     1
290
     0
176
     1
 90
       50
176
     1
 62
   256
176
     0
 40
1.0
176
     0
 90
        2
176
     1
  1
strokes_ogs.tif
176
     1
290
     0
176
     1
 40
1.0
176
     1
 40
1.0
176
     1
  0
VISUALSTYLE
  5
2E
102
{ACAD_REACTORS
330
2A
102
}
330
2A
100
AcDbVisualStyle
  2
GouraudWithEdges
 70
     3
177
     3
291
     1
 70
    58
 90
        2
176
     1
 90
        2
176
     1
 90
        1
176
     1
 90
        2
176
     1
 40
0.6
176
     1
 40
30.0
176
     1
 62
     7
420
 16777215
176
     1
 90
        1
176
     1
 90
        0
176
     1
 62
     7
176
     1
 62
   257
176
     1
 90
        1
176
     1
 90
        1
176
     1
 40
1.0
176
     1
 90
        0
176
     1
 62
   257
176
     1
 40
1.0
176
     1
 90
        1
176
     1
 90
        6
176
     1
 90
        2
176
     1
 62
     7
176
     1
 90
        5
176
     1
 90
        0
176
     1
 90
        0
176
     1
290
     0
176
     1
 90
       13
176
     1
 40
0.0
176
     1
 90
        0
176
     1
290
     0
176
     1
290
     1
176
     1
290
     1
176
     1
290
     0
176
     1
290
     0
176
     1
290
     0
176
     1
290
     0
176
     1
290
     0
176
     1
290
     0
176
     1
 90
       50
176
     1
 40
0.0
176
     1
 40
1.0
176
     1
 90
        0
176
     1
 62
    18
420
        0
176
     1
 90
       50
176
     1
 90
        3
176
     1
 62
     5
420
      255
176
     1
290
     0
176
     1
 90
       50
176
     1
 90
       50
176
     1
 90
       50
176
     1
290
     0
176
     1
 90
       50
176
     1
 62
   256
176
     0
 40
1.0
176
     0
 90
        2
176
     1
  1
strokes_ogs.tif
176
     1
290
     0
176
     1
 40
1.0
176
     1
 40
1.0
176
     1
  0
VISUALSTYLE
  5
31
102
{ACAD_REACTORS
330
2A
102
}
330
2A
100
AcDbVisualStyle
  2
Hidden
 70
     6
177
     3
291
     0
 70
    58
 90
        1
176
     1
 90
        2
176
     1
 90
        2
176
     1
 90
        0
176
     1
 40
0.6
176
     1
 40
30.0
176
     1
 62
     7
420
 16777215
176
     1
 90
        2
176
     1
 90
        2
176
     1
 62
     7
176
     1
 62
   257
176
     1
 90
        2
176
     1
 90
        1
176
     1
 40
40.0
176
     1
 90
        0
176
     1
 62
   257
176
     1
 40
1.0
176
     1
 90
        1
176
     1
 90
        6
176
     1
 90
        2
176
     1
 62
     7
176
     1
 90
        3
176
     1
 90
        0
176
     1
 90
        0
176
     1
290
     0
176
     1
 90
        1
176
     1
 40
0.0
176
     1
 90
        0
176
     1
290
     0
176
     1
290
     1
176
     1
290
     1
176
     1
290
     0
176
     1
290
     0
176
     1
290
     0
176
     1
290
     0
176
     1
290
     0
176
     1
290
     0
176
     1
 90
       50
176
     1
 40
0.0
176
     1
 40
1.0
176
     1
 90
        0
176
     1
 62
    18
420
        0
176
     1
 90
       50
176
     1
 90
        3
176
     1
 62
     5
420
      255
176
     1
290
     0
176
     1
 90
       50
176
     1
 90
       50
176
     1
 90
       50
176
     1
290
     0
176
     1
 90
       50
176
     1
 62
   256
176
     0
 40
1.0
176
     0
 90
        2
176
     1
  1
strokes_ogs.tif
176
     1
290
     0
176
     1
 40
1.0
176
     1
 40
1.0
176
     1
  0
VISUALSTYLE
  5
3B
102
{ACAD_REACTORS
330
2A
102
}
330
2A
100
AcDbVisualStyle
  2
JitterOff
 70
    20
177
     3
291
     1
 70
    58
 90
        2
176
     0
 90
        2
176
     0
 90
        0
176
     0
 90
        0
176
     0
 40
0.6
176
     0
 40
30.0
176
     0
 62
     7
420
 16777215
176
     0
 90
        1
176
     0
 90
        4
176
     0
 62
     7
176
     0
 62
   257
176
     0
 90
        1
176
     0
 90
        1
176
     0
 40
1.0
176
     0
 90
       10
176
     2
 62
     7
176
     0
 40
1.0
176
     0
 90
        1
176
     0
 90
        6
176
     0
 90
        2
176
     0
 62
     7
176
     0
 90
        5
176
     0
 90
        0
176
     0
 90
        0
176
     0
290
     0
176
     0
 90
        1
176
     0
 40
0.0
176
     0
 90
        0
176
     0
290
     0
176
     0
290
     1
176
     0
290
     1
176
     0
290
     0
176
     0
290
     0
176
     0
290
     0
176
     0
290
     0
176
     0
290
     0
176
     0
290
     0
176
     0
 90
       50
176
     0
 40
0.0
176
     0
 40
1.0
176
     0
 90
        0
176
     0
 62
    18
420
        0
176
     0
 90
       50
176
     0
 90
        3
176
     0
 62
     5
420
      255
176
     0
290
     0
176
     0
 90
       50
176
     0
 90
       50
176
     0
 90
       50
176
     0
290
     0
176
     0
 90
       50
176
     0
 62
   256
176
     0
 40
1.0
176
     0
 90
        2
176
     0
  1
strokes_ogs.tif
176
     0
290
     0
176
     0
 40
1.0
176
     0
 40
1.0
176
     0
  0
VISUALSTYLE
  5
38
102
{ACAD_REACTORS
330
2A
102
}
330
2A
100
AcDbVisualStyle
  2
Linepattern
 70
    14
177
     3
291
     1
 70
    58
 90
        2
176
     1
 90
        2
176
     1
 90
        0
176
     1
 90
        0
176
     1
 40
0.6
176
     1
 40
30.0
176
     1
 62
     7
420
 16777215
176
     1
 90
        1
176
     1
 90
        4
176
     1
 62
     7
176
     1
 62
   257
176
     1
 90
        7
176
     1
 90
        7
176
     1
 40
1.0
176
     1
 90
        8
176
     1
 62
     7
176
     1
 40
1.0
176
     1
 90
        1
176
     1
 90
        6
176
     1
 90
        2
176
     1
 62
     7
176
     1
 90
        5
176
     1
 90
        0
176
     1
 90
        0
176
     1
290
     0
176
     1
 90
        1
176
     1
 40
0.0
176
     1
 90
        0
176
     1
290
     0
176
     1
290
     1
176
     1
290
     1
176
     1
290
     0
176
     1
290
     0
176
     1
290
     0
176
     1
290
     0
176
     1
290
     0
176
     1
290
     0
176
     1
 90
       50
176
     1
 40
0.0
176
     1
 40
1.0
176
     1
 90
        0
176
     1
 62
    18
420
        0
176
     1
 90
       50
176
     1
 90
        3
176
     1
 62
     5
420
      255
176
     1
290
     0
176
     1
 90
       50
176
     1
 90
       50
176
     1
 90
       50
176
     1
290
     0
176
     1
 90
       50
176
     1
 62
   256
176
     0
 40
1.0
176
     0
 90
        2
176
     1
  1
strokes_ogs.tif
176
     1
290
     0
176
     1
 40
1.0
176
     1
 40
1.0
176
     1
  0
VISUALSTYLE
  5
3C
102
{ACAD_REACTORS
330
2A
102
}
330
2A
100
AcDbVisualStyle
  2
OverhangOff
 70
    21
177
     3
291
     1
 70
    58
 90
        2
176
     0
 90
        2
176
     0
 90
        0
176
     0
 90
        0
176
     0
 40
0.6
176
     0
 40
30.0
176
     0
 62
     7
420
 16777215
176
     0
 90
        1
176
     0
 90
        4
176
     0
 62
     7
176
     0
 62
   257
176
     0
 90
        1
176
     0
 90
        1
176
     0
 40
1.0
176
     0
 90
        9
176
     2
 62
     7
176
     0
 40
1.0
176
     0
 90
        1
176
     0
 90
        6
176
     0
 90
        2
176
     0
 62
     7
176
     0
 90
        5
176
     0
 90
        0
176
     0
 90
        0
176
     0
290
     0
176
     0
 90
        1
176
     0
 40
0.0
176
     0
 90
        0
176
     0
290
     0
176
     0
290
     1
176
     0
290
     1
176
     0
290
     0
176
     0
290
     0
176
     0
290
     0
176
     0
290
     0
176
     0
290
     0
176
     0
290
     0
176
     0
 90
       50
176
     0
 40
0.0
176
     0
 40
1.0
176
     0
 90
        0
176
     0
 62
    18
420
        0
176
     0
 90
       50
176
     0
 90
        3
176
     0
 62
     5
420
      255
176
     0
290
     0
176
     0
 90
       50
176
     0
 90
       50
176
     0
 90
       50
176
     0
290
     0
176
     0
 90
       50
176
     0
 62
   256
176
     0
 40
1.0
176
     0
 90
        2
176
     0
  1
strokes_ogs.tif
176
     0
290
     0
176
     0
 40
1.0
176
     0
 40
1.0
176
     0
  0
VISUALSTYLE
  5
33
102
{ACAD_REACTORS
330
2A
102
}
330
2A
100
AcDbVisualStyle
  2
Realistic
 70
     8
177
     3
291
     0
 70
    58
 90
        2
176
     1
 90
        3
176
     1
 90
        0
176
     1
 90
        2
176
     1
 40
0.6
176
     1
 40
30.0
176
     1
 62
     7
420
 16777215
176
     1
 90
        0
176
     1
 90
        0
176
     1
 62
     7
176
     1
 62
   257
176
     1
 90
        1
176
     1
 90
        1
176
     1
 40
1.0
176
     1
 90
        8
176
     1
 62
   257
176
     1
 40
1.0
176
     1
 90
        1
176
     1
 90
        6
176
     1
 90
        2
176
     1
 62
     7
176
     1
 90
        3
176
     1
 90
        0
176
     1
 90
        0
176
     1
290
     0
176
     1
 90
       13
176
     1
 40
0.0
176
     1
 90
        0
176
     1
290
     0
176
     1
290
     1
176
     1
290
     1
176
     1
290
     0
176
     1
290
     0
176
     1
290
     0
176
     1
290
     0
176
     1
290
     0
176
     1
290
     0
176
     1
 90
       50
176
     1
 40
0.0
176
     1
 40
1.0
176
     1
 90
        0
176
     1
 62
    18
420
        0
176
     1
 90
       50
176
     1
 90
        3
176
     1
 62
     5
420
      255
176
     1
290
     0
176
     1
 90
       50
176
     1
 90
       50
176
     1
 90
       50
176
     1
290
     0
176
     1
 90
       50
176
     1
 62
   256
176
     0
 40
1.0
176
     0
 90
        2
176
     1
  1
strokes_ogs.tif
176
     1
290
     0
176
     1
 40
1.0
176
     1
 40
1.0
176
     1
  0
VISUALSTYLE
  5
42
102
{ACAD_REACTORS
330
2A
102
}
330
2A
100
AcDbVisualStyle
  2
Shaded
 70
    27
177
     3
291
     0
 70
    58
 90
        2
176
     1
 90
        2
176
     1
 90
        1
176
     1
 90
        2
176
     1
 40
0.6
176
     1
 40
30.0
176
     1
 62
     7
420
 16777215
176
     1
 90
        0
176
     1
 90
        4
176
     1
 62
     7
176
     1
 62
   257
176
     1
 90
        1
176
     1
 90
        1
176
     1
 40
1.0
176
     1
 90
        8
176
     1
 62
   257
176
     1
 40
1.0
176
     1
 90
        1
176
     1
 90
        6
176
     1
 90
        2
176
     1
 62
     8
420
  7895160
176
     1
 90
        3
176
     1
 90
        0
176
     1
 90
        0
176
     1
290
     0
176
     1
 90
        5
176
     1
 40
0.0
176
     1
 90
        0
176
     1
290
     0
176
     1
290
     1
176
     1
290
     1
176
     1
290
     0
176
     1
290
     0
176
     1
290
     0
176
     1
290
     0
176
     1
290
     0
176
     1
290
     0
176
     1
 90
       50
176
     1
 40
0.0
176
     1
 40
1.0
176
     1
 90
        0
176
     1
 62
    18
420
        0
176
     1
 90
       50
176
     1
 90
        3
176
     1
 62
     5
420
      255
176
     1
290
     0
176
     1
 90
       50
176
     1
 90
       50
176
     1
 90
       50
176
     1
290
     0
176
     1
 90
       50
176
     1
 62
   256
176
     0
 40
1.0
176
     0
 90
        2
176
     1
  1
strokes_ogs.tif
176
     1
290
     0
176
     1
 40
1.0
176
     1
 40
1.0
176
     1
  0
VISUALSTYLE
  5
41
102
{ACAD_REACTORS
330
2A
102
}
330
2A
100
AcDbVisualStyle
  2
Shaded with edges
 70
    26
177
     3
291
     0
 70
    58
 90
        2
176
     1
 90
        2
176
     1
 90
        1
176
     1
 90
        2
176
     1
 40
0.6
176
     1
 40
30.0
176
     1
 62
     7
420
 16777215
176
     1
 90
        1
176
     1
 90
       10
176
     1
 62
     7
176
     1
 62
   257
176
     1
 90
        2
176
     1
 90
        1
176
     1
 40
1.0
176
     1
 90
        8
176
     1
 62
   257
176
     1
 40
1.0
176
     1
 90
        1
176
     1
 90
        6
176
     1
 90
        2
176
     1
 62
     7
176
     1
 90
        3
176
     1
 90
        0
176
     1
 90
        0
176
     1
290
     0
176
     1
 90
        5
176
     1
 40
0.0
176
     1
 90
        0
176
     1
290
     0
176
     1
290
     1
176
     1
290
     1
176
     1
290
     0
176
     1
290
     0
176
     1
290
     0
176
     1
290
     0
176
     1
290
     0
176
     1
290
     0
176
     1
 90
       50
176
     1
 40
0.0
176
     1
 40
1.0
176
     1
 90
        0
176
     1
 62
    18
420
        0
176
     1
 90
       50
176
     1
 90
        3
176
     1
 62
     5
420
      255
176
     1
290
     0
176
     1
 90
       50
176
     1
 90
       50
176
     1
 90
       50
176
     1
290
     0
176
     1
 90
       50
176
     1
 62
   256
176
     0
 40
1.0
176
     0
 90
        2
176
     1
  1
strokes_ogs.tif
176
     1
290
     0
176
     1
 40
1.0
176
     1
 40
1.0
176
     1
  0
VISUALSTYLE
  5
3E
102
{ACAD_REACTORS
330
2A
102
}
330
2A
100
AcDbVisualStyle
  2
Shades of Gray
 70
    23
177
     3
291
     0
 70
    58
 90
        2
176
     1
 90
        2
176
     1
 90
        3
176
     1
 90
        0
176
     1
 40
0.6
176
     1
 40
30.0
176
     1
 62
     7
420
 16777215
176
     1
 90
        2
176
     1
 90
        2
176
     1
 62
     7
176
     1
 62
     7
176
     1
 90
        1
176
     1
 90
        1
176
     1
 40
40.0
176
     1
 90
        8
176
     1
 62
     7
176
     1
 40
1.0
176
     1
 90
        1
176
     1
 90
        6
176
     1
 90
        2
176
     1
 62
     7
176
     1
 90
        3
176
     1
 90
        0
176
     1
 90
        0
176
     1
290
     0
176
     1
 90
        1
176
     1
 40
0.0
176
     1
 90
        0
176
     1
290
     0
176
     1
290
     1
176
     1
290
     1
176
     1
290
     0
176
     1
290
     0
176
     1
290
     0
176
     1
290
     0
176
     1
290
     0
176
     1
290
     0
176
     1
 90
       50
176
     1
 40
0.0
176
     1
 40
1.0
176
     1
 90
        0
176
     1
 62
    18
420
        0
176
     1
 90
       50
176
     1
 90
        3
176
     1
 62
     5
420
      255
176
     1
290
     0
176
     1
 90
       50
176
     1
 90
       50
176
     1
 90
       50
176
     1
290
     0
176
     1
 90
       50
176
     1
 62
   256
176
     0
 40
1.0
176
     0
 90
        2
176
     1
  1
strokes_ogs.tif
176
     1
290
     0
176
     1
 40
1.0
176
     1
 40
1.0
176
     1
  0
VISUALSTYLE
  5
3F
102
{ACAD_REACTORS
330
2A
102
}
330
2A
100
AcDbVisualStyle
  2
Sketchy
 70
    24
177
     3
291
     0
 70
    58
 90
        1
176
     1
 90
        2
176
     1
 90
        2
176
     1
 90
        0
176
     1
 40
0.6
176
     1
 40
30.0
176
     1
 62
     7
420
 16777215
176
     1
 90
        2
176
     1
 90
        2
176
     1
 62
     7
176
     1
 62
     7
176
     1
 90
        1
176
     1
 90
        1
176
     1
 40
40.0
176
     1
 90
       11
176
     1
 62
     7
176
     1
 40
1.0
176
     1
 90
        1
176
     1
 90
        6
176
     1
 90
        2
176
     1
 62
     7
176
     1
 90
        6
176
     1
 90
        0
176
     1
 90
        0
176
     1
290
     0
176
     1
 90
        1
176
     1
 40
0.0
176
     1
 90
        0
176
     1
290
     0
176
     1
290
     1
176
     1
290
     1
176
     1
290
     0
176
     1
290
     0
176
     1
290
     0
176
     1
290
     0
176
     1
290
     0
176
     1
290
     0
176
     1
 90
       50
176
     1
 40
0.0
176
     1
 40
1.0
176
     1
 90
        0
176
     1
 62
    18
420
        0
176
     1
 90
       50
176
     1
 90
        3
176
     1
 62
     5
420
      255
176
     1
290
     0
176
     1
 90
       50
176
     1
 90
       50
176
     1
 90
       50
176
     1
290
     0
176
     1
 90
       50
176
     1
 62
   256
176
     0
 40
1.0
176
     0
 90
        2
176
     1
  1
strokes_ogs.tif
176
     1
290
     0
176
     1
 40
1.0
176
     1
 40
1.0
176
     1
  0
VISUALSTYLE
  5
37
102
{ACAD_REACTORS
330
2A
102
}
330
2A
100
AcDbVisualStyle
  2
Thicken
 70
    13
177
     3
291
     1
 70
    58
 90
        2
176
     1
 90
        2
176
     1
 90
        0
176
     1
 90
        0
176
     1
 40
0.6
176
     1
 40
30.0
176
     1
 62
     7
420
 16777215
176
     1
 90
        1
176
     1
 90
        4
176
     1
 62
     7
176
     1
 62
   257
176
     1
 90
        1
176
     1
 90
        1
176
     1
 40
1.0
176
     1
 90
       12
176
     1
 62
     7
176
     1
 40
1.0
176
     1
 90
        1
176
     1
 90
        6
176
     1
 90
        2
176
     1
 62
     7
176
     1
 90
        5
176
     1
 90
        0
176
     1
 90
        0
176
     1
290
     0
176
     1
 90
        1
176
     1
 40
0.0
176
     1
 90
        0
176
     1
290
     0
176
     1
290
     1
176
     1
290
     1
176
     1
290
     0
176
     1
290
     0
176
     1
290
     0
176
     1
290
     0
176
     1
290
     0
176
     1
290
     0
176
     1
 90
       50
176
     1
 40
0.0
176
     1
 40
1.0
176
     1
 90
        0
176
     1
 62
    18
420
        0
176
     1
 90
       50
176
     1
 90
        3
176
     1
 62
     5
420
      255
176
     1
290
     0
176
     1
 90
       50
176
     1
 90
       50
176
     1
 90
       50
176
     1
290
     0
176
     1
 90
       50
176
     1
 62
   256
176
     0
 40
1.0
176
     0
 90
        2
176
     1
  1
strokes_ogs.tif
176
     1
290
     0
176
     1
 40
1.0
176
     1
 40
1.0
176
     1
  0
VISUALSTYLE
  5
30
102
{ACAD_REACTORS
330
2A
102
}
330
2A
100
AcDbVisualStyle
  2
Wireframe
 70
     5
177
     3
291
     0
 70
    58
 90
        0
176
     1
 90
        2
176
     1
 90
        0
176
     1
 90
        0
176
     1
 40
0.6
176
     1
 40
30.0
176
     1
 62
     7
420
 16777215
176
     1
 90
        1
176
     1
 90
        4
176
     1
 62
     7
176
     1
 62
   257
176
     1
 90
        1
176
     1
 90
        1
176
     1
 40
1.0
176
     1
 90
        0
176
     1
 62
   257
176
     1
 40
1.0
176
     1
 90
        1
176
     1
 90
        6
176
     1
 90
        2
176
     1
 62
     7
176
     1
 90
        3
176
     1
 90
        0
176
     1
 90
        0
176
     1
290
     0
176
     1
 90
        1
176
     1
 40
0.0
176
     1
 90
        0
176
     1
290
     0
176
     1
290
     1
176
     1
290
     1
176
     1
290
     0
176
     1
290
     0
176
     1
290
     0
176
     1
290
     0
176
     1
290
     0
176
     1
290
     0
176
     1
 90
       50
176
     1
 40
0.0
176
     1
 40
1.0
176
     1
 90
        0
176
     1
 62
    18
420
        0
176
     1
 90
       50
176
     1
 90
        3
176
     1
 62
     5
420
      255
176
     1
290
     0
176
     1
 90
       50
176
     1
 90
       50
176
     1
 90
       50
176
     1
290
     0
176
     1
 90
       50
176
     1
 62
   256
176
     0
 40
1.0
176
     0
 90
        2
176
     1
  1
strokes_ogs.tif
176
     1
290
     0
176
     1
 40
1.0
176
     1
 40
1.0
176
     1
  0
VISUALSTYLE
  5
40
102
{ACAD_REACTORS
330
2A
102
}
330
2A
100
AcDbVisualStyle
  2
X-Ray
 70
    25
177
     3
291
     0
 70
    58
 90
        2
176
     1
 90
        2
176
     1
 90
        1
176
     1
 90
        1
176
     1
 40
0.5
176
     1
 40
30.0
176
     1
 62
     7
420
 16777215
176
     1
 90
        1
176
     1
 90
        0
176
     1
 62
     7
176
     1
 62
   257
176
     1
 90
        1
176
     1
 90
        1
176
     1
 40
1.0
176
     1
 90
        8
176
     1
 62
     7
176
     1
 40
1.0
176
     1
 90
        1
176
     1
 90
        6
176
     1
 90
        2
176
     1
 62
     7
176
     1
 90
        3
176
     1
 90
        0
176
     1
 90
        0
176
     1
290
     0
176
     1
 90
       13
176
     1
 40
0.0
176
     1
 90
        0
176
     1
290
     0
176
     1
290
     1
176
     1
290
     1
176
     1
290
     0
176
     1
290
     0
176
     1
290
     0
176
     1
290
     0
176
     1
290
     0
176
     1
290
     0
176
     1
 90
       50
176
     1
 40
0.0
176
     1
 40
1.0
176
     1
 90
        0
176
     1
 62
    18
420
        0
176
     1
 90
       50
176
     1
 90
        3
176
     1
 62
     5
420
      255
176
     1
290
     0
176
     1
 90
       50
176
     1
 90
       50
176
     1
 90
       50
176
     1
290
     0
176
     1
 90
       50
176
     1
 62
   256
176
     0
 40
1.0
176
     0
 90
        2
176
     1
  1
strokes_ogs.tif
176
     1
290
     0
176
     1
 40
1.0
176
     1
 40
1.0
176
     1
  0
DICTIONARYVAR
  5
305
102
{ACAD_REACTORS
330
304
102
}
330
304
100
DictionaryVariables
280
     0
  1
1:1
  0
ENDSEC
  0
EOF
