  0
SECTION
  2
HEADER
  9
$ACADVER
  1
AC1027
  9
$ACADMAINTVER
 70
     8
  9
$DWGCODEPAGE
  3
ANSI_932
  9
$REQUIREDVERSIONS
160
                 0
  9
$INSBASE
 10
0.0
 20
0.0
 30
0.0
  9
$EXTMIN
 10
30.00001350000048
 20
30.00000000000017
 30
0.0
  9
$EXTMAX
 10
600.9087502495788
 20
322.9684883109462
 30
0.0
  9
$LIMMIN
 10
0.0
 20
0.0
  9
$LIMMAX
 10
420.0
 20
297.0
  9
$ORTHOMODE
 70
     0
  9
$REGENMODE
 70
     1
  9
$FILLMODE
 70
     1
  9
$QTEXTMODE
 70
     0
  9
$MIRRTEXT
 70
     1
  9
$LTSCALE
 40
0.5
  9
$ATTMODE
 70
     1
  9
$TEXTSIZE
 40
5.6
  9
$TRACEWID
 40
0.05
  9
$TEXTSTYLE
  7
Standard
  9
$CLAYER
  8
0
  9
$CELTYPE
  6
ByLayer
  9
$CECOLOR
 62
   256
  9
$CELTSCALE
 40
1.0
  9
$DISPSILH
 70
     0
  9
$DIMSCALE
 40
1.0
  9
$DIMASZ
 40
1.55291427
  9
$DIMEXO
 40
2.0
  9
$DIMDLI
 40
30.0
  9
$DIMRND
 40
0.0
  9
$DIMDLE
 40
0.0
  9
$DIMEXE
 40
2.0
  9
$DIMTP
 40
0.0
  9
$DIMTM
 40
0.0
  9
$DIMTXT
 40
2.8
  9
$DIMCEN
 40
0.09
  9
$DIMTSZ
 40
0.0
  9
$DIMTOL
 70
     0
  9
$DIMLIM
 70
     0
  9
$DIMTIH
 70
     0
  9
$DIMTOH
 70
     0
  9
$DIMSE1
 70
     0
  9
$DIMSE2
 70
     0
  9
$DIMTAD
 70
     3
  9
$DIMZIN
 70
     8
  9
$DIMBLK
  1

  9
$DIMASO
 70
     1
  9
$DIMSHO
 70
     1
  9
$DIMPOST
  1

  9
$DIMAPOST
  1

  9
$DIMALT
 70
     0
  9
$DIMALTD
 70
     2
  9
$DIMALTF
 40
25.4
  9
$DIMLFAC
 40
1.0
  9
$DIMTOFL
 70
     1
  9
$DIMTVP
 40
0.7
  9
$DIMTIX
 70
     0
  9
$DIMSOXD
 70
     0
  9
$DIMSAH
 70
     0
  9
$DIMBLK1
  1

  9
$DIMBLK2
  1

  9
$DIMSTYLE
  2
Standard
  9
$DIMCLRD
 70
     0
  9
$DIMCLRE
 70
     0
  9
$DIMCLRT
 70
     0
  9
$DIMTFAC
 40
0.5
  9
$DIMGAP
 40
0.09
  9
$DIMJUST
 70
     0
  9
$DIMSD1
 70
     0
  9
$DIMSD2
 70
     0
  9
$DIMTOLJ
 70
     1
  9
$DIMTZIN
 70
     8
  9
$DIMALTZ
 70
     0
  9
$DIMALTTZ
 70
     0
  9
$DIMUPT
 70
     1
  9
$DIMDEC
 70
     2
  9
$DIMTDEC
 70
     4
  9
$DIMALTU
 70
     2
  9
$DIMALTTD
 70
     2
  9
$DIMTXSTY
  7
Standard
  9
$DIMAUNIT
 70
     0
  9
$DIMADEC
 70
     0
  9
$DIMALTRND
 40
0.0
  9
$DIMAZIN
 70
     0
  9
$DIMDSEP
 70
    46
  9
$DIMATFIT
 70
     2
  9
$DIMFRAC
 70
     0
  9
$DIMLDRBLK
  1

  9
$DIMLUNIT
 70
     2
  9
$DIMLWD
 70
    -2
  9
$DIMLWE
 70
    -2
  9
$DIMTMOVE
 70
     2
  9
$DIMFXL
 40
1.0
  9
$DIMFXLON
 70
     0
  9
$DIMJOGANG
 40
0.7853981633974483
  9
$DIMTFILL
 70
     0
  9
$DIMTFILLCLR
 70
     0
  9
$DIMARCSYM
 70
     0
  9
$DIMLTYPE
  6

  9
$DIMLTEX1
  6

  9
$DIMLTEX2
  6

  9
$DIMTXTDIRECTION
 70
     0
  9
$LUNITS
 70
     2
  9
$LUPREC
 70
     4
  9
$SKETCHINC
 40
0.1
  9
$FILLETRAD
 40
0.5
  9
$AUNITS
 70
     0
  9
$AUPREC
 70
     0
  9
$MENU
  1
.
  9
$ELEVATION
 40
0.0
  9
$PELEVATION
 40
0.0
  9
$THICKNESS
 40
0.0
  9
$LIMCHECK
 70
     0
  9
$CHAMFERA
 40
0.0
  9
$CHAMFERB
 40
0.0
  9
$CHAMFERC
 40
0.0
  9
$CHAMFERD
 40
0.0
  9
$SKPOLY
 70
     0
  9
$TDCREATE
 40
2460054.011550926
  9
$TDUCREATE
 40
2460053.636550926
  9
$TDUPDATE
 40
2460053.636554143
  9
$TDUUPDATE
 40
2460053.261554143
  9
$TDINDWG
 40
0.0000000116
  9
$TDUSRTIMER
 40
0.0000000116
  9
$USRTIMER
 70
     1
  9
$ANGBASE
 50
0.0
  9
$ANGDIR
 70
     0
  9
$PDMODE
 70
     0
  9
$PDSIZE
 40
0.0
  9
$PLINEWID
 40
0.0
  9
$SPLFRAME
 70
     0
  9
$SPLINETYPE
 70
     6
  9
$SPLINESEGS
 70
     8
  9
$HANDSEED
  5
2BC
  9
$SURFTAB1
 70
     6
  9
$SURFTAB2
 70
     6
  9
$SURFTYPE
 70
     6
  9
$SURFU
 70
     6
  9
$SURFV
 70
     6
  9
$UCSBASE
  2

  9
$UCSNAME
  2

  9
$UCSORG
 10
0.0
 20
0.0
 30
0.0
  9
$UCSXDIR
 10
1.0
 20
0.0
 30
0.0
  9
$UCSYDIR
 10
0.0
 20
1.0
 30
0.0
  9
$UCSORTHOREF
  2

  9
$UCSORTHOVIEW
 70
     0
  9
$UCSORGTOP
 10
0.0
 20
0.0
 30
0.0
  9
$UCSORGBOTTOM
 10
0.0
 20
0.0
 30
0.0
  9
$UCSORGLEFT
 10
0.0
 20
0.0
 30
0.0
  9
$UCSORGRIGHT
 10
0.0
 20
0.0
 30
0.0
  9
$UCSORGFRONT
 10
0.0
 20
0.0
 30
0.0
  9
$UCSORGBACK
 10
0.0
 20
0.0
 30
0.0
  9
$PUCSBASE
  2

  9
$PUCSNAME
  2

  9
$PUCSORG
 10
0.0
 20
0.0
 30
0.0
  9
$PUCSXDIR
 10
1.0
 20
0.0
 30
0.0
  9
$PUCSYDIR
 10
0.0
 20
1.0
 30
0.0
  9
$PUCSORTHOREF
  2

  9
$PUCSORTHOVIEW
 70
     0
  9
$PUCSORGTOP
 10
0.0
 20
0.0
 30
0.0
  9
$PUCSORGBOTTOM
 10
0.0
 20
0.0
 30
0.0
  9
$PUCSORGLEFT
 10
0.0
 20
0.0
 30
0.0
  9
$PUCSORGRIGHT
 10
0.0
 20
0.0
 30
0.0
  9
$PUCSORGFRONT
 10
0.0
 20
0.0
 30
0.0
  9
$PUCSORGBACK
 10
0.0
 20
0.0
 30
0.0
  9
$USERI1
 70
     0
  9
$USERI2
 70
     0
  9
$USERI3
 70
     0
  9
$USERI4
 70
     0
  9
$USERI5
 70
     0
  9
$USERR1
 40
0.0
  9
$USERR2
 40
0.0
  9
$USERR3
 40
0.0
  9
$USERR4
 40
0.0
  9
$USERR5
 40
0.0
  9
$WORLDVIEW
 70
     1
  9
$SHADEDGE
 70
     3
  9
$SHADEDIF
 70
    70
  9
$TILEMODE
 70
     1
  9
$MAXACTVP
 70
    64
  9
$PINSBASE
 10
0.0
 20
0.0
 30
0.0
  9
$PLIMCHECK
 70
     0
  9
$PEXTMIN
 10
0.0
 20
0.0
 30
0.0
  9
$PEXTMAX
 10
420.0
 20
297.0
 30
0.0
  9
$PLIMMIN
 10
0.0
 20
0.0
  9
$PLIMMAX
 10
420.0
 20
297.0
  9
$UNITMODE
 70
     0
  9
$VISRETAIN
 70
     1
  9
$PLINEGEN
 70
     0
  9
$PSLTSCALE
 70
     1
  9
$TREEDEPTH
 70
  3020
  9
$CMLSTYLE
  2
Standard
  9
$CMLJUST
 70
     0
  9
$CMLSCALE
 40
1.0
  9
$PROXYGRAPHICS
 70
     1
  9
$MEASUREMENT
 70
     1
  9
$CELWEIGHT
370
    -1
  9
$ENDCAPS
280
     0
  9
$JOINSTYLE
280
     0
  9
$LWDISPLAY
290
     0
  9
$INSUNITS
 70
     4
  9
$HYPERLINKBASE
  1

  9
$STYLESHEET
  1

  9
$XEDIT
290
     1
  9
$CEPSNTYPE
380
     0
  9
$PSTYLEMODE
290
     1
  9
$FINGERPRINTGUID
  2
{45F6D884-93B8-4265-938D-A4F695566E4B}
  9
$VERSIONGUID
  2
{FAEB1C32-E019-11D5-929B-00C0DF256EC4}
  9
$EXTNAMES
290
     1
  9
$PSVPSCALE
 40
0.0
  9
$OLESTARTUP
290
     0
  9
$SORTENTS
280
   127
  9
$INDEXCTL
280
     0
  9
$HIDETEXT
280
     1
  9
$XCLIPFRAME
280
     2
  9
$HALOGAP
280
     0
  9
$OBSCOLOR
 70
   257
  9
$OBSLTYPE
280
     0
  9
$INTERSECTIONDISPLAY
280
     0
  9
$INTERSECTIONCOLOR
 70
   257
  9
$DIMASSOC
280
     1
  9
$PROJECTNAME
  1

  9
$CAMERADISPLAY
290
     0
  9
$LENSLENGTH
 40
50.0
  9
$CAMERAHEIGHT
 40
0.0
  9
$STEPSPERSEC
 40
2.0
  9
$STEPSIZE
 40
6.0
  9
$3DDWFPREC
 40
2.0
  9
$PSOLWIDTH
 40
0.25
  9
$PSOLHEIGHT
 40
4.0
  9
$LOFTANG1
 40
1.570796326794897
  9
$LOFTANG2
 40
1.570796326794897
  9
$LOFTMAG1
 40
0.0
  9
$LOFTMAG2
 40
0.0
  9
$LOFTPARAM
 70
     7
  9
$LOFTNORMALS
280
     1
  9
$LATITUDE
 40
37.795
  9
$LONGITUDE
 40
-122.394
  9
$NORTHDIRECTION
 40
0.0
  9
$TIMEZONE
 70
 -8000
  9
$LIGHTGLYPHDISPLAY
280
     1
  9
$TILEMODELIGHTSYNCH
280
     1
  9
$CMATERIAL
347
44
  9
$SOLIDHIST
280
     1
  9
$SHOWHIST
280
     1
  9
$DWFFRAME
280
     2
  9
$DGNFRAME
280
     2
  9
$REALWORLDSCALE
290
     1
  9
$INTERFERECOLOR
 62
   256
  9
$CSHADOW
280
     0
  9
$SHADOWPLANELOCATION
 40
0.0
  0
ENDSEC
  0
SECTION
  2
CLASSES
  0
CLASS
  1
ACDBDICTIONARYWDFLT
  2
AcDbDictionaryWithDefault
  3
ObjectDBX Classes
 90
        0
 91
        4
280
     0
281
     0
  0
CLASS
  1
VISUALSTYLE
  2
AcDbVisualStyle
  3
ObjectDBX Classes
 90
     4095
 91
        4
280
     0
281
     0
  0
CLASS
  1
MATERIAL
  2
AcDbMaterial
  3
ObjectDBX Classes
 90
     1153
 91
        4
280
     0
281
     0
  0
CLASS
  1
SCALE
  2
AcDbScale
  3
ObjectDBX Classes
 90
     1153
 91
        4
280
     0
281
     0
  0
CLASS
  1
SUN
  2
AcDbSun
  3
SCENEOE
 90
     1153
 91
        4
280
     0
281
     0
  0
CLASS
  1
DICTIONARYVAR
  2
AcDbDictionaryVar
  3
ObjectDBX Classes
 90
        0
 91
        4
280
     0
281
     0
  0
ENDSEC
  0
SECTION
  2
TABLES
  0
TABLE
  2
VPORT
  5
8
330
0
100
AcDbSymbolTable
 70
     1
  0
VPORT
  5
29
330
8
100
AcDbSymbolTableRecord
100
AcDbViewportTableRecord
  2
*Active
 70
     0
 10
0.0
 20
0.0
 11
1.0
 21
1.0
 12
10.42990654205607
 22
4.5
 13
0.0
 23
0.0
 14
0.5
 24
0.5
 15
0.5
 25
0.5
 16
0.0
 26
0.0
 36
1.0
 17
0.0
 27
0.0
 37
0.0
 40
9.0
 41
1.972972972850329
 42
50.0
 43
0.0
 44
0.0
 50
0.0
 51
0.0
 71
     0
 72
   100
 73
     1
 74
     3
 75
     0
 76
     0
 77
     0
 78
     0
281
     0
 65
     1
110
0.0
120
0.0
130
0.0
111
1.0
121
0.0
131
0.0
112
0.0
122
1.0
132
0.0
 79
     0
146
0.0
 60
     3
 61
     5
292
     1
282
     1
141
0.0
142
0.0
 63
   250
361
69
  0
ENDTAB
  0
TABLE
  2
LTYPE
  5
5
330
0
100
AcDbSymbolTable
 70
     9
  0
LTYPE
  5
14
330
5
100
AcDbSymbolTableRecord
100
AcDbLinetypeTableRecord
  2
ByBlock
 70
     0
  3

 72
    65
 73
     0
 40
0.0
  0
LTYPE
  5
15
330
5
100
AcDbSymbolTableRecord
100
AcDbLinetypeTableRecord
  2
ByLayer
 70
     0
  3

 72
    65
 73
     0
 40
0.0
  0
LTYPE
  5
16
330
5
100
AcDbSymbolTableRecord
100
AcDbLinetypeTableRecord
  2
Continuous
 70
     0
  3
Solid line
 72
    65
 73
     0
 40
0.0
  0
LTYPE
  5
B9
330
5
100
AcDbSymbolTableRecord
100
AcDbLinetypeTableRecord
  2
DOT
 70
     0
  3
DOT
 72
    65
 73
     2
 40
4.0
 49
6.0
 74
     0
 49
-2.0
 74
     0
  0
LTYPE
  5
BA
330
5
100
AcDbSymbolTableRecord
100
AcDbLinetypeTableRecord
  2
HIDDEN
 70
     0
  3
HIDDEN
 72
    65
 73
     2
 40
4.2
 49
8.4
 74
     0
 49
-4.2
 74
     0
  0
LTYPE
  5
BB
330
5
100
AcDbSymbolTableRecord
100
AcDbLinetypeTableRecord
  2
DASHDOT
 70
     0
  3
DASHDOT
 72
    65
 73
     4
 40
14.5
 49
30.0
 74
     0
 49
-9.0
 74
     0
 49
2.5
 74
     0
 49
-9.0
 74
     0
  0
LTYPE
  5
BC
330
5
100
AcDbSymbolTableRecord
100
AcDbLinetypeTableRecord
  2
PHANTOM
 70
     0
  3
PHANTOM
 72
    65
 73
     6
 40
12.0
 49
30.0
 74
     0
 49
-9.0
 74
     0
 49
2.5
 74
     0
 49
-5.0
 74
     0
 49
2.5
 74
     0
 49
-9.0
 74
     0
  0
LTYPE
  5
BD
330
5
100
AcDbSymbolTableRecord
100
AcDbLinetypeTableRecord
  2
ACAD_ISO14W100
 70
     0
  3
ACAD_ISO14W100
 72
    65
 73
     8
 40
1.5
 49
12.0
 74
     0
 49
-3.0
 74
     0
 49
0.5
 74
     0
 49
-3.0
 74
     0
 49
0.5
 74
     0
 49
-3.0
 74
     0
 49
0.5
 74
     0
 49
-3.0
 74
     0
  0
LTYPE
  5
BE
330
5
100
AcDbSymbolTableRecord
100
AcDbLinetypeTableRecord
  2
ACAD_ISO06W100
 70
     0
  3
ACAD_ISO06W100
 72
    65
 73
     8
 40
13.5
 49
24.0
 74
     0
 49
-3.0
 74
     0
 49
0.5
 74
     0
 49
-3.0
 74
     0
 49
0.5
 74
     0
 49
-3.0
 74
     0
 49
0.5
 74
     0
 49
-3.0
 74
     0
  0
LTYPE
  5
BF
330
5
100
AcDbSymbolTableRecord
100
AcDbLinetypeTableRecord
  2
ACAD_ISO11W100
 70
     0
  3
ACAD_ISO11W100
 72
    65
 73
     6
 40
15.5
 49
12.0
 74
     0
 49
-3.0
 74
     0
 49
12.0
 74
     0
 49
-3.0
 74
     0
 49
0.5
 74
     0
 49
-3.0
 74
     0
  0
LTYPE
  5
C0
330
5
100
AcDbSymbolTableRecord
100
AcDbLinetypeTableRecord
  2
ACAD_ISO13W100
 70
     0
  3
ACAD_ISO13W100
 72
    65
 73
     8
 40
13.0
 49
12.0
 74
     0
 49
-3.0
 74
     0
 49
12.0
 74
     0
 49
-3.0
 74
     0
 49
0.5
 74
     0
 49
-3.0
 74
     0
 49
0.5
 74
     0
 49
-3.0
 74
     0
  0
ENDTAB
  0
TABLE
  2
LAYER
  5
2
330
0
100
AcDbSymbolTable
 70
    12
  0
LAYER
  5
10
330
2
100
AcDbSymbolTableRecord
100
AcDbLayerTableRecord
  2
0
 70
     0
 62
     7
  6
Continuous
370
    -3
390
F
347
46
348
0
  0
LAYER
  5
C1
330
2
100
AcDbSymbolTableRecord
100
AcDbLayerTableRecord
  2
1
 70
     0
 62
     7
  6
Continuous
370
     9
390
F
347
46
348
0
  0
LAYER
  5
C2
330
2
100
AcDbSymbolTableRecord
100
AcDbLayerTableRecord
  2
2
 70
     0
 62
   151
  6
Continuous
370
    20
390
F
347
46
348
0
  0
LAYER
  5
C3
330
2
100
AcDbSymbolTableRecord
100
AcDbLayerTableRecord
  2
3
 70
     0
 62
     1
  6
DASHDOT
370
     9
390
F
347
46
348
0
  0
LAYER
  5
C4
330
2
100
AcDbSymbolTableRecord
100
AcDbLayerTableRecord
  2
4
 70
     0
 62
     7
  6
Continuous
370
     9
390
F
347
46
348
0
  0
LAYER
  5
C5
330
2
100
AcDbSymbolTableRecord
100
AcDbLayerTableRecord
  2
5
 70
     0
 62
     1
  6
Continuous
370
    25
390
F
347
46
348
0
  0
LAYER
  5
C6
330
2
100
AcDbSymbolTableRecord
100
AcDbLayerTableRecord
  2
6
 70
     0
 62
     6
  6
Continuous
370
     9
390
F
347
46
348
0
  0
LAYER
  5
C7
330
2
100
AcDbSymbolTableRecord
100
AcDbLayerTableRecord
  2
7
 70
     0
 62
     3
  6
Continuous
370
    40
390
F
347
46
348
0
  0
LAYER
  5
C8
330
2
100
AcDbSymbolTableRecord
100
AcDbLayerTableRecord
  2
8
 70
     0
 62
     4
  6
Continuous
370
     9
390
F
347
46
348
0
  0
LAYER
  5
C9
330
2
100
AcDbSymbolTableRecord
100
AcDbLayerTableRecord
  2
9
 70
     0
 62
     7
  6
Continuous
370
    25
390
F
347
46
348
0
  0
LAYER
  5
CA
330
2
100
AcDbSymbolTableRecord
100
AcDbLayerTableRecord
  2
10
 70
     0
 62
     2
  6
Continuous
370
     9
390
F
347
46
348
0
  0
LAYER
  5
CB
330
2
100
AcDbSymbolTableRecord
100
AcDbLayerTableRecord
  2
11
 70
     0
 62
     3
  6
HIDDEN
370
     9
390
F
347
46
348
0
  0
ENDTAB
  0
TABLE
  2
STYLE
  5
3
330
0
100
AcDbSymbolTable
 70
     3
  0
STYLE
  5
11
330
3
100
AcDbSymbolTableRecord
100
AcDbTextStyleTableRecord
  2
Standard
 70
     0
 40
0.0
 41
1.0
 50
0.0
 71
     0
 42
5.6
  3
txt
  4
bigfont
  0
STYLE
  5
6C
330
3
100
AcDbSymbolTableRecord
100
AcDbTextStyleTableRecord
  2
T_STANDARD
 70
     4
 40
10.0
 41
1.0
 50
0.0
 71
     0
 42
5.6
  3
txt
  4
bigfont
1001
ACAD
1000

1071
      256
  0
STYLE
  5
F9
330
3
100
AcDbSymbolTableRecord
100
AcDbTextStyleTableRecord
  2
ＭＳ ゴシック
 70
     0
 40
0.0
 41
1.0
 50
0.0
 71
     0
 42
5.6
  3

  4

1001
ACAD
1000
ＭＳ ゴシック
1071
      256
  0
ENDTAB
  0
TABLE
  2
VIEW
  5
6
330
0
100
AcDbSymbolTable
 70
     0
  0
ENDTAB
  0
TABLE
  2
UCS
  5
7
330
0
100
AcDbSymbolTable
 70
     0
  0
ENDTAB
  0
TABLE
  2
APPID
  5
9
330
0
100
AcDbSymbolTable
 70
     2
  0
APPID
  5
12
330
9
100
AcDbSymbolTableRecord
100
AcDbRegAppTableRecord
  2
ACAD
 70
     0
  0
APPID
  5
6B
330
9
100
AcDbSymbolTableRecord
100
AcDbRegAppTableRecord
  2
ODA
 70
     0
  0
ENDTAB
  0
TABLE
  2
DIMSTYLE
  5
A
330
0
100
AcDbSymbolTable
 70
     1
100
AcDbDimStyleTable
  0
DIMSTYLE
105
27
102
{ACAD_REACTORS
330
103
330
150
330
15A
330
238
330
242
330
24C
330
256
330
260
330
26A
330
274
330
27E
330
288
330
292
330
29A
330
2A2
102
}
330
A
100
AcDbSymbolTableRecord
100
AcDbDimStyleTableRecord
  2
Standard
 70
     0
178
     0
340
11
  0
ENDTAB
  0
TABLE
  2
BLOCK_RECORD
  5
1
330
0
100
AcDbSymbolTable
 70
    32
  0
BLOCK_RECORD
  5
1F
330
1
100
AcDbSymbolTableRecord
100
AcDbBlockTableRecord
  2
*Model_Space
340
22
 70
     0
280
     1
281
     0
  0
BLOCK_RECORD
  5
1B
330
1
100
AcDbSymbolTableRecord
100
AcDbBlockTableRecord
  2
*Paper_Space
340
1E
 70
     0
280
     1
281
     0
  0
BLOCK_RECORD
  5
23
330
1
100
AcDbSymbolTableRecord
100
AcDbBlockTableRecord
  2
*Paper_Space0
340
26
 70
     0
280
     1
281
     0
  0
BLOCK_RECORD
  5
6D
330
1
100
AcDbSymbolTableRecord
100
AcDbBlockTableRecord
  2
_ORIGIN
340
0
 70
     0
280
     1
281
     0
  0
BLOCK_RECORD
  5
72
330
1
100
AcDbSymbolTableRecord
100
AcDbBlockTableRecord
  2
_DOTBLANK
340
0
 70
     0
280
     1
281
     0
  0
BLOCK_RECORD
  5
77
330
1
100
AcDbSymbolTableRecord
100
AcDbBlockTableRecord
  2
_DOT
340
0
 70
     0
280
     1
281
     0
  0
BLOCK_RECORD
  5
7C
330
1
100
AcDbSymbolTableRecord
100
AcDbBlockTableRecord
  2
_OPEN
340
0
102
{BLKREFS
331
174
102
}
 70
     0
280
     1
281
     0
  0
BLOCK_RECORD
  5
82
330
1
100
AcDbSymbolTableRecord
100
AcDbBlockTableRecord
  2
_CLOSED
340
0
 70
     0
280
     1
281
     0
  0
BLOCK_RECORD
  5
89
330
1
100
AcDbSymbolTableRecord
100
AcDbBlockTableRecord
  2
_CLOSEDBLANK
340
0
 70
     0
280
     1
281
     0
  0
BLOCK_RECORD
  5
8F
330
1
100
AcDbSymbolTableRecord
100
AcDbBlockTableRecord
  2
_ARROWFILLED
340
0
102
{BLKREFS
331
101
331
102
331
14E
331
14F
331
158
331
159
331
236
331
237
331
240
331
241
331
24A
331
24B
331
254
331
255
331
25E
331
25F
331
268
331
269
331
272
331
273
331
27C
331
27D
331
286
331
287
331
290
331
291
331
298
331
299
331
2A0
331
2A1
102
}
 70
     0
280
     1
281
     0
  0
BLOCK_RECORD
  5
93
330
1
100
AcDbSymbolTableRecord
100
AcDbBlockTableRecord
  2
_BOXBLANK
340
0
 70
     0
280
     1
281
     0
  0
BLOCK_RECORD
  5
9B
330
1
100
AcDbSymbolTableRecord
100
AcDbBlockTableRecord
  2
_BOXFILLED
340
0
 70
     0
280
     1
281
     0
  0
BLOCK_RECORD
  5
A0
330
1
100
AcDbSymbolTableRecord
100
AcDbBlockTableRecord
  2
_INTEGRAL
340
0
 70
     0
280
     1
281
     0
  0
BLOCK_RECORD
  5
A5
330
1
100
AcDbSymbolTableRecord
100
AcDbBlockTableRecord
  2
_OBLIQUE
340
0
 70
     0
280
     1
281
     0
  0
BLOCK_RECORD
  5
A9
330
1
100
AcDbSymbolTableRecord
100
AcDbBlockTableRecord
  2
_NONE
340
0
 70
     0
280
     1
281
     0
  0
BLOCK_RECORD
  5
AC
330
1
100
AcDbSymbolTableRecord
100
AcDbBlockTableRecord
  2
MARK_OPEN
340
0
 70
     0
280
     1
281
     0
  0
BLOCK_RECORD
  5
B1
330
1
100
AcDbSymbolTableRecord
100
AcDbBlockTableRecord
  2
MARK_ORIGIN
340
0
 70
     0
280
     1
281
     0
  0
BLOCK_RECORD
  5
B5
330
1
100
AcDbSymbolTableRecord
100
AcDbBlockTableRecord
  2
MARK_DOT
340
0
 70
     0
280
     1
281
     0
  0
BLOCK_RECORD
  5
FA
330
1
100
AcDbSymbolTableRecord
100
AcDbBlockTableRecord
  2
Dim1
340
0
 70
     0
280
     1
281
     0
  0
BLOCK_RECORD
  5
147
330
1
100
AcDbSymbolTableRecord
100
AcDbBlockTableRecord
  2
Dim2
340
0
 70
     0
280
     1
281
     0
  0
BLOCK_RECORD
  5
151
330
1
100
AcDbSymbolTableRecord
100
AcDbBlockTableRecord
  2
Dim3
340
0
 70
     0
280
     1
281
     0
  0
BLOCK_RECORD
  5
22F
330
1
100
AcDbSymbolTableRecord
100
AcDbBlockTableRecord
  2
Dim4
340
0
 70
     0
280
     1
281
     0
  0
BLOCK_RECORD
  5
239
330
1
100
AcDbSymbolTableRecord
100
AcDbBlockTableRecord
  2
Dim5
340
0
 70
     0
280
     1
281
     0
  0
BLOCK_RECORD
  5
243
330
1
100
AcDbSymbolTableRecord
100
AcDbBlockTableRecord
  2
Dim6
340
0
 70
     0
280
     1
281
     0
  0
BLOCK_RECORD
  5
24D
330
1
100
AcDbSymbolTableRecord
100
AcDbBlockTableRecord
  2
Dim7
340
0
 70
     0
280
     1
281
     0
  0
BLOCK_RECORD
  5
257
330
1
100
AcDbSymbolTableRecord
100
AcDbBlockTableRecord
  2
Dim8
340
0
 70
     0
280
     1
281
     0
  0
BLOCK_RECORD
  5
261
330
1
100
AcDbSymbolTableRecord
100
AcDbBlockTableRecord
  2
Dim9
340
0
 70
     0
280
     1
281
     0
  0
BLOCK_RECORD
  5
26B
330
1
100
AcDbSymbolTableRecord
100
AcDbBlockTableRecord
  2
Dim10
340
0
 70
     0
280
     1
281
     0
  0
BLOCK_RECORD
  5
275
330
1
100
AcDbSymbolTableRecord
100
AcDbBlockTableRecord
  2
Dim11
340
0
 70
     0
280
     1
281
     0
  0
BLOCK_RECORD
  5
27F
330
1
100
AcDbSymbolTableRecord
100
AcDbBlockTableRecord
  2
Dim12
340
0
 70
     0
280
     1
281
     0
  0
BLOCK_RECORD
  5
289
330
1
100
AcDbSymbolTableRecord
100
AcDbBlockTableRecord
  2
Dim13
340
0
 70
     0
280
     1
281
     0
  0
BLOCK_RECORD
  5
293
330
1
100
AcDbSymbolTableRecord
100
AcDbBlockTableRecord
  2
Dim14
340
0
 70
     0
280
     1
281
     0
  0
BLOCK_RECORD
  5
29B
330
1
100
AcDbSymbolTableRecord
100
AcDbBlockTableRecord
  2
Dim15
340
0
 70
     0
280
     1
281
     0
  0
BLOCK_RECORD
  5
2AC
330
1
100
AcDbSymbolTableRecord
100
AcDbBlockTableRecord
  2
*G31
340
0
102
{BLKREFS
331
2B5
102
}
 70
     0
280
     1
281
     0
  0
ENDTAB
  0
ENDSEC
  0
SECTION
  2
BLOCKS
  0
BLOCK
  5
20
330
1F
100
AcDbEntity
  8
0
100
AcDbBlockBegin
  2
*Model_Space
 70
     0
 10
0.0
 20
0.0
 30
0.0
  3
*Model_Space
  1
*Model_Space
  0
ENDBLK
  5
21
330
1F
100
AcDbEntity
  8
0
100
AcDbBlockEnd
  0
BLOCK
  5
1C
330
1B
100
AcDbEntity
 67
     1
  8
0
100
AcDbBlockBegin
  2
*Paper_Space
 70
     0
 10
0.0
 20
0.0
 30
0.0
  3
*Paper_Space
  1
*Paper_Space
  0
ENDBLK
  5
1D
330
1B
100
AcDbEntity
 67
     1
  8
0
100
AcDbBlockEnd
  0
BLOCK
  5
24
330
23
100
AcDbEntity
  8
0
100
AcDbBlockBegin
  2
*Paper_Space0
 70
     0
 10
0.0
 20
0.0
 30
0.0
  3
*Paper_Space0
  1
*Paper_Space0
  0
ENDBLK
  5
25
330
23
100
AcDbEntity
  8
0
100
AcDbBlockEnd
  0
BLOCK
  5
70
330
6D
100
AcDbEntity
  8
0
100
AcDbBlockBegin
  2
_ORIGIN
 70
     0
 10
0.0
 20
0.0
 30
0.0
  3
_ORIGIN
  1
_ORIGIN
  0
CIRCLE
  5
6E
330
6D
100
AcDbEntity
  8
0
 62
     0
100
AcDbCircle
 10
0.0
 20
0.0
 30
0.0
 40
0.5
  0
LINE
  5
6F
330
6D
100
AcDbEntity
  8
0
 62
     0
100
AcDbLine
 10
0.0
 20
0.0
 30
0.0
 11
-1.0
 21
0.0
 31
0.0
  0
ENDBLK
  5
71
330
6D
100
AcDbEntity
  8
0
100
AcDbBlockEnd
  0
BLOCK
  5
75
330
72
100
AcDbEntity
  8
0
100
AcDbBlockBegin
  2
_DOTBLANK
 70
     0
 10
0.0
 20
0.0
 30
0.0
  3
_DOTBLANK
  1
_DOTBLANK
  0
CIRCLE
  5
73
330
72
100
AcDbEntity
  8
0
 62
     0
100
AcDbCircle
 10
0.0
 20
0.0
 30
0.0
 40
0.5
  0
LINE
  5
74
330
72
100
AcDbEntity
  8
0
 62
     0
100
AcDbLine
 10
-0.5
 20
0.0
 30
0.0
 11
-1.0
 21
0.0
 31
0.0
  0
ENDBLK
  5
76
330
72
100
AcDbEntity
  8
0
100
AcDbBlockEnd
  0
BLOCK
  5
7A
330
77
100
AcDbEntity
  8
0
100
AcDbBlockBegin
  2
_DOT
 70
     0
 10
0.0
 20
0.0
 30
0.0
  3
_DOT
  1
_DOT
  0
LWPOLYLINE
  5
78
330
77
100
AcDbEntity
  8
0
 62
     0
100
AcDbPolyline
 90
        2
 70
     1
 43
0.5
 10
-0.25
 20
0.0
 42
1.0
 10
0.25
 20
0.0
 42
1.0
  0
LINE
  5
79
330
77
100
AcDbEntity
  8
0
 62
     0
100
AcDbLine
 10
-0.5
 20
0.0
 30
0.0
 11
-1.0
 21
0.0
 31
0.0
  0
ENDBLK
  5
7B
330
77
100
AcDbEntity
  8
0
100
AcDbBlockEnd
  0
BLOCK
  5
80
330
7C
100
AcDbEntity
  8
0
100
AcDbBlockBegin
  2
_OPEN
 70
     0
 10
0.0
 20
0.0
 30
0.0
  3
_OPEN
  1
_OPEN
  0
LINE
  5
7D
330
7C
100
AcDbEntity
  8
0
 62
     0
100
AcDbLine
 10
0.0
 20
0.0
 30
0.0
 11
-1.0
 21
0.1666666666666667
 31
0.0
  0
LINE
  5
7E
330
7C
100
AcDbEntity
  8
0
 62
     0
100
AcDbLine
 10
0.0
 20
0.0
 30
0.0
 11
-1.0
 21
-0.1666666666666667
 31
0.0
  0
LINE
  5
7F
330
7C
100
AcDbEntity
  8
0
 62
     0
100
AcDbLine
 10
0.0
 20
0.0
 30
0.0
 11
-1.0
 21
0.0
 31
0.0
  0
ENDBLK
  5
81
330
7C
100
AcDbEntity
  8
0
100
AcDbBlockEnd
  0
BLOCK
  5
87
330
82
100
AcDbEntity
  8
0
100
AcDbBlockBegin
  2
_CLOSED
 70
     0
 10
0.0
 20
0.0
 30
0.0
  3
_CLOSED
  1
_CLOSED
  0
LINE
  5
83
330
82
100
AcDbEntity
  8
0
 62
     0
100
AcDbLine
 10
0.0
 20
0.0
 30
0.0
 11
-1.0
 21
0.1666666666666667
 31
0.0
  0
LINE
  5
84
330
82
100
AcDbEntity
  8
0
 62
     0
100
AcDbLine
 10
0.0
 20
0.0
 30
0.0
 11
-1.0
 21
-0.1666666666666667
 31
0.0
  0
LINE
  5
85
330
82
100
AcDbEntity
  8
0
 62
     0
100
AcDbLine
 10
-1.0
 20
0.1666666666666667
 30
0.0
 11
-1.0
 21
-0.1666666666666667
 31
0.0
  0
LINE
  5
86
330
82
100
AcDbEntity
  8
0
 62
     0
100
AcDbLine
 10
0.0
 20
0.0
 30
0.0
 11
-1.0
 21
0.0
 31
0.0
  0
ENDBLK
  5
88
330
82
100
AcDbEntity
  8
0
100
AcDbBlockEnd
  0
BLOCK
  5
8D
330
89
100
AcDbEntity
  8
0
100
AcDbBlockBegin
  2
_CLOSEDBLANK
 70
     0
 10
0.0
 20
0.0
 30
0.0
  3
_CLOSEDBLANK
  1
_CLOSEDBLANK
  0
LINE
  5
8A
330
89
100
AcDbEntity
  8
0
 62
     0
100
AcDbLine
 10
0.0
 20
0.0
 30
0.0
 11
-1.0
 21
0.1666666666666667
 31
0.0
  0
LINE
  5
8B
330
89
100
AcDbEntity
  8
0
 62
     0
100
AcDbLine
 10
0.0
 20
0.0
 30
0.0
 11
-1.0
 21
-0.1666666666666667
 31
0.0
  0
LINE
  5
8C
330
89
100
AcDbEntity
  8
0
 62
     0
100
AcDbLine
 10
-1.0
 20
0.1666666666666667
 30
0.0
 11
-1.0
 21
-0.1666666666666667
 31
0.0
  0
ENDBLK
  5
8E
330
89
100
AcDbEntity
  8
0
100
AcDbBlockEnd
  0
BLOCK
  5
91
330
8F
100
AcDbEntity
  8
0
100
AcDbBlockBegin
  2
_ARROWFILLED
 70
     0
 10
0.0
 20
0.0
 30
0.0
  3
_ARROWFILLED
  1
_ARROWFILLED
  0
SOLID
  5
90
330
8F
100
AcDbEntity
  8
0
 62
     0
100
AcDbTrace
 10
0.0
 20
0.0
 30
0.0
 11
-1.0
 21
-0.1666666666666667
 31
0.0
 12
-1.0
 22
0.1666666666666667
 32
0.0
 13
0.0
 23
0.0
 33
0.0
  0
ENDBLK
  5
92
330
8F
100
AcDbEntity
  8
0
100
AcDbBlockEnd
  0
BLOCK
  5
99
330
93
100
AcDbEntity
  8
0
100
AcDbBlockBegin
  2
_BOXBLANK
 70
     0
 10
0.0
 20
0.0
 30
0.0
  3
_BOXBLANK
  1
_BOXBLANK
  0
LINE
  5
94
330
93
100
AcDbEntity
  8
0
 62
     0
100
AcDbLine
 10
-0.5
 20
-0.5
 30
0.0
 11
0.5
 21
-0.5
 31
0.0
  0
LINE
  5
95
330
93
100
AcDbEntity
  8
0
 62
     0
100
AcDbLine
 10
0.5
 20
-0.5
 30
0.0
 11
0.5
 21
0.5
 31
0.0
  0
LINE
  5
96
330
93
100
AcDbEntity
  8
0
 62
     0
100
AcDbLine
 10
0.5
 20
0.5
 30
0.0
 11
-0.5
 21
0.5
 31
0.0
  0
LINE
  5
97
330
93
100
AcDbEntity
  8
0
 62
     0
100
AcDbLine
 10
-0.5
 20
0.5
 30
0.0
 11
-0.5
 21
-0.5
 31
0.0
  0
LINE
  5
98
330
93
100
AcDbEntity
  8
0
 62
     0
100
AcDbLine
 10
-0.5
 20
0.0
 30
0.0
 11
-1.0
 21
0.0
 31
0.0
  0
ENDBLK
  5
9A
330
93
100
AcDbEntity
  8
0
100
AcDbBlockEnd
  0
BLOCK
  5
9E
330
9B
100
AcDbEntity
  8
0
100
AcDbBlockBegin
  2
_BOXFILLED
 70
     0
 10
0.0
 20
0.0
 30
0.0
  3
_BOXFILLED
  1
_BOXFILLED
  0
SOLID
  5
9C
330
9B
100
AcDbEntity
  8
0
 62
     0
100
AcDbTrace
 10
-0.5
 20
0.5
 30
0.0
 11
0.5
 21
0.5
 31
0.0
 12
-0.5
 22
-0.5
 32
0.0
 13
0.5
 23
-0.5
 33
0.0
  0
LINE
  5
9D
330
9B
100
AcDbEntity
  8
0
 62
     0
100
AcDbLine
 10
-0.5
 20
0.0
 30
0.0
 11
-1.0
 21
0.0
 31
0.0
  0
ENDBLK
  5
9F
330
9B
100
AcDbEntity
  8
0
100
AcDbBlockEnd
  0
BLOCK
  5
A3
330
A0
100
AcDbEntity
  8
0
100
AcDbBlockBegin
  2
_INTEGRAL
 70
     0
 10
0.0
 20
0.0
 30
0.0
  3
_INTEGRAL
  1
_INTEGRAL
  0
ARC
  5
A1
330
A0
100
AcDbEntity
  8
0
 62
     0
100
AcDbCircle
 10
0.444888
 20
-0.0913346
 30
0.0
 40
0.4541666
100
AcDbArc
 50
101.9999999999999
 51
167.9999999999998
  0
ARC
  5
A2
330
A0
100
AcDbEntity
  8
0
 62
     0
100
AcDbCircle
 10
-0.444888
 20
0.0913346
 30
0.0
 40
0.4541666
100
AcDbArc
 50
281.9999999999997
 51
347.9999999999997
  0
ENDBLK
  5
A4
330
A0
100
AcDbEntity
  8
0
100
AcDbBlockEnd
  0
BLOCK
  5
A7
330
A5
100
AcDbEntity
  8
0
100
AcDbBlockBegin
  2
_OBLIQUE
 70
     0
 10
0.0
 20
0.0
 30
0.0
  3
_OBLIQUE
  1
_OBLIQUE
  0
LINE
  5
A6
330
A5
100
AcDbEntity
  8
0
 62
     0
100
AcDbLine
 10
-0.5
 20
-0.5
 30
0.0
 11
0.5
 21
0.5
 31
0.0
  0
ENDBLK
  5
A8
330
A5
100
AcDbEntity
  8
0
100
AcDbBlockEnd
  0
BLOCK
  5
AA
330
A9
100
AcDbEntity
  8
0
100
AcDbBlockBegin
  2
_NONE
 70
     0
 10
0.0
 20
0.0
 30
0.0
  3
_NONE
  1
_NONE
  0
ENDBLK
  5
AB
330
A9
100
AcDbEntity
  8
0
100
AcDbBlockEnd
  0
BLOCK
  5
AF
330
AC
100
AcDbEntity
  8
0
100
AcDbBlockBegin
  2
MARK_OPEN
 70
     0
 10
0.0
 20
0.0
 30
0.0
  3
MARK_OPEN
  1
MARK_OPEN
  0
LINE
  5
AD
330
AC
100
AcDbEntity
  8
0
 62
     0
100
AcDbLine
 10
0.0
 20
0.0
 30
0.0
 11
-1.0
 21
0.1666666666666667
 31
0.0
  0
LINE
  5
AE
330
AC
100
AcDbEntity
  8
0
 62
     0
100
AcDbLine
 10
0.0
 20
0.0
 30
0.0
 11
-1.0
 21
-0.1666666666666667
 31
0.0
  0
ENDBLK
  5
B0
330
AC
100
AcDbEntity
  8
0
100
AcDbBlockEnd
  0
BLOCK
  5
B3
330
B1
100
AcDbEntity
  8
0
100
AcDbBlockBegin
  2
MARK_ORIGIN
 70
     0
 10
0.0
 20
0.0
 30
0.0
  3
MARK_ORIGIN
  1
MARK_ORIGIN
  0
CIRCLE
  5
B2
330
B1
100
AcDbEntity
  8
0
 62
     0
100
AcDbCircle
 10
0.0
 20
0.0
 30
0.0
 40
0.5
  0
ENDBLK
  5
B4
330
B1
100
AcDbEntity
  8
0
100
AcDbBlockEnd
  0
BLOCK
  5
B7
330
B5
100
AcDbEntity
  8
0
100
AcDbBlockBegin
  2
MARK_DOT
 70
     0
 10
0.0
 20
0.0
 30
0.0
  3
MARK_DOT
  1
MARK_DOT
  0
LWPOLYLINE
  5
B6
330
B5
100
AcDbEntity
  8
0
 62
     0
100
AcDbPolyline
 90
        2
 70
     1
 43
0.5
 10
-0.25
 20
0.0
 42
1.0
 10
0.25
 20
0.0
 42
1.0
  0
ENDBLK
  5
B8
330
B5
100
AcDbEntity
  8
0
100
AcDbBlockEnd
  0
BLOCK
  5
FB
330
FA
100
AcDbEntity
  8
0
100
AcDbBlockBegin
  2
Dim1
 70
     0
 10
0.0
 20
0.0
 30
0.0
  3
Dim1
  1
Dim1
  0
LINE
  5
FD
330
FA
100
AcDbEntity
  8
8
  6
Continuous
 62
     4
370
     9
100
AcDbLine
 10
580.2837502495788
 20
141.6194326620563
 30
0.0
 11
580.2837502495788
 21
122.8694326620567
 31
0.0
  0
LINE
  5
FE
330
FA
100
AcDbEntity
  8
8
  6
Continuous
 62
     4
370
     9
100
AcDbLine
 10
579.283750249577
 20
141.6194326620563
 30
0.0
 11
579.283750249577
 21
122.8694326620567
 31
0.0
  0
LINE
  5
FF
330
FA
100
AcDbEntity
  8
8
  6
Continuous
 62
     4
370
     9
100
AcDbLine
 10
587.4087502495788
 20
125.1194326620567
 30
0.0
 11
573.283750249577
 21
125.1194326620567
 31
0.0
  0
MTEXT
  5
100
330
FA
100
AcDbEntity
  8
8
  6
Continuous
 62
     4
370
     9
100
AcDbMText
 10
587.4087502495788
 20
125.1194326620567
 30
0.0
 40
4.5
 41
5.357142857142858
 46
4.5
 71
     4
 72
     1
  1
1
  7
ＭＳ ゴシック
 73
     1
 44
1.0
1001
ACAD
1000
ACAD_MTEXT_DEFINED_HEIGHT_BEGIN
1070
    46
1040
4.5
1000
ACAD_MTEXT_DEFINED_HEIGHT_END
  0
INSERT
  5
101
330
FA
100
AcDbEntity
  8
8
  6
Continuous
 62
     4
370
     9
100
AcDbBlockReference
  2
_ARROWFILLED
 10
580.2837502495788
 20
125.1194326620567
 30
0.0
 41
3.0
 42
3.0
 43
3.0
 50
179.9999999999995
  0
INSERT
  5
102
330
FA
100
AcDbEntity
  8
8
  6
Continuous
 62
     4
370
     9
100
AcDbBlockReference
  2
_ARROWFILLED
 10
579.283750249577
 20
125.1194326620567
 30
0.0
 41
3.0
 42
3.0
 43
3.0
 50
359.9999999999997
  0
ENDBLK
  5
FC
330
FA
100
AcDbEntity
  8
0
100
AcDbBlockEnd
  0
BLOCK
  5
148
330
147
100
AcDbEntity
  8
0
100
AcDbBlockBegin
  2
Dim2
 70
     0
 10
0.0
 20
0.0
 30
0.0
  3
Dim2
  1
Dim2
  0
LINE
  5
14A
330
147
100
AcDbEntity
  8
8
  6
Continuous
 62
     4
370
     9
100
AcDbLine
 10
457.6304967168928
 20
219.1194326620563
 30
0.0
 11
457.6304967168927
 21
98.8694326620568
 31
0.0
  0
LINE
  5
14B
330
147
100
AcDbEntity
  8
8
  6
Continuous
 62
     4
370
     9
100
AcDbLine
 10
439.6304967168928
 20
156.6194326620563
 30
0.0
 11
439.6304967168927
 21
98.8694326620568
 31
0.0
  0
LINE
  5
14C
330
147
100
AcDbEntity
  8
8
  6
Continuous
 62
     4
370
     9
100
AcDbLine
 10
463.6304967168929
 20
101.1194326620568
 30
0.0
 11
439.6304967168927
 21
101.1194326620568
 31
0.0
  0
MTEXT
  5
14D
330
147
100
AcDbEntity
  8
8
  6
Continuous
 62
     4
370
     9
100
AcDbMText
 10
463.6304967168929
 20
101.1194326620567
 30
0.0
 40
4.5
 41
64.28571428571428
 46
4.5
 71
     4
 72
     1
  1
(18)
  7
ＭＳ ゴシック
 73
     1
 44
1.0
1001
ACAD
1000
ACAD_MTEXT_DEFINED_HEIGHT_BEGIN
1070
    46
1040
4.5
1000
ACAD_MTEXT_DEFINED_HEIGHT_END
  0
INSERT
  5
14E
330
147
100
AcDbEntity
  8
8
  6
Continuous
 62
     4
370
     9
100
AcDbBlockReference
  2
_ARROWFILLED
 10
457.6304967168927
 20
101.1194326620568
 30
0.0
 41
3.0
 42
3.0
 43
3.0
 50
359.9999999999997
  0
INSERT
  5
14F
330
147
100
AcDbEntity
  8
8
  6
Continuous
 62
     4
370
     9
100
AcDbBlockReference
  2
_ARROWFILLED
 10
439.6304967168927
 20
101.1194326620568
 30
0.0
 41
3.0
 42
3.0
 43
3.0
 50
179.9999999999998
  0
ENDBLK
  5
149
330
147
100
AcDbEntity
  8
0
100
AcDbBlockEnd
  0
BLOCK
  5
152
330
151
100
AcDbEntity
  8
0
100
AcDbBlockBegin
  2
Dim3
 70
     0
 10
0.0
 20
0.0
 30
0.0
  3
Dim3
  1
Dim3
  0
LINE
  5
154
330
151
100
AcDbEntity
  8
8
  6
Continuous
 62
     4
370
     9
100
AcDbLine
 10
580.2837502495788
 20
141.6194326620563
 30
0.0
 11
580.2837502495788
 21
110.8694326620567
 31
0.0
  0
LINE
  5
155
330
151
100
AcDbEntity
  8
8
  6
Continuous
 62
     4
370
     9
100
AcDbLine
 10
559.8555470192953
 20
221.6194326620563
 30
0.0
 11
559.855547019295
 21
110.8694326620567
 31
0.0
  0
LINE
  5
156
330
151
100
AcDbEntity
  8
8
  6
Continuous
 62
     4
370
     9
100
AcDbLine
 10
587.4087502495788
 20
113.1194326620567
 30
0.0
 11
559.855547019295
 21
113.1194326620567
 31
0.0
  0
MTEXT
  5
157
330
151
100
AcDbEntity
  8
8
  6
Continuous
 62
     4
370
     9
100
AcDbMText
 10
587.4087502495788
 20
113.1194326620567
 30
0.0
 40
4.5
 41
96.42857142857142
 46
4.5
 71
     4
 72
     1
  1
(20.5)
  7
ＭＳ ゴシック
 73
     1
 44
1.0
1001
ACAD
1000
ACAD_MTEXT_DEFINED_HEIGHT_BEGIN
1070
    46
1040
4.5
1000
ACAD_MTEXT_DEFINED_HEIGHT_END
  0
INSERT
  5
158
330
151
100
AcDbEntity
  8
8
  6
Continuous
 62
     4
370
     9
100
AcDbBlockReference
  2
_ARROWFILLED
 10
580.2837502495788
 20
113.1194326620567
 30
0.0
 41
3.0
 42
3.0
 43
3.0
 50
359.9999999999997
  0
INSERT
  5
159
330
151
100
AcDbEntity
  8
8
  6
Continuous
 62
     4
370
     9
100
AcDbBlockReference
  2
_ARROWFILLED
 10
559.855547019295
 20
113.1194326620567
 30
0.0
 41
3.0
 42
3.0
 43
3.0
 50
179.9999999999998
  0
ENDBLK
  5
153
330
151
100
AcDbEntity
  8
0
100
AcDbBlockEnd
  0
BLOCK
  5
230
330
22F
100
AcDbEntity
  8
0
100
AcDbBlockBegin
  2
Dim4
 70
     0
 10
0.0
 20
0.0
 30
0.0
  3
Dim4
  1
Dim4
  0
LINE
  5
232
330
22F
100
AcDbEntity
  8
8
  6
Continuous
 62
     4
370
     9
100
AcDbLine
 10
212.1304967168928
 20
144.5194326620563
 30
0.0
 11
212.1304967168928
 21
122.8694326620567
 31
0.0
  0
LINE
  5
233
330
22F
100
AcDbEntity
  8
8
  6
Continuous
 62
     4
370
     9
100
AcDbLine
 10
337.1304967168919
 20
144.5194326620563
 30
0.0
 11
337.1304967168919
 21
122.8694326620567
 31
0.0
  0
LINE
  5
234
330
22F
100
AcDbEntity
  8
8
  6
Continuous
 62
     4
370
     9
100
AcDbLine
 10
212.1304967168928
 20
125.1194326620567
 30
0.0
 11
337.1304967168919
 21
125.1194326620567
 31
0.0
  0
MTEXT
  5
235
330
22F
100
AcDbEntity
  8
8
  6
Continuous
 62
     4
370
     9
100
AcDbMText
 10
274.6304967168933
 20
125.1194326620567
 30
0.0
 40
4.5
 41
54.64285714285714
 46
4.5
 71
     8
 72
     1
  1
125
  7
ＭＳ ゴシック
 73
     1
 44
1.0
1001
ACAD
1000
ACAD_MTEXT_DEFINED_HEIGHT_BEGIN
1070
    46
1040
4.5
1000
ACAD_MTEXT_DEFINED_HEIGHT_END
  0
INSERT
  5
236
330
22F
100
AcDbEntity
  8
8
  6
Continuous
 62
     4
370
     9
100
AcDbBlockReference
  2
_ARROWFILLED
 10
212.1304967168928
 20
125.1194326620567
 30
0.0
 41
3.0
 42
3.0
 43
3.0
 50
179.9999999999998
  0
INSERT
  5
237
330
22F
100
AcDbEntity
  8
8
  6
Continuous
 62
     4
370
     9
100
AcDbBlockReference
  2
_ARROWFILLED
 10
337.1304967168919
 20
125.1194326620567
 30
0.0
 41
3.0
 42
3.0
 43
3.0
 50
359.9999999999997
  0
ENDBLK
  5
231
330
22F
100
AcDbEntity
  8
0
100
AcDbBlockEnd
  0
BLOCK
  5
23A
330
239
100
AcDbEntity
  8
0
100
AcDbBlockBegin
  2
Dim5
 70
     0
 10
0.0
 20
0.0
 30
0.0
  3
Dim5
  1
Dim5
  0
LINE
  5
23C
330
239
100
AcDbEntity
  8
8
  6
Continuous
 62
     4
370
     9
100
AcDbLine
 10
124.6304967168928
 20
171.6194326620563
 30
0.0
 11
124.6304967168927
 21
110.8694326620567
 31
0.0
  0
LINE
  5
23D
330
239
100
AcDbEntity
  8
8
  6
Continuous
 62
     4
370
     9
100
AcDbLine
 10
424.6304967168928
 20
171.6194326620563
 30
0.0
 11
424.6304967168927
 21
110.8694326620567
 31
0.0
  0
LINE
  5
23E
330
239
100
AcDbEntity
  8
8
  6
Continuous
 62
     4
370
     9
100
AcDbLine
 10
124.6304967168927
 20
113.1194326620567
 30
0.0
 11
424.6304967168927
 21
113.1194326620567
 31
0.0
  0
MTEXT
  5
23F
330
239
100
AcDbEntity
  8
8
  6
Continuous
 62
     4
370
     9
100
AcDbMText
 10
274.6304967168928
 20
113.1194326620567
 30
0.0
 40
4.5
 41
57.85714285714285
 46
4.5
 71
     8
 72
     1
  1
300
  7
ＭＳ ゴシック
 73
     1
 44
1.0
1001
ACAD
1000
ACAD_MTEXT_DEFINED_HEIGHT_BEGIN
1070
    46
1040
4.5
1000
ACAD_MTEXT_DEFINED_HEIGHT_END
  0
INSERT
  5
240
330
239
100
AcDbEntity
  8
8
  6
Continuous
 62
     4
370
     9
100
AcDbBlockReference
  2
_ARROWFILLED
 10
124.6304967168927
 20
113.1194326620567
 30
0.0
 41
3.0
 42
3.0
 43
3.0
 50
179.9999999999998
  0
INSERT
  5
241
330
239
100
AcDbEntity
  8
8
  6
Continuous
 62
     4
370
     9
100
AcDbBlockReference
  2
_ARROWFILLED
 10
424.6304967168927
 20
113.1194326620567
 30
0.0
 41
3.0
 42
3.0
 43
3.0
 50
359.9999999999997
  0
ENDBLK
  5
23B
330
239
100
AcDbEntity
  8
0
100
AcDbBlockEnd
  0
BLOCK
  5
244
330
243
100
AcDbEntity
  8
0
100
AcDbBlockBegin
  2
Dim6
 70
     0
 10
0.0
 20
0.0
 30
0.0
  3
Dim6
  1
Dim6
  0
LINE
  5
246
330
243
100
AcDbEntity
  8
8
  6
Continuous
 62
     4
370
     9
100
AcDbLine
 10
109.6304967168928
 20
156.6194326620554
 30
0.0
 11
109.6304967168927
 21
98.8694326620567
 31
0.0
  0
LINE
  5
247
330
243
100
AcDbEntity
  8
8
  6
Continuous
 62
     4
370
     9
100
AcDbLine
 10
439.6304967168928
 20
156.6194326620563
 30
0.0
 11
439.6304967168927
 21
98.8694326620567
 31
0.0
  0
LINE
  5
248
330
243
100
AcDbEntity
  8
8
  6
Continuous
 62
     4
370
     9
100
AcDbLine
 10
109.6304967168927
 20
101.1194326620567
 30
0.0
 11
439.6304967168927
 21
101.1194326620567
 31
0.0
  0
MTEXT
  5
249
330
243
100
AcDbEntity
  8
8
  6
Continuous
 62
     4
370
     9
100
AcDbMText
 10
274.6304967168928
 20
101.1194326620567
 30
0.0
 40
4.5
 41
57.85714285714285
 46
4.5
 71
     8
 72
     1
  1
330
  7
ＭＳ ゴシック
 73
     1
 44
1.0
1001
ACAD
1000
ACAD_MTEXT_DEFINED_HEIGHT_BEGIN
1070
    46
1040
4.5
1000
ACAD_MTEXT_DEFINED_HEIGHT_END
  0
INSERT
  5
24A
330
243
100
AcDbEntity
  8
8
  6
Continuous
 62
     4
370
     9
100
AcDbBlockReference
  2
_ARROWFILLED
 10
109.6304967168927
 20
101.1194326620567
 30
0.0
 41
3.0
 42
3.0
 43
3.0
 50
179.9999999999998
  0
INSERT
  5
24B
330
243
100
AcDbEntity
  8
8
  6
Continuous
 62
     4
370
     9
100
AcDbBlockReference
  2
_ARROWFILLED
 10
439.6304967168927
 20
101.1194326620567
 30
0.0
 41
3.0
 42
3.0
 43
3.0
 50
359.9999999999997
  0
ENDBLK
  5
245
330
243
100
AcDbEntity
  8
0
100
AcDbBlockEnd
  0
BLOCK
  5
24E
330
24D
100
AcDbEntity
  8
0
100
AcDbBlockBegin
  2
Dim7
 70
     0
 10
0.0
 20
0.0
 30
0.0
  3
Dim7
  1
Dim7
  0
LINE
  5
250
330
24D
100
AcDbEntity
  8
8
  6
Continuous
 62
     4
370
     9
100
AcDbLine
 10
535.2837502495788
 20
156.6194326620563
 30
0.0
 11
535.2837502495787
 21
98.8694326620569
 31
0.0
  0
LINE
  5
251
330
24D
100
AcDbEntity
  8
8
  6
Continuous
 62
     4
370
     9
100
AcDbLine
 10
580.2837502495788
 20
141.6194326620563
 30
0.0
 11
580.2837502495787
 21
98.8694326620569
 31
0.0
  0
LINE
  5
252
330
24D
100
AcDbEntity
  8
8
  6
Continuous
 62
     4
370
     9
100
AcDbLine
 10
535.2837502495787
 20
101.1194326620569
 30
0.0
 11
580.2837502495787
 21
101.1194326620569
 31
0.0
  0
MTEXT
  5
253
330
24D
100
AcDbEntity
  8
8
  6
Continuous
 62
     4
370
     9
100
AcDbMText
 10
557.7837502495788
 20
101.1194326620569
 30
0.0
 40
4.5
 41
36.42857142857143
 46
4.5
 71
     8
 72
     1
  1
45
  7
ＭＳ ゴシック
 73
     1
 44
1.0
1001
ACAD
1000
ACAD_MTEXT_DEFINED_HEIGHT_BEGIN
1070
    46
1040
4.5
1000
ACAD_MTEXT_DEFINED_HEIGHT_END
  0
INSERT
  5
254
330
24D
100
AcDbEntity
  8
8
  6
Continuous
 62
     4
370
     9
100
AcDbBlockReference
  2
_ARROWFILLED
 10
535.2837502495787
 20
101.1194326620569
 30
0.0
 41
3.0
 42
3.0
 43
3.0
 50
179.9999999999998
  0
INSERT
  5
255
330
24D
100
AcDbEntity
  8
8
  6
Continuous
 62
     4
370
     9
100
AcDbBlockReference
  2
_ARROWFILLED
 10
580.2837502495787
 20
101.1194326620569
 30
0.0
 41
3.0
 42
3.0
 43
3.0
 50
359.9999999999997
  0
ENDBLK
  5
24F
330
24D
100
AcDbEntity
  8
0
100
AcDbBlockEnd
  0
BLOCK
  5
258
330
257
100
AcDbEntity
  8
0
100
AcDbBlockBegin
  2
Dim8
 70
     0
 10
0.0
 20
0.0
 30
0.0
  3
Dim8
  1
Dim8
  0
LINE
  5
25A
330
257
100
AcDbEntity
  8
8
  6
Continuous
 62
     4
370
     9
100
AcDbLine
 10
123.1304967168928
 20
173.1194326620563
 30
0.0
 11
95.38049671689282
 21
173.1194326620564
 31
0.0
  0
LINE
  5
25B
330
257
100
AcDbEntity
  8
8
  6
Continuous
 62
     4
370
     9
100
AcDbLine
 10
123.1304967168928
 20
273.1194326620563
 30
0.0
 11
95.38049671689282
 21
273.1194326620564
 31
0.0
  0
LINE
  5
25C
330
257
100
AcDbEntity
  8
8
  6
Continuous
 62
     4
370
     9
100
AcDbLine
 10
97.63049671689282
 20
173.1194326620564
 30
0.0
 11
97.63049671689282
 21
273.1194326620564
 31
0.0
  0
MTEXT
  5
25D
330
257
100
AcDbEntity
  8
8
  6
Continuous
 62
     4
370
     9
100
AcDbMText
 10
97.63049671689282
 20
223.1194326620563
 30
0.0
 40
4.5
 41
54.64285714285714
 46
4.5
 71
     8
 72
     1
  1
100
  7
ＭＳ ゴシック
 11
1.615544574432587E-15
 21
1.0
 31
0.0
 73
     1
 44
1.0
1001
ACAD
1000
ACAD_MTEXT_DEFINED_HEIGHT_BEGIN
1070
    46
1040
4.5
1000
ACAD_MTEXT_DEFINED_HEIGHT_END
  0
INSERT
  5
25E
330
257
100
AcDbEntity
  8
8
  6
Continuous
 62
     4
370
     9
100
AcDbBlockReference
  2
_ARROWFILLED
 10
97.63049671689282
 20
173.1194326620564
 30
0.0
 41
3.0
 42
3.0
 43
3.0
 50
269.9999999999998
  0
INSERT
  5
25F
330
257
100
AcDbEntity
  8
8
  6
Continuous
 62
     4
370
     9
100
AcDbBlockReference
  2
_ARROWFILLED
 10
97.63049671689282
 20
273.1194326620564
 30
0.0
 41
3.0
 42
3.0
 43
3.0
 50
89.99999999999991
  0
ENDBLK
  5
259
330
257
100
AcDbEntity
  8
0
100
AcDbBlockEnd
  0
BLOCK
  5
262
330
261
100
AcDbEntity
  8
0
100
AcDbBlockBegin
  2
Dim9
 70
     0
 10
0.0
 20
0.0
 30
0.0
  3
Dim9
  1
Dim9
  0
LINE
  5
264
330
261
100
AcDbEntity
  8
8
  6
Continuous
 62
     4
370
     9
100
AcDbLine
 10
108.1304967168928
 20
158.1194326620563
 30
0.0
 11
83.38049671689294
 21
158.1194326620564
 31
0.0
  0
LINE
  5
265
330
261
100
AcDbEntity
  8
8
  6
Continuous
 62
     4
370
     9
100
AcDbLine
 10
108.1304967168928
 20
288.1194326620563
 30
0.0
 11
83.38049671689294
 21
288.1194326620563
 31
0.0
  0
LINE
  5
266
330
261
100
AcDbEntity
  8
8
  6
Continuous
 62
     4
370
     9
100
AcDbLine
 10
85.63049671689294
 20
158.1194326620564
 30
0.0
 11
85.63049671689294
 21
288.1194326620563
 31
0.0
  0
MTEXT
  5
267
330
261
100
AcDbEntity
  8
8
  6
Continuous
 62
     4
370
     9
100
AcDbMText
 10
85.63049671689294
 20
223.1194326620563
 30
0.0
 40
4.5
 41
54.64285714285714
 46
4.5
 71
     8
 72
     1
  1
130
  7
ＭＳ ゴシック
 11
1.615544574432587E-15
 21
1.0
 31
0.0
 73
     1
 44
1.0
1001
ACAD
1000
ACAD_MTEXT_DEFINED_HEIGHT_BEGIN
1070
    46
1040
4.5
1000
ACAD_MTEXT_DEFINED_HEIGHT_END
  0
INSERT
  5
268
330
261
100
AcDbEntity
  8
8
  6
Continuous
 62
     4
370
     9
100
AcDbBlockReference
  2
_ARROWFILLED
 10
85.63049671689294
 20
158.1194326620564
 30
0.0
 41
3.0
 42
3.0
 43
3.0
 50
269.9999999999998
  0
INSERT
  5
269
330
261
100
AcDbEntity
  8
8
  6
Continuous
 62
     4
370
     9
100
AcDbBlockReference
  2
_ARROWFILLED
 10
85.63049671689294
 20
288.1194326620563
 30
0.0
 41
3.0
 42
3.0
 43
3.0
 50
89.99999999999991
  0
ENDBLK
  5
263
330
261
100
AcDbEntity
  8
0
100
AcDbBlockEnd
  0
BLOCK
  5
26C
330
26B
100
AcDbEntity
  8
0
100
AcDbBlockBegin
  2
Dim10
 70
     0
 10
0.0
 20
0.0
 30
0.0
  3
Dim10
  1
Dim10
  0
LINE
  5
26E
330
26B
100
AcDbEntity
  8
8
  6
Continuous
 62
     4
370
     9
100
AcDbLine
 10
144.0304967168928
 20
150.1194326620563
 30
0.0
 11
71.38049671689305
 21
150.1194326620565
 31
0.0
  0
LINE
  5
26F
330
26B
100
AcDbEntity
  8
8
  6
Continuous
 62
     4
370
     9
100
AcDbLine
 10
144.0304967168928
 20
296.1194326620563
 30
0.0
 11
71.38049671689305
 21
296.1194326620565
 31
0.0
  0
LINE
  5
270
330
26B
100
AcDbEntity
  8
8
  6
Continuous
 62
     4
370
     9
100
AcDbLine
 10
73.63049671689305
 20
150.1194326620565
 30
0.0
 11
73.63049671689305
 21
296.1194326620565
 31
0.0
  0
MTEXT
  5
271
330
26B
100
AcDbEntity
  8
8
  6
Continuous
 62
     4
370
     9
100
AcDbMText
 10
73.63049671689305
 20
223.1194326620563
 30
0.0
 40
4.5
 41
54.64285714285714
 46
4.5
 71
     8
 72
     1
  1
146
  7
ＭＳ ゴシック
 11
1.615544574432587E-15
 21
1.0
 31
0.0
 73
     1
 44
1.0
1001
ACAD
1000
ACAD_MTEXT_DEFINED_HEIGHT_BEGIN
1070
    46
1040
4.5
1000
ACAD_MTEXT_DEFINED_HEIGHT_END
  0
INSERT
  5
272
330
26B
100
AcDbEntity
  8
8
  6
Continuous
 62
     4
370
     9
100
AcDbBlockReference
  2
_ARROWFILLED
 10
73.63049671689305
 20
150.1194326620565
 30
0.0
 41
3.0
 42
3.0
 43
3.0
 50
269.9999999999998
  0
INSERT
  5
273
330
26B
100
AcDbEntity
  8
8
  6
Continuous
 62
     4
370
     9
100
AcDbBlockReference
  2
_ARROWFILLED
 10
73.63049671689305
 20
296.1194326620565
 30
0.0
 41
3.0
 42
3.0
 43
3.0
 50
89.99999999999991
  0
ENDBLK
  5
26D
330
26B
100
AcDbEntity
  8
0
100
AcDbBlockEnd
  0
BLOCK
  5
276
330
275
100
AcDbEntity
  8
0
100
AcDbBlockBegin
  2
Dim11
 70
     0
 10
0.0
 20
0.0
 30
0.0
  3
Dim11
  1
Dim11
  0
LINE
  5
278
330
275
100
AcDbEntity
  8
8
  6
Continuous
 62
     4
370
     9
100
AcDbLine
 10
128.1304967168919
 20
303.1194326620563
 30
0.0
 11
59.38049671689316
 21
303.1194326620565
 31
0.0
  0
LINE
  5
279
330
275
100
AcDbEntity
  8
8
  6
Continuous
 62
     4
370
     9
100
AcDbLine
 10
128.1304967168919
 20
143.1194326620563
 30
0.0
 11
59.38049671689316
 21
143.1194326620565
 31
0.0
  0
LINE
  5
27A
330
275
100
AcDbEntity
  8
8
  6
Continuous
 62
     4
370
     9
100
AcDbLine
 10
61.63049671689316
 20
303.1194326620565
 30
0.0
 11
61.63049671689316
 21
143.1194326620565
 31
0.0
  0
MTEXT
  5
27B
330
275
100
AcDbEntity
  8
8
  6
Continuous
 62
     4
370
     9
100
AcDbMText
 10
61.63049671689316
 20
223.1194326620563
 30
0.0
 40
4.5
 41
54.64285714285714
 46
4.5
 71
     8
 72
     1
  1
160
  7
ＭＳ ゴシック
 11
1.615544574432587E-15
 21
1.0
 31
0.0
 73
     1
 44
1.0
1001
ACAD
1000
ACAD_MTEXT_DEFINED_HEIGHT_BEGIN
1070
    46
1040
4.5
1000
ACAD_MTEXT_DEFINED_HEIGHT_END
  0
INSERT
  5
27C
330
275
100
AcDbEntity
  8
8
  6
Continuous
 62
     4
370
     9
100
AcDbBlockReference
  2
_ARROWFILLED
 10
61.63049671689316
 20
303.1194326620565
 30
0.0
 41
3.0
 42
3.0
 43
3.0
 50
89.99999999999991
  0
INSERT
  5
27D
330
275
100
AcDbEntity
  8
8
  6
Continuous
 62
     4
370
     9
100
AcDbBlockReference
  2
_ARROWFILLED
 10
61.63049671689316
 20
143.1194326620565
 30
0.0
 41
3.0
 42
3.0
 43
3.0
 50
269.9999999999998
  0
ENDBLK
  5
277
330
275
100
AcDbEntity
  8
0
100
AcDbBlockEnd
  0
BLOCK
  5
280
330
27F
100
AcDbEntity
  8
0
100
AcDbBlockBegin
  2
Dim12
 70
     0
 10
0.0
 20
0.0
 30
0.0
  3
Dim12
  1
Dim12
  0
LINE
  5
282
330
27F
100
AcDbEntity
  8
8
  6
Continuous
 62
     4
370
     9
100
AcDbLine
 10
337.1304967168919
 20
144.5194326620563
 30
0.0
 11
337.1304967168919
 21
122.8694326620567
 31
0.0
  0
LINE
  5
283
330
27F
100
AcDbEntity
  8
8
  6
Continuous
 62
     4
370
     9
100
AcDbLine
 10
399.6304967168928
 20
144.5194326620563
 30
0.0
 11
399.6304967168928
 21
122.8694326620567
 31
0.0
  0
LINE
  5
284
330
27F
100
AcDbEntity
  8
8
  6
Continuous
 62
     4
370
     9
100
AcDbLine
 10
337.1304967168919
 20
125.1194326620567
 30
0.0
 11
399.6304967168928
 21
125.1194326620567
 31
0.0
  0
MTEXT
  5
285
330
27F
100
AcDbEntity
  8
8
  6
Continuous
 62
     4
370
     9
100
AcDbMText
 10
368.3804967168925
 20
125.1194326620567
 30
0.0
 40
4.5
 41
67.49999999999999
 46
4.5
 71
     8
 72
     1
  1
62.5
  7
ＭＳ ゴシック
 73
     1
 44
1.0
1001
ACAD
1000
ACAD_MTEXT_DEFINED_HEIGHT_BEGIN
1070
    46
1040
4.5
1000
ACAD_MTEXT_DEFINED_HEIGHT_END
  0
INSERT
  5
286
330
27F
100
AcDbEntity
  8
8
  6
Continuous
 62
     4
370
     9
100
AcDbBlockReference
  2
_ARROWFILLED
 10
337.1304967168919
 20
125.1194326620567
 30
0.0
 41
3.0
 42
3.0
 43
3.0
 50
179.9999999999998
  0
INSERT
  5
287
330
27F
100
AcDbEntity
  8
8
  6
Continuous
 62
     4
370
     9
100
AcDbBlockReference
  2
_ARROWFILLED
 10
399.6304967168928
 20
125.1194326620567
 30
0.0
 41
3.0
 42
3.0
 43
3.0
 50
359.9999999999997
  0
ENDBLK
  5
281
330
27F
100
AcDbEntity
  8
0
100
AcDbBlockEnd
  0
BLOCK
  5
28A
330
289
100
AcDbEntity
  8
0
100
AcDbBlockBegin
  2
Dim13
 70
     0
 10
0.0
 20
0.0
 30
0.0
  3
Dim13
  1
Dim13
  0
LINE
  5
28C
330
289
100
AcDbEntity
  8
8
  6
Continuous
 62
     4
370
     9
100
AcDbLine
 10
149.6304967168928
 20
144.5194326620563
 30
0.0
 11
149.6304967168928
 21
122.8694326620568
 31
0.0
  0
LINE
  5
28D
330
289
100
AcDbEntity
  8
8
  6
Continuous
 62
     4
370
     9
100
AcDbLine
 10
212.1304967168937
 20
144.5194326620563
 30
0.0
 11
212.1304967168937
 21
122.8694326620568
 31
0.0
  0
LINE
  5
28E
330
289
100
AcDbEntity
  8
8
  6
Continuous
 62
     4
370
     9
100
AcDbLine
 10
149.6304967168928
 20
125.1194326620568
 30
0.0
 11
212.1304967168937
 21
125.1194326620568
 31
0.0
  0
MTEXT
  5
28F
330
289
100
AcDbEntity
  8
8
  6
Continuous
 62
     4
370
     9
100
AcDbMText
 10
180.8804967168934
 20
125.1194326620568
 30
0.0
 40
4.5
 41
67.49999999999999
 46
4.5
 71
     8
 72
     1
  1
62.5
  7
ＭＳ ゴシック
 73
     1
 44
1.0
1001
ACAD
1000
ACAD_MTEXT_DEFINED_HEIGHT_BEGIN
1070
    46
1040
4.5
1000
ACAD_MTEXT_DEFINED_HEIGHT_END
  0
INSERT
  5
290
330
289
100
AcDbEntity
  8
8
  6
Continuous
 62
     4
370
     9
100
AcDbBlockReference
  2
_ARROWFILLED
 10
149.6304967168928
 20
125.1194326620568
 30
0.0
 41
3.0
 42
3.0
 43
3.0
 50
179.9999999999998
  0
INSERT
  5
291
330
289
100
AcDbEntity
  8
8
  6
Continuous
 62
     4
370
     9
100
AcDbBlockReference
  2
_ARROWFILLED
 10
212.1304967168937
 20
125.1194326620568
 30
0.0
 41
3.0
 42
3.0
 43
3.0
 50
359.9999999999997
  0
ENDBLK
  5
28B
330
289
100
AcDbEntity
  8
0
100
AcDbBlockEnd
  0
BLOCK
  5
294
330
293
100
AcDbEntity
  8
0
100
AcDbBlockBegin
  2
Dim14
 70
     0
 10
0.0
 20
0.0
 30
0.0
  3
Dim14
  1
Dim14
  0
LINE
  5
296
330
293
100
AcDbEntity
  8
8
  6
Continuous
 62
     4
370
     9
100
AcDbLine
 10
261.6149774188793
 20
203.5529752054065
 30
0.0
 11
336.4439752593461
 21
316.0447144318335
 31
0.0
  0
MTEXT
  5
297
330
293
100
AcDbEntity
  8
8
  6
Continuous
 62
     4
370
     9
100
AcDbMText
 10
332.7054750354471
 20
310.4245617581149
 30
0.0
 40
4.5
 41
56.78571428571429
 46
4.5
 71
     7
 72
     1
  1
∅35
  7
ＭＳ ゴシック
 11
0.5538518850220765
 21
0.832615210921283
 31
0.0
 73
     1
 44
1.0
1001
ACAD
1000
ACAD_MTEXT_DEFINED_HEIGHT_BEGIN
1070
    46
1040
4.5
1000
ACAD_MTEXT_DEFINED_HEIGHT_END
  0
INSERT
  5
298
330
293
100
AcDbEntity
  8
8
  6
Continuous
 62
     4
370
     9
100
AcDbBlockReference
  2
_ARROWFILLED
 10
264.9380887290118
 20
208.5486664709342
 30
0.0
 41
3.0
 42
3.0
 43
3.0
 50
56.36832816647981
  0
INSERT
  5
299
330
293
100
AcDbEntity
  8
8
  6
Continuous
 62
     4
370
     9
100
AcDbBlockReference
  2
_ARROWFILLED
 10
284.3229047047836
 20
237.6901988531778
 30
0.0
 41
3.0
 42
3.0
 43
3.0
 50
236.3683281664798
  0
ENDBLK
  5
295
330
293
100
AcDbEntity
  8
0
100
AcDbBlockEnd
  0
BLOCK
  5
29C
330
29B
100
AcDbEntity
  8
0
100
AcDbBlockBegin
  2
Dim15
 70
     0
 10
0.0
 20
0.0
 30
0.0
  3
Dim15
  1
Dim15
  0
LINE
  5
29E
330
29B
100
AcDbEntity
  8
8
  6
Continuous
 62
     4
370
     9
100
AcDbLine
 10
266.1146452038285
 20
195.9214497771543
 30
0.0
 11
305.4728298401229
 21
321.6238801773047
 31
0.0
  0
MTEXT
  5
29F
330
29B
100
AcDbEntity
  8
8
  6
Continuous
 62
     4
370
     9
100
AcDbMText
 10
303.4559176396607
 20
315.182252651933
 30
0.0
 40
4.5
 41
56.78571428571429
 46
4.5
 71
     7
 72
     1
  1
∅45
  7
ＭＳ ゴシック
 11
0.2988018074758849
 21
0.9543151889439591
 31
0.0
 73
     1
 44
1.0
1001
ACAD
1000
ACAD_MTEXT_DEFINED_HEIGHT_BEGIN
1070
    46
1040
4.5
1000
ACAD_MTEXT_DEFINED_HEIGHT_END
  0
INSERT
  5
2A0
330
29B
100
AcDbEntity
  8
8
  6
Continuous
 62
     4
370
     9
100
AcDbBlockReference
  2
_ARROWFILLED
 10
267.9074560486838
 20
201.6473409108181
 30
0.0
 41
3.0
 42
3.0
 43
3.0
 50
72.61434888225808
  0
INSERT
  5
2A1
330
29B
100
AcDbEntity
  8
8
  6
Continuous
 62
     4
370
     9
100
AcDbBlockReference
  2
_ARROWFILLED
 10
281.3535373850985
 20
244.591524413296
 30
0.0
 41
3.0
 42
3.0
 43
3.0
 50
252.6143488822581
  0
ENDBLK
  5
29D
330
29B
100
AcDbEntity
  8
0
100
AcDbBlockEnd
  0
BLOCK
  5
2AD
330
2AC
100
AcDbEntity
  8
0
100
AcDbBlockBegin
  2
*G31
 70
     1
 10
0.0
 20
0.0
 30
0.0
  3
*G31
  1
*G31
  0
MTEXT
  5
2AF
330
2AC
100
AcDbEntity
  8
2
  6
Continuous
 62
   151
370
     9
100
AcDbMText
 10
95.04294773092079
 20
67.28494999999955
 30
0.0
 40
0.72
 41
0.0
 46
0.72
 71
     4
 72
     1
  1
{\fＭＳ ゴシック;\T2.833333; }
 73
     1
 44
1.0
1001
ACAD
1000
ACAD_MTEXT_DEFINED_HEIGHT_BEGIN
1070
    46
1040
0.72
1000
ACAD_MTEXT_DEFINED_HEIGHT_END
  0
MTEXT
  5
2B0
330
2AC
100
AcDbEntity
  8
2
  6
Continuous
 62
   151
370
     9
100
AcDbMText
 10
95.76294773092079
 20
68.12493799999956
 30
0.0
 40
2.399976
 41
0.91674283248
 46
2.399976
 71
     4
 72
     1
  1
{\fＭＳ ゴシック;\T4.000000;1 }
 73
     1
 44
1.0
1001
ACAD
1000
ACAD_MTEXT_DEFINED_HEIGHT_BEGIN
1070
    46
1040
2.399976
1000
ACAD_MTEXT_DEFINED_HEIGHT_END
  0
MTEXT
  5
2B1
330
2AC
100
AcDbEntity
  8
2
  6
Continuous
 62
   151
370
     9
100
AcDbMText
 10
100.4486151594922
 20
67.22494699999956
 30
0.0
 40
0.5999939999999999
 41
0.0
 46
0.5999939999999999
 71
     4
 72
     1
  1
{\fＭＳ ゴシック;\T3.250025; }
 73
     1
 44
1.0
1001
ACAD
1000
ACAD_MTEXT_DEFINED_HEIGHT_BEGIN
1070
    46
1040
0.5999939999999999
1000
ACAD_MTEXT_DEFINED_HEIGHT_END
  0
MTEXT
  5
2B2
330
2AC
100
AcDbEntity
  8
2
  6
Continuous
 62
   151
370
     9
100
AcDbMText
 10
101.0486091594922
 20
68.12493799999956
 30
0.0
 40
2.399976
 41
1.99025209728
 46
2.399976
 71
     4
 72
     1
  1
{\fＭＳ ゴシック;\T1.375006;+}
 73
     1
 44
1.0
1001
ACAD
1000
ACAD_MTEXT_DEFINED_HEIGHT_BEGIN
1070
    46
1040
2.399976
1000
ACAD_MTEXT_DEFINED_HEIGHT_END
  0
MTEXT
  5
2B3
330
2AC
100
AcDbEntity
  8
2
  6
Continuous
 62
   151
370
     9
100
AcDbMText
 10
95.04294773092079
 20
64.12496999999956
 30
0.0
 40
2.399976
 41
11.00329680885957
 46
2.399976
 71
     4
 72
     1
  1
{\fＭＳ ゴシック;\T1.375006;2 NC}
 73
     1
 44
1.0
1001
ACAD
1000
ACAD_MTEXT_DEFINED_HEIGHT_BEGIN
1070
    46
1040
2.399976
1000
ACAD_MTEXT_DEFINED_HEIGHT_END
  0
MTEXT
  5
2B4
330
2AC
100
AcDbEntity
  8
2
  6
Continuous
 62
   151
370
     9
100
AcDbMText
 10
95.04294773092079
 20
60.12500199999956
 30
0.0
 40
2.399976
 41
7.975092810226379
 46
2.399976
 71
     4
 72
     1
  1
{\fＭＳ ゴシック;\T1.375006;3 -}
 73
     1
 44
1.0
1001
ACAD
1000
ACAD_MTEXT_DEFINED_HEIGHT_BEGIN
1070
    46
1040
2.399976
1000
ACAD_MTEXT_DEFINED_HEIGHT_END
  0
ENDBLK
  5
2AE
330
2AC
100
AcDbEntity
  8
0
100
AcDbBlockEnd
  0
ENDSEC
  0
SECTION
  2
ENTITIES
  0
HATCH
  5
CC
330
1F
100
AcDbEntity
  8
10
  6
Continuous
 62
     2
370
     9
100
AcDbHatch
 10
0.0
 20
0.0
 30
0.0
210
0.0
220
0.0
230
1.0
  2

 70
     0
 71
     0
 91
        4
 92
        0
 93
        5
 72
     2
 10
274.6304967168926
 20
223.1194326620562
 40
22.5
 50
0.0
 51
89.99999999999986
 73
     1
 72
     1
 10
274.6304967168925
 20
245.6194326620561
 11
274.6304967168925
 21
273.1194326620563
 72
     1
 10
274.6304967168925
 20
273.1194326620563
 11
424.6304967168928
 21
273.1194326620563
 72
     1
 10
424.6304967168928
 20
273.1194326620563
 11
424.6304967168928
 21
223.1194326620563
 72
     1
 10
424.6304967168928
 20
223.1194326620563
 11
297.1304967168926
 21
223.1194326620563
 97
        0
 92
        0
 93
        5
 72
     2
 10
274.6304967168926
 20
223.1194326620562
 40
22.5
 50
89.99999999999991
 51
179.9999999999996
 73
     1
 72
     1
 10
252.1304967168926
 20
223.1194326620563
 11
124.6304967168928
 21
223.1194326620563
 72
     1
 10
124.6304967168928
 20
223.1194326620563
 11
124.6304967168928
 21
273.1194326620563
 72
     1
 10
124.6304967168928
 20
273.1194326620563
 11
274.6304967168925
 21
273.1194326620563
 72
     1
 10
274.6304967168925
 20
273.1194326620563
 11
274.6304967168926
 21
245.6194326620561
 97
        0
 92
        0
 93
        5
 72
     2
 10
274.6304967168926
 20
223.1194326620562
 40
22.5
 50
179.9999999999998
 51
270.0000000000004
 73
     1
 72
     1
 10
274.6304967168927
 20
200.6194326620561
 11
274.6304967168927
 21
173.1194326620563
 72
     1
 10
274.6304967168927
 20
173.1194326620563
 11
124.6304967168928
 21
173.1194326620563
 72
     1
 10
124.6304967168928
 20
173.1194326620563
 11
124.6304967168928
 21
223.1194326620563
 72
     1
 10
124.6304967168928
 20
223.1194326620563
 11
252.1304967168926
 21
223.1194326620563
 97
        0
 92
        0
 93
        5
 72
     2
 10
274.6304967168926
 20
223.1194326620562
 40
22.5
 50
270.0000000000003
 51
360.0000000000004
 73
     1
 72
     1
 10
297.1304967168926
 20
223.1194326620563
 11
424.6304967168928
 21
223.1194326620563
 72
     1
 10
424.6304967168928
 20
223.1194326620563
 11
424.6304967168928
 21
173.1194326620563
 72
     1
 10
424.6304967168928
 20
173.1194326620563
 11
274.6304967168927
 21
173.1194326620563
 72
     1
 10
274.6304967168927
 20
173.1194326620563
 11
274.6304967168927
 21
200.6194326620561
 97
        0
 75
     0
 76
     2
 52
0.0
 41
0.5
 77
     0
 78
     2
 53
45.0
 43
-578.8150813815964
 44
-256.243862873685
 45
-5.051394068101445
 46
5.051394068101445
 79
     0
 53
135.0
 43
-578.8150813815964
 44
-256.243862873685
 45
-5.051394068101445
 46
-5.051394068101445
 79
     0
 98
        0
  0
LINE
  5
CD
330
1F
100
AcDbEntity
  8
9
  6
Continuous
 62
     7
370
    25
100
AcDbLine
 10
424.6304967168928
 20
173.1194326620563
 30
0.0
 11
424.6304967168928
 21
273.1194326620563
 31
0.0
  0
LINE
  5
CE
330
1F
100
AcDbEntity
  8
9
  6
Continuous
 62
     7
370
    25
100
AcDbLine
 10
424.6304967168928
 20
273.1194326620563
 30
0.0
 11
124.6304967168928
 21
273.1194326620563
 31
0.0
  0
LINE
  5
CF
330
1F
100
AcDbEntity
  8
9
  6
Continuous
 62
     7
370
    25
100
AcDbLine
 10
124.6304967168928
 20
273.1194326620563
 30
0.0
 11
124.6304967168928
 21
173.1194326620563
 31
0.0
  0
LINE
  5
D0
330
1F
100
AcDbEntity
  8
9
  6
Continuous
 62
     7
370
    25
100
AcDbLine
 10
439.6304967168928
 20
288.1194326620563
 30
0.0
 11
439.6304967168928
 21
158.1194326620563
 31
0.0
  0
LINE
  5
D1
330
1F
100
AcDbEntity
  8
9
  6
Continuous
 62
     7
370
    25
100
AcDbLine
 10
439.6304967168928
 20
158.1194326620563
 30
0.0
 11
109.6304967168928
 21
158.1194326620554
 31
0.0
  0
LINE
  5
D2
330
1F
100
AcDbEntity
  8
9
  6
Continuous
 62
     7
370
    25
100
AcDbLine
 10
439.6304967168928
 20
288.1194326620563
 30
0.0
 11
109.6304967168928
 21
288.1194326620563
 31
0.0
  0
LINE
  5
D3
330
1F
100
AcDbEntity
  8
9
  6
Continuous
 62
     7
370
    25
100
AcDbLine
 10
109.6304967168928
 20
288.1194326620563
 30
0.0
 11
109.6304967168928
 21
158.1194326620554
 31
0.0
  0
LINE
  5
D4
330
1F
100
AcDbEntity
  8
9
  6
Continuous
 62
     7
370
    25
100
AcDbLine
 10
573.7337502495786
 20
157.8027659953897
 30
0.0
 11
566.8337502495781
 21
157.8027659953897
 31
0.0
  0
ARC
  5
D5
330
1F
100
AcDbEntity
  8
9
  6
Continuous
 62
     7
370
    25
100
AcDbCircle
 10
570.2837502495788
 20
160.7697835392493
 30
0.0
 40
4.550350877192955
100
AcDbArc
 50
220.6956985254003
 51
319.304301474599
  0
LINE
  5
D6
330
1F
100
AcDbEntity
  8
9
  6
Continuous
 62
     7
370
    25
100
AcDbLine
 10
573.7337502495786
 20
158.1194326620563
 30
0.0
 11
573.7337502495786
 21
157.8027659953897
 31
0.0
  0
LINE
  5
D7
330
1F
100
AcDbEntity
  8
9
  6
Continuous
 62
     7
370
    25
100
AcDbLine
 10
566.8337502495781
 20
158.1194326620563
 30
0.0
 11
566.8337502495781
 21
157.8027659953897
 31
0.0
  0
LINE
  5
D8
330
1F
100
AcDbEntity
  8
9
  6
Continuous
 62
     7
370
    25
100
AcDbLine
 10
535.2837502495788
 20
288.1194326620563
 30
0.0
 11
535.2837502495788
 21
158.1194326620563
 31
0.0
  0
LINE
  5
D9
330
1F
100
AcDbEntity
  8
9
  6
Continuous
 62
     7
370
    25
100
AcDbLine
 10
580.2837502495788
 20
303.1194326620563
 30
0.0
 11
580.2837502495788
 21
143.1194326620563
 31
0.0
  0
LINE
  5
DA
330
1F
100
AcDbEntity
  8
9
  6
Continuous
 62
     7
370
    25
100
AcDbLine
 10
579.2837502495788
 20
303.1194326620563
 30
0.0
 11
579.2837502495779
 21
230.6194326620563
 31
0.0
  0
LINE
  5
DB
330
1F
100
AcDbEntity
  8
9
  6
Continuous
 62
     7
370
    25
100
AcDbLine
 10
579.2837502495779
 20
215.6194326620592
 30
0.0
 11
579.2837502495779
 21
143.1194326620563
 31
0.0
  0
LINE
  5
DC
330
1F
100
AcDbEntity
  8
9
  6
Continuous
 62
     7
370
    25
100
AcDbLine
 10
535.2837502495788
 20
288.1194326620563
 30
0.0
 11
579.2837502495788
 21
288.1194326620545
 31
0.0
  0
LINE
  5
DD
330
1F
100
AcDbEntity
  8
9
  6
Continuous
 62
     7
370
    25
100
AcDbLine
 10
579.2837502495788
 20
287.1194326620545
 30
0.0
 11
580.2837502495788
 21
287.1194326620545
 31
0.0
  0
LINE
  5
DE
330
1F
100
AcDbEntity
  8
9
  6
Continuous
 62
     7
370
    25
100
AcDbLine
 10
579.2837502495788
 20
303.1194326620561
 30
0.0
 11
580.2837502495788
 21
303.1194326620561
 31
0.0
  0
LINE
  5
DF
330
1F
100
AcDbEntity
  8
9
  6
Continuous
 62
     7
370
    25
100
AcDbLine
 10
535.2837502495788
 20
158.1194326620563
 30
0.0
 11
579.283750249577
 21
158.1194326620563
 31
0.0
  0
LINE
  5
E0
330
1F
100
AcDbEntity
  8
9
  6
Continuous
 62
     7
370
    25
100
AcDbLine
 10
579.283750249577
 20
159.1194326620563
 30
0.0
 11
580.2837502495788
 21
159.1194326620563
 31
0.0
  0
LINE
  5
E1
330
1F
100
AcDbEntity
  8
9
  6
Continuous
 62
     7
370
    25
100
AcDbLine
 10
579.2837502495788
 20
143.1194326620563
 30
0.0
 11
580.2837502495788
 21
143.1194326620563
 31
0.0
  0
LINE
  5
E2
330
1F
100
AcDbEntity
  8
9
  6
Continuous
 62
     7
370
    25
100
AcDbLine
 10
424.6304967168928
 20
148.1194326620563
 30
0.0
 11
424.6304967168928
 21
158.1194326620563
 31
0.0
  0
ARC
  5
E3
330
1F
100
AcDbEntity
  8
9
  6
Continuous
 62
     7
370
    25
100
AcDbCircle
 10
419.6304967168937
 20
148.1194326620563
 30
0.0
 40
5.0
100
AcDbArc
 50
269.9999999999998
 51
0.0
  0
LINE
  5
E4
330
1F
100
AcDbEntity
  8
9
  6
Continuous
 62
     7
370
    25
100
AcDbLine
 10
129.6304967168928
 20
143.1194326620563
 30
0.0
 11
419.6304967168937
 21
143.1194326620572
 31
0.0
  0
LINE
  5
E5
330
1F
100
AcDbEntity
  8
9
  6
Continuous
 62
     7
370
    25
100
AcDbLine
 10
124.6304967168928
 20
148.1194326620563
 30
0.0
 11
124.6304967168928
 21
158.1194326620563
 31
0.0
  0
ARC
  5
E6
330
1F
100
AcDbEntity
  8
9
  6
Continuous
 62
     7
370
    25
100
AcDbCircle
 10
129.6304967168919
 20
148.1194326620563
 30
0.0
 40
5.0
100
AcDbArc
 50
179.9999999999998
 51
269.9999999999998
  0
LINE
  5
E7
330
1F
100
AcDbEntity
  8
9
  6
Continuous
 62
     7
370
    25
100
AcDbLine
 10
123.0804967168945
 20
157.8027659953897
 30
0.0
 11
116.1804967168948
 21
157.8027659953897
 31
0.0
  0
ARC
  5
E8
330
1F
100
AcDbEntity
  8
9
  6
Continuous
 62
     7
370
    25
100
AcDbCircle
 10
119.6304967168946
 20
160.7697835392493
 30
0.0
 40
4.550350877192983
100
AcDbArc
 50
220.6956985254003
 51
319.304301474599
  0
LINE
  5
E9
330
1F
100
AcDbEntity
  8
9
  6
Continuous
 62
     7
370
    25
100
AcDbLine
 10
123.0804967168945
 20
158.1194326620563
 30
0.0
 11
123.0804967168945
 21
157.8027659953897
 31
0.0
  0
LINE
  5
EA
330
1F
100
AcDbEntity
  8
9
  6
Continuous
 62
     7
370
    25
100
AcDbLine
 10
116.1804967168948
 20
158.1194326620563
 30
0.0
 11
116.1804967168948
 21
157.8027659953897
 31
0.0
  0
LINE
  5
EB
330
1F
100
AcDbEntity
  8
9
  6
Continuous
 62
     7
370
    25
100
AcDbLine
 10
144.5804967168945
 20
157.8027659953897
 30
0.0
 11
137.6804967168939
 21
157.8027659953897
 31
0.0
  0
ARC
  5
EC
330
1F
100
AcDbEntity
  8
9
  6
Continuous
 62
     7
370
    25
100
AcDbCircle
 10
141.1304967168946
 20
160.7697835392493
 30
0.0
 40
4.550350877192983
100
AcDbArc
 50
220.6956985254003
 51
319.304301474599
  0
LINE
  5
ED
330
1F
100
AcDbEntity
  8
9
  6
Continuous
 62
     7
370
    25
100
AcDbLine
 10
144.5804967168945
 20
158.1194326620563
 30
0.0
 11
144.5804967168945
 21
157.8027659953897
 31
0.0
  0
LINE
  5
EE
330
1F
100
AcDbEntity
  8
9
  6
Continuous
 62
     7
370
    25
100
AcDbLine
 10
137.6804967168939
 20
158.1194326620563
 30
0.0
 11
137.6804967168939
 21
157.8027659953897
 31
0.0
  0
LINE
  5
EF
330
1F
100
AcDbEntity
  8
9
  6
Continuous
 62
     7
370
    25
100
AcDbLine
 10
426.1804967168912
 20
157.8027659953897
 30
0.0
 11
433.0804967168917
 21
157.8027659953897
 31
0.0
  0
ARC
  5
F0
330
1F
100
AcDbEntity
  8
9
  6
Continuous
 62
     7
370
    25
100
AcDbCircle
 10
429.630496716891
 20
160.7697835392493
 30
0.0
 40
4.550350877192955
100
AcDbArc
 50
220.6956985254003
 51
319.304301474599
  0
LINE
  5
F1
330
1F
100
AcDbEntity
  8
9
  6
Continuous
 62
     7
370
    25
100
AcDbLine
 10
426.1804967168912
 20
158.1194326620563
 30
0.0
 11
426.1804967168912
 21
157.8027659953897
 31
0.0
  0
LINE
  5
F2
330
1F
100
AcDbEntity
  8
9
  6
Continuous
 62
     7
370
    25
100
AcDbLine
 10
433.0804967168917
 20
158.1194326620563
 30
0.0
 11
433.0804967168917
 21
157.8027659953897
 31
0.0
  0
LINE
  5
F3
330
1F
100
AcDbEntity
  8
9
  6
Continuous
 62
     7
370
    25
100
AcDbLine
 10
404.6804967168921
 20
157.8027659953897
 30
0.0
 11
411.5804967168917
 21
157.8027659953897
 31
0.0
  0
ARC
  5
F4
330
1F
100
AcDbEntity
  8
9
  6
Continuous
 62
     7
370
    25
100
AcDbCircle
 10
408.1304967168919
 20
160.7697835392493
 30
0.0
 40
4.550350877192955
100
AcDbArc
 50
220.6956985254003
 51
319.304301474599
  0
LINE
  5
F5
330
1F
100
AcDbEntity
  8
9
  6
Continuous
 62
     7
370
    25
100
AcDbLine
 10
404.6804967168921
 20
158.1194326620563
 30
0.0
 11
404.6804967168921
 21
157.8027659953897
 31
0.0
  0
LINE
  5
F6
330
1F
100
AcDbEntity
  8
9
  6
Continuous
 62
     7
370
    25
100
AcDbLine
 10
411.5804967168917
 20
158.1194326620563
 30
0.0
 11
411.5804967168917
 21
157.8027659953897
 31
0.0
  0
LINE
  5
F7
330
1F
100
AcDbEntity
  8
3
  6
DASHDOT
 62
     1
370
     9
100
AcDbLine
 10
274.630496716893
 20
138.1194326620566
 30
0.0
 11
274.6304967168927
 21
308.1194326620557
 31
0.0
  0
LINE
  5
F8
330
1F
100
AcDbEntity
  8
3
  6
DASHDOT
 62
     1
370
     9
100
AcDbLine
 10
444.6304967168928
 20
223.1194326620563
 30
0.0
 11
104.6304967168928
 21
223.1194326620561
 31
0.0
  0
DIMENSION
  5
103
330
1F
100
AcDbEntity
  8
8
  6
Continuous
 62
     4
370
     9
100
AcDbDimension
280
     0
  2
Dim1
 10
579.283750249577
 20
125.1194326620567
 30
0.0
 11
588.5337502495788
 21
125.1194326620567
 31
0.0
 70
   160
  1
<>
 71
     5
 42
-1.0
 73
     0
 74
     0
 75
     0
  3
Standard
100
AcDbAlignedDimension
 13
580.2837502495788
 23
143.1194326620563
 33
0.0
 14
579.283750249577
 24
143.1194326620563
 34
0.0
 50
179.9999999999998
100
AcDbRotatedDimension
1001
ACAD
1000
DSTYLE
1002
{
1070
   279
1070
     2
1070
   340
1005
F9
1070
   140
1040
4.5
1070
    40
1040
1.0
1070
   147
1040
0.0
1070
    76
1070
     0
1070
    75
1070
     0
1070
   344
1005
0
1070
   343
1005
0
1070
   173
1070
     1
1070
   289
1070
     2
1070
   288
1070
     1
1070
    77
1070
     1
1070
   172
1070
     1
1070
   174
1070
     0
1070
    74
1070
     0
1070
    73
1070
     0
1070
   284
1070
     8
1070
    78
1070
     8
1070
    42
1040
1.5
1070
    44
1040
2.25
1070
    43
1040
30.0
1070
   271
1070
     2
1070
    41
1040
3.0
1002
}
  0
LINE
  5
104
330
1F
100
AcDbEntity
  8
9
  6
Continuous
 62
     7
370
    25
100
AcDbLine
 10
573.7337502495786
 20
288.1194326620557
 30
0.0
 11
566.8337502495781
 21
288.1194326620557
 31
0.0
  0
LINE
  5
105
330
1F
100
AcDbEntity
  8
9
  6
Continuous
 62
     7
370
    25
100
AcDbLine
 10
573.7337502495786
 20
288.4360993287227
 30
0.0
 11
566.8337502495781
 21
288.4360993287227
 31
0.0
  0
ARC
  5
106
330
1F
100
AcDbEntity
  8
9
  6
Continuous
 62
     7
370
    25
100
AcDbCircle
 10
570.2837502495788
 20
285.4690817848627
 30
0.0
 40
4.550350877192955
100
AcDbArc
 50
40.69569852540071
 51
139.3043014745993
  0
LINE
  5
107
330
1F
100
AcDbEntity
  8
9
  6
Continuous
 62
     7
370
    25
100
AcDbLine
 10
573.7337502495786
 20
288.1194326620557
 30
0.0
 11
573.7337502495786
 21
288.4360993287227
 31
0.0
  0
LINE
  5
108
330
1F
100
AcDbEntity
  8
9
  6
Continuous
 62
     7
370
    25
100
AcDbLine
 10
566.8337502495781
 20
288.1194326620557
 30
0.0
 11
566.8337502495781
 21
288.4360993287227
 31
0.0
  0
LINE
  5
109
330
1F
100
AcDbEntity
  8
9
  6
Continuous
 62
     7
370
    25
100
AcDbLine
 10
424.6304967168928
 20
173.1194326620563
 30
0.0
 11
124.6304967168928
 21
173.1194326620563
 31
0.0
  0
LINE
  5
10A
330
1F
100
AcDbEntity
  8
9
  6
Continuous
 62
     7
370
    25
100
AcDbLine
 10
424.6304967168928
 20
298.1194326620563
 30
0.0
 11
424.6304967168928
 21
288.1194326620563
 31
0.0
  0
ARC
  5
10B
330
1F
100
AcDbEntity
  8
9
  6
Continuous
 62
     7
370
    25
100
AcDbCircle
 10
419.6304967168937
 20
298.1194326620563
 30
0.0
 40
5.0
100
AcDbArc
 50
0.0
 51
89.99999999999991
  0
LINE
  5
10C
330
1F
100
AcDbEntity
  8
9
  6
Continuous
 62
     7
370
    25
100
AcDbLine
 10
129.6304967168928
 20
303.1194326620563
 30
0.0
 11
419.6304967168937
 21
303.1194326620554
 31
0.0
  0
LINE
  5
10D
330
1F
100
AcDbEntity
  8
9
  6
Continuous
 62
     7
370
    25
100
AcDbLine
 10
124.6304967168928
 20
298.1194326620563
 30
0.0
 11
124.6304967168928
 21
288.1194326620563
 31
0.0
  0
ARC
  5
10E
330
1F
100
AcDbEntity
  8
9
  6
Continuous
 62
     7
370
    25
100
AcDbCircle
 10
129.6304967168919
 20
298.1194326620563
 30
0.0
 40
5.0
100
AcDbArc
 50
89.99999999999991
 51
179.9999999999998
  0
LINE
  5
10F
330
1F
100
AcDbEntity
  8
9
  6
Continuous
 62
     7
370
    25
100
AcDbLine
 10
123.0804967168945
 20
288.4360993287229
 30
0.0
 11
116.1804967168948
 21
288.4360993287229
 31
0.0
  0
ARC
  5
110
330
1F
100
AcDbEntity
  8
9
  6
Continuous
 62
     7
370
    25
100
AcDbCircle
 10
119.6304967168946
 20
285.4690817848634
 30
0.0
 40
4.550350877192983
100
AcDbArc
 50
40.69569852540071
 51
139.3043014745993
  0
LINE
  5
111
330
1F
100
AcDbEntity
  8
9
  6
Continuous
 62
     7
370
    25
100
AcDbLine
 10
123.0804967168945
 20
288.1194326620563
 30
0.0
 11
123.0804967168945
 21
288.4360993287229
 31
0.0
  0
LINE
  5
112
330
1F
100
AcDbEntity
  8
9
  6
Continuous
 62
     7
370
    25
100
AcDbLine
 10
116.1804967168948
 20
288.1194326620563
 30
0.0
 11
116.1804967168948
 21
288.4360993287229
 31
0.0
  0
LINE
  5
113
330
1F
100
AcDbEntity
  8
9
  6
Continuous
 62
     7
370
    25
100
AcDbLine
 10
144.5804967168945
 20
288.4360993287229
 30
0.0
 11
137.6804967168939
 21
288.4360993287229
 31
0.0
  0
ARC
  5
114
330
1F
100
AcDbEntity
  8
9
  6
Continuous
 62
     7
370
    25
100
AcDbCircle
 10
141.1304967168946
 20
285.4690817848634
 30
0.0
 40
4.550350877192983
100
AcDbArc
 50
40.69569852540071
 51
139.3043014745993
  0
LINE
  5
115
330
1F
100
AcDbEntity
  8
9
  6
Continuous
 62
     7
370
    25
100
AcDbLine
 10
144.5804967168945
 20
288.1194326620563
 30
0.0
 11
144.5804967168945
 21
288.4360993287229
 31
0.0
  0
LINE
  5
116
330
1F
100
AcDbEntity
  8
9
  6
Continuous
 62
     7
370
    25
100
AcDbLine
 10
137.6804967168939
 20
288.1194326620563
 30
0.0
 11
137.6804967168939
 21
288.4360993287229
 31
0.0
  0
LINE
  5
117
330
1F
100
AcDbEntity
  8
9
  6
Continuous
 62
     7
370
    25
100
AcDbLine
 10
426.1804967168912
 20
288.4360993287229
 30
0.0
 11
433.0804967168917
 21
288.4360993287229
 31
0.0
  0
ARC
  5
118
330
1F
100
AcDbEntity
  8
9
  6
Continuous
 62
     7
370
    25
100
AcDbCircle
 10
429.630496716891
 20
285.4690817848634
 30
0.0
 40
4.550350877192955
100
AcDbArc
 50
40.69569852540071
 51
139.3043014745993
  0
LINE
  5
119
330
1F
100
AcDbEntity
  8
9
  6
Continuous
 62
     7
370
    25
100
AcDbLine
 10
426.1804967168912
 20
288.1194326620563
 30
0.0
 11
426.1804967168912
 21
288.4360993287229
 31
0.0
  0
LINE
  5
11A
330
1F
100
AcDbEntity
  8
9
  6
Continuous
 62
     7
370
    25
100
AcDbLine
 10
433.0804967168917
 20
288.1194326620563
 30
0.0
 11
433.0804967168917
 21
288.4360993287229
 31
0.0
  0
LINE
  5
11B
330
1F
100
AcDbEntity
  8
9
  6
Continuous
 62
     7
370
    25
100
AcDbLine
 10
404.6804967168921
 20
288.4360993287229
 30
0.0
 11
411.5804967168917
 21
288.4360993287229
 31
0.0
  0
ARC
  5
11C
330
1F
100
AcDbEntity
  8
9
  6
Continuous
 62
     7
370
    25
100
AcDbCircle
 10
408.1304967168919
 20
285.4690817848634
 30
0.0
 40
4.550350877192955
100
AcDbArc
 50
40.69569852540071
 51
139.3043014745993
  0
LINE
  5
11D
330
1F
100
AcDbEntity
  8
9
  6
Continuous
 62
     7
370
    25
100
AcDbLine
 10
404.6804967168921
 20
288.1194326620563
 30
0.0
 11
404.6804967168921
 21
288.4360993287229
 31
0.0
  0
LINE
  5
11E
330
1F
100
AcDbEntity
  8
9
  6
Continuous
 62
     7
370
    25
100
AcDbLine
 10
411.5804967168917
 20
288.1194326620563
 30
0.0
 11
411.5804967168917
 21
288.4360993287229
 31
0.0
  0
POLYLINE
  5
11F
330
1F
100
AcDbEntity
  8
9
  6
Continuous
 62
     7
370
    25
100
AcDb2dPolyline
 66
     1
 10
0.0
 20
0.0
 30
0.0
  0
VERTEX
  5
120
330
11F
100
AcDbEntity
  8
9
  6
Continuous
 62
     7
370
    25
100
AcDbVertex
100
AcDb2dVertex
 10
570.2478518647079
 20
229.1194326620563
 30
0.0
  0
VERTEX
  5
121
330
11F
100
AcDbEntity
  8
9
  6
Continuous
 62
     7
370
    25
100
AcDbVertex
100
AcDb2dVertex
 10
573.711953479846
 20
223.1194326620563
 30
0.0
  0
VERTEX
  5
122
330
11F
100
AcDbEntity
  8
9
  6
Continuous
 62
     7
370
    25
100
AcDbVertex
100
AcDb2dVertex
 10
570.2478518647079
 20
217.1194326620563
 30
0.0
  0
VERTEX
  5
123
330
11F
100
AcDbEntity
  8
9
  6
Continuous
 62
     7
370
    25
100
AcDbVertex
100
AcDb2dVertex
 10
563.3196486344325
 20
217.1194326620563
 30
0.0
  0
VERTEX
  5
124
330
11F
100
AcDbEntity
  8
9
  6
Continuous
 62
     7
370
    25
100
AcDbVertex
100
AcDb2dVertex
 10
559.8555470192953
 20
223.1194326620563
 30
0.0
  0
VERTEX
  5
125
330
11F
100
AcDbEntity
  8
9
  6
Continuous
 62
     7
370
    25
100
AcDbVertex
100
AcDb2dVertex
 10
563.3196486344325
 20
229.1194326620563
 30
0.0
  0
VERTEX
  5
126
330
11F
100
AcDbEntity
  8
9
  6
Continuous
 62
     7
370
    25
100
AcDbVertex
100
AcDb2dVertex
 10
570.2478518647079
 20
229.1194326620563
 30
0.0
  0
SEQEND
  5
127
330
11F
100
AcDbEntity
  8
9
  6
Continuous
 62
     7
370
    25
  0
CIRCLE
  5
128
330
1F
100
AcDbEntity
  8
9
  6
Continuous
 62
     7
370
    25
100
AcDbCircle
 10
566.7837502495697
 20
223.1194326620563
 30
0.0
 40
1.849999999990359
  0
CIRCLE
  5
129
330
1F
100
AcDbEntity
  8
9
  6
Continuous
 62
     7
370
    25
100
AcDbCircle
 10
566.7837502495697
 20
223.1194326620563
 30
0.0
 40
5.0
  0
LINE
  5
12A
330
1F
100
AcDbEntity
  8
9
  6
Continuous
 62
     7
370
    25
100
AcDbLine
 10
579.2837502495784
 20
230.6194326620563
 30
0.0
 11
566.7837502495697
 21
230.6194326620563
 31
0.0
  0
LINE
  5
12B
330
1F
100
AcDbEntity
  8
9
  6
Continuous
 62
     7
370
    25
100
AcDbLine
 10
579.2837502495779
 20
215.6194326620592
 30
0.0
 11
566.7837502495715
 21
215.6194326620563
 31
0.0
  0
ARC
  5
12C
330
1F
100
AcDbEntity
  8
9
  6
Continuous
 62
     7
370
    25
100
AcDbCircle
 10
566.7837502495697
 20
223.1194326620563
 30
0.0
 40
7.5
100
AcDbArc
 50
89.99999999999991
 51
270.0000000000257
  0
LINE
  5
12D
330
1F
100
AcDbEntity
  8
9
  6
Continuous
 62
     7
370
    25
100
AcDbLine
 10
446.6304967168928
 20
229.1194326620563
 30
0.0
 11
446.6304967168928
 21
223.1194326620563
 31
0.0
  0
LINE
  5
12E
330
1F
100
AcDbEntity
  8
9
  6
Continuous
 62
     7
370
    25
100
AcDbLine
 10
457.6304967168928
 20
225.6194326620563
 30
0.0
 11
457.6304967168928
 21
220.6194326620563
 31
0.0
  0
ARC
  5
12F
330
1F
100
AcDbEntity
  8
9
  6
Continuous
 62
     7
370
    25
100
AcDbCircle
 10
454.6304967168928
 20
225.6194326620563
 30
0.0
 40
3.0
100
AcDbArc
 50
0.0
 51
89.99999999999991
  0
LINE
  5
130
330
1F
100
AcDbEntity
  8
9
  6
Continuous
 62
     7
370
    25
100
AcDbLine
 10
454.6304967168928
 20
229.1194326620563
 30
0.0
 11
454.6304967168928
 21
217.1194326620563
 31
0.0
  0
LINE
  5
131
330
1F
100
AcDbEntity
  8
9
  6
Continuous
 62
     7
370
    25
100
AcDbLine
 10
446.6304967168928
 20
229.1194326620563
 30
0.0
 11
454.6304967168928
 21
229.1194326620563
 31
0.0
  0
LINE
  5
132
330
1F
100
AcDbEntity
  8
9
  6
Continuous
 62
     7
370
    25
100
AcDbLine
 10
444.7304967168914
 20
228.1194326620563
 30
0.0
 11
446.6304967168928
 21
228.1194326620563
 31
0.0
  0
LINE
  5
133
330
1F
100
AcDbEntity
  8
9
  6
Continuous
 62
     7
370
    25
100
AcDbLine
 10
446.6304967168928
 20
217.1194326620563
 30
0.0
 11
446.6304967168928
 21
223.1194326620563
 31
0.0
  0
LINE
  5
134
330
1F
100
AcDbEntity
  8
9
  6
Continuous
 62
     7
370
    25
100
AcDbLine
 10
446.6304967168928
 20
223.1194326620563
 30
0.0
 11
454.6304967168928
 21
223.1194326620563
 31
0.0
  0
LINE
  5
135
330
1F
100
AcDbEntity
  8
9
  6
Continuous
 62
     7
370
    25
100
AcDbLine
 10
444.7304967168914
 20
218.1194326620563
 30
0.0
 11
446.6304967168928
 21
218.1194326620563
 31
0.0
  0
ARC
  5
136
330
1F
100
AcDbEntity
  8
9
  6
Continuous
 62
     7
370
    25
100
AcDbCircle
 10
454.6304967168928
 20
220.6194326620563
 30
0.0
 40
3.0
100
AcDbArc
 50
269.9999999999998
 51
0.0
  0
LINE
  5
137
330
1F
100
AcDbEntity
  8
9
  6
Continuous
 62
     7
370
    25
100
AcDbLine
 10
446.6304967168928
 20
217.1194326620563
 30
0.0
 11
454.6304967168928
 21
217.1194326620563
 31
0.0
  0
LINE
  5
138
330
1F
100
AcDbEntity
  8
5
  6
Continuous
 62
     1
370
    25
100
AcDbLine
 10
457.6304967168928
 20
224.9694326620557
 30
0.0
 11
476.354405227172
 21
224.9694211138714
 31
0.0
  0
ARC
  5
139
330
1F
100
AcDbEntity
  8
5
  6
Continuous
 62
     1
370
    25
100
AcDbCircle
 10
477.388322625254
 20
224.0444269781902
 30
0.0
 40
1.387299296151184
100
AcDbArc
 50
138.1825956443248
 51
221.8174143556803
  0
ARC
  5
13A
330
1F
100
AcDbEntity
  8
5
  6
Continuous
 62
     1
370
    25
100
AcDbCircle
 10
475.3202033505161
 20
222.1944326620561
 30
0.0
 40
1.387515353286915
100
AcDbArc
 50
318.1902521645558
 51
41.80974783544382
  0
ARC
  5
13B
330
1F
100
AcDbEntity
  8
5
  6
Continuous
 62
     1
370
    25
100
AcDbCircle
 10
475.3202187038235
 20
224.0444267977138
 30
0.0
 40
1.387499999999989
100
AcDbArc
 50
318.190009999997
 51
41.80999999998586
  0
LINE
  5
13C
330
1F
100
AcDbEntity
  8
5
  6
Continuous
 62
     1
370
    25
100
AcDbLine
 10
457.6304967168928
 20
221.2694326620559
 30
0.0
 11
476.3544053886137
 21
221.2694326620559
 31
0.0
  0
LINE
  5
13D
330
1F
100
AcDbEntity
  8
9
  6
Continuous
 62
     7
370
    25
100
AcDbLine
 10
440.1304967168928
 20
229.3694326620563
 30
0.0
 11
439.6304967168928
 21
229.3694326620563
 31
0.0
  0
LINE
  5
13E
330
1F
100
AcDbEntity
  8
9
  6
Continuous
 62
     7
370
    25
100
AcDbLine
 10
440.1304967168928
 20
230.1194326620563
 30
0.0
 11
444.7304967168923
 21
230.1194326620563
 31
0.0
  0
LINE
  5
13F
330
1F
100
AcDbEntity
  8
9
  6
Continuous
 62
     7
370
    25
100
AcDbLine
 10
440.1304967168928
 20
226.6194326620563
 30
0.0
 11
444.7304967168923
 21
226.6194326620563
 31
0.0
  0
LINE
  5
140
330
1F
100
AcDbEntity
  8
9
  6
Continuous
 62
     7
370
    25
100
AcDbLine
 10
440.1304967168928
 20
216.1194326620554
 30
0.0
 11
444.7304967168923
 21
216.1194326620563
 31
0.0
  0
LINE
  5
141
330
1F
100
AcDbEntity
  8
9
  6
Continuous
 62
     7
370
    25
100
AcDbLine
 10
440.1304967168928
 20
219.6194326620563
 30
0.0
 11
444.7304967168923
 21
219.6194326620563
 31
0.0
  0
LINE
  5
142
330
1F
100
AcDbEntity
  8
9
  6
Continuous
 62
     7
370
    25
100
AcDbLine
 10
444.7304967168923
 20
230.1194326620563
 30
0.0
 11
444.7304967168923
 21
223.1194326620563
 31
0.0
  0
LINE
  5
143
330
1F
100
AcDbEntity
  8
9
  6
Continuous
 62
     7
370
    25
100
AcDbLine
 10
444.7304967168923
 20
216.1194326620563
 30
0.0
 11
444.7304967168923
 21
223.1194326620563
 31
0.0
  0
LINE
  5
144
330
1F
100
AcDbEntity
  8
9
  6
Continuous
 62
     7
370
    25
100
AcDbLine
 10
440.1304967168928
 20
230.1194326620563
 30
0.0
 11
440.1304967168928
 21
216.1194326620554
 31
0.0
  0
LINE
  5
145
330
1F
100
AcDbEntity
  8
9
  6
Continuous
 62
     7
370
    25
100
AcDbLine
 10
440.1304967168928
 20
216.8694326620563
 30
0.0
 11
439.6304967168928
 21
216.8694326620563
 31
0.0
  0
LINE
  5
146
330
1F
100
AcDbEntity
  8
9
  6
Continuous
 62
     7
370
    25
100
AcDbLine
 10
439.6304967168928
 20
229.3694326620563
 30
0.0
 11
439.6304967168928
 21
216.8694326620563
 31
0.0
  0
DIMENSION
  5
150
330
1F
100
AcDbEntity
  8
8
  6
Continuous
 62
     4
370
     9
100
AcDbDimension
280
     0
  2
Dim2
 10
439.6304967168927
 20
101.1194326620568
 30
0.0
 11
468.1304967168929
 21
101.1194326620567
 31
0.0
 70
   160
  1
(<>
 71
     5
 42
-1.0
 73
     0
 74
     0
 75
     0
  3
Standard
100
AcDbAlignedDimension
 13
457.6304967168928
 23
220.6194326620563
 33
0.0
 14
439.6304967168928
 24
158.1194326620563
 34
0.0
 50
179.9999999999998
100
AcDbRotatedDimension
1001
ACAD
1000
DSTYLE
1002
{
1070
   279
1070
     2
1070
   340
1005
F9
1070
   140
1040
4.5
1070
    40
1040
1.0
1070
   147
1040
0.0
1070
    76
1070
     0
1070
    75
1070
     0
1070
   344
1005
0
1070
   343
1005
0
1070
   173
1070
     1
1070
   289
1070
     2
1070
   288
1070
     1
1070
    77
1070
     1
1070
   172
1070
     1
1070
   174
1070
     0
1070
    74
1070
     0
1070
    73
1070
     0
1070
   284
1070
     8
1070
    78
1070
     8
1070
    42
1040
1.5
1070
    44
1040
2.25
1070
    43
1040
30.0
1070
   271
1070
     2
1070
    41
1040
3.0
1002
}
  0
DIMENSION
  5
15A
330
1F
100
AcDbEntity
  8
8
  6
Continuous
 62
     4
370
     9
100
AcDbDimension
280
     0
  2
Dim3
 10
559.855547019295
 20
113.1194326620567
 30
0.0
 11
594.1587502495788
 21
113.1194326620567
 31
0.0
 70
   160
  1
(<>
 71
     5
 42
-1.0
 73
     0
 74
     0
 75
     0
  3
Standard
100
AcDbAlignedDimension
 13
580.2837502495788
 23
143.1194326620563
 33
0.0
 14
559.8555470192953
 24
223.1194326620563
 34
0.0
 50
179.9999999999998
100
AcDbRotatedDimension
1001
ACAD
1000
DSTYLE
1002
{
1070
   279
1070
     2
1070
   340
1005
F9
1070
   140
1040
4.5
1070
    40
1040
1.0
1070
   147
1040
0.0
1070
    76
1070
     0
1070
    75
1070
     0
1070
   344
1005
0
1070
   343
1005
0
1070
   173
1070
     1
1070
   289
1070
     2
1070
   288
1070
     1
1070
    77
1070
     1
1070
   172
1070
     1
1070
   174
1070
     0
1070
    74
1070
     0
1070
    73
1070
     0
1070
   284
1070
     8
1070
    78
1070
     8
1070
    42
1040
1.5
1070
    44
1040
2.25
1070
    43
1040
30.0
1070
   271
1070
     2
1070
    41
1040
3.0
1002
}
  0
ARC
  5
15B
330
1F
100
AcDbEntity
  8
5
  6
Continuous
 62
     1
370
    25
100
AcDbCircle
 10
478.786875870712
 20
222.2176437329746
 30
0.0
 40
1.387515022395519
100
AcDbArc
 50
138.1902399436259
 51
221.8097600563737
  0
ARC
  5
15C
330
1F
100
AcDbEntity
  8
5
  6
Continuous
 62
     1
370
    25
100
AcDbCircle
 10
476.7187565958823
 20
222.2176495250964
 30
0.0
 40
1.387299627082427
100
AcDbArc
 50
318.1825978710832
 51
41.81739912889851
  0
ARC
  5
15D
330
1F
100
AcDbEntity
  8
5
  6
Continuous
 62
     1
370
    25
100
AcDbCircle
 10
478.7868608483279
 20
224.0676379949829
 30
0.0
 40
1.387499999999989
100
AcDbArc
 50
138.1900000000142
 51
221.8099970000193
  0
MTEXT
  5
15E
330
1F
100
AcDbEntity
  8
8
  6
Continuous
 62
     4
370
     9
100
AcDbMText
 10
473.2964847410633
 20
213.7591053862399
 30
0.0
 40
4.5
 41
29.24845499555999
 46
4.5
 71
     1
 72
     1
  1
{\fＭＳ ゴシック;\T1.555898;L=500}
 73
     1
 44
1.0
1001
ACAD
1000
ACAD_MTEXT_DEFINED_HEIGHT_BEGIN
1070
    46
1040
4.5
1000
ACAD_MTEXT_DEFINED_HEIGHT_END
  0
LINE
  5
15F
330
1F
100
AcDbEntity
  8
9
  6
Continuous
 62
     7
370
    25
100
AcDbLine
 10
271.180496716893
 20
157.8027659953897
 30
0.0
 11
278.0804967168926
 21
157.8027659953897
 31
0.0
  0
ARC
  5
160
330
1F
100
AcDbEntity
  8
9
  6
Continuous
 62
     7
370
    25
100
AcDbCircle
 10
274.6304967168928
 20
160.7697835392493
 30
0.0
 40
4.550350877192955
100
AcDbArc
 50
220.6956985254003
 51
319.304301474599
  0
LINE
  5
161
330
1F
100
AcDbEntity
  8
9
  6
Continuous
 62
     7
370
    25
100
AcDbLine
 10
271.180496716893
 20
158.1194326620563
 30
0.0
 11
271.180496716893
 21
157.8027659953897
 31
0.0
  0
LINE
  5
162
330
1F
100
AcDbEntity
  8
9
  6
Continuous
 62
     7
370
    25
100
AcDbLine
 10
278.0804967168926
 20
158.1194326620563
 30
0.0
 11
278.0804967168926
 21
157.8027659953897
 31
0.0
  0
LINE
  5
163
330
1F
100
AcDbEntity
  8
9
  6
Continuous
 62
     7
370
    25
100
AcDbLine
 10
271.180496716893
 20
288.4360993287229
 30
0.0
 11
278.0804967168926
 21
288.4360993287229
 31
0.0
  0
ARC
  5
164
330
1F
100
AcDbEntity
  8
9
  6
Continuous
 62
     7
370
    25
100
AcDbCircle
 10
274.6304967168928
 20
285.4690817848634
 30
0.0
 40
4.550350877192955
100
AcDbArc
 50
40.69569852540071
 51
139.3043014745993
  0
LINE
  5
165
330
1F
100
AcDbEntity
  8
9
  6
Continuous
 62
     7
370
    25
100
AcDbLine
 10
271.180496716893
 20
288.1194326620563
 30
0.0
 11
271.180496716893
 21
288.4360993287229
 31
0.0
  0
LINE
  5
166
330
1F
100
AcDbEntity
  8
9
  6
Continuous
 62
     7
370
    25
100
AcDbLine
 10
278.0804967168926
 20
288.1194326620563
 30
0.0
 11
278.0804967168926
 21
288.4360993287229
 31
0.0
  0
CIRCLE
  5
167
330
1F
100
AcDbEntity
  8
9
  6
Continuous
 62
     7
370
    25
100
AcDbCircle
 10
149.6304967168928
 20
296.1194326620563
 30
0.0
 40
3.099999999999994
  0
CIRCLE
  5
168
330
1F
100
AcDbEntity
  8
9
  6
Continuous
 62
     7
370
    25
100
AcDbCircle
 10
212.1304967168937
 20
296.1194326620563
 30
0.0
 40
3.099999999999994
  0
CIRCLE
  5
169
330
1F
100
AcDbEntity
  8
9
  6
Continuous
 62
     7
370
    25
100
AcDbCircle
 10
337.1304967168919
 20
296.1194326620563
 30
0.0
 40
3.100000000000023
  0
CIRCLE
  5
16A
330
1F
100
AcDbEntity
  8
9
  6
Continuous
 62
     7
370
    25
100
AcDbCircle
 10
399.6304967168928
 20
296.1194326620563
 30
0.0
 40
3.100000000000023
  0
CIRCLE
  5
16B
330
1F
100
AcDbEntity
  8
9
  6
Continuous
 62
     7
370
    25
100
AcDbCircle
 10
399.6304967168928
 20
150.1194326620563
 30
0.0
 40
3.100000000000023
  0
CIRCLE
  5
16C
330
1F
100
AcDbEntity
  8
9
  6
Continuous
 62
     7
370
    25
100
AcDbCircle
 10
337.1304967168919
 20
150.1194326620563
 30
0.0
 40
3.100000000000023
  0
CIRCLE
  5
16D
330
1F
100
AcDbEntity
  8
9
  6
Continuous
 62
     7
370
    25
100
AcDbCircle
 10
212.1304967168937
 20
150.1194326620563
 30
0.0
 40
3.099999999999994
  0
CIRCLE
  5
16E
330
1F
100
AcDbEntity
  8
9
  6
Continuous
 62
     7
370
    25
100
AcDbCircle
 10
149.6304967168928
 20
150.1194326620563
 30
0.0
 40
3.099999999999994
  0
LINE
  5
16F
330
1F
100
AcDbEntity
  8
3
  6
DASHDOT
 62
     1
370
     9
100
AcDbLine
 10
530.2837502495788
 20
223.1194326620563
 30
0.0
 11
585.2837502495788
 21
223.1194326620563
 31
0.0
  0
LINE
  5
170
330
1F
100
AcDbEntity
  8
3
  6
DASHDOT
 62
     1
370
     9
100
AcDbLine
 10
145.5304967168928
 20
296.1194326620563
 30
0.0
 11
153.7304967168928
 21
296.1194326620563
 31
0.0
  0
LINE
  5
171
330
1F
100
AcDbEntity
  8
3
  6
DASHDOT
 62
     1
370
     9
100
AcDbLine
 10
149.6304967168928
 20
300.2194326620563
 30
0.0
 11
149.6304967168928
 21
292.0194326620563
 31
0.0
  0
LINE
  5
172
330
1F
100
AcDbEntity
  8
3
  6
DASHDOT
 62
     1
370
     9
100
AcDbLine
 10
578.2837502495788
 20
296.1194326620562
 30
0.0
 11
581.2837502495788
 21
296.1194326620563
 31
0.0
  0
LINE
  5
173
330
1F
100
AcDbEntity
  8
3
  6
DASHDOT
 62
     1
370
     9
100
AcDbLine
 10
578.283750249579
 20
150.1194326620563
 30
0.0
 11
581.283750249579
 21
150.1194326620563
 31
0.0
  0
INSERT
  5
174
330
1F
100
AcDbEntity
  8
8
  6
Continuous
 62
     4
370
     9
100
AcDbBlockReference
  2
_OPEN
 10
151.1804967168929
 20
298.8041114137881
 30
0.0
 41
4.5
 42
4.5
 43
4.5
 50
239.9999999999998
  0
POLYLINE
  5
175
330
1F
100
AcDbEntity
  8
8
  6
Continuous
 62
     4
370
     9
100
AcDb2dPolyline
 66
     1
 10
0.0
 20
0.0
 30
0.0
  0
VERTEX
  5
176
330
175
100
AcDbEntity
  8
8
  6
Continuous
 62
     4
370
     9
100
AcDbVertex
100
AcDb2dVertex
 10
151.1804967168929
 20
298.8041114137881
 30
0.0
  0
VERTEX
  5
177
330
175
100
AcDbEntity
  8
8
  6
Continuous
 62
     4
370
     9
100
AcDbVertex
100
AcDb2dVertex
 10
161.3054967168929
 20
316.341125840423
 30
0.0
  0
VERTEX
  5
178
330
175
100
AcDbEntity
  8
8
  6
Continuous
 62
     4
370
     9
100
AcDbVertex
100
AcDb2dVertex
 10
182.0954967168929
 20
316.341125840423
 30
0.0
  0
SEQEND
  5
179
330
175
100
AcDbEntity
  8
8
  6
Continuous
 62
     4
370
     9
  0
MTEXT
  5
17A
330
1F
100
AcDbEntity
  8
8
  6
Continuous
 62
     4
370
     9
100
AcDbMText
 10
164.8454967168929
 20
321.741125840423
 30
0.0
 40
4.5
 41
24.4404997965
 46
4.5
 71
     1
 72
     1
  1
{\fＭＳ ゴシック;\T1.016260;8-Ø6.2}
 73
     1
 44
1.0
1001
ACAD
1000
ACAD_MTEXT_DEFINED_HEIGHT_BEGIN
1070
    46
1040
4.5
1000
ACAD_MTEXT_DEFINED_HEIGHT_END
  0
LINE
  5
17B
330
1F
100
AcDbEntity
  8
5
  6
Continuous
 62
     1
370
    25
100
AcDbLine
 10
502.4823833197581
 20
227.6426737600426
 30
0.0
 11
494.6476298434015
 21
227.6426737600427
 31
0.0
  0
LINE
  5
17C
330
1F
100
AcDbEntity
  8
5
  6
Continuous
 62
     1
370
    25
100
AcDbLine
 10
511.4823603197581
 20
225.1426537600423
 30
0.0
 11
498.4823513197582
 21
225.1426537600423
 31
0.0
  0
LINE
  5
17D
330
1F
100
AcDbEntity
  8
5
  6
Continuous
 62
     1
370
    25
100
AcDbLine
 10
508.4823563197581
 20
223.5426537600424
 30
0.0
 11
499.4823553197582
 21
223.5426537600424
 31
0.0
  0
LINE
  5
17E
330
1F
100
AcDbEntity
  8
5
  6
Continuous
 62
     1
370
    25
100
AcDbLine
 10
508.4823563197581
 20
221.9426637600424
 30
0.0
 11
499.4823553197582
 21
221.9426637600424
 31
0.0
  0
LINE
  5
17F
330
1F
100
AcDbEntity
  8
5
  6
Continuous
 62
     1
370
    25
100
AcDbLine
 10
508.4823563197581
 20
222.7426337600424
 30
0.0
 11
499.4823553197582
 21
222.7426337600424
 31
0.0
  0
LINE
  5
180
330
1F
100
AcDbEntity
  8
5
  6
Continuous
 62
     1
370
    25
100
AcDbLine
 10
508.4823563197581
 20
224.3426337600424
 30
0.0
 11
499.4823553197582
 21
224.3426337600424
 31
0.0
  0
LINE
  5
181
330
1F
100
AcDbEntity
  8
5
  6
Continuous
 62
     1
370
    25
100
AcDbLine
 10
502.4823833197581
 20
218.6426137600421
 30
0.0
 11
494.6476298434015
 21
218.642613760042
 31
0.0
  0
LINE
  5
182
330
1F
100
AcDbEntity
  8
5
  6
Continuous
 62
     1
370
    25
100
AcDbLine
 10
511.4823603197581
 20
221.1426437600423
 30
0.0
 11
498.4823513197582
 21
221.1426437600423
 31
0.0
  0
LINE
  5
183
330
1F
100
AcDbEntity
  8
5
  6
Continuous
 62
     1
370
    25
100
AcDbLine
 10
491.8268597646963
 20
226.6329035492968
 30
0.0
 11
485.5298310322521
 21
226.6329035492965
 31
0.0
  0
LINE
  5
184
330
1F
100
AcDbEntity
  8
5
  6
Continuous
 62
     1
370
    25
100
AcDbLine
 10
491.8268597646963
 20
219.6523839707897
 30
0.0
 11
485.5298310322521
 21
219.6523839707897
 31
0.0
  0
LINE
  5
185
330
1F
100
AcDbEntity
  8
5
  6
Continuous
 62
     1
370
    25
100
AcDbLine
 10
485.5298310322521
 20
219.6523839707897
 30
0.0
 11
485.5298310322521
 21
226.6329035492965
 31
0.0
  0
ARC
  5
186
330
1F
100
AcDbEntity
  8
5
  6
Continuous
 62
     1
370
    25
100
AcDbCircle
 10
494.647629843402
 20
225.6426737600427
 30
0.0
 40
2.0
100
AcDbArc
 50
90.00000000001303
 51
120.0000000000151
  0
ARC
  5
187
330
1F
100
AcDbEntity
  8
5
  6
Continuous
 62
     1
370
    25
100
AcDbCircle
 10
491.8268597646963
 20
228.6329035492959
 30
0.0
 40
2.0
100
AcDbArc
 50
269.9999999999998
 51
300.0000000000147
  0
LINE
  5
188
330
1F
100
AcDbEntity
  8
5
  6
Continuous
 62
     1
370
    25
100
AcDbLine
 10
493.647629843402
 20
227.3747245676108
 30
0.0
 11
492.8268597646968
 21
226.9008527417276
 31
0.0
  0
ARC
  5
189
330
1F
100
AcDbEntity
  8
5
  6
Continuous
 62
     1
370
    25
100
AcDbCircle
 10
494.647629843402
 20
220.642613760042
 30
0.0
 40
2.0
100
AcDbArc
 50
239.9999999999846
 51
269.9999999999866
  0
ARC
  5
18A
330
1F
100
AcDbEntity
  8
5
  6
Continuous
 62
     1
370
    25
100
AcDbCircle
 10
491.8268597646963
 20
217.6523839707888
 30
0.0
 40
2.0
100
AcDbArc
 50
59.99999999998492
 51
89.99999999999991
  0
LINE
  5
18B
330
1F
100
AcDbEntity
  8
5
  6
Continuous
 62
     1
370
    25
100
AcDbLine
 10
493.647629843402
 20
218.9105629524739
 30
0.0
 11
492.8268597646968
 21
219.3844347783571
 31
0.0
  0
LINE
  5
18C
330
1F
100
AcDbEntity
  8
5
  6
Continuous
 62
     1
370
    25
100
AcDbLine
 10
498.4823513197582
 20
221.1426437600423
 30
0.0
 11
498.4823513197582
 21
225.1426537600423
 31
0.0
  0
LINE
  5
18D
330
1F
100
AcDbEntity
  8
5
  6
Continuous
 62
     1
370
    25
100
AcDbLine
 10
499.4823553197582
 20
221.1426437600423
 30
0.0
 11
499.4823553197582
 21
225.1426537600423
 31
0.0
  0
LINE
  5
18E
330
1F
100
AcDbEntity
  8
5
  6
Continuous
 62
     1
370
    25
100
AcDbLine
 10
511.4823603197581
 20
223.1426437600423
 30
0.0
 11
511.4823603197581
 21
228.3926537600423
 31
0.0
  0
ARC
  5
18F
330
1F
100
AcDbEntity
  8
5
  6
Continuous
 62
     1
370
    25
100
AcDbCircle
 10
504.4823593197582
 20
227.3926537600423
 30
0.0
 40
1.0
100
AcDbArc
 50
89.99999999999991
 51
179.9999999999998
  0
LINE
  5
190
330
1F
100
AcDbEntity
  8
5
  6
Continuous
 62
     1
370
    25
100
AcDbLine
 10
502.4823833197584
 20
227.1426637600423
 30
0.0
 11
503.4823553197582
 21
227.1426637600423
 31
0.0
  0
LINE
  5
191
330
1F
100
AcDbEntity
  8
5
  6
Continuous
 62
     1
370
    25
100
AcDbLine
 10
502.4823833197581
 20
227.6426737600426
 30
0.0
 11
502.4823833197581
 21
225.1426537600425
 31
0.0
  0
LINE
  5
192
330
1F
100
AcDbEntity
  8
5
  6
Continuous
 62
     1
370
    25
100
AcDbLine
 10
503.4823553197582
 20
227.3926537600423
 30
0.0
 11
503.4823553197582
 21
225.1426537600423
 31
0.0
  0
LINE
  5
193
330
1F
100
AcDbEntity
  8
5
  6
Continuous
 62
     1
370
    25
100
AcDbLine
 10
503.4823553197582
 20
227.1426637600423
 30
0.0
 11
503.4823553197582
 21
225.1426537600423
 31
0.0
  0
LINE
  5
194
330
1F
100
AcDbEntity
  8
5
  6
Continuous
 62
     1
370
    25
100
AcDbLine
 10
504.4823593197582
 20
217.8926337600424
 30
0.0
 11
511.4823603197581
 21
217.8926337600424
 31
0.0
  0
LINE
  5
195
330
1F
100
AcDbEntity
  8
5
  6
Continuous
 62
     1
370
    25
100
AcDbLine
 10
503.4823553197582
 20
219.1426237600423
 30
0.0
 11
502.4823833197584
 21
219.1426237600423
 31
0.0
  0
LINE
  5
196
330
1F
100
AcDbEntity
  8
5
  6
Continuous
 62
     1
370
    25
100
AcDbLine
 10
502.4823833197581
 20
218.6426137600421
 30
0.0
 11
502.4823833197581
 21
221.1426337600421
 31
0.0
  0
LINE
  5
197
330
1F
100
AcDbEntity
  8
5
  6
Continuous
 62
     1
370
    25
100
AcDbLine
 10
503.4823553197582
 20
218.8926337600424
 30
0.0
 11
503.4823553197582
 21
221.1426437600423
 31
0.0
  0
LINE
  5
198
330
1F
100
AcDbEntity
  8
5
  6
Continuous
 62
     1
370
    25
100
AcDbLine
 10
503.4823553197582
 20
221.1426437600423
 30
0.0
 11
503.4823553197582
 21
219.1426237600423
 31
0.0
  0
ARC
  5
199
330
1F
100
AcDbEntity
  8
5
  6
Continuous
 62
     1
370
    25
100
AcDbCircle
 10
504.4823593197582
 20
218.8926337600424
 30
0.0
 40
1.0
100
AcDbArc
 50
179.9999999999998
 51
269.9999999999998
  0
LINE
  5
19A
330
1F
100
AcDbEntity
  8
5
  6
Continuous
 62
     1
370
    25
100
AcDbLine
 10
508.4823563197581
 20
225.1426537600423
 30
0.0
 11
508.4823563197581
 21
221.1426437600423
 31
0.0
  0
LINE
  5
19B
330
1F
100
AcDbEntity
  8
5
  6
Continuous
 62
     1
370
    25
100
AcDbLine
 10
511.4823603197581
 20
223.1426437600423
 30
0.0
 11
511.4823603197581
 21
217.8926337600424
 31
0.0
  0
LINE
  5
19C
330
1F
100
AcDbEntity
  8
5
  6
Continuous
 62
     1
370
    25
100
AcDbLine
 10
510.4823513197582
 20
225.1426537600423
 30
0.0
 11
510.4823513197582
 21
221.1426437600423
 31
0.0
  0
LINE
  5
19D
330
1F
100
AcDbEntity
  8
5
  6
Continuous
 62
     1
370
    25
100
AcDbLine
 10
504.4823593197582
 20
228.3926537600423
 30
0.0
 11
511.4823603197581
 21
228.3926537600423
 31
0.0
  0
LINE
  5
19E
330
1F
100
AcDbEntity
  8
5
  6
Continuous
 62
     1
370
    25
100
AcDbLine
 10
477.7526743249791
 20
224.9926323111404
 30
0.0
 11
485.5298310322521
 21
224.9926323111404
 31
0.0
  0
LINE
  5
19F
330
1F
100
AcDbEntity
  8
5
  6
Continuous
 62
     1
370
    25
100
AcDbLine
 10
477.7526742765476
 20
221.2926552089459
 30
0.0
 11
485.5298310322521
 21
221.2926552089459
 31
0.0
  0
CIRCLE
  5
1A0
330
1F
100
AcDbEntity
  8
1
  6
Continuous
 62
     7
370
     9
100
AcDbCircle
 10
274.6304967168926
 20
223.1194326620561
 30
0.0
 40
17.5
  0
CIRCLE
  5
1A1
330
1F
100
AcDbEntity
  8
11
  6
HIDDEN
 62
     3
370
     9
100
AcDbCircle
 10
274.6304967168926
 20
223.1194326620561
 30
0.0
 40
22.5
  0
LINE
  5
1A2
330
1F
100
AcDbEntity
  8
6
  6
Continuous
 62
     6
370
     9
100
AcDbLine
 10
30.00001350000048
 20
52.50000000000017
 30
0.0
 11
138.0000135000005
 21
52.50000000000017
 31
0.0
  0
LINE
  5
1A3
330
1F
100
AcDbEntity
  8
6
  6
Continuous
 62
     6
370
     9
100
AcDbLine
 10
30.00001350000048
 20
44.99998499999987
 30
0.0
 11
138.0000135000005
 21
44.99998499999987
 31
0.0
  0
LINE
  5
1A4
330
1F
100
AcDbEntity
  8
6
  6
Continuous
 62
     6
370
     9
100
AcDbLine
 10
30.00001350000048
 20
37.50000000000017
 30
0.0
 11
138.0000135000005
 21
37.50000000000017
 31
0.0
  0
LINE
  5
1A5
330
1F
100
AcDbEntity
  8
6
  6
Continuous
 62
     6
370
     9
100
AcDbLine
 10
30.00001350000048
 20
30.00000000000017
 30
0.0
 11
138.0000135000005
 21
30.00000000000017
 31
0.0
  0
LINE
  5
1A6
330
1F
100
AcDbEntity
  8
6
  6
Continuous
 62
     6
370
     9
100
AcDbLine
 10
96.00001350000048
 20
52.50000000000017
 30
0.0
 11
96.00001350000048
 21
30.00000000000017
 31
0.0
  0
LINE
  5
1A7
330
1F
100
AcDbEntity
  8
6
  6
Continuous
 62
     6
370
     9
100
AcDbLine
 10
96.00001350000048
 20
52.50000000000017
 30
0.0
 11
96.00001350000048
 21
30.00000000000017
 31
0.0
  0
LINE
  5
1A8
330
1F
100
AcDbEntity
  8
6
  6
Continuous
 62
     6
370
     9
100
AcDbLine
 10
60.00002850000055
 20
52.50000000000017
 30
0.0
 11
60.00002850000055
 21
30.00000000000017
 31
0.0
  0
LINE
  5
1A9
330
1F
100
AcDbEntity
  8
6
  6
Continuous
 62
     6
370
     9
100
AcDbLine
 10
30.00001350000048
 20
52.50000000000017
 30
0.0
 11
30.00001350000048
 21
30.00000000000017
 31
0.0
  0
LINE
  5
1AA
330
1F
100
AcDbEntity
  8
6
  6
Continuous
 62
     6
370
     9
100
AcDbLine
 10
30.00001350000048
 20
52.50000000000017
 30
0.0
 11
60.00002850000055
 21
44.99998499999987
 31
0.0
  0
LINE
  5
1AB
330
1F
100
AcDbEntity
  8
6
  6
Continuous
 62
     6
370
     9
100
AcDbLine
 10
138.0000135000005
 20
52.50000000000017
 30
0.0
 11
138.0000135000005
 21
30.00000000000017
 31
0.0
  0
LINE
  5
1AC
330
1F
100
AcDbEntity
  8
5
  6
Continuous
 62
     1
370
    25
100
AcDbLine
 10
82.7660120954638
 20
64.75495725000013
 30
0.0
 11
82.7660120954638
 21
66.01496775000015
 31
0.0
  0
LINE
  5
1AD
330
1F
100
AcDbEntity
  8
5
  6
Continuous
 62
     1
370
    25
100
AcDbLine
 10
91.90100789546386
 20
59.66245725000016
 30
0.0
 11
91.90100789546386
 21
68.58747825000017
 31
0.0
  0
LINE
  5
1AE
330
1F
100
AcDbEntity
  8
5
  6
Continuous
 62
     1
370
    25
100
AcDbLine
 10
91.37600579546415
 20
68.58747825000017
 30
0.0
 11
91.37600579546415
 21
59.66245725000016
 31
0.0
  0
LINE
  5
1AF
330
1F
100
AcDbEntity
  8
5
  6
Continuous
 62
     1
370
    25
100
AcDbLine
 10
90.85101734546379
 20
68.27245725
 30
0.0
 11
90.85101734546379
 21
59.97747824999982
 31
0.0
  0
LINE
  5
1B0
330
1F
100
AcDbEntity
  8
5
  6
Continuous
 62
     1
370
    25
100
AcDbLine
 10
85.07599844546394
 20
68.27245725
 30
0.0
 11
85.07599844546394
 21
59.97747824999982
 31
0.0
  0
LINE
  5
1B1
330
1F
100
AcDbEntity
  8
5
  6
Continuous
 62
     1
370
    25
100
AcDbLine
 10
82.45100264546386
 20
65.9099467500003
 30
0.0
 11
82.45100264546386
 21
62.33997824999989
 31
0.0
  0
LINE
  5
1B2
330
1F
100
AcDbEntity
  8
5
  6
Continuous
 62
     1
370
    25
100
AcDbLine
 10
88.48850999546403
 20
65.17496249999999
 30
0.0
 11
88.48850999546403
 21
63.07497299999983
 31
0.0
  0
LINE
  5
1B3
330
1F
100
AcDbEntity
  8
5
  6
Continuous
 62
     1
370
    25
100
AcDbLine
 10
89.53851314546387
 20
63.07497299999983
 30
0.0
 11
89.53851314546387
 21
65.17496249999999
 31
0.0
  0
LINE
  5
1B4
330
1F
100
AcDbEntity
  8
5
  6
Continuous
 62
     1
370
    25
100
AcDbLine
 10
85.39100684546383
 20
68.58747825000017
 30
0.0
 11
90.53600894546389
 21
68.58747825000017
 31
0.0
  0
LINE
  5
1B5
330
1F
100
AcDbEntity
  8
5
  6
Continuous
 62
     1
370
    25
100
AcDbLine
 10
85.07601104546393
 20
69.11247825000021
 30
0.0
 11
90.85100474546402
 21
69.11247825000021
 31
0.0
  0
LINE
  5
1B6
330
1F
100
AcDbEntity
  8
5
  6
Continuous
 62
     1
370
    25
100
AcDbLine
 10
90.85101734546379
 20
69.63745725000012
 30
0.0
 11
85.07599844546394
 21
69.63745725000012
 31
0.0
  0
LINE
  5
1B7
330
1F
100
AcDbEntity
  8
5
  6
Continuous
 62
     1
370
    25
100
AcDbLine
 10
87.43851944546395
 20
67.53742050000017
 30
0.0
 11
86.38850894546385
 21
67.53742050000017
 31
0.0
  0
LINE
  5
1B8
330
1F
100
AcDbEntity
  8
5
  6
Continuous
 62
     1
370
    25
100
AcDbLine
 10
86.38850894546385
 20
65.96241000000043
 30
0.0
 11
87.43851944546395
 21
65.96241000000043
 31
0.0
  0
LINE
  5
1B9
330
1F
100
AcDbEntity
  8
5
  6
Continuous
 62
     1
370
    25
100
AcDbLine
 10
89.53851314546387
 20
65.17496249999999
 30
0.0
 11
88.48850999546403
 21
65.17496249999999
 31
0.0
  0
ARC
  5
1BA
330
1F
100
AcDbEntity
  8
5
  6
Continuous
 62
     1
370
    25
100
AcDbCircle
 10
90.85101734546379
 20
68.58747825000017
 30
0.0
 40
1.049999999999997
100
AcDbArc
 50
0.0
 51
89.99999999999991
  0
ARC
  5
1BB
330
1F
100
AcDbEntity
  8
5
  6
Continuous
 62
     1
370
    25
100
AcDbCircle
 10
90.53600894546389
 20
68.27245725
 30
0.0
 40
0.3149999999999977
100
AcDbArc
 50
0.0
 51
89.99999999999991
  0
ARC
  5
1BC
330
1F
100
AcDbEntity
  8
5
  6
Continuous
 62
     1
370
    25
100
AcDbCircle
 10
90.85100474546402
 20
68.58747825000017
 30
0.0
 40
0.5250000000000057
100
AcDbArc
 50
0.0
 51
89.99999999999991
  0
LINE
  5
1BD
330
1F
100
AcDbEntity
  8
5
  6
Continuous
 62
     1
370
    25
100
AcDbLine
 10
89.53851314546387
 20
67.79991000000047
 30
0.0
 11
88.48850999546403
 21
67.79991000000047
 31
0.0
  0
LINE
  5
1BE
330
1F
100
AcDbEntity
  8
5
  6
Continuous
 62
     1
370
    25
100
AcDbLine
 10
87.43851944546395
 20
65.96241000000043
 30
0.0
 11
87.43851944546395
 21
67.53742050000017
 31
0.0
  0
LINE
  5
1BF
330
1F
100
AcDbEntity
  8
5
  6
Continuous
 62
     1
370
    25
100
AcDbLine
 10
88.48850999546403
 20
67.79991000000047
 30
0.0
 11
88.48850999546403
 21
65.69992050000013
 31
0.0
  0
LINE
  5
1C0
330
1F
100
AcDbEntity
  8
5
  6
Continuous
 62
     1
370
    25
100
AcDbLine
 10
89.53851314546387
 20
65.69992050000013
 30
0.0
 11
89.53851314546387
 21
67.79991000000047
 31
0.0
  0
LINE
  5
1C1
330
1F
100
AcDbEntity
  8
5
  6
Continuous
 62
     1
370
    25
100
AcDbLine
 10
88.48850999546403
 20
65.69992050000013
 30
0.0
 11
89.53851314546387
 21
65.69992050000013
 31
0.0
  0
LINE
  5
1C2
330
1F
100
AcDbEntity
  8
5
  6
Continuous
 62
     1
370
    25
100
AcDbLine
 10
83.50100579546415
 20
65.1749677499999
 30
0.0
 11
83.50100579546415
 21
66.2249782500001
 31
0.0
  0
ARC
  5
1C3
330
1F
100
AcDbEntity
  8
5
  6
Continuous
 62
     1
370
    25
100
AcDbCircle
 10
82.7660120954638
 20
65.9099467500003
 30
0.0
 40
0.3149999999999977
100
AcDbArc
 50
89.99999999999991
 51
179.9999999999998
  0
LINE
  5
1C4
330
1F
100
AcDbEntity
  8
5
  6
Continuous
 62
     1
370
    25
100
AcDbLine
 10
82.97600474546402
 20
66.01496775000015
 30
0.0
 11
82.97600474546402
 21
66.2249782500001
 31
0.0
  0
LINE
  5
1C5
330
1F
100
AcDbEntity
  8
5
  6
Continuous
 62
     1
370
    25
100
AcDbLine
 10
82.7660120954638
 20
66.01496775000015
 30
0.0
 11
82.97600474546402
 21
66.01496775000015
 31
0.0
  0
LINE
  5
1C6
330
1F
100
AcDbEntity
  8
5
  6
Continuous
 62
     1
370
    25
100
AcDbLine
 10
83.50100579546415
 20
65.1749677499999
 30
0.0
 11
85.07599844546394
 21
65.1749677499999
 31
0.0
  0
LINE
  5
1C7
330
1F
100
AcDbEntity
  8
5
  6
Continuous
 62
     1
370
    25
100
AcDbLine
 10
82.7660120954638
 20
66.2249782500001
 30
0.0
 11
85.07599844546394
 21
66.2249782500001
 31
0.0
  0
ARC
  5
1C8
330
1F
100
AcDbEntity
  8
5
  6
Continuous
 62
     1
370
    25
100
AcDbCircle
 10
85.39100684546383
 20
68.27245725
 30
0.0
 40
0.3149999999999977
100
AcDbArc
 50
89.99999999999991
 51
179.9999999999998
  0
ARC
  5
1C9
330
1F
100
AcDbEntity
  8
5
  6
Continuous
 62
     1
370
    25
100
AcDbCircle
 10
85.07601104546393
 20
68.58747825000017
 30
0.0
 40
0.5250000000000057
100
AcDbArc
 50
89.99999999999991
 51
179.9999999999998
  0
ARC
  5
1CA
330
1F
100
AcDbEntity
  8
5
  6
Continuous
 62
     1
370
    25
100
AcDbCircle
 10
85.07599844546394
 20
68.58747825000017
 30
0.0
 40
1.049999999999997
100
AcDbArc
 50
89.99999999999991
 51
179.9999999999998
  0
LINE
  5
1CB
330
1F
100
AcDbEntity
  8
5
  6
Continuous
 62
     1
370
    25
100
AcDbLine
 10
86.38850894546385
 20
67.27491000000043
 30
0.0
 11
85.86351419546395
 21
67.27491000000043
 31
0.0
  0
LINE
  5
1CC
330
1F
100
AcDbEntity
  8
5
  6
Continuous
 62
     1
370
    25
100
AcDbLine
 10
86.38850894546385
 20
67.53742050000017
 30
0.0
 11
86.38850894546385
 21
67.27491000000043
 31
0.0
  0
LINE
  5
1CD
330
1F
100
AcDbEntity
  8
5
  6
Continuous
 62
     1
370
    25
100
AcDbLine
 10
85.86351419546395
 20
67.27491000000043
 30
0.0
 11
85.86351419546395
 21
66.22493099999997
 31
0.0
  0
LINE
  5
1CE
330
1F
100
AcDbEntity
  8
5
  6
Continuous
 62
     1
370
    25
100
AcDbLine
 10
86.38850894546385
 20
66.22493099999997
 30
0.0
 11
86.38850894546385
 21
65.96241000000043
 31
0.0
  0
LINE
  5
1CF
330
1F
100
AcDbEntity
  8
5
  6
Continuous
 62
     1
370
    25
100
AcDbLine
 10
85.86351419546395
 20
66.22493099999997
 30
0.0
 11
86.38850894546385
 21
66.22493099999997
 31
0.0
  0
LINE
  5
1D0
330
1F
100
AcDbEntity
  8
5
  6
Continuous
 62
     1
370
    25
100
AcDbLine
 10
84.55100999546403
 20
68.58747825000017
 30
0.0
 11
84.55100999546403
 21
66.2249782500001
 31
0.0
  0
LINE
  5
1D1
330
1F
100
AcDbEntity
  8
5
  6
Continuous
 62
     1
370
    25
100
AcDbLine
 10
84.02600789546386
 20
68.58747825000017
 30
0.0
 11
84.02600789546386
 21
66.2249782500001
 31
0.0
  0
LINE
  5
1D2
330
1F
100
AcDbEntity
  8
5
  6
Continuous
 62
     1
370
    25
100
AcDbLine
 10
90.53600894546389
 20
59.66245725000016
 30
0.0
 11
85.39100684546383
 21
59.66245725000016
 31
0.0
  0
LINE
  5
1D3
330
1F
100
AcDbEntity
  8
5
  6
Continuous
 62
     1
370
    25
100
AcDbLine
 10
90.85100474546402
 20
59.13745725000012
 30
0.0
 11
85.07601104546393
 21
59.13745725000012
 31
0.0
  0
LINE
  5
1D4
330
1F
100
AcDbEntity
  8
5
  6
Continuous
 62
     1
370
    25
100
AcDbLine
 10
90.85101734546379
 20
58.61247825000021
 30
0.0
 11
85.07599844546394
 21
58.61247825000021
 31
0.0
  0
LINE
  5
1D5
330
1F
100
AcDbEntity
  8
5
  6
Continuous
 62
     1
370
    25
100
AcDbLine
 10
86.38850894546385
 20
60.71251499999966
 30
0.0
 11
87.43851944546395
 21
60.71251499999966
 31
0.0
  0
LINE
  5
1D6
330
1F
100
AcDbEntity
  8
5
  6
Continuous
 62
     1
370
    25
100
AcDbLine
 10
87.43851944546395
 20
62.2875254999999
 30
0.0
 11
86.38850894546385
 21
62.2875254999999
 31
0.0
  0
LINE
  5
1D7
330
1F
100
AcDbEntity
  8
5
  6
Continuous
 62
     1
370
    25
100
AcDbLine
 10
86.38850894546385
 20
63.33746250000013
 30
0.0
 11
87.43851944546395
 21
63.33746250000013
 31
0.0
  0
LINE
  5
1D8
330
1F
100
AcDbEntity
  8
5
  6
Continuous
 62
     1
370
    25
100
AcDbLine
 10
87.43851944546395
 20
64.91247299999986
 30
0.0
 11
86.38850894546385
 21
64.91247299999986
 31
0.0
  0
ARC
  5
1D9
330
1F
100
AcDbEntity
  8
5
  6
Continuous
 62
     1
370
    25
100
AcDbCircle
 10
90.85101734546379
 20
59.66245725000016
 30
0.0
 40
1.049999999999997
100
AcDbArc
 50
269.9999999999998
 51
0.0
  0
ARC
  5
1DA
330
1F
100
AcDbEntity
  8
5
  6
Continuous
 62
     1
370
    25
100
AcDbCircle
 10
90.53600894546389
 20
59.97747824999982
 30
0.0
 40
0.3149999999999977
100
AcDbArc
 50
269.9999999999998
 51
0.0
  0
ARC
  5
1DB
330
1F
100
AcDbEntity
  8
5
  6
Continuous
 62
     1
370
    25
100
AcDbCircle
 10
90.85100474546402
 20
59.66245725000016
 30
0.0
 40
0.5250000000000057
100
AcDbArc
 50
269.9999999999998
 51
0.0
  0
LINE
  5
1DC
330
1F
100
AcDbEntity
  8
5
  6
Continuous
 62
     1
370
    25
100
AcDbLine
 10
88.48850999546403
 20
60.45002549999987
 30
0.0
 11
89.53851314546387
 21
60.45002549999987
 31
0.0
  0
LINE
  5
1DD
330
1F
100
AcDbEntity
  8
5
  6
Continuous
 62
     1
370
    25
100
AcDbLine
 10
89.53851314546387
 20
60.45002549999987
 30
0.0
 11
89.53851314546387
 21
62.55001499999969
 31
0.0
  0
LINE
  5
1DE
330
1F
100
AcDbEntity
  8
5
  6
Continuous
 62
     1
370
    25
100
AcDbLine
 10
88.48850999546403
 20
62.55001499999969
 30
0.0
 11
88.48850999546403
 21
60.45002549999987
 31
0.0
  0
LINE
  5
1DF
330
1F
100
AcDbEntity
  8
5
  6
Continuous
 62
     1
370
    25
100
AcDbLine
 10
87.43851944546395
 20
60.71251499999966
 30
0.0
 11
87.43851944546395
 21
62.2875254999999
 31
0.0
  0
LINE
  5
1E0
330
1F
100
AcDbEntity
  8
5
  6
Continuous
 62
     1
370
    25
100
AcDbLine
 10
89.53851314546387
 20
62.55001499999969
 30
0.0
 11
88.48850999546403
 21
62.55001499999969
 31
0.0
  0
LINE
  5
1E1
330
1F
100
AcDbEntity
  8
5
  6
Continuous
 62
     1
370
    25
100
AcDbLine
 10
88.48850999546403
 20
63.07497299999983
 30
0.0
 11
89.53851314546387
 21
63.07497299999983
 31
0.0
  0
LINE
  5
1E2
330
1F
100
AcDbEntity
  8
5
  6
Continuous
 62
     1
370
    25
100
AcDbLine
 10
87.43851944546395
 20
63.33746250000013
 30
0.0
 11
87.43851944546395
 21
64.91247299999986
 31
0.0
  0
ARC
  5
1E3
330
1F
100
AcDbEntity
  8
5
  6
Continuous
 62
     1
370
    25
100
AcDbCircle
 10
85.39100684546383
 20
59.97747824999982
 30
0.0
 40
0.3149999999999977
100
AcDbArc
 50
179.9999999999998
 51
269.9999999999998
  0
ARC
  5
1E4
330
1F
100
AcDbEntity
  8
5
  6
Continuous
 62
     1
370
    25
100
AcDbCircle
 10
85.07601104546393
 20
59.66245725000016
 30
0.0
 40
0.5250000000000057
100
AcDbArc
 50
179.9999999999998
 51
269.9999999999998
  0
ARC
  5
1E5
330
1F
100
AcDbEntity
  8
5
  6
Continuous
 62
     1
370
    25
100
AcDbCircle
 10
85.07599844546394
 20
59.66245725000016
 30
0.0
 40
1.049999999999997
100
AcDbArc
 50
179.9999999999998
 51
269.9999999999998
  0
LINE
  5
1E6
330
1F
100
AcDbEntity
  8
5
  6
Continuous
 62
     1
370
    25
100
AcDbLine
 10
85.86351419546395
 20
60.97503600000005
 30
0.0
 11
86.38850894546385
 21
60.97503600000005
 31
0.0
  0
LINE
  5
1E7
330
1F
100
AcDbEntity
  8
5
  6
Continuous
 62
     1
370
    25
100
AcDbLine
 10
86.38850894546385
 20
60.97503600000005
 30
0.0
 11
86.38850894546385
 21
60.71251499999966
 31
0.0
  0
LINE
  5
1E8
330
1F
100
AcDbEntity
  8
5
  6
Continuous
 62
     1
370
    25
100
AcDbLine
 10
85.86351419546395
 20
62.02501499999966
 30
0.0
 11
85.86351419546395
 21
60.97503600000005
 31
0.0
  0
LINE
  5
1E9
330
1F
100
AcDbEntity
  8
5
  6
Continuous
 62
     1
370
    25
100
AcDbLine
 10
86.38850894546385
 20
62.2875254999999
 30
0.0
 11
86.38850894546385
 21
62.02501499999966
 31
0.0
  0
LINE
  5
1EA
330
1F
100
AcDbEntity
  8
5
  6
Continuous
 62
     1
370
    25
100
AcDbLine
 10
86.38850894546385
 20
62.02501499999966
 30
0.0
 11
85.86351419546395
 21
62.02501499999966
 31
0.0
  0
LINE
  5
1EB
330
1F
100
AcDbEntity
  8
5
  6
Continuous
 62
     1
370
    25
100
AcDbLine
 10
82.7660120954638
 20
62.23496775000018
 30
0.0
 11
82.7660120954638
 21
63.4949782500002
 31
0.0
  0
LINE
  5
1EC
330
1F
100
AcDbEntity
  8
5
  6
Continuous
 62
     1
370
    25
100
AcDbLine
 10
83.50100579546415
 20
62.02495725000023
 30
0.0
 11
83.50100579546415
 21
63.07496774999993
 31
0.0
  0
LINE
  5
1ED
330
1F
100
AcDbEntity
  8
5
  6
Continuous
 62
     1
370
    25
100
AcDbLine
 10
82.97600474546402
 20
63.4949782500002
 30
0.0
 11
82.7660120954638
 21
63.4949782500002
 31
0.0
  0
LINE
  5
1EE
330
1F
100
AcDbEntity
  8
5
  6
Continuous
 62
     1
370
    25
100
AcDbLine
 10
85.07599844546394
 20
63.07496774999993
 30
0.0
 11
83.50100579546415
 21
63.07496774999993
 31
0.0
  0
ARC
  5
1EF
330
1F
100
AcDbEntity
  8
5
  6
Continuous
 62
     1
370
    25
100
AcDbCircle
 10
82.7660120954638
 20
62.33997824999989
 30
0.0
 40
0.3149999999999977
100
AcDbArc
 50
179.9999999999998
 51
269.9999999999998
  0
LINE
  5
1F0
330
1F
100
AcDbEntity
  8
5
  6
Continuous
 62
     1
370
    25
100
AcDbLine
 10
82.97600474546402
 20
62.02495725000023
 30
0.0
 11
82.97600474546402
 21
62.23496775000018
 31
0.0
  0
LINE
  5
1F1
330
1F
100
AcDbEntity
  8
5
  6
Continuous
 62
     1
370
    25
100
AcDbLine
 10
82.97600474546402
 20
62.23496775000018
 30
0.0
 11
82.7660120954638
 21
62.23496775000018
 31
0.0
  0
LINE
  5
1F2
330
1F
100
AcDbEntity
  8
5
  6
Continuous
 62
     1
370
    25
100
AcDbLine
 10
82.7660120954638
 20
62.02495725000023
 30
0.0
 11
85.07599844546394
 21
62.02495725000023
 31
0.0
  0
LINE
  5
1F3
330
1F
100
AcDbEntity
  8
5
  6
Continuous
 62
     1
370
    25
100
AcDbLine
 10
85.86351419546395
 20
63.59998350000001
 30
0.0
 11
86.38850894546385
 21
63.59998350000001
 31
0.0
  0
LINE
  5
1F4
330
1F
100
AcDbEntity
  8
5
  6
Continuous
 62
     1
370
    25
100
AcDbLine
 10
86.38850894546385
 20
63.59998350000001
 30
0.0
 11
86.38850894546385
 21
63.33746250000013
 31
0.0
  0
LINE
  5
1F5
330
1F
100
AcDbEntity
  8
5
  6
Continuous
 62
     1
370
    25
100
AcDbLine
 10
84.55100999546403
 20
59.66245725000016
 30
0.0
 11
84.55100999546403
 21
62.02495725000023
 31
0.0
  0
LINE
  5
1F6
330
1F
100
AcDbEntity
  8
5
  6
Continuous
 62
     1
370
    25
100
AcDbLine
 10
84.02600789546386
 20
59.66245725000016
 30
0.0
 11
84.02600789546386
 21
62.02495725000023
 31
0.0
  0
LINE
  5
1F7
330
1F
100
AcDbEntity
  8
5
  6
Continuous
 62
     1
370
    25
100
AcDbLine
 10
82.97600474546402
 20
64.75495725000013
 30
0.0
 11
82.7660120954638
 21
64.75495725000013
 31
0.0
  0
LINE
  5
1F8
330
1F
100
AcDbEntity
  8
5
  6
Continuous
 62
     1
370
    25
100
AcDbLine
 10
86.38850894546385
 20
64.91247299999986
 30
0.0
 11
86.38850894546385
 21
64.64996250000013
 31
0.0
  0
LINE
  5
1F9
330
1F
100
AcDbEntity
  8
5
  6
Continuous
 62
     1
370
    25
100
AcDbLine
 10
86.38850894546385
 20
64.64996250000013
 30
0.0
 11
85.86351419546395
 21
64.64996250000013
 31
0.0
  0
LINE
  5
1FA
330
1F
100
AcDbEntity
  8
5
  6
Continuous
 62
     1
370
    25
100
AcDbLine
 10
82.97600474546402
 20
63.4949782500002
 30
0.0
 11
82.97600474546402
 21
64.75495725000013
 31
0.0
  0
LINE
  5
1FB
330
1F
100
AcDbEntity
  8
5
  6
Continuous
 62
     1
370
    25
100
AcDbLine
 10
85.86351419546395
 20
64.64996250000013
 30
0.0
 11
85.86351419546395
 21
63.59998350000001
 31
0.0
  0
LINE
  5
1FC
330
1F
100
AcDbEntity
  8
5
  6
Continuous
 62
     1
370
    25
100
AcDbLine
 10
80.35019510957954
 20
66.22497299999986
 30
0.0
 11
66.7001856595798
 21
66.22497299999986
 31
0.0
  0
LINE
  5
1FD
330
1F
100
AcDbEntity
  8
5
  6
Continuous
 62
     1
370
    25
100
AcDbLine
 10
77.2001909095793
 20
64.54497299999986
 30
0.0
 11
67.750189859579
 21
64.54497299999986
 31
0.0
  0
LINE
  5
1FE
330
1F
100
AcDbEntity
  8
5
  6
Continuous
 62
     1
370
    25
100
AcDbLine
 10
77.2001909095793
 20
62.86498349999965
 30
0.0
 11
67.750189859579
 21
62.86498349999965
 31
0.0
  0
LINE
  5
1FF
330
1F
100
AcDbEntity
  8
5
  6
Continuous
 62
     1
370
    25
100
AcDbLine
 10
77.2001909095793
 20
63.70495199999982
 30
0.0
 11
67.750189859579
 21
63.70495199999982
 31
0.0
  0
LINE
  5
200
330
1F
100
AcDbEntity
  8
5
  6
Continuous
 62
     1
370
    25
100
AcDbLine
 10
77.2001909095793
 20
65.38495200000017
 30
0.0
 11
67.750189859579
 21
65.38495200000017
 31
0.0
  0
LINE
  5
201
330
1F
100
AcDbEntity
  8
5
  6
Continuous
 62
     1
370
    25
100
AcDbLine
 10
80.35019510957954
 20
62.02496250000013
 30
0.0
 11
66.7001856595798
 21
62.02496250000013
 31
0.0
  0
LINE
  5
202
330
1F
100
AcDbEntity
  8
5
  6
Continuous
 62
     1
370
    25
100
AcDbLine
 10
53.10009969232442
 20
65.75247270691898
 30
0.0
 11
30.00009969232451
 21
65.75247270691898
 31
0.0
  0
LINE
  5
203
330
1F
100
AcDbEntity
  8
5
  6
Continuous
 62
     1
370
    25
100
AcDbLine
 10
53.1000393576976
 20
62.49747271203955
 30
0.0
 11
30.00003935769791
 21
62.49747254367827
 31
0.0
  0
LINE
  5
204
330
1F
100
AcDbEntity
  8
5
  6
Continuous
 62
     1
370
    25
100
AcDbLine
 10
53.10003935769782
 20
61.18496250000089
 30
0.0
 11
53.10003935769782
 21
67.06496250000066
 31
0.0
  0
LINE
  5
205
330
1F
100
AcDbEntity
  8
5
  6
Continuous
 62
     1
370
    25
100
AcDbLine
 10
66.7001856595798
 20
62.02496250000013
 30
0.0
 11
66.7001856595798
 21
66.22497299999986
 31
0.0
  0
LINE
  5
206
330
1F
100
AcDbEntity
  8
5
  6
Continuous
 62
     1
370
    25
100
AcDbLine
 10
67.750189859579
 20
62.02496250000013
 30
0.0
 11
67.750189859579
 21
66.22497299999986
 31
0.0
  0
LINE
  5
207
330
1F
100
AcDbEntity
  8
5
  6
Continuous
 62
     1
370
    25
100
AcDbLine
 10
80.35019510957954
 20
64.1249625000001
 30
0.0
 11
80.35019510957954
 21
69.63747299999983
 31
0.0
  0
ARC
  5
208
330
1F
100
AcDbEntity
  8
5
  6
Continuous
 62
     1
370
    25
100
AcDbCircle
 10
73.0001940595796
 20
68.58747299999976
 30
0.0
 40
1.049999999999997
100
AcDbArc
 50
89.99999999999991
 51
179.9999999999998
  0
LINE
  5
209
330
1F
100
AcDbEntity
  8
5
  6
Continuous
 62
     1
370
    25
100
AcDbLine
 10
70.90021925957944
 20
68.32498349999997
 30
0.0
 11
71.95018985957904
 21
68.32498349999997
 31
0.0
  0
LINE
  5
20A
330
1F
100
AcDbEntity
  8
5
  6
Continuous
 62
     1
370
    25
100
AcDbLine
 10
70.90021925957944
 20
68.84999400000015
 30
0.0
 11
70.90021925957944
 21
66.2249730000002
 31
0.0
  0
LINE
  5
20B
330
1F
100
AcDbEntity
  8
5
  6
Continuous
 62
     1
370
    25
100
AcDbLine
 10
71.95018985957904
 20
68.58747299999976
 30
0.0
 11
71.95018985957904
 21
66.22497299999986
 31
0.0
  0
LINE
  5
20C
330
1F
100
AcDbEntity
  8
5
  6
Continuous
 62
     1
370
    25
100
AcDbLine
 10
71.95018985957904
 20
68.32498349999997
 30
0.0
 11
71.95018985957904
 21
66.22497299999986
 31
0.0
  0
LINE
  5
20D
330
1F
100
AcDbEntity
  8
5
  6
Continuous
 62
     1
370
    25
100
AcDbLine
 10
73.0001940595796
 20
58.61245199999985
 30
0.0
 11
80.35019510957954
 21
58.61245199999985
 31
0.0
  0
LINE
  5
20E
330
1F
100
AcDbEntity
  8
5
  6
Continuous
 62
     1
370
    25
100
AcDbLine
 10
71.95018985957904
 20
59.9249414999997
 30
0.0
 11
70.90021925957944
 21
59.9249414999997
 31
0.0
  0
LINE
  5
20F
330
1F
100
AcDbEntity
  8
5
  6
Continuous
 62
     1
370
    25
100
AcDbLine
 10
70.90021925957944
 20
59.39993099999987
 30
0.0
 11
70.90021925957944
 21
62.02495199999981
 31
0.0
  0
LINE
  5
210
330
1F
100
AcDbEntity
  8
5
  6
Continuous
 62
     1
370
    25
100
AcDbLine
 10
71.95018985957904
 20
59.66245199999992
 30
0.0
 11
71.95018985957904
 21
62.02496250000013
 31
0.0
  0
LINE
  5
211
330
1F
100
AcDbEntity
  8
5
  6
Continuous
 62
     1
370
    25
100
AcDbLine
 10
71.95018985957904
 20
62.02496250000013
 30
0.0
 11
71.95018985957904
 21
59.9249414999997
 31
0.0
  0
ARC
  5
212
330
1F
100
AcDbEntity
  8
5
  6
Continuous
 62
     1
370
    25
100
AcDbCircle
 10
73.0001940595796
 20
59.66245199999992
 30
0.0
 40
1.049999999999997
100
AcDbArc
 50
179.9999999999998
 51
269.9999999999998
  0
LINE
  5
213
330
1F
100
AcDbEntity
  8
5
  6
Continuous
 62
     1
370
    25
100
AcDbLine
 10
77.2001909095793
 20
66.22497299999986
 30
0.0
 11
77.2001909095793
 21
62.02496250000013
 31
0.0
  0
LINE
  5
214
330
1F
100
AcDbEntity
  8
5
  6
Continuous
 62
     1
370
    25
100
AcDbLine
 10
80.35019510957954
 20
64.1249625000001
 30
0.0
 11
80.35019510957954
 21
58.61245199999985
 31
0.0
  0
LINE
  5
215
330
1F
100
AcDbEntity
  8
5
  6
Continuous
 62
     1
370
    25
100
AcDbLine
 10
79.30018565957948
 20
66.22497299999986
 30
0.0
 11
79.30018565957948
 21
62.02496250000013
 31
0.0
  0
LINE
  5
216
330
1F
100
AcDbEntity
  8
5
  6
Continuous
 62
     1
370
    25
100
AcDbLine
 10
73.0001940595796
 20
69.63747299999983
 30
0.0
 11
80.35019510957954
 21
69.63747299999983
 31
0.0
  0
LINE
  5
217
330
1F
100
AcDbEntity
  8
5
  6
Continuous
 62
     1
370
    25
100
AcDbLine
 10
70.90021925957944
 20
68.84999400000015
 30
0.0
 11
62.67372810940515
 21
68.84999400000015
 31
0.0
  0
LINE
  5
218
330
1F
100
AcDbEntity
  8
5
  6
Continuous
 62
     1
370
    25
100
AcDbLine
 10
57.45597944223118
 20
67.06496250000066
 30
0.0
 11
53.10003935769782
 21
67.06496250000066
 31
0.0
  0
ARC
  5
219
330
1F
100
AcDbEntity
  8
5
  6
Continuous
 62
     1
370
    25
100
AcDbCircle
 10
62.72620287939571
 20
66.35140855003806
 30
0.0
 40
2.499136421295923
100
AcDbArc
 50
91.20313712916781
 51
128.5407048705059
  0
ARC
  5
21A
330
1F
100
AcDbEntity
  8
5
  6
Continuous
 62
     1
370
    25
100
AcDbCircle
 10
57.20682662131776
 20
73.81807964076859
 30
0.0
 40
6.757711761025504
100
AcDbArc
 50
272.1129402668354
 51
301.7409359603987
  0
LINE
  5
21B
330
1F
100
AcDbEntity
  8
5
  6
Continuous
 62
     1
370
    25
100
AcDbLine
 10
61.16906477241901
 20
68.30614734794665
 30
0.0
 11
60.76191952676481
 21
68.07108193076931
 31
0.0
  0
LINE
  5
21C
330
1F
100
AcDbEntity
  8
5
  6
Continuous
 62
     1
370
    25
100
AcDbLine
 10
70.90021925957944
 20
59.3999310000014
 30
0.0
 11
62.67372810940515
 21
59.3999310000014
 31
0.0
  0
LINE
  5
21D
330
1F
100
AcDbEntity
  8
5
  6
Continuous
 62
     1
370
    25
100
AcDbLine
 10
57.45597944223118
 20
61.18496250000089
 30
0.0
 11
53.10003935769782
 21
61.18496250000089
 31
0.0
  0
ARC
  5
21E
330
1F
100
AcDbEntity
  8
5
  6
Continuous
 62
     1
370
    25
100
AcDbCircle
 10
62.72620287939571
 20
61.89851644996349
 30
0.0
 40
2.499136421295923
100
AcDbArc
 50
231.4592951295064
 51
268.7968628708318
  0
ARC
  5
21F
330
1F
100
AcDbEntity
  8
5
  6
Continuous
 62
     1
370
    25
100
AcDbCircle
 10
57.20682662131776
 20
54.43184535923297
 30
0.0
 40
6.757711761025504
100
AcDbArc
 50
58.25906403960089
 51
87.88705973316422
  0
LINE
  5
220
330
1F
100
AcDbEntity
  8
5
  6
Continuous
 62
     1
370
    25
100
AcDbLine
 10
61.16906477241901
 20
59.94377765205491
 30
0.0
 11
60.76191952676481
 21
60.17884306923224
 31
0.0
  0
LINE
  5
221
330
1F
100
AcDbEntity
  8
3
  6
DASHDOT
 62
     1
370
     9
100
AcDbLine
 10
208.0304967168937
 20
296.1194326620563
 30
0.0
 11
216.2304967168937
 21
296.1194326620563
 31
0.0
  0
LINE
  5
222
330
1F
100
AcDbEntity
  8
3
  6
DASHDOT
 62
     1
370
     9
100
AcDbLine
 10
212.1304967168937
 20
300.2194326620563
 30
0.0
 11
212.1304967168937
 21
292.0194326620563
 31
0.0
  0
LINE
  5
223
330
1F
100
AcDbEntity
  8
3
  6
DASHDOT
 62
     1
370
     9
100
AcDbLine
 10
333.0304967168919
 20
296.1194326620563
 30
0.0
 11
341.2304967168919
 21
296.1194326620563
 31
0.0
  0
LINE
  5
224
330
1F
100
AcDbEntity
  8
3
  6
DASHDOT
 62
     1
370
     9
100
AcDbLine
 10
337.1304967168919
 20
300.2194326620563
 30
0.0
 11
337.1304967168919
 21
292.0194326620563
 31
0.0
  0
LINE
  5
225
330
1F
100
AcDbEntity
  8
3
  6
DASHDOT
 62
     1
370
     9
100
AcDbLine
 10
395.5304967168928
 20
296.1194326620563
 30
0.0
 11
403.7304967168928
 21
296.1194326620563
 31
0.0
  0
LINE
  5
226
330
1F
100
AcDbEntity
  8
3
  6
DASHDOT
 62
     1
370
     9
100
AcDbLine
 10
399.6304967168928
 20
300.2194326620563
 30
0.0
 11
399.6304967168928
 21
292.0194326620563
 31
0.0
  0
LINE
  5
227
330
1F
100
AcDbEntity
  8
3
  6
DASHDOT
 62
     1
370
     9
100
AcDbLine
 10
395.5304967168928
 20
150.1194326620563
 30
0.0
 11
403.7304967168928
 21
150.1194326620563
 31
0.0
  0
LINE
  5
228
330
1F
100
AcDbEntity
  8
3
  6
DASHDOT
 62
     1
370
     9
100
AcDbLine
 10
399.6304967168928
 20
154.2194326620563
 30
0.0
 11
399.6304967168928
 21
146.0194326620563
 31
0.0
  0
LINE
  5
229
330
1F
100
AcDbEntity
  8
3
  6
DASHDOT
 62
     1
370
     9
100
AcDbLine
 10
333.0304967168919
 20
150.1194326620563
 30
0.0
 11
341.2304967168919
 21
150.1194326620563
 31
0.0
  0
LINE
  5
22A
330
1F
100
AcDbEntity
  8
3
  6
DASHDOT
 62
     1
370
     9
100
AcDbLine
 10
337.1304967168919
 20
154.2194326620563
 30
0.0
 11
337.1304967168919
 21
146.0194326620563
 31
0.0
  0
LINE
  5
22B
330
1F
100
AcDbEntity
  8
3
  6
DASHDOT
 62
     1
370
     9
100
AcDbLine
 10
208.0304967168937
 20
150.1194326620563
 30
0.0
 11
216.2304967168937
 21
150.1194326620563
 31
0.0
  0
LINE
  5
22C
330
1F
100
AcDbEntity
  8
3
  6
DASHDOT
 62
     1
370
     9
100
AcDbLine
 10
212.1304967168937
 20
154.2194326620563
 30
0.0
 11
212.1304967168937
 21
146.0194326620563
 31
0.0
  0
LINE
  5
22D
330
1F
100
AcDbEntity
  8
3
  6
DASHDOT
 62
     1
370
     9
100
AcDbLine
 10
145.5304967168928
 20
150.1194326620563
 30
0.0
 11
153.7304967168928
 21
150.1194326620563
 31
0.0
  0
LINE
  5
22E
330
1F
100
AcDbEntity
  8
3
  6
DASHDOT
 62
     1
370
     9
100
AcDbLine
 10
149.6304967168928
 20
154.2194326620563
 30
0.0
 11
149.6304967168928
 21
146.0194326620563
 31
0.0
  0
DIMENSION
  5
238
330
1F
100
AcDbEntity
  8
8
  6
Continuous
 62
     4
370
     9
100
AcDbDimension
280
     0
  2
Dim4
 10
337.1304967168919
 20
125.1194326620567
 30
0.0
 11
274.6304967168933
 21
125.1194326620567
 31
0.0
 70
   160
  1
<>
 71
     8
 42
-1.0
 73
     0
 74
     0
 75
     0
  3
Standard
100
AcDbAlignedDimension
 13
212.1304967168928
 23
146.0194326620563
 33
0.0
 14
337.1304967168919
 24
146.0194326620563
 34
0.0
100
AcDbRotatedDimension
1001
ACAD
1000
DSTYLE
1002
{
1070
   279
1070
     1
1070
   340
1005
F9
1070
   140
1040
4.5
1070
    40
1040
1.0
1070
   147
1040
0.0
1070
    76
1070
     0
1070
    75
1070
     0
1070
   344
1005
0
1070
   343
1005
0
1070
   173
1070
     1
1070
   289
1070
     2
1070
   288
1070
     1
1070
    77
1070
     1
1070
   172
1070
     1
1070
   174
1070
     0
1070
    74
1070
     0
1070
    73
1070
     0
1070
   284
1070
     8
1070
    78
1070
     8
1070
    42
1040
1.5
1070
    44
1040
2.25
1070
    43
1040
30.0
1070
   271
1070
     2
1070
    41
1040
3.0
1002
}
  0
DIMENSION
  5
242
330
1F
100
AcDbEntity
  8
8
  6
Continuous
 62
     4
370
     9
100
AcDbDimension
280
     0
  2
Dim5
 10
424.6304967168927
 20
113.1194326620567
 30
0.0
 11
274.6304967168928
 21
113.1194326620567
 31
0.0
 70
   160
  1
<>
 71
     8
 42
-1.0
 73
     0
 74
     0
 75
     0
  3
Standard
100
AcDbAlignedDimension
 13
124.6304967168928
 23
173.1194326620563
 33
0.0
 14
424.6304967168928
 24
173.1194326620563
 34
0.0
100
AcDbRotatedDimension
1001
ACAD
1000
DSTYLE
1002
{
1070
   279
1070
     1
1070
   340
1005
F9
1070
   140
1040
4.5
1070
    40
1040
1.0
1070
   147
1040
0.0
1070
    76
1070
     0
1070
    75
1070
     0
1070
   344
1005
0
1070
   343
1005
0
1070
   173
1070
     1
1070
   289
1070
     2
1070
   288
1070
     1
1070
    77
1070
     1
1070
   172
1070
     1
1070
   174
1070
     0
1070
    74
1070
     0
1070
    73
1070
     0
1070
   284
1070
     8
1070
    78
1070
     8
1070
    42
1040
1.5
1070
    44
1040
2.25
1070
    43
1040
30.0
1070
   271
1070
     2
1070
    41
1040
3.0
1002
}
  0
DIMENSION
  5
24C
330
1F
100
AcDbEntity
  8
8
  6
Continuous
 62
     4
370
     9
100
AcDbDimension
280
     0
  2
Dim6
 10
439.6304967168927
 20
101.1194326620567
 30
0.0
 11
274.6304967168928
 21
101.1194326620567
 31
0.0
 70
   160
  1
<>
 71
     8
 42
-1.0
 73
     0
 74
     0
 75
     0
  3
Standard
100
AcDbAlignedDimension
 13
109.6304967168928
 23
158.1194326620554
 33
0.0
 14
439.6304967168928
 24
158.1194326620563
 34
0.0
100
AcDbRotatedDimension
1001
ACAD
1000
DSTYLE
1002
{
1070
   279
1070
     1
1070
   340
1005
F9
1070
   140
1040
4.5
1070
    40
1040
1.0
1070
   147
1040
0.0
1070
    76
1070
     0
1070
    75
1070
     0
1070
   344
1005
0
1070
   343
1005
0
1070
   173
1070
     1
1070
   289
1070
     2
1070
   288
1070
     1
1070
    77
1070
     1
1070
   172
1070
     1
1070
   174
1070
     0
1070
    74
1070
     0
1070
    73
1070
     0
1070
   284
1070
     8
1070
    78
1070
     8
1070
    42
1040
1.5
1070
    44
1040
2.25
1070
    43
1040
30.0
1070
   271
1070
     2
1070
    41
1040
3.0
1002
}
  0
DIMENSION
  5
256
330
1F
100
AcDbEntity
  8
8
  6
Continuous
 62
     4
370
     9
100
AcDbDimension
280
     0
  2
Dim7
 10
580.2837502495787
 20
101.1194326620569
 30
0.0
 11
557.7837502495788
 21
101.1194326620569
 31
0.0
 70
   160
  1
<>
 71
     8
 42
-1.0
 73
     0
 74
     0
 75
     0
  3
Standard
100
AcDbAlignedDimension
 13
535.2837502495788
 23
158.1194326620563
 33
0.0
 14
580.2837502495788
 24
143.1194326620563
 34
0.0
100
AcDbRotatedDimension
1001
ACAD
1000
DSTYLE
1002
{
1070
   279
1070
     1
1070
   340
1005
F9
1070
   140
1040
4.5
1070
    40
1040
1.0
1070
   147
1040
0.0
1070
    76
1070
     0
1070
    75
1070
     0
1070
   344
1005
0
1070
   343
1005
0
1070
   173
1070
     1
1070
   289
1070
     2
1070
   288
1070
     1
1070
    77
1070
     1
1070
   172
1070
     1
1070
   174
1070
     0
1070
    74
1070
     0
1070
    73
1070
     0
1070
   284
1070
     8
1070
    78
1070
     8
1070
    42
1040
1.5
1070
    44
1040
2.25
1070
    43
1040
30.0
1070
   271
1070
     2
1070
    41
1040
3.0
1002
}
  0
DIMENSION
  5
260
330
1F
100
AcDbEntity
  8
8
  6
Continuous
 62
     4
370
     9
100
AcDbDimension
280
     0
  2
Dim8
 10
97.63049671689282
 20
273.1194326620564
 30
0.0
 11
97.63049671689282
 21
223.1194326620563
 31
0.0
 70
   160
  1
<>
 71
     8
 42
-1.0
 73
     0
 74
     0
 75
     0
  3
Standard
100
AcDbAlignedDimension
 13
124.6304967168928
 23
173.1194326620563
 33
0.0
 14
124.6304967168928
 24
273.1194326620563
 34
0.0
 50
89.99999999999991
100
AcDbRotatedDimension
1001
ACAD
1000
DSTYLE
1002
{
1070
   279
1070
     1
1070
   340
1005
F9
1070
   140
1040
4.5
1070
    40
1040
1.0
1070
   147
1040
0.0
1070
    76
1070
     0
1070
    75
1070
     0
1070
   344
1005
0
1070
   343
1005
0
1070
   173
1070
     1
1070
   289
1070
     2
1070
   288
1070
     1
1070
    77
1070
     1
1070
   172
1070
     1
1070
   174
1070
     0
1070
    74
1070
     0
1070
    73
1070
     0
1070
   284
1070
     8
1070
    78
1070
     8
1070
    42
1040
1.5
1070
    44
1040
2.25
1070
    43
1040
30.0
1070
   271
1070
     2
1070
    41
1040
3.0
1002
}
  0
DIMENSION
  5
26A
330
1F
100
AcDbEntity
  8
8
  6
Continuous
 62
     4
370
     9
100
AcDbDimension
280
     0
  2
Dim9
 10
85.63049671689294
 20
288.1194326620563
 30
0.0
 11
85.63049671689294
 21
223.1194326620563
 31
0.0
 70
   160
  1
<>
 71
     8
 42
-1.0
 73
     0
 74
     0
 75
     0
  3
Standard
100
AcDbAlignedDimension
 13
109.6304967168928
 23
158.1194326620563
 33
0.0
 14
109.6304967168928
 24
288.1194326620563
 34
0.0
 50
89.99999999999991
100
AcDbRotatedDimension
1001
ACAD
1000
DSTYLE
1002
{
1070
   279
1070
     1
1070
   340
1005
F9
1070
   140
1040
4.5
1070
    40
1040
1.0
1070
   147
1040
0.0
1070
    76
1070
     0
1070
    75
1070
     0
1070
   344
1005
0
1070
   343
1005
0
1070
   173
1070
     1
1070
   289
1070
     2
1070
   288
1070
     1
1070
    77
1070
     1
1070
   172
1070
     1
1070
   174
1070
     0
1070
    74
1070
     0
1070
    73
1070
     0
1070
   284
1070
     8
1070
    78
1070
     8
1070
    42
1040
1.5
1070
    44
1040
2.25
1070
    43
1040
30.0
1070
   271
1070
     2
1070
    41
1040
3.0
1002
}
  0
DIMENSION
  5
274
330
1F
100
AcDbEntity
  8
8
  6
Continuous
 62
     4
370
     9
100
AcDbDimension
280
     0
  2
Dim10
 10
73.63049671689305
 20
296.1194326620565
 30
0.0
 11
73.63049671689305
 21
223.1194326620563
 31
0.0
 70
   160
  1
<>
 71
     8
 42
-1.0
 73
     0
 74
     0
 75
     0
  3
Standard
100
AcDbAlignedDimension
 13
145.5304967168928
 23
150.1194326620563
 33
0.0
 14
145.5304967168928
 24
296.1194326620563
 34
0.0
 50
89.99999999999991
100
AcDbRotatedDimension
1001
ACAD
1000
DSTYLE
1002
{
1070
   279
1070
     1
1070
   340
1005
F9
1070
   140
1040
4.5
1070
    40
1040
1.0
1070
   147
1040
0.0
1070
    76
1070
     0
1070
    75
1070
     0
1070
   344
1005
0
1070
   343
1005
0
1070
   173
1070
     1
1070
   289
1070
     2
1070
   288
1070
     1
1070
    77
1070
     1
1070
   172
1070
     1
1070
   174
1070
     0
1070
    74
1070
     0
1070
    73
1070
     0
1070
   284
1070
     8
1070
    78
1070
     8
1070
    42
1040
1.5
1070
    44
1040
2.25
1070
    43
1040
30.0
1070
   271
1070
     2
1070
    41
1040
3.0
1002
}
  0
DIMENSION
  5
27E
330
1F
100
AcDbEntity
  8
8
  6
Continuous
 62
     4
370
     9
100
AcDbDimension
280
     0
  2
Dim11
 10
61.63049671689316
 20
143.1194326620565
 30
0.0
 11
61.63049671689316
 21
223.1194326620563
 31
0.0
 70
   160
  1
<>
 71
     8
 42
-1.0
 73
     0
 74
     0
 75
     0
 53
89.99999999999991
  3
Standard
100
AcDbAlignedDimension
 13
129.6304967168919
 23
303.1194326620563
 33
0.0
 14
129.6304967168919
 24
143.1194326620563
 34
0.0
 50
-89.99999999999991
100
AcDbRotatedDimension
1001
ACAD
1000
DSTYLE
1002
{
1070
   279
1070
     1
1070
   340
1005
F9
1070
   140
1040
4.5
1070
    40
1040
1.0
1070
   147
1040
0.0
1070
    76
1070
     0
1070
    75
1070
     0
1070
   344
1005
0
1070
   343
1005
0
1070
   173
1070
     1
1070
   289
1070
     2
1070
   288
1070
     1
1070
    77
1070
     1
1070
   172
1070
     1
1070
   174
1070
     0
1070
    74
1070
     0
1070
    73
1070
     0
1070
   284
1070
     8
1070
    78
1070
     8
1070
    42
1040
1.5
1070
    44
1040
2.25
1070
    43
1040
30.0
1070
   271
1070
     2
1070
    41
1040
3.0
1002
}
  0
DIMENSION
  5
288
330
1F
100
AcDbEntity
  8
8
  6
Continuous
 62
     4
370
     9
100
AcDbDimension
280
     0
  2
Dim12
 10
399.6304967168928
 20
125.1194326620567
 30
0.0
 11
368.3804967168925
 21
125.1194326620567
 31
0.0
 70
   160
  1
<>
 71
     8
 42
-1.0
 73
     0
 74
     0
 75
     0
  3
Standard
100
AcDbAlignedDimension
 13
337.1304967168919
 23
146.0194326620563
 33
0.0
 14
399.6304967168928
 24
146.0194326620563
 34
0.0
100
AcDbRotatedDimension
1001
ACAD
1000
DSTYLE
1002
{
1070
   279
1070
     1
1070
   340
1005
F9
1070
   140
1040
4.5
1070
    40
1040
1.0
1070
   147
1040
0.0
1070
    76
1070
     0
1070
    75
1070
     0
1070
   344
1005
0
1070
   343
1005
0
1070
   173
1070
     1
1070
   289
1070
     2
1070
   288
1070
     1
1070
    77
1070
     1
1070
   172
1070
     1
1070
   174
1070
     0
1070
    74
1070
     0
1070
    73
1070
     0
1070
   284
1070
     8
1070
    78
1070
     8
1070
    42
1040
1.5
1070
    44
1040
2.25
1070
    43
1040
30.0
1070
   271
1070
     2
1070
    41
1040
3.0
1002
}
  0
DIMENSION
  5
292
330
1F
100
AcDbEntity
  8
8
  6
Continuous
 62
     4
370
     9
100
AcDbDimension
280
     0
  2
Dim13
 10
212.1304967168937
 20
125.1194326620568
 30
0.0
 11
180.8804967168934
 21
125.1194326620568
 31
0.0
 70
   160
  1
<>
 71
     8
 42
-1.0
 73
     0
 74
     0
 75
     0
  3
Standard
100
AcDbAlignedDimension
 13
149.6304967168928
 23
146.0194326620563
 33
0.0
 14
212.1304967168937
 24
146.0194326620563
 34
0.0
100
AcDbRotatedDimension
1001
ACAD
1000
DSTYLE
1002
{
1070
   279
1070
     1
1070
   340
1005
F9
1070
   140
1040
4.5
1070
    40
1040
1.0
1070
   147
1040
0.0
1070
    76
1070
     0
1070
    75
1070
     0
1070
   344
1005
0
1070
   343
1005
0
1070
   173
1070
     1
1070
   289
1070
     2
1070
   288
1070
     1
1070
    77
1070
     1
1070
   172
1070
     1
1070
   174
1070
     0
1070
    74
1070
     0
1070
    73
1070
     0
1070
   284
1070
     8
1070
    78
1070
     8
1070
    42
1040
1.5
1070
    44
1040
2.25
1070
    43
1040
30.0
1070
   271
1070
     2
1070
    41
1040
3.0
1002
}
  0
DIMENSION
  5
29A
330
1F
100
AcDbEntity
  8
8
  6
Continuous
 62
     4
370
     9
100
AcDbDimension
280
     0
  2
Dim14
 10
264.9380887290118
 20
208.5486664709342
 30
0.0
 11
332.7013409228238
 21
314.4808048362739
 31
0.0
 70
   163
  1
∅<>
 71
     5
 42
-1.0
 73
     0
 74
     0
 75
     0
  3
Standard
100
AcDbDiametricDimension
 15
284.3229047047836
 25
237.6901988531778
 35
0.0
 40
0.0
1001
ACAD
1000
DSTYLE
1002
{
1070
   340
1005
F9
1070
   140
1040
4.5
1070
    40
1040
1.0
1070
   147
1040
0.0
1070
    76
1070
     0
1070
    75
1070
     0
1070
   344
1005
0
1070
   343
1005
0
1070
   173
1070
     1
1070
   289
1070
     2
1070
   288
1070
     1
1070
    77
1070
     1
1070
   172
1070
     1
1070
   174
1070
     0
1070
    74
1070
     0
1070
    73
1070
     0
1070
   284
1070
     8
1070
    78
1070
     8
1070
    42
1040
1.5
1070
    44
1040
2.25
1070
    43
1040
30.0
1070
   271
1070
     2
1070
    41
1040
3.0
1002
}
  0
DIMENSION
  5
2A2
330
1F
100
AcDbEntity
  8
8
  6
Continuous
 62
     4
370
     9
100
AcDbDimension
280
     0
  2
Dim15
 10
267.9074560486838
 20
201.6473409108181
 30
0.0
 11
302.3171645647679
 21
319.0753704814396
 31
0.0
 70
   163
  1
∅<>
 71
     5
 42
-1.0
 73
     0
 74
     0
 75
     0
  3
Standard
100
AcDbDiametricDimension
 15
281.3535373850985
 25
244.591524413296
 35
0.0
 40
0.0
1001
ACAD
1000
DSTYLE
1002
{
1070
   340
1005
F9
1070
   140
1040
4.5
1070
    40
1040
1.0
1070
   147
1040
0.0
1070
    76
1070
     0
1070
    75
1070
     0
1070
   344
1005
0
1070
   343
1005
0
1070
   173
1070
     1
1070
   289
1070
     2
1070
   288
1070
     1
1070
    77
1070
     1
1070
   172
1070
     1
1070
   174
1070
     0
1070
    74
1070
     0
1070
    73
1070
     0
1070
   284
1070
     8
1070
    78
1070
     8
1070
    42
1040
1.5
1070
    44
1040
2.25
1070
    43
1040
30.0
1070
   271
1070
     2
1070
    41
1040
3.0
1002
}
  0
MTEXT
  5
2A3
330
1F
100
AcDbEntity
  8
2
  6
Continuous
 62
   151
370
     9
100
AcDbMText
 10
30.00009969232451
 20
78.3316184646759
 30
0.0
 40
3.9
 41
82.28784862225197
 46
3.9
 71
     4
 72
     1
  1
{\fＭＳ ゴシック;\T1.166668;Details of Connector}
 73
     1
 44
1.0
1001
ACAD
1000
ACAD_MTEXT_DEFINED_HEIGHT_BEGIN
1070
    46
1040
3.9
1000
ACAD_MTEXT_DEFINED_HEIGHT_END
  0
MTEXT
  5
2A4
330
1F
100
AcDbEntity
  8
2
  6
Continuous
 62
   151
370
     9
100
AcDbMText
 10
61.50002850000055
 20
48.74999250000036
 30
0.0
 40
3.0
 41
16.28565226116
 46
3.0
 71
     4
 72
     1
  1
{\fＭＳ ゴシック;\T1.275567;Light}
 73
     1
 44
1.0
1001
ACAD
1000
ACAD_MTEXT_DEFINED_HEIGHT_BEGIN
1070
    46
1040
3.0
1000
ACAD_MTEXT_DEFINED_HEIGHT_END
  0
MTEXT
  5
2A5
330
1F
100
AcDbEntity
  8
2
  6
Continuous
 62
   151
370
     9
100
AcDbMText
 10
61.50002850000055
 20
41.25000749999998
 30
0.0
 40
3.0
 41
30.491413062
 46
3.0
 71
     4
 72
     1
  1
{\fＭＳ ゴシック;\T1.270325;SMR-03V-B}
 73
     1
 44
1.0
1001
ACAD
1000
ACAD_MTEXT_DEFINED_HEIGHT_BEGIN
1070
    46
1040
3.0
1000
ACAD_MTEXT_DEFINED_HEIGHT_END
  0
MTEXT
  5
2A6
330
1F
100
AcDbEntity
  8
2
  6
Continuous
 62
   151
370
     9
100
AcDbMText
 10
61.50002850000055
 20
33.75000749999998
 30
0.0
 40
3.0
 41
44.67909247175998
 46
3.0
 71
     4
 72
     1
  1
{\fＭＳ ゴシック;\T1.278554;BYM-001T-P0.6}
 73
     1
 44
1.0
1001
ACAD
1000
ACAD_MTEXT_DEFINED_HEIGHT_BEGIN
1070
    46
1040
3.0
1000
ACAD_MTEXT_DEFINED_HEIGHT_END
  0
MTEXT
  5
2A7
330
1F
100
AcDbEntity
  8
2
  6
Continuous
 62
   151
370
     9
100
AcDbMText
 10
97.50001350000048
 20
41.25000749999998
 30
0.0
 40
3.0
 41
34.04022557067
 46
3.0
 71
     4
 72
     1
  1
{\fＭＳ ゴシック;\T1.270749;SMP-03V-BC}
 73
     1
 44
1.0
1001
ACAD
1000
ACAD_MTEXT_DEFINED_HEIGHT_BEGIN
1070
    46
1040
3.0
1000
ACAD_MTEXT_DEFINED_HEIGHT_END
  0
MTEXT
  5
2A8
330
1F
100
AcDbEntity
  8
2
  6
Continuous
 62
   151
370
     9
100
AcDbMText
 10
97.50001350000048
 20
33.75000749999998
 30
0.0
 40
3.0
 41
48.23039545310999
 46
3.0
 71
     4
 72
     1
  1
{\fＭＳ ゴシック;\T1.276981;BHF-001T-0.8SS}
 73
     1
 44
1.0
1001
ACAD
1000
ACAD_MTEXT_DEFINED_HEIGHT_BEGIN
1070
    46
1040
3.0
1000
ACAD_MTEXT_DEFINED_HEIGHT_END
  0
MTEXT
  5
2A9
330
1F
100
AcDbEntity
  8
2
  6
Continuous
 62
   151
370
     9
100
AcDbMText
 10
97.50001350000048
 20
48.74999250000036
 30
0.0
 40
3.0
 41
49.07804415492001
 46
3.0
 71
     4
 72
     1
  1
{\fＭＳ ゴシック;\T1.236293;Power　Supply　}
 73
     1
 44
1.0
1001
ACAD
1000
ACAD_MTEXT_DEFINED_HEIGHT_BEGIN
1070
    46
1040
3.0
1000
ACAD_MTEXT_DEFINED_HEIGHT_END
  0
MTEXT
  5
2AA
330
1F
100
AcDbEntity
  8
2
  6
Continuous
 62
   151
370
     9
100
AcDbMText
 10
31.50001350000048
 20
41.25000749999998
 30
0.0
 40
3.0
 41
30.47134834272
 46
3.0
 71
     4
 72
     1
  1
{\fＭＳ ゴシック;\T1.286932;Connector}
 73
     1
 44
1.0
1001
ACAD
1000
ACAD_MTEXT_DEFINED_HEIGHT_BEGIN
1070
    46
1040
3.0
1000
ACAD_MTEXT_DEFINED_HEIGHT_END
  0
MTEXT
  5
2AB
330
1F
100
AcDbEntity
  8
2
  6
Continuous
 62
   151
370
     9
100
AcDbMText
 10
31.50001350000048
 20
33.75000749999998
 30
0.0
 40
3.0
 41
23.38700212026
 46
3.0
 71
     4
 72
     1
  1
{\fＭＳ ゴシック;\T1.274033;Contact}
 73
     1
 44
1.0
1001
ACAD
1000
ACAD_MTEXT_DEFINED_HEIGHT_BEGIN
1070
    46
1040
3.0
1000
ACAD_MTEXT_DEFINED_HEIGHT_END
  0
INSERT
  5
2B5
330
1F
100
AcDbEntity
  8
0
100
AcDbBlockReference
  2
*G31
 10
0.0
 20
0.0
 30
0.0
  0
VIEWPORT
  5
6A
330
1B
100
AcDbEntity
 67
     1
  8
0
100
AcDbViewport
 10
420.0
 20
297.0
 30
0.0
 40
840.0
 41
594.0
 68
     1
 69
     1
 12
420.0
 22
297.0
 13
0.0
 23
0.0
 14
0.5
 24
0.5
 15
0.5
 25
0.5
 16
0.0
 26
0.0
 36
1.0
 17
0.0
 27
0.0
 37
0.0
 42
50.0
 43
0.0
 44
0.0
 45
9.0
 50
0.0
 51
0.0
 72
   100
 90
   557152
  1

281
     0
 71
     1
 74
     0
110
0.0
120
0.0
130
0.0
111
1.0
121
0.0
131
0.0
112
0.0
122
1.0
132
0.0
 79
     0
146
0.0
170
     0
 61
     5
292
     1
282
     1
141
0.0
142
0.0
 63
   256
  0
ENDSEC
  0
SECTION
  2
OBJECTS
  0
DICTIONARY
  5
C
330
0
100
AcDbDictionary
281
     1
  3
ACAD_DETAILVIEWSTYLE
350
2BA
  3
ACAD_GROUP
350
D
  3
ACAD_LAYOUT
350
1A
  3
ACAD_MATERIAL
350
43
  3
ACAD_MLEADERSTYLE
350
2B9
  3
ACAD_MLINESTYLE
350
17
  3
ACAD_PLOTSETTINGS
350
19
  3
ACAD_PLOTSTYLENAME
350
E
  3
ACAD_SCALELIST
350
47
  3
ACAD_SECTIONVIEWSTYLE
350
2BB
  3
ACAD_TABLESTYLE
350
2B8
  3
ACAD_VISUALSTYLE
350
2A
  3
AcDbVariableDictionary
350
2B6
  0
SUN
  5
69
330
29
100
AcDbSun
 90
        1
290
     0
 63
     7
421
 16777215
 40
1.0
291
     1
 91
  2455826
 92
 54000000
292
     0
 70
     2
 71
   256
280
     1
  0
DICTIONARY
  5
2BA
102
{ACAD_REACTORS
330
C
102
}
330
C
100
AcDbDictionary
281
     1
  0
DICTIONARY
  5
D
102
{ACAD_REACTORS
330
C
102
}
330
C
100
AcDbDictionary
281
     1
  0
DICTIONARY
  5
1A
102
{ACAD_REACTORS
330
C
102
}
330
C
100
AcDbDictionary
281
     1
  3
Layout1
350
1E
  3
Layout2
350
26
  3
Model
350
22
  0
DICTIONARY
  5
43
102
{ACAD_REACTORS
330
C
102
}
330
C
100
AcDbDictionary
281
     1
  3
ByBlock
350
45
  3
ByLayer
350
44
  3
Global
350
46
  0
DICTIONARY
  5
2B9
102
{ACAD_REACTORS
330
C
102
}
330
C
100
AcDbDictionary
281
     1
  0
DICTIONARY
  5
17
102
{ACAD_REACTORS
330
C
102
}
330
C
100
AcDbDictionary
281
     1
  3
Standard
350
18
  0
DICTIONARY
  5
19
102
{ACAD_REACTORS
330
C
102
}
330
C
100
AcDbDictionary
281
     1
  0
ACDBDICTIONARYWDFLT
  5
E
102
{ACAD_REACTORS
330
C
102
}
330
C
100
AcDbDictionary
281
     1
  3
Normal
350
F
100
AcDbDictionaryWithDefault
340
F
  0
DICTIONARY
  5
47
102
{ACAD_REACTORS
330
C
102
}
330
C
100
AcDbDictionary
281
     1
  3
A0
350
48
  3
A1
350
49
  3
A2
350
4A
  3
A3
350
4B
  3
A4
350
4C
  3
A5
350
4D
  3
A6
350
4E
  3
A7
350
4F
  3
A8
350
50
  3
A9
350
51
  3
B0
350
52
  3
B1
350
53
  3
B2
350
54
  3
B3
350
55
  3
B4
350
56
  3
B5
350
57
  3
B6
350
58
  3
B7
350
59
  3
B8
350
5A
  3
B9
350
5B
  3
C0
350
5C
  3
C1
350
5D
  3
C2
350
5E
  3
C3
350
5F
  3
C4
350
60
  3
C5
350
61
  3
C6
350
62
  3
C7
350
63
  3
C8
350
64
  3
C9
350
65
  3
D0
350
66
  3
D1
350
67
  3
D2
350
68
  0
DICTIONARY
  5
2BB
102
{ACAD_REACTORS
330
C
102
}
330
C
100
AcDbDictionary
281
     1
  0
DICTIONARY
  5
2B8
102
{ACAD_REACTORS
330
C
102
}
330
C
100
AcDbDictionary
281
     1
  0
DICTIONARY
  5
2A
102
{ACAD_REACTORS
330
C
102
}
330
C
100
AcDbDictionary
281
     1
  3
2dWireframe
350
2F
  3
Basic
350
32
  3
Brighten
350
36
  3
ColorChange
350
3A
  3
Conceptual
350
34
  3
Dim
350
35
  3
EdgeColorOff
350
3D
  3
Facepattern
350
39
  3
Flat
350
2B
  3
FlatWithEdges
350
2C
  3
Gouraud
350
2D
  3
GouraudWithEdges
350
2E
  3
Hidden
350
31
  3
JitterOff
350
3B
  3
Linepattern
350
38
  3
OverhangOff
350
3C
  3
Realistic
350
33
  3
Shaded
350
42
  3
Shaded with edges
350
41
  3
Shades of Gray
350
3E
  3
Sketchy
350
3F
  3
Thicken
350
37
  3
Wireframe
350
30
  3
X-Ray
350
40
  0
DICTIONARY
  5
2B6
102
{ACAD_REACTORS
330
C
102
}
330
C
100
AcDbDictionary
281
     1
  3
CANNOSCALE
350
2B7
  0
LAYOUT
  5
1E
102
{ACAD_REACTORS
330
1A
102
}
330
1A
100
AcDbPlotSettings
  1

  2
none_device
  4

  6

 40
0.0
 41
0.0
 42
0.0
 43
0.0
 44
0.0
 45
0.0
 46
0.0
 47
0.0
 48
0.0
 49
0.0
140
0.0
141
0.0
142
1.0
143
1.0
 70
   688
 72
     0
 73
     0
 74
     5
  7

 75
    16
 76
     0
 77
     2
 78
   300
147
1.0
148
0.0
149
0.0
100
AcDbLayout
  1
Layout1
 70
     1
 71
     1
 10
0.0
 20
0.0
 11
420.0
 21
297.0
 12
0.0
 22
0.0
 32
0.0
 14
0.0
 24
0.0
 34
0.0
 15
420.0
 25
297.0
 35
0.0
146
0.0
 13
0.0
 23
0.0
 33
0.0
 16
1.0
 26
0.0
 36
0.0
 17
0.0
 27
1.0
 37
0.0
 76
     0
330
1B
331
6A
  0
LAYOUT
  5
26
102
{ACAD_REACTORS
330
1A
102
}
330
1A
100
AcDbPlotSettings
  1

  2
none_device
  4

  6

 40
0.0
 41
0.0
 42
0.0
 43
0.0
 44
0.0
 45
0.0
 46
0.0
 47
0.0
 48
0.0
 49
0.0
140
0.0
141
0.0
142
1.0
143
1.0
 70
   688
 72
     0
 73
     0
 74
     5
  7

 75
    16
 76
     0
 77
     2
 78
   300
147
1.0
148
0.0
149
0.0
100
AcDbLayout
  1
Layout2
 70
     1
 71
     2
 10
0.0
 20
0.0
 11
0.0
 21
0.0
 12
0.0
 22
0.0
 32
0.0
 14
0.0
 24
0.0
 34
0.0
 15
0.0
 25
0.0
 35
0.0
146
0.0
 13
0.0
 23
0.0
 33
0.0
 16
1.0
 26
0.0
 36
0.0
 17
0.0
 27
1.0
 37
0.0
 76
     0
330
23
  0
LAYOUT
  5
22
102
{ACAD_REACTORS
330
1A
102
}
330
1A
100
AcDbPlotSettings
  1

  2
none_device
  4
Letter_(8.50_x_11.00_Inches)
  6

 40
6.35
 41
6.35
 42
6.35000508
 43
6.35000508
 44
215.9
 45
279.4
 46
0.0
 47
0.0
 48
0.0
 49
0.0
140
0.0
141
0.0
142
1.0
143
1.0
 70
  1712
 72
     0
 73
     0
 74
     0
  7

 75
     0
 76
     0
 77
     2
 78
   300
147
1.0
148
0.0
149
0.0
100
AcDbLayout
  1
Model
 70
     1
 71
     0
 10
0.0
 20
0.0
 11
420.0
 21
297.0
 12
0.0
 22
0.0
 32
0.0
 14
30.00001350000048
 24
30.00000000000017
 34
0.0
 15
600.9087502495788
 25
322.9684883109462
 35
0.0
146
0.0
 13
0.0
 23
0.0
 33
0.0
 16
1.0
 26
0.0
 36
0.0
 17
0.0
 27
1.0
 37
0.0
 76
     0
330
1F
331
29
  0
MATERIAL
  5
45
102
{ACAD_REACTORS
330
43
102
}
330
43
100
AcDbMaterial
  1
ByBlock
 72
     1
 94
      127
  0
MATERIAL
  5
44
102
{ACAD_REACTORS
330
43
102
}
330
43
100
AcDbMaterial
  1
ByLayer
 72
     1
 94
      127
  0
MATERIAL
  5
46
102
{ACAD_REACTORS
330
43
102
}
330
43
100
AcDbMaterial
  1
Global
 72
     1
 94
      127
  0
MLINESTYLE
  5
18
102
{ACAD_REACTORS
330
17
102
}
330
17
100
AcDbMlineStyle
  2
Standard
 70
     0
  3

 62
   256
 51
90.0
 52
90.0
 71
     2
 49
0.5
 62
   256
  6
BYLAYER
 49
-0.5
 62
   256
  6
BYLAYER
  0
ACDBPLACEHOLDER
  5
F
102
{ACAD_REACTORS
330
E
102
}
330
E
  0
SCALE
  5
48
102
{ACAD_REACTORS
330
47
102
}
330
47
100
AcDbScale
 70
     0
300
1:1
140
1.0
141
1.0
290
     1
  0
SCALE
  5
49
102
{ACAD_REACTORS
330
47
102
}
330
47
100
AcDbScale
 70
     0
300
1:2
140
1.0
141
2.0
290
     0
  0
SCALE
  5
4A
102
{ACAD_REACTORS
330
47
102
}
330
47
100
AcDbScale
 70
     0
300
1:4
140
1.0
141
4.0
290
     0
  0
SCALE
  5
4B
102
{ACAD_REACTORS
330
47
102
}
330
47
100
AcDbScale
 70
     0
300
1:5
140
1.0
141
5.0
290
     0
  0
SCALE
  5
4C
102
{ACAD_REACTORS
330
47
102
}
330
47
100
AcDbScale
 70
     0
300
1:8
140
1.0
141
8.0
290
     0
  0
SCALE
  5
4D
102
{ACAD_REACTORS
330
47
102
}
330
47
100
AcDbScale
 70
     0
300
1:10
140
1.0
141
10.0
290
     0
  0
SCALE
  5
4E
102
{ACAD_REACTORS
330
47
102
}
330
47
100
AcDbScale
 70
     0
300
1:16
140
1.0
141
16.0
290
     0
  0
SCALE
  5
4F
102
{ACAD_REACTORS
330
47
102
}
330
47
100
AcDbScale
 70
     0
300
1:20
140
1.0
141
20.0
290
     0
  0
SCALE
  5
50
102
{ACAD_REACTORS
330
47
102
}
330
47
100
AcDbScale
 70
     0
300
1:30
140
1.0
141
30.0
290
     0
  0
SCALE
  5
51
102
{ACAD_REACTORS
330
47
102
}
330
47
100
AcDbScale
 70
     0
300
1:40
140
1.0
141
40.0
290
     0
  0
SCALE
  5
52
102
{ACAD_REACTORS
330
47
102
}
330
47
100
AcDbScale
 70
     0
300
1:50
140
1.0
141
50.0
290
     0
  0
SCALE
  5
53
102
{ACAD_REACTORS
330
47
102
}
330
47
100
AcDbScale
 70
     0
300
1:100
140
1.0
141
100.0
290
     0
  0
SCALE
  5
54
102
{ACAD_REACTORS
330
47
102
}
330
47
100
AcDbScale
 70
     0
300
2:1
140
2.0
141
1.0
290
     0
  0
SCALE
  5
55
102
{ACAD_REACTORS
330
47
102
}
330
47
100
AcDbScale
 70
     0
300
4:1
140
4.0
141
1.0
290
     0
  0
SCALE
  5
56
102
{ACAD_REACTORS
330
47
102
}
330
47
100
AcDbScale
 70
     0
300
8:1
140
8.0
141
1.0
290
     0
  0
SCALE
  5
57
102
{ACAD_REACTORS
330
47
102
}
330
47
100
AcDbScale
 70
     0
300
10:1
140
10.0
141
1.0
290
     0
  0
SCALE
  5
58
102
{ACAD_REACTORS
330
47
102
}
330
47
100
AcDbScale
 70
     0
300
100:1
140
100.0
141
1.0
290
     0
  0
SCALE
  5
59
102
{ACAD_REACTORS
330
47
102
}
330
47
100
AcDbScale
 70
     0
300
1/128" = 1'-0"
140
0.0078125
141
12.0
290
     0
  0
SCALE
  5
5A
102
{ACAD_REACTORS
330
47
102
}
330
47
100
AcDbScale
 70
     0
300
1/64" = 1'-0"
140
0.015625
141
12.0
290
     0
  0
SCALE
  5
5B
102
{ACAD_REACTORS
330
47
102
}
330
47
100
AcDbScale
 70
     0
300
1/32" = 1'-0"
140
0.03125
141
12.0
290
     0
  0
SCALE
  5
5C
102
{ACAD_REACTORS
330
47
102
}
330
47
100
AcDbScale
 70
     0
300
1/16" = 1'-0"
140
0.0625
141
12.0
290
     0
  0
SCALE
  5
5D
102
{ACAD_REACTORS
330
47
102
}
330
47
100
AcDbScale
 70
     0
300
3/32" = 1'-0"
140
0.09375
141
12.0
290
     0
  0
SCALE
  5
5E
102
{ACAD_REACTORS
330
47
102
}
330
47
100
AcDbScale
 70
     0
300
1/8" = 1'-0"
140
0.125
141
12.0
290
     0
  0
SCALE
  5
5F
102
{ACAD_REACTORS
330
47
102
}
330
47
100
AcDbScale
 70
     0
300
3/16" = 1'-0"
140
0.1875
141
12.0
290
     0
  0
SCALE
  5
60
102
{ACAD_REACTORS
330
47
102
}
330
47
100
AcDbScale
 70
     0
300
1/4" = 1'-0"
140
0.25
141
12.0
290
     0
  0
SCALE
  5
61
102
{ACAD_REACTORS
330
47
102
}
330
47
100
AcDbScale
 70
     0
300
3/8" = 1'-0"
140
0.375
141
12.0
290
     0
  0
SCALE
  5
62
102
{ACAD_REACTORS
330
47
102
}
330
47
100
AcDbScale
 70
     0
300
1/2" = 1'-0"
140
0.5
141
12.0
290
     0
  0
SCALE
  5
63
102
{ACAD_REACTORS
330
47
102
}
330
47
100
AcDbScale
 70
     0
300
3/4" = 1'-0"
140
0.75
141
12.0
290
     0
  0
SCALE
  5
64
102
{ACAD_REACTORS
330
47
102
}
330
47
100
AcDbScale
 70
     0
300
1" = 1'-0"
140
1.0
141
12.0
290
     0
  0
SCALE
  5
65
102
{ACAD_REACTORS
330
47
102
}
330
47
100
AcDbScale
 70
     0
300
1-1/2" = 1'-0"
140
1.5
141
12.0
290
     0
  0
SCALE
  5
66
102
{ACAD_REACTORS
330
47
102
}
330
47
100
AcDbScale
 70
     0
300
3" = 1'-0"
140
3.0
141
12.0
290
     0
  0
SCALE
  5
67
102
{ACAD_REACTORS
330
47
102
}
330
47
100
AcDbScale
 70
     0
300
6" = 1'-0"
140
6.0
141
12.0
290
     0
  0
SCALE
  5
68
102
{ACAD_REACTORS
330
47
102
}
330
47
100
AcDbScale
 70
     0
300
1'-0" = 1'-0"
140
12.0
141
12.0
290
     0
  0
VISUALSTYLE
  5
2F
102
{ACAD_REACTORS
330
2A
102
}
330
2A
100
AcDbVisualStyle
  2
2dWireframe
 70
     4
177
     3
291
     0
 70
    58
 90
        0
176
     1
 90
        2
176
     1
 90
        0
176
     1
 90
        0
176
     1
 40
0.6
176
     1
 40
30.0
176
     1
 62
     7
420
 16777215
176
     1
 90
        1
176
     1
 90
        4
176
     1
 62
     7
176
     1
 62
   257
176
     1
 90
        1
176
     1
 90
        1
176
     1
 40
1.0
176
     1
 90
        0
176
     1
 62
   257
176
     1
 40
1.0
176
     1
 90
        1
176
     1
 90
        6
176
     1
 90
        2
176
     1
 62
     7
176
     1
 90
        5
176
     1
 90
        0
176
     1
 90
        0
176
     1
290
     0
176
     1
 90
        1
176
     1
 40
0.0
176
     1
 90
        0
176
     1
290
     1
176
     1
290
     1
176
     1
290
     0
176
     1
290
     0
176
     1
290
     0
176
     1
290
     0
176
     1
290
     0
176
     1
290
     0
176
     1
290
     0
176
     1
 90
       50
176
     1
 40
0.0
176
     1
 40
1.0
176
     1
 90
        0
176
     1
 62
    18
420
        0
176
     1
 90
       50
176
     1
 90
        3
176
     1
 62
     5
420
      255
176
     1
290
     0
176
     1
 90
       50
176
     1
 90
       50
176
     1
 90
       50
176
     1
290
     0
176
     1
 90
       50
176
     1
 62
   256
176
     0
 40
1.0
176
     0
 90
        2
176
     1
  1
strokes_ogs.tif
176
     1
290
     0
176
     1
 40
1.0
176
     1
 40
1.0
176
     1
  0
VISUALSTYLE
  5
32
102
{ACAD_REACTORS
330
2A
102
}
330
2A
100
AcDbVisualStyle
  2
Basic
 70
     7
177
     3
291
     1
 70
    58
 90
        1
176
     1
 90
        0
176
     1
 90
        1
176
     1
 90
        0
176
     1
 40
0.6
176
     1
 40
30.0
176
     1
 62
     7
420
 16777215
176
     1
 90
        0
176
     1
 90
        4
176
     1
 62
     7
176
     1
 62
   257
176
     1
 90
        1
176
     1
 90
        1
176
     1
 40
1.0
176
     1
 90
        8
176
     1
 62
     7
176
     1
 40
1.0
176
     1
 90
        1
176
     1
 90
        6
176
     1
 90
        2
176
     1
 62
     7
176
     1
 90
        5
176
     1
 90
        0
176
     1
 90
        0
176
     1
290
     0
176
     1
 90
        1
176
     1
 40
0.0
176
     1
 90
        0
176
     1
290
     0
176
     1
290
     1
176
     1
290
     1
176
     1
290
     0
176
     1
290
     0
176
     1
290
     0
176
     1
290
     0
176
     1
290
     0
176
     1
290
     0
176
     1
 90
       50
176
     1
 40
0.0
176
     1
 40
1.0
176
     1
 90
        0
176
     1
 62
    18
420
        0
176
     1
 90
       50
176
     1
 90
        3
176
     1
 62
     5
420
      255
176
     1
290
     0
176
     1
 90
       50
176
     1
 90
       50
176
     1
 90
       50
176
     1
290
     0
176
     1
 90
       50
176
     1
 62
   256
176
     0
 40
1.0
176
     0
 90
        2
176
     1
  1
strokes_ogs.tif
176
     1
290
     0
176
     1
 40
1.0
176
     1
 40
1.0
176
     1
  0
VISUALSTYLE
  5
36
102
{ACAD_REACTORS
330
2A
102
}
330
2A
100
AcDbVisualStyle
  2
Brighten
 70
    12
177
     3
291
     1
 70
    58
 90
        2
176
     1
 90
        2
176
     1
 90
        0
176
     1
 90
        0
176
     1
 40
0.6
176
     1
 40
30.0
176
     1
 62
     7
420
 16777215
176
     1
 90
        1
176
     1
 90
        4
176
     1
 62
     7
176
     1
 62
   257
176
     1
 90
        1
176
     1
 90
        1
176
     1
 40
1.0
176
     1
 90
        8
176
     1
 62
     7
176
     1
 40
1.0
176
     1
 90
        1
176
     1
 90
        6
176
     1
 90
        2
176
     1
 62
     7
176
     1
 90
        5
176
     1
 90
        0
176
     1
 90
        0
176
     1
290
     0
176
     1
 90
        1
176
     1
 40
50.0
176
     1
 90
        0
176
     1
290
     0
176
     1
290
     1
176
     1
290
     1
176
     1
290
     0
176
     1
290
     0
176
     1
290
     0
176
     1
290
     0
176
     1
290
     0
176
     1
290
     0
176
     1
 90
       50
176
     1
 40
0.0
176
     1
 40
1.0
176
     1
 90
        0
176
     1
 62
    18
420
        0
176
     1
 90
       50
176
     1
 90
        3
176
     1
 62
     5
420
      255
176
     1
290
     0
176
     1
 90
       50
176
     1
 90
       50
176
     1
 90
       50
176
     1
290
     0
176
     1
 90
       50
176
     1
 62
   256
176
     0
 40
1.0
176
     0
 90
        2
176
     1
  1
strokes_ogs.tif
176
     1
290
     0
176
     1
 40
1.0
176
     1
 40
1.0
176
     1
  0
VISUALSTYLE
  5
3A
102
{ACAD_REACTORS
330
2A
102
}
330
2A
100
AcDbVisualStyle
  2
ColorChange
 70
    16
177
     3
291
     1
 70
    58
 90
        2
176
     1
 90
        2
176
     1
 90
        3
176
     1
 90
        0
176
     1
 40
0.6
176
     1
 40
30.0
176
     1
 62
     8
420
  8421504
176
     1
 90
        1
176
     1
 90
        4
176
     1
 62
     7
176
     1
 62
   257
176
     1
 90
        1
176
     1
 90
        1
176
     1
 40
1.0
176
     1
 90
        8
176
     1
 62
     8
420
  8421504
176
     1
 40
1.0
176
     1
 90
        1
176
     1
 90
        6
176
     1
 90
        2
176
     1
 62
     7
176
     1
 90
        5
176
     1
 90
        0
176
     1
 90
        0
176
     1
290
     0
176
     1
 90
        1
176
     1
 40
0.0
176
     1
 90
        0
176
     1
290
     0
176
     1
290
     1
176
     1
290
     1
176
     1
290
     0
176
     1
290
     0
176
     1
290
     0
176
     1
290
     0
176
     1
290
     0
176
     1
290
     0
176
     1
 90
       50
176
     1
 40
0.0
176
     1
 40
1.0
176
     1
 90
        0
176
     1
 62
    18
420
        0
176
     1
 90
       50
176
     1
 90
        3
176
     1
 62
     5
420
      255
176
     1
290
     0
176
     1
 90
       50
176
     1
 90
       50
176
     1
 90
       50
176
     1
290
     0
176
     1
 90
       50
176
     1
 62
   256
176
     0
 40
1.0
176
     0
 90
        2
176
     1
  1
strokes_ogs.tif
176
     1
290
     0
176
     1
 40
1.0
176
     1
 40
1.0
176
     1
  0
VISUALSTYLE
  5
34
102
{ACAD_REACTORS
330
2A
102
}
330
2A
100
AcDbVisualStyle
  2
Conceptual
 70
     9
177
     3
291
     0
 70
    58
 90
        3
176
     1
 90
        2
176
     1
 90
        0
176
     1
 90
        0
176
     1
 40
0.6
176
     1
 40
30.0
176
     1
 62
     7
420
 16777215
176
     1
 90
        2
176
     1
 90
        2
176
     1
 62
     7
176
     1
 62
   257
176
     1
 90
        1
176
     1
 90
        1
176
     1
 40
179.0
176
     1
 90
        8
176
     1
 62
     7
176
     1
 40
1.0
176
     1
 90
        1
176
     1
 90
        6
176
     1
 90
        2
176
     1
 62
     7
176
     1
 90
        3
176
     1
 90
        0
176
     1
 90
        0
176
     1
290
     0
176
     1
 90
        1
176
     1
 40
0.0
176
     1
 90
        0
176
     1
290
     0
176
     1
290
     1
176
     1
290
     1
176
     1
290
     0
176
     1
290
     0
176
     1
290
     0
176
     1
290
     0
176
     1
290
     0
176
     1
290
     0
176
     1
 90
       50
176
     1
 40
0.0
176
     1
 40
1.0
176
     1
 90
        0
176
     1
 62
    18
420
        0
176
     1
 90
       50
176
     1
 90
        3
176
     1
 62
     5
420
      255
176
     1
290
     0
176
     1
 90
       50
176
     1
 90
       50
176
     1
 90
       50
176
     1
290
     0
176
     1
 90
       50
176
     1
 62
   256
176
     0
 40
1.0
176
     0
 90
        2
176
     1
  1
strokes_ogs.tif
176
     1
290
     0
176
     1
 40
1.0
176
     1
 40
1.0
176
     1
  0
VISUALSTYLE
  5
35
102
{ACAD_REACTORS
330
2A
102
}
330
2A
100
AcDbVisualStyle
  2
Dim
 70
    11
177
     3
291
     1
 70
    58
 90
        2
176
     1
 90
        2
176
     1
 90
        0
176
     1
 90
        0
176
     1
 40
0.6
176
     1
 40
30.0
176
     1
 62
     7
420
 16777215
176
     1
 90
        1
176
     1
 90
        4
176
     1
 62
     7
176
     1
 62
   257
176
     1
 90
        1
176
     1
 90
        1
176
     1
 40
1.0
176
     1
 90
        8
176
     1
 62
     7
176
     1
 40
1.0
176
     1
 90
        1
176
     1
 90
        6
176
     1
 90
        2
176
     1
 62
     7
176
     1
 90
        5
176
     1
 90
        0
176
     1
 90
        0
176
     1
290
     0
176
     1
 90
        1
176
     1
 40
-50.0
176
     1
 90
        0
176
     1
290
     0
176
     1
290
     1
176
     1
290
     1
176
     1
290
     0
176
     1
290
     0
176
     1
290
     0
176
     1
290
     0
176
     1
290
     0
176
     1
290
     0
176
     1
 90
       50
176
     1
 40
0.0
176
     1
 40
1.0
176
     1
 90
        0
176
     1
 62
    18
420
        0
176
     1
 90
       50
176
     1
 90
        3
176
     1
 62
     5
420
      255
176
     1
290
     0
176
     1
 90
       50
176
     1
 90
       50
176
     1
 90
       50
176
     1
290
     0
176
     1
 90
       50
176
     1
 62
   256
176
     0
 40
1.0
176
     0
 90
        2
176
     1
  1
strokes_ogs.tif
176
     1
290
     0
176
     1
 40
1.0
176
     1
 40
1.0
176
     1
  0
VISUALSTYLE
  5
3D
102
{ACAD_REACTORS
330
2A
102
}
330
2A
100
AcDbVisualStyle
  2
EdgeColorOff
 70
    22
177
     3
291
     1
 70
    58
 90
        2
176
     0
 90
        2
176
     0
 90
        0
176
     0
 90
        0
176
     0
 40
0.6
176
     0
 40
30.0
176
     0
 62
     7
420
 16777215
176
     0
 90
        1
176
     0
 90
        4
176
     0
 62
     7
176
     0
 62
   257
176
     0
 90
        1
176
     0
 90
        1
176
     0
 40
1.0
176
     0
 90
        8
176
     2
 62
     7
176
     0
 40
1.0
176
     0
 90
        1
176
     0
 90
        6
176
     0
 90
        2
176
     0
 62
     7
176
     0
 90
        5
176
     0
 90
        0
176
     0
 90
        0
176
     0
290
     0
176
     0
 90
        1
176
     0
 40
0.0
176
     0
 90
        0
176
     0
290
     0
176
     0
290
     1
176
     0
290
     1
176
     0
290
     0
176
     0
290
     0
176
     0
290
     0
176
     0
290
     0
176
     0
290
     0
176
     0
290
     0
176
     0
 90
       50
176
     0
 40
0.0
176
     0
 40
1.0
176
     0
 90
        0
176
     0
 62
    18
420
        0
176
     0
 90
       50
176
     0
 90
        3
176
     0
 62
     5
420
      255
176
     0
290
     0
176
     0
 90
       50
176
     0
 90
       50
176
     0
 90
       50
176
     0
290
     0
176
     0
 90
       50
176
     0
 62
   256
176
     0
 40
1.0
176
     0
 90
        2
176
     0
  1
strokes_ogs.tif
176
     0
290
     0
176
     0
 40
1.0
176
     0
 40
1.0
176
     0
  0
VISUALSTYLE
  5
39
102
{ACAD_REACTORS
330
2A
102
}
330
2A
100
AcDbVisualStyle
  2
Facepattern
 70
    15
177
     3
291
     1
 70
    58
 90
        2
176
     1
 90
        2
176
     1
 90
        0
176
     1
 90
        0
176
     1
 40
0.6
176
     1
 40
30.0
176
     1
 62
     7
420
 16777215
176
     1
 90
        1
176
     1
 90
        4
176
     1
 62
     7
176
     1
 62
   257
176
     1
 90
        1
176
     1
 90
        1
176
     1
 40
1.0
176
     1
 90
        8
176
     1
 62
     7
176
     1
 40
1.0
176
     1
 90
        1
176
     1
 90
        6
176
     1
 90
        2
176
     1
 62
     7
176
     1
 90
        5
176
     1
 90
        0
176
     1
 90
        0
176
     1
290
     0
176
     1
 90
        1
176
     1
 40
0.0
176
     1
 90
        0
176
     1
290
     0
176
     1
290
     1
176
     1
290
     1
176
     1
290
     0
176
     1
290
     0
176
     1
290
     0
176
     1
290
     0
176
     1
290
     0
176
     1
290
     0
176
     1
 90
       50
176
     1
 40
0.0
176
     1
 40
1.0
176
     1
 90
        0
176
     1
 62
    18
420
        0
176
     1
 90
       50
176
     1
 90
        3
176
     1
 62
     5
420
      255
176
     1
290
     0
176
     1
 90
       50
176
     1
 90
       50
176
     1
 90
       50
176
     1
290
     0
176
     1
 90
       50
176
     1
 62
   256
176
     0
 40
1.0
176
     0
 90
        2
176
     1
  1
strokes_ogs.tif
176
     1
290
     0
176
     1
 40
1.0
176
     1
 40
1.0
176
     1
  0
VISUALSTYLE
  5
2B
102
{ACAD_REACTORS
330
2A
102
}
330
2A
100
AcDbVisualStyle
  2
Flat
 70
     0
177
     3
291
     1
 70
    58
 90
        2
176
     1
 90
        1
176
     1
 90
        1
176
     1
 90
        2
176
     1
 40
0.6
176
     1
 40
30.0
176
     1
 62
     7
420
 16777215
176
     1
 90
        0
176
     1
 90
        0
176
     1
 62
     7
176
     1
 62
   257
176
     1
 90
        1
176
     1
 90
        1
176
     1
 40
1.0
176
     1
 90
        8
176
     1
 62
     7
176
     1
 40
1.0
176
     1
 90
        1
176
     1
 90
        6
176
     1
 90
        2
176
     1
 62
     7
176
     1
 90
        5
176
     1
 90
        0
176
     1
 90
        0
176
     1
290
     0
176
     1
 90
       13
176
     1
 40
0.0
176
     1
 90
        0
176
     1
290
     0
176
     1
290
     1
176
     1
290
     1
176
     1
290
     0
176
     1
290
     0
176
     1
290
     0
176
     1
290
     0
176
     1
290
     0
176
     1
290
     0
176
     1
 90
       50
176
     1
 40
0.0
176
     1
 40
1.0
176
     1
 90
        0
176
     1
 62
    18
420
        0
176
     1
 90
       50
176
     1
 90
        3
176
     1
 62
     5
420
      255
176
     1
290
     0
176
     1
 90
       50
176
     1
 90
       50
176
     1
 90
       50
176
     1
290
     0
176
     1
 90
       50
176
     1
 62
   256
176
     0
 40
1.0
176
     0
 90
        2
176
     1
  1
strokes_ogs.tif
176
     1
290
     0
176
     1
 40
1.0
176
     1
 40
1.0
176
     1
  0
VISUALSTYLE
  5
2C
102
{ACAD_REACTORS
330
2A
102
}
330
2A
100
AcDbVisualStyle
  2
FlatWithEdges
 70
     1
177
     3
291
     1
 70
    58
 90
        2
176
     1
 90
        1
176
     1
 90
        1
176
     1
 90
        2
176
     1
 40
0.6
176
     1
 40
30.0
176
     1
 62
     7
420
 16777215
176
     1
 90
        1
176
     1
 90
        0
176
     1
 62
     7
176
     1
 62
   257
176
     1
 90
        1
176
     1
 90
        1
176
     1
 40
1.0
176
     1
 90
        0
176
     1
 62
   257
176
     1
 40
1.0
176
     1
 90
        1
176
     1
 90
        6
176
     1
 90
        2
176
     1
 62
     7
176
     1
 90
        5
176
     1
 90
        0
176
     1
 90
        0
176
     1
290
     0
176
     1
 90
       13
176
     1
 40
0.0
176
     1
 90
        0
176
     1
290
     0
176
     1
290
     1
176
     1
290
     1
176
     1
290
     0
176
     1
290
     0
176
     1
290
     0
176
     1
290
     0
176
     1
290
     0
176
     1
290
     0
176
     1
 90
       50
176
     1
 40
0.0
176
     1
 40
1.0
176
     1
 90
        0
176
     1
 62
    18
420
        0
176
     1
 90
       50
176
     1
 90
        3
176
     1
 62
     5
420
      255
176
     1
290
     0
176
     1
 90
       50
176
     1
 90
       50
176
     1
 90
       50
176
     1
290
     0
176
     1
 90
       50
176
     1
 62
   256
176
     0
 40
1.0
176
     0
 90
        2
176
     1
  1
strokes_ogs.tif
176
     1
290
     0
176
     1
 40
1.0
176
     1
 40
1.0
176
     1
  0
VISUALSTYLE
  5
2D
102
{ACAD_REACTORS
330
2A
102
}
330
2A
100
AcDbVisualStyle
  2
Gouraud
 70
     2
177
     3
291
     1
 70
    58
 90
        2
176
     1
 90
        2
176
     1
 90
        1
176
     1
 90
        2
176
     1
 40
0.6
176
     1
 40
30.0
176
     1
 62
     7
420
 16777215
176
     1
 90
        0
176
     1
 90
        0
176
     1
 62
     7
176
     1
 62
   257
176
     1
 90
        1
176
     1
 90
        1
176
     1
 40
1.0
176
     1
 90
        0
176
     1
 62
     7
176
     1
 40
1.0
176
     1
 90
        1
176
     1
 90
        6
176
     1
 90
        2
176
     1
 62
     7
176
     1
 90
        5
176
     1
 90
        0
176
     1
 90
        0
176
     1
290
     0
176
     1
 90
       13
176
     1
 40
0.0
176
     1
 90
        0
176
     1
290
     0
176
     1
290
     1
176
     1
290
     1
176
     1
290
     0
176
     1
290
     0
176
     1
290
     0
176
     1
290
     0
176
     1
290
     0
176
     1
290
     0
176
     1
 90
       50
176
     1
 40
0.0
176
     1
 40
1.0
176
     1
 90
        0
176
     1
 62
    18
420
        0
176
     1
 90
       50
176
     1
 90
        3
176
     1
 62
     5
420
      255
176
     1
290
     0
176
     1
 90
       50
176
     1
 90
       50
176
     1
 90
       50
176
     1
290
     0
176
     1
 90
       50
176
     1
 62
   256
176
     0
 40
1.0
176
     0
 90
        2
176
     1
  1
strokes_ogs.tif
176
     1
290
     0
176
     1
 40
1.0
176
     1
 40
1.0
176
     1
  0
VISUALSTYLE
  5
2E
102
{ACAD_REACTORS
330
2A
102
}
330
2A
100
AcDbVisualStyle
  2
GouraudWithEdges
 70
     3
177
     3
291
     1
 70
    58
 90
        2
176
     1
 90
        2
176
     1
 90
        1
176
     1
 90
        2
176
     1
 40
0.6
176
     1
 40
30.0
176
     1
 62
     7
420
 16777215
176
     1
 90
        1
176
     1
 90
        0
176
     1
 62
     7
176
     1
 62
   257
176
     1
 90
        1
176
     1
 90
        1
176
     1
 40
1.0
176
     1
 90
        0
176
     1
 62
   257
176
     1
 40
1.0
176
     1
 90
        1
176
     1
 90
        6
176
     1
 90
        2
176
     1
 62
     7
176
     1
 90
        5
176
     1
 90
        0
176
     1
 90
        0
176
     1
290
     0
176
     1
 90
       13
176
     1
 40
0.0
176
     1
 90
        0
176
     1
290
     0
176
     1
290
     1
176
     1
290
     1
176
     1
290
     0
176
     1
290
     0
176
     1
290
     0
176
     1
290
     0
176
     1
290
     0
176
     1
290
     0
176
     1
 90
       50
176
     1
 40
0.0
176
     1
 40
1.0
176
     1
 90
        0
176
     1
 62
    18
420
        0
176
     1
 90
       50
176
     1
 90
        3
176
     1
 62
     5
420
      255
176
     1
290
     0
176
     1
 90
       50
176
     1
 90
       50
176
     1
 90
       50
176
     1
290
     0
176
     1
 90
       50
176
     1
 62
   256
176
     0
 40
1.0
176
     0
 90
        2
176
     1
  1
strokes_ogs.tif
176
     1
290
     0
176
     1
 40
1.0
176
     1
 40
1.0
176
     1
  0
VISUALSTYLE
  5
31
102
{ACAD_REACTORS
330
2A
102
}
330
2A
100
AcDbVisualStyle
  2
Hidden
 70
     6
177
     3
291
     0
 70
    58
 90
        1
176
     1
 90
        2
176
     1
 90
        2
176
     1
 90
        0
176
     1
 40
0.6
176
     1
 40
30.0
176
     1
 62
     7
420
 16777215
176
     1
 90
        2
176
     1
 90
        2
176
     1
 62
     7
176
     1
 62
   257
176
     1
 90
        2
176
     1
 90
        1
176
     1
 40
40.0
176
     1
 90
        0
176
     1
 62
   257
176
     1
 40
1.0
176
     1
 90
        1
176
     1
 90
        6
176
     1
 90
        2
176
     1
 62
     7
176
     1
 90
        3
176
     1
 90
        0
176
     1
 90
        0
176
     1
290
     0
176
     1
 90
        1
176
     1
 40
0.0
176
     1
 90
        0
176
     1
290
     0
176
     1
290
     1
176
     1
290
     1
176
     1
290
     0
176
     1
290
     0
176
     1
290
     0
176
     1
290
     0
176
     1
290
     0
176
     1
290
     0
176
     1
 90
       50
176
     1
 40
0.0
176
     1
 40
1.0
176
     1
 90
        0
176
     1
 62
    18
420
        0
176
     1
 90
       50
176
     1
 90
        3
176
     1
 62
     5
420
      255
176
     1
290
     0
176
     1
 90
       50
176
     1
 90
       50
176
     1
 90
       50
176
     1
290
     0
176
     1
 90
       50
176
     1
 62
   256
176
     0
 40
1.0
176
     0
 90
        2
176
     1
  1
strokes_ogs.tif
176
     1
290
     0
176
     1
 40
1.0
176
     1
 40
1.0
176
     1
  0
VISUALSTYLE
  5
3B
102
{ACAD_REACTORS
330
2A
102
}
330
2A
100
AcDbVisualStyle
  2
JitterOff
 70
    20
177
     3
291
     1
 70
    58
 90
        2
176
     0
 90
        2
176
     0
 90
        0
176
     0
 90
        0
176
     0
 40
0.6
176
     0
 40
30.0
176
     0
 62
     7
420
 16777215
176
     0
 90
        1
176
     0
 90
        4
176
     0
 62
     7
176
     0
 62
   257
176
     0
 90
        1
176
     0
 90
        1
176
     0
 40
1.0
176
     0
 90
       10
176
     2
 62
     7
176
     0
 40
1.0
176
     0
 90
        1
176
     0
 90
        6
176
     0
 90
        2
176
     0
 62
     7
176
     0
 90
        5
176
     0
 90
        0
176
     0
 90
        0
176
     0
290
     0
176
     0
 90
        1
176
     0
 40
0.0
176
     0
 90
        0
176
     0
290
     0
176
     0
290
     1
176
     0
290
     1
176
     0
290
     0
176
     0
290
     0
176
     0
290
     0
176
     0
290
     0
176
     0
290
     0
176
     0
290
     0
176
     0
 90
       50
176
     0
 40
0.0
176
     0
 40
1.0
176
     0
 90
        0
176
     0
 62
    18
420
        0
176
     0
 90
       50
176
     0
 90
        3
176
     0
 62
     5
420
      255
176
     0
290
     0
176
     0
 90
       50
176
     0
 90
       50
176
     0
 90
       50
176
     0
290
     0
176
     0
 90
       50
176
     0
 62
   256
176
     0
 40
1.0
176
     0
 90
        2
176
     0
  1
strokes_ogs.tif
176
     0
290
     0
176
     0
 40
1.0
176
     0
 40
1.0
176
     0
  0
VISUALSTYLE
  5
38
102
{ACAD_REACTORS
330
2A
102
}
330
2A
100
AcDbVisualStyle
  2
Linepattern
 70
    14
177
     3
291
     1
 70
    58
 90
        2
176
     1
 90
        2
176
     1
 90
        0
176
     1
 90
        0
176
     1
 40
0.6
176
     1
 40
30.0
176
     1
 62
     7
420
 16777215
176
     1
 90
        1
176
     1
 90
        4
176
     1
 62
     7
176
     1
 62
   257
176
     1
 90
        7
176
     1
 90
        7
176
     1
 40
1.0
176
     1
 90
        8
176
     1
 62
     7
176
     1
 40
1.0
176
     1
 90
        1
176
     1
 90
        6
176
     1
 90
        2
176
     1
 62
     7
176
     1
 90
        5
176
     1
 90
        0
176
     1
 90
        0
176
     1
290
     0
176
     1
 90
        1
176
     1
 40
0.0
176
     1
 90
        0
176
     1
290
     0
176
     1
290
     1
176
     1
290
     1
176
     1
290
     0
176
     1
290
     0
176
     1
290
     0
176
     1
290
     0
176
     1
290
     0
176
     1
290
     0
176
     1
 90
       50
176
     1
 40
0.0
176
     1
 40
1.0
176
     1
 90
        0
176
     1
 62
    18
420
        0
176
     1
 90
       50
176
     1
 90
        3
176
     1
 62
     5
420
      255
176
     1
290
     0
176
     1
 90
       50
176
     1
 90
       50
176
     1
 90
       50
176
     1
290
     0
176
     1
 90
       50
176
     1
 62
   256
176
     0
 40
1.0
176
     0
 90
        2
176
     1
  1
strokes_ogs.tif
176
     1
290
     0
176
     1
 40
1.0
176
     1
 40
1.0
176
     1
  0
VISUALSTYLE
  5
3C
102
{ACAD_REACTORS
330
2A
102
}
330
2A
100
AcDbVisualStyle
  2
OverhangOff
 70
    21
177
     3
291
     1
 70
    58
 90
        2
176
     0
 90
        2
176
     0
 90
        0
176
     0
 90
        0
176
     0
 40
0.6
176
     0
 40
30.0
176
     0
 62
     7
420
 16777215
176
     0
 90
        1
176
     0
 90
        4
176
     0
 62
     7
176
     0
 62
   257
176
     0
 90
        1
176
     0
 90
        1
176
     0
 40
1.0
176
     0
 90
        9
176
     2
 62
     7
176
     0
 40
1.0
176
     0
 90
        1
176
     0
 90
        6
176
     0
 90
        2
176
     0
 62
     7
176
     0
 90
        5
176
     0
 90
        0
176
     0
 90
        0
176
     0
290
     0
176
     0
 90
        1
176
     0
 40
0.0
176
     0
 90
        0
176
     0
290
     0
176
     0
290
     1
176
     0
290
     1
176
     0
290
     0
176
     0
290
     0
176
     0
290
     0
176
     0
290
     0
176
     0
290
     0
176
     0
290
     0
176
     0
 90
       50
176
     0
 40
0.0
176
     0
 40
1.0
176
     0
 90
        0
176
     0
 62
    18
420
        0
176
     0
 90
       50
176
     0
 90
        3
176
     0
 62
     5
420
      255
176
     0
290
     0
176
     0
 90
       50
176
     0
 90
       50
176
     0
 90
       50
176
     0
290
     0
176
     0
 90
       50
176
     0
 62
   256
176
     0
 40
1.0
176
     0
 90
        2
176
     0
  1
strokes_ogs.tif
176
     0
290
     0
176
     0
 40
1.0
176
     0
 40
1.0
176
     0
  0
VISUALSTYLE
  5
33
102
{ACAD_REACTORS
330
2A
102
}
330
2A
100
AcDbVisualStyle
  2
Realistic
 70
     8
177
     3
291
     0
 70
    58
 90
        2
176
     1
 90
        3
176
     1
 90
        0
176
     1
 90
        2
176
     1
 40
0.6
176
     1
 40
30.0
176
     1
 62
     7
420
 16777215
176
     1
 90
        0
176
     1
 90
        0
176
     1
 62
     7
176
     1
 62
   257
176
     1
 90
        1
176
     1
 90
        1
176
     1
 40
1.0
176
     1
 90
        8
176
     1
 62
   257
176
     1
 40
1.0
176
     1
 90
        1
176
     1
 90
        6
176
     1
 90
        2
176
     1
 62
     7
176
     1
 90
        3
176
     1
 90
        0
176
     1
 90
        0
176
     1
290
     0
176
     1
 90
       13
176
     1
 40
0.0
176
     1
 90
        0
176
     1
290
     0
176
     1
290
     1
176
     1
290
     1
176
     1
290
     0
176
     1
290
     0
176
     1
290
     0
176
     1
290
     0
176
     1
290
     0
176
     1
290
     0
176
     1
 90
       50
176
     1
 40
0.0
176
     1
 40
1.0
176
     1
 90
        0
176
     1
 62
    18
420
        0
176
     1
 90
       50
176
     1
 90
        3
176
     1
 62
     5
420
      255
176
     1
290
     0
176
     1
 90
       50
176
     1
 90
       50
176
     1
 90
       50
176
     1
290
     0
176
     1
 90
       50
176
     1
 62
   256
176
     0
 40
1.0
176
     0
 90
        2
176
     1
  1
strokes_ogs.tif
176
     1
290
     0
176
     1
 40
1.0
176
     1
 40
1.0
176
     1
  0
VISUALSTYLE
  5
42
102
{ACAD_REACTORS
330
2A
102
}
330
2A
100
AcDbVisualStyle
  2
Shaded
 70
    27
177
     3
291
     0
 70
    58
 90
        2
176
     1
 90
        2
176
     1
 90
        1
176
     1
 90
        2
176
     1
 40
0.6
176
     1
 40
30.0
176
     1
 62
     7
420
 16777215
176
     1
 90
        0
176
     1
 90
        4
176
     1
 62
     7
176
     1
 62
   257
176
     1
 90
        1
176
     1
 90
        1
176
     1
 40
1.0
176
     1
 90
        8
176
     1
 62
   257
176
     1
 40
1.0
176
     1
 90
        1
176
     1
 90
        6
176
     1
 90
        2
176
     1
 62
     8
420
  7895160
176
     1
 90
        3
176
     1
 90
        0
176
     1
 90
        0
176
     1
290
     0
176
     1
 90
        5
176
     1
 40
0.0
176
     1
 90
        0
176
     1
290
     0
176
     1
290
     1
176
     1
290
     1
176
     1
290
     0
176
     1
290
     0
176
     1
290
     0
176
     1
290
     0
176
     1
290
     0
176
     1
290
     0
176
     1
 90
       50
176
     1
 40
0.0
176
     1
 40
1.0
176
     1
 90
        0
176
     1
 62
    18
420
        0
176
     1
 90
       50
176
     1
 90
        3
176
     1
 62
     5
420
      255
176
     1
290
     0
176
     1
 90
       50
176
     1
 90
       50
176
     1
 90
       50
176
     1
290
     0
176
     1
 90
       50
176
     1
 62
   256
176
     0
 40
1.0
176
     0
 90
        2
176
     1
  1
strokes_ogs.tif
176
     1
290
     0
176
     1
 40
1.0
176
     1
 40
1.0
176
     1
  0
VISUALSTYLE
  5
41
102
{ACAD_REACTORS
330
2A
102
}
330
2A
100
AcDbVisualStyle
  2
Shaded with edges
 70
    26
177
     3
291
     0
 70
    58
 90
        2
176
     1
 90
        2
176
     1
 90
        1
176
     1
 90
        2
176
     1
 40
0.6
176
     1
 40
30.0
176
     1
 62
     7
420
 16777215
176
     1
 90
        1
176
     1
 90
       10
176
     1
 62
     7
176
     1
 62
   257
176
     1
 90
        2
176
     1
 90
        1
176
     1
 40
1.0
176
     1
 90
        8
176
     1
 62
   257
176
     1
 40
1.0
176
     1
 90
        1
176
     1
 90
        6
176
     1
 90
        2
176
     1
 62
     7
176
     1
 90
        3
176
     1
 90
        0
176
     1
 90
        0
176
     1
290
     0
176
     1
 90
        5
176
     1
 40
0.0
176
     1
 90
        0
176
     1
290
     0
176
     1
290
     1
176
     1
290
     1
176
     1
290
     0
176
     1
290
     0
176
     1
290
     0
176
     1
290
     0
176
     1
290
     0
176
     1
290
     0
176
     1
 90
       50
176
     1
 40
0.0
176
     1
 40
1.0
176
     1
 90
        0
176
     1
 62
    18
420
        0
176
     1
 90
       50
176
     1
 90
        3
176
     1
 62
     5
420
      255
176
     1
290
     0
176
     1
 90
       50
176
     1
 90
       50
176
     1
 90
       50
176
     1
290
     0
176
     1
 90
       50
176
     1
 62
   256
176
     0
 40
1.0
176
     0
 90
        2
176
     1
  1
strokes_ogs.tif
176
     1
290
     0
176
     1
 40
1.0
176
     1
 40
1.0
176
     1
  0
VISUALSTYLE
  5
3E
102
{ACAD_REACTORS
330
2A
102
}
330
2A
100
AcDbVisualStyle
  2
Shades of Gray
 70
    23
177
     3
291
     0
 70
    58
 90
        2
176
     1
 90
        2
176
     1
 90
        3
176
     1
 90
        0
176
     1
 40
0.6
176
     1
 40
30.0
176
     1
 62
     7
420
 16777215
176
     1
 90
        2
176
     1
 90
        2
176
     1
 62
     7
176
     1
 62
     7
176
     1
 90
        1
176
     1
 90
        1
176
     1
 40
40.0
176
     1
 90
        8
176
     1
 62
     7
176
     1
 40
1.0
176
     1
 90
        1
176
     1
 90
        6
176
     1
 90
        2
176
     1
 62
     7
176
     1
 90
        3
176
     1
 90
        0
176
     1
 90
        0
176
     1
290
     0
176
     1
 90
        1
176
     1
 40
0.0
176
     1
 90
        0
176
     1
290
     0
176
     1
290
     1
176
     1
290
     1
176
     1
290
     0
176
     1
290
     0
176
     1
290
     0
176
     1
290
     0
176
     1
290
     0
176
     1
290
     0
176
     1
 90
       50
176
     1
 40
0.0
176
     1
 40
1.0
176
     1
 90
        0
176
     1
 62
    18
420
        0
176
     1
 90
       50
176
     1
 90
        3
176
     1
 62
     5
420
      255
176
     1
290
     0
176
     1
 90
       50
176
     1
 90
       50
176
     1
 90
       50
176
     1
290
     0
176
     1
 90
       50
176
     1
 62
   256
176
     0
 40
1.0
176
     0
 90
        2
176
     1
  1
strokes_ogs.tif
176
     1
290
     0
176
     1
 40
1.0
176
     1
 40
1.0
176
     1
  0
VISUALSTYLE
  5
3F
102
{ACAD_REACTORS
330
2A
102
}
330
2A
100
AcDbVisualStyle
  2
Sketchy
 70
    24
177
     3
291
     0
 70
    58
 90
        1
176
     1
 90
        2
176
     1
 90
        2
176
     1
 90
        0
176
     1
 40
0.6
176
     1
 40
30.0
176
     1
 62
     7
420
 16777215
176
     1
 90
        2
176
     1
 90
        2
176
     1
 62
     7
176
     1
 62
     7
176
     1
 90
        1
176
     1
 90
        1
176
     1
 40
40.0
176
     1
 90
       11
176
     1
 62
     7
176
     1
 40
1.0
176
     1
 90
        1
176
     1
 90
        6
176
     1
 90
        2
176
     1
 62
     7
176
     1
 90
        6
176
     1
 90
        0
176
     1
 90
        0
176
     1
290
     0
176
     1
 90
        1
176
     1
 40
0.0
176
     1
 90
        0
176
     1
290
     0
176
     1
290
     1
176
     1
290
     1
176
     1
290
     0
176
     1
290
     0
176
     1
290
     0
176
     1
290
     0
176
     1
290
     0
176
     1
290
     0
176
     1
 90
       50
176
     1
 40
0.0
176
     1
 40
1.0
176
     1
 90
        0
176
     1
 62
    18
420
        0
176
     1
 90
       50
176
     1
 90
        3
176
     1
 62
     5
420
      255
176
     1
290
     0
176
     1
 90
       50
176
     1
 90
       50
176
     1
 90
       50
176
     1
290
     0
176
     1
 90
       50
176
     1
 62
   256
176
     0
 40
1.0
176
     0
 90
        2
176
     1
  1
strokes_ogs.tif
176
     1
290
     0
176
     1
 40
1.0
176
     1
 40
1.0
176
     1
  0
VISUALSTYLE
  5
37
102
{ACAD_REACTORS
330
2A
102
}
330
2A
100
AcDbVisualStyle
  2
Thicken
 70
    13
177
     3
291
     1
 70
    58
 90
        2
176
     1
 90
        2
176
     1
 90
        0
176
     1
 90
        0
176
     1
 40
0.6
176
     1
 40
30.0
176
     1
 62
     7
420
 16777215
176
     1
 90
        1
176
     1
 90
        4
176
     1
 62
     7
176
     1
 62
   257
176
     1
 90
        1
176
     1
 90
        1
176
     1
 40
1.0
176
     1
 90
       12
176
     1
 62
     7
176
     1
 40
1.0
176
     1
 90
        1
176
     1
 90
        6
176
     1
 90
        2
176
     1
 62
     7
176
     1
 90
        5
176
     1
 90
        0
176
     1
 90
        0
176
     1
290
     0
176
     1
 90
        1
176
     1
 40
0.0
176
     1
 90
        0
176
     1
290
     0
176
     1
290
     1
176
     1
290
     1
176
     1
290
     0
176
     1
290
     0
176
     1
290
     0
176
     1
290
     0
176
     1
290
     0
176
     1
290
     0
176
     1
 90
       50
176
     1
 40
0.0
176
     1
 40
1.0
176
     1
 90
        0
176
     1
 62
    18
420
        0
176
     1
 90
       50
176
     1
 90
        3
176
     1
 62
     5
420
      255
176
     1
290
     0
176
     1
 90
       50
176
     1
 90
       50
176
     1
 90
       50
176
     1
290
     0
176
     1
 90
       50
176
     1
 62
   256
176
     0
 40
1.0
176
     0
 90
        2
176
     1
  1
strokes_ogs.tif
176
     1
290
     0
176
     1
 40
1.0
176
     1
 40
1.0
176
     1
  0
VISUALSTYLE
  5
30
102
{ACAD_REACTORS
330
2A
102
}
330
2A
100
AcDbVisualStyle
  2
Wireframe
 70
     5
177
     3
291
     0
 70
    58
 90
        0
176
     1
 90
        2
176
     1
 90
        0
176
     1
 90
        0
176
     1
 40
0.6
176
     1
 40
30.0
176
     1
 62
     7
420
 16777215
176
     1
 90
        1
176
     1
 90
        4
176
     1
 62
     7
176
     1
 62
   257
176
     1
 90
        1
176
     1
 90
        1
176
     1
 40
1.0
176
     1
 90
        0
176
     1
 62
   257
176
     1
 40
1.0
176
     1
 90
        1
176
     1
 90
        6
176
     1
 90
        2
176
     1
 62
     7
176
     1
 90
        3
176
     1
 90
        0
176
     1
 90
        0
176
     1
290
     0
176
     1
 90
        1
176
     1
 40
0.0
176
     1
 90
        0
176
     1
290
     0
176
     1
290
     1
176
     1
290
     1
176
     1
290
     0
176
     1
290
     0
176
     1
290
     0
176
     1
290
     0
176
     1
290
     0
176
     1
290
     0
176
     1
 90
       50
176
     1
 40
0.0
176
     1
 40
1.0
176
     1
 90
        0
176
     1
 62
    18
420
        0
176
     1
 90
       50
176
     1
 90
        3
176
     1
 62
     5
420
      255
176
     1
290
     0
176
     1
 90
       50
176
     1
 90
       50
176
     1
 90
       50
176
     1
290
     0
176
     1
 90
       50
176
     1
 62
   256
176
     0
 40
1.0
176
     0
 90
        2
176
     1
  1
strokes_ogs.tif
176
     1
290
     0
176
     1
 40
1.0
176
     1
 40
1.0
176
     1
  0
VISUALSTYLE
  5
40
102
{ACAD_REACTORS
330
2A
102
}
330
2A
100
AcDbVisualStyle
  2
X-Ray
 70
    25
177
     3
291
     0
 70
    58
 90
        2
176
     1
 90
        2
176
     1
 90
        1
176
     1
 90
        1
176
     1
 40
0.5
176
     1
 40
30.0
176
     1
 62
     7
420
 16777215
176
     1
 90
        1
176
     1
 90
        0
176
     1
 62
     7
176
     1
 62
   257
176
     1
 90
        1
176
     1
 90
        1
176
     1
 40
1.0
176
     1
 90
        8
176
     1
 62
     7
176
     1
 40
1.0
176
     1
 90
        1
176
     1
 90
        6
176
     1
 90
        2
176
     1
 62
     7
176
     1
 90
        3
176
     1
 90
        0
176
     1
 90
        0
176
     1
290
     0
176
     1
 90
       13
176
     1
 40
0.0
176
     1
 90
        0
176
     1
290
     0
176
     1
290
     1
176
     1
290
     1
176
     1
290
     0
176
     1
290
     0
176
     1
290
     0
176
     1
290
     0
176
     1
290
     0
176
     1
290
     0
176
     1
 90
       50
176
     1
 40
0.0
176
     1
 40
1.0
176
     1
 90
        0
176
     1
 62
    18
420
        0
176
     1
 90
       50
176
     1
 90
        3
176
     1
 62
     5
420
      255
176
     1
290
     0
176
     1
 90
       50
176
     1
 90
       50
176
     1
 90
       50
176
     1
290
     0
176
     1
 90
       50
176
     1
 62
   256
176
     0
 40
1.0
176
     0
 90
        2
176
     1
  1
strokes_ogs.tif
176
     1
290
     0
176
     1
 40
1.0
176
     1
 40
1.0
176
     1
  0
DICTIONARYVAR
  5
2B7
102
{ACAD_REACTORS
330
2B6
102
}
330
2B6
100
DictionaryVariables
280
     0
  1
1:1
  0
ENDSEC
  0
EOF
