  0
SECTION
  2
HEADER
  9
$ACADVER
  1
AC1014
  9
$ACADMAINTVER
 70
     9
  9
$DWGCODEPAGE
  3
ANSI_932
  9
$INSBASE
 10
0.0
 20
0.0
 30
0.0
  9
$EXTMIN
 10
31.07786513794587
 20
113.1983800304777
 30
0.0
  9
$EXTMAX
 10
574.8561186706315
 20
353.3166419604601
 30
0.0
  9
$LIMMIN
 10
0.0
 20
0.0
  9
$LIMMAX
 10
297.0
 20
210.0
  9
$ORTHOMODE
 70
     0
  9
$REGENMODE
 70
     1
  9
$FILLMODE
 70
     1
  9
$QTEXTMODE
 70
     0
  9
$MIRRTEXT
 70
     1
  9
$DRAGMODE
 70
     2
  9
$LTSCALE
 40
0.5
  9
$OSMODE
 70
    37
  9
$ATTMODE
 70
     1
  9
$TEXTSIZE
 40
5.6
  9
$TRACEWID
 40
0.05
  9
$TEXTSTYLE
  7
STANDARD
  9
$CLAYER
  8
0
  9
$CELTYPE
  6
BYLAYER
  9
$CECOLOR
 62
   256
  9
$CELTSCALE
 40
1.0
  9
$DELOBJ
 70
     1
  9
$DISPSILH
 70
     0
  9
$DIMSCALE
 40
1.0
  9
$DIMASZ
 40
1.55291427
  9
$DIMEXO
 40
2.0
  9
$DIMDLI
 40
30.0
  9
$DIMRND
 40
0.0
  9
$DIMDLE
 40
0.0
  9
$DIMEXE
 40
2.0
  9
$DIMTP
 40
0.0
  9
$DIMTM
 40
0.0
  9
$DIMTXT
 40
2.8
  9
$DIMCEN
 40
0.09
  9
$DIMTSZ
 40
0.0
  9
$DIMTOL
 70
     0
  9
$DIMLIM
 70
     0
  9
$DIMTIH
 70
     0
  9
$DIMTOH
 70
     0
  9
$DIMSE1
 70
     0
  9
$DIMSE2
 70
     0
  9
$DIMTAD
 70
     3
  9
$DIMZIN
 70
     8
  9
$DIMBLK
  1

  9
$DIMASO
 70
     1
  9
$DIMSHO
 70
     1
  9
$DIMPOST
  1

  9
$DIMAPOST
  1

  9
$DIMALT
 70
     0
  9
$DIMALTD
 70
     2
  9
$DIMALTF
 40
25.4
  9
$DIMLFAC
 40
1.0
  9
$DIMTOFL
 70
     1
  9
$DIMTVP
 40
0.7
  9
$DIMTIX
 70
     0
  9
$DIMSOXD
 70
     0
  9
$DIMSAH
 70
     0
  9
$DIMBLK1
  1

  9
$DIMBLK2
  1

  9
$DIMSTYLE
  2
STANDARD
  9
$DIMCLRD
 70
     0
  9
$DIMCLRE
 70
     0
  9
$DIMCLRT
 70
     0
  9
$DIMTFAC
 40
0.5
  9
$DIMGAP
 40
0.09
  9
$DIMJUST
 70
     0
  9
$DIMSD1
 70
     0
  9
$DIMSD2
 70
     0
  9
$DIMTOLJ
 70
     1
  9
$DIMTZIN
 70
     8
  9
$DIMALTZ
 70
     0
  9
$DIMALTTZ
 70
     0
  9
$DIMFIT
 70
     5
  9
$DIMUPT
 70
     1
  9
$DIMUNIT
 70
     2
  9
$DIMDEC
 70
     2
  9
$DIMTDEC
 70
     4
  9
$DIMALTU
 70
     2
  9
$DIMALTTD
 70
     2
  9
$DIMTXSTY
  7
STANDARD
  9
$DIMAUNIT
 70
     0
  9
$LUNITS
 70
     2
  9
$LUPREC
 70
     4
  9
$SKETCHINC
 40
0.1
  9
$FILLETRAD
 40
0.5
  9
$AUNITS
 70
     0
  9
$AUPREC
 70
     0
  9
$MENU
  1
.
  9
$ELEVATION
 40
0.0
  9
$PELEVATION
 40
0.0
  9
$THICKNESS
 40
0.0
  9
$LIMCHECK
 70
     0
  9
$CHAMFERA
 40
0.5
  9
$CHAMFERB
 40
0.5
  9
$CHAMFERC
 40
1.0
  9
$CHAMFERD
 40
0.0
  9
$SKPOLY
 70
     0
  9
$TDCREATE
 40
2460164.784375
  9
$TDUPDATE
 40
2460164.409385185
  9
$TDINDWG
 40
0.0000000116
  9
$TDUSRTIMER
 40
0.0000000116
  9
$USRTIMER
 70
     1
  9
$ANGBASE
 50
0.0
  9
$ANGDIR
 70
     0
  9
$PDMODE
 70
     0
  9
$PDSIZE
 40
0.0
  9
$PLINEWID
 40
0.0
  9
$COORDS
 70
     1
  9
$SPLFRAME
 70
     0
  9
$SPLINETYPE
 70
     6
  9
$SPLINESEGS
 70
     8
  9
$ATTDIA
 70
     0
  9
$ATTREQ
 70
     1
  9
$HANDLING
 70
     1
  9
$HANDSEED
  5
224
  9
$SURFTAB1
 70
     6
  9
$SURFTAB2
 70
     6
  9
$SURFTYPE
 70
     6
  9
$SURFU
 70
     6
  9
$SURFV
 70
     6
  9
$UCSNAME
  2

  9
$UCSORG
 10
0.0
 20
0.0
 30
0.0
  9
$UCSXDIR
 10
1.0
 20
0.0
 30
0.0
  9
$UCSYDIR
 10
0.0
 20
1.0
 30
0.0
  9
$PUCSNAME
  2

  9
$PUCSORG
 10
0.0
 20
0.0
 30
0.0
  9
$PUCSXDIR
 10
1.0
 20
0.0
 30
0.0
  9
$PUCSYDIR
 10
0.0
 20
1.0
 30
0.0
  9
$USERI1
 70
     0
  9
$USERI2
 70
     0
  9
$USERI3
 70
     0
  9
$USERI4
 70
     0
  9
$USERI5
 70
     0
  9
$USERR1
 40
0.0
  9
$USERR2
 40
0.0
  9
$USERR3
 40
0.0
  9
$USERR4
 40
0.0
  9
$USERR5
 40
0.0
  9
$WORLDVIEW
 70
     1
  9
$SHADEDGE
 70
     3
  9
$SHADEDIF
 70
    70
  9
$TILEMODE
 70
     1
  9
$MAXACTVP
 70
    64
  9
$PINSBASE
 10
0.0
 20
0.0
 30
0.0
  9
$PLIMCHECK
 70
     0
  9
$PEXTMIN
 10
0.0
 20
0.0
 30
0.0
  9
$PEXTMAX
 10
297.0
 20
210.0
 30
0.0
  9
$PLIMMIN
 10
0.0
 20
0.0
  9
$PLIMMAX
 10
297.0
 20
210.0
  9
$UNITMODE
 70
     0
  9
$VISRETAIN
 70
     1
  9
$PLINEGEN
 70
     0
  9
$PSLTSCALE
 70
     1
  9
$TREEDEPTH
 70
  3020
  9
$PICKSTYLE
 70
     1
  9
$CMLSTYLE
  2
STANDARD
  9
$CMLJUST
 70
     0
  9
$CMLSCALE
 40
1.0
  9
$PROXYGRAPHICS
 70
     1
  9
$MEASUREMENT
 70
     1
  0
ENDSEC
  0
SECTION
  2
CLASSES
  0
CLASS
  1
ACDBDICTIONARYWDFLT
  2
AcDbDictionaryWithDefault
  3
ObjectDBX Classes
 90
        0
280
     0
281
     0
  0
CLASS
  1
VISUALSTYLE
  2
AcDbVisualStyle
  3
ObjectDBX Classes
 90
     4095
280
     0
281
     0
  0
CLASS
  1
MATERIAL
  2
AcDbMaterial
  3
ObjectDBX Classes
 90
     1153
280
     0
281
     0
  0
CLASS
  1
DICTIONARYVAR
  2
AcDbDictionaryVar
  3
ObjectDBX Classes
 90
        0
280
     0
281
     0
  0
CLASS
  1
XRECORD
  2
AcDbXrecord
  3
AutoCAD 2000
 90
        0
280
     0
281
     0
  0
CLASS
  1
LWPOLYLINE
  2
AcDbPolyline
  3
AutoCAD 2000
 90
        0
280
     0
281
     1
  0
CLASS
  1
HATCH
  2
AcDbHatch
  3
AutoCAD 2000
 90
        0
280
     0
281
     1
  0
CLASS
  1
ACDBPLACEHOLDER
  2
AcDbPlaceHolder
  3
ObjectDBX Classes
 90
        0
280
     0
281
     0
  0
CLASS
  1
LAYOUT
  2
AcDbLayout
  3
ObjectDBX Classes
 90
        0
280
     0
281
     0
  0
ENDSEC
  0
SECTION
  2
TABLES
  0
TABLE
  2
VPORT
  5
8
330
0
100
AcDbSymbolTable
 70
     1
  0
VPORT
  5
29
330
8
100
AcDbSymbolTableRecord
100
AcDbViewportTableRecord
  2
*ACTIVE
 70
     0
 10
0.0
 20
0.0
 11
1.0
 21
1.0
 12
10.42990654205607
 22
4.5
 13
0.0
 23
0.0
 14
0.5
 24
0.5
 15
0.5
 25
0.5
 16
0.0
 26
0.0
 36
1.0
 17
0.0
 27
0.0
 37
0.0
 40
9.0
 41
1.972972972850329
 42
50.0
 43
0.0
 44
0.0
 50
0.0
 51
0.0
 71
     0
 72
   100
 73
     1
 74
     3
 75
     0
 76
     0
 77
     0
 78
     0
  0
ENDTAB
  0
TABLE
  2
LTYPE
  5
5
330
0
100
AcDbSymbolTable
 70
     9
  0
LTYPE
  5
14
330
5
100
AcDbSymbolTableRecord
100
AcDbLinetypeTableRecord
  2
BYBLOCK
 70
     0
  3

 72
    65
 73
     0
 40
0.0
  0
LTYPE
  5
15
330
5
100
AcDbSymbolTableRecord
100
AcDbLinetypeTableRecord
  2
BYLAYER
 70
     0
  3

 72
    65
 73
     0
 40
0.0
  0
LTYPE
  5
16
330
5
100
AcDbSymbolTableRecord
100
AcDbLinetypeTableRecord
  2
CONTINUOUS
 70
     0
  3
Solid line
 72
    65
 73
     0
 40
0.0
  0
LTYPE
  5
8E
330
5
100
AcDbSymbolTableRecord
100
AcDbLinetypeTableRecord
  2
DOT
 70
     0
  3
DOT
 72
    65
 73
     2
 40
4.0
 49
6.0
 74
     0
 49
-2.0
 74
     0
  0
LTYPE
  5
8F
330
5
100
AcDbSymbolTableRecord
100
AcDbLinetypeTableRecord
  2
HIDDEN
 70
     0
  3
HIDDEN
 72
    65
 73
     2
 40
4.2
 49
8.4
 74
     0
 49
-4.2
 74
     0
  0
LTYPE
  5
90
330
5
100
AcDbSymbolTableRecord
100
AcDbLinetypeTableRecord
  2
DASHDOT
 70
     0
  3
DASHDOT
 72
    65
 73
     4
 40
14.5
 49
30.0
 74
     0
 49
-9.0
 74
     0
 49
2.5
 74
     0
 49
-9.0
 74
     0
  0
LTYPE
  5
91
330
5
100
AcDbSymbolTableRecord
100
AcDbLinetypeTableRecord
  2
PHANTOM
 70
     0
  3
PHANTOM
 72
    65
 73
     6
 40
12.0
 49
30.0
 74
     0
 49
-9.0
 74
     0
 49
2.5
 74
     0
 49
-5.0
 74
     0
 49
2.5
 74
     0
 49
-9.0
 74
     0
  0
LTYPE
  5
92
330
5
100
AcDbSymbolTableRecord
100
AcDbLinetypeTableRecord
  2
ACAD_ISO14W100
 70
     0
  3
ACAD_ISO14W100
 72
    65
 73
     8
 40
1.5
 49
12.0
 74
     0
 49
-3.0
 74
     0
 49
0.5
 74
     0
 49
-3.0
 74
     0
 49
0.5
 74
     0
 49
-3.0
 74
     0
 49
0.5
 74
     0
 49
-3.0
 74
     0
  0
LTYPE
  5
93
330
5
100
AcDbSymbolTableRecord
100
AcDbLinetypeTableRecord
  2
ACAD_ISO06W100
 70
     0
  3
ACAD_ISO06W100
 72
    65
 73
     8
 40
13.5
 49
24.0
 74
     0
 49
-3.0
 74
     0
 49
0.5
 74
     0
 49
-3.0
 74
     0
 49
0.5
 74
     0
 49
-3.0
 74
     0
 49
0.5
 74
     0
 49
-3.0
 74
     0
  0
LTYPE
  5
94
330
5
100
AcDbSymbolTableRecord
100
AcDbLinetypeTableRecord
  2
ACAD_ISO11W100
 70
     0
  3
ACAD_ISO11W100
 72
    65
 73
     6
 40
15.5
 49
12.0
 74
     0
 49
-3.0
 74
     0
 49
12.0
 74
     0
 49
-3.0
 74
     0
 49
0.5
 74
     0
 49
-3.0
 74
     0
  0
LTYPE
  5
95
330
5
100
AcDbSymbolTableRecord
100
AcDbLinetypeTableRecord
  2
ACAD_ISO13W100
 70
     0
  3
ACAD_ISO13W100
 72
    65
 73
     8
 40
13.0
 49
12.0
 74
     0
 49
-3.0
 74
     0
 49
12.0
 74
     0
 49
-3.0
 74
     0
 49
0.5
 74
     0
 49
-3.0
 74
     0
 49
0.5
 74
     0
 49
-3.0
 74
     0
  0
ENDTAB
  0
TABLE
  2
LAYER
  5
2
330
0
100
AcDbSymbolTable
 70
    12
  0
LAYER
  5
10
330
2
100
AcDbSymbolTableRecord
100
AcDbLayerTableRecord
  2
0
 70
     0
 62
     7
  6
CONTINUOUS
  0
LAYER
  5
96
330
2
100
AcDbSymbolTableRecord
100
AcDbLayerTableRecord
  2
1
 70
     0
 62
     7
  6
CONTINUOUS
  0
LAYER
  5
97
330
2
100
AcDbSymbolTableRecord
100
AcDbLayerTableRecord
  2
2
 70
     0
 62
   151
  6
CONTINUOUS
  0
LAYER
  5
98
330
2
100
AcDbSymbolTableRecord
100
AcDbLayerTableRecord
  2
3
 70
     0
 62
     1
  6
DASHDOT
  0
LAYER
  5
99
330
2
100
AcDbSymbolTableRecord
100
AcDbLayerTableRecord
  2
4
 70
     0
 62
     7
  6
CONTINUOUS
  0
LAYER
  5
9A
330
2
100
AcDbSymbolTableRecord
100
AcDbLayerTableRecord
  2
5
 70
     0
 62
     1
  6
CONTINUOUS
  0
LAYER
  5
9B
330
2
100
AcDbSymbolTableRecord
100
AcDbLayerTableRecord
  2
6
 70
     0
 62
     6
  6
CONTINUOUS
  0
LAYER
  5
9C
330
2
100
AcDbSymbolTableRecord
100
AcDbLayerTableRecord
  2
7
 70
     0
 62
     3
  6
CONTINUOUS
  0
LAYER
  5
9D
330
2
100
AcDbSymbolTableRecord
100
AcDbLayerTableRecord
  2
8
 70
     0
 62
     4
  6
CONTINUOUS
  0
LAYER
  5
9E
330
2
100
AcDbSymbolTableRecord
100
AcDbLayerTableRecord
  2
9
 70
     0
 62
     7
  6
CONTINUOUS
  0
LAYER
  5
9F
330
2
100
AcDbSymbolTableRecord
100
AcDbLayerTableRecord
  2
10
 70
     0
 62
     2
  6
CONTINUOUS
  0
LAYER
  5
A0
330
2
100
AcDbSymbolTableRecord
100
AcDbLayerTableRecord
  2
11
 70
     0
 62
     3
  6
HIDDEN
  0
ENDTAB
  0
TABLE
  2
STYLE
  5
3
330
0
100
AcDbSymbolTable
 70
     3
  0
STYLE
  5
11
330
3
100
AcDbSymbolTableRecord
100
AcDbTextStyleTableRecord
  2
STANDARD
 70
     0
 40
0.0
 41
1.0
 50
0.0
 71
     0
 42
5.6
  3
txt
  4
bigfont
  0
STYLE
  5
41
330
3
100
AcDbSymbolTableRecord
100
AcDbTextStyleTableRecord
  2
T_STANDARD
 70
     4
 40
10.0
 41
1.0
 50
0.0
 71
     0
 42
10.0
  3
txt
  4
bigfont
  0
STYLE
  5
15E
330
3
100
AcDbSymbolTableRecord
100
AcDbTextStyleTableRecord
  2
ＭＳ_ゴシック
 70
     0
 40
0.0
 41
1.0
 50
0.0
 71
     0
 42
0.0
  3

  4

1001
ACAD
1000
ＭＳ ゴシック
1071
      256
  0
ENDTAB
  0
TABLE
  2
VIEW
  5
6
330
0
100
AcDbSymbolTable
 70
     0
  0
ENDTAB
  0
TABLE
  2
UCS
  5
7
330
0
100
AcDbSymbolTable
 70
     0
  0
ENDTAB
  0
TABLE
  2
APPID
  5
9
330
0
100
AcDbSymbolTable
 70
     2
  0
APPID
  5
12
330
9
100
AcDbSymbolTableRecord
100
AcDbRegAppTableRecord
  2
ACAD
 70
     0
  0
APPID
  5
40
330
9
100
AcDbSymbolTableRecord
100
AcDbRegAppTableRecord
  2
ODA
 70
     0
  0
ENDTAB
  0
TABLE
  2
DIMSTYLE
  5
A
330
0
100
AcDbSymbolTable
 70
     1
  0
DIMSTYLE
105
27
102
{ACAD_REACTORS
330
168
330
172
330
17C
330
186
330
190
330
19A
330
1A4
330
1AE
330
1B8
330
1C2
330
1CC
330
1D6
330
1E0
330
1E8
330
1F0
102
}
330
A
100
AcDbSymbolTableRecord
100
AcDbDimStyleTableRecord
  2
STANDARD
 70
     0
  3

  4

  5

  6

  7

 40
1.0
 41
0.18
 42
0.0625
 43
0.38
 44
0.18
 45
0.0
 46
0.0
 47
0.0
 48
0.0
140
0.18
141
0.09
142
0.0
143
25.4
144
1.0
145
0.0
146
1.0
147
0.09
 71
     0
 72
     0
 73
     1
 74
     1
 75
     0
 76
     0
 77
     0
 78
     0
170
     0
171
     2
172
     0
173
     0
174
     0
175
     0
176
     0
177
     0
178
     0
270
     2
271
     4
272
     4
273
     2
274
     2
340
11
275
     0
280
     0
281
     0
282
     0
283
     1
284
     0
285
     0
286
     0
287
     3
288
     0
  0
ENDTAB
  0
TABLE
  2
BLOCK_RECORD
  5
1
330
0
100
AcDbSymbolTable
 70
    31
  0
BLOCK_RECORD
  5
1F
330
1
100
AcDbSymbolTableRecord
100
AcDbBlockTableRecord
  2
*MODEL_SPACE
  0
BLOCK_RECORD
  5
1B
330
1
100
AcDbSymbolTableRecord
100
AcDbBlockTableRecord
  2
*PAPER_SPACE
  0
BLOCK_RECORD
  5
42
330
1
100
AcDbSymbolTableRecord
100
AcDbBlockTableRecord
  2
_ORIGIN
  0
BLOCK_RECORD
  5
47
330
1
100
AcDbSymbolTableRecord
100
AcDbBlockTableRecord
  2
_DOTBLANK
  0
BLOCK_RECORD
  5
4C
330
1
100
AcDbSymbolTableRecord
100
AcDbBlockTableRecord
  2
_DOT
  0
BLOCK_RECORD
  5
51
330
1
100
AcDbSymbolTableRecord
100
AcDbBlockTableRecord
  2
_OPEN
  0
BLOCK_RECORD
  5
57
330
1
100
AcDbSymbolTableRecord
100
AcDbBlockTableRecord
  2
_CLOSED
  0
BLOCK_RECORD
  5
5E
330
1
100
AcDbSymbolTableRecord
100
AcDbBlockTableRecord
  2
_CLOSEDBLANK
  0
BLOCK_RECORD
  5
64
330
1
100
AcDbSymbolTableRecord
100
AcDbBlockTableRecord
  2
_ARROWFILLED
  0
BLOCK_RECORD
  5
68
330
1
100
AcDbSymbolTableRecord
100
AcDbBlockTableRecord
  2
_BOXBLANK
  0
BLOCK_RECORD
  5
70
330
1
100
AcDbSymbolTableRecord
100
AcDbBlockTableRecord
  2
_BOXFILLED
  0
BLOCK_RECORD
  5
75
330
1
100
AcDbSymbolTableRecord
100
AcDbBlockTableRecord
  2
_INTEGRAL
  0
BLOCK_RECORD
  5
7A
330
1
100
AcDbSymbolTableRecord
100
AcDbBlockTableRecord
  2
_OBLIQUE
  0
BLOCK_RECORD
  5
7E
330
1
100
AcDbSymbolTableRecord
100
AcDbBlockTableRecord
  2
_NONE
  0
BLOCK_RECORD
  5
81
330
1
100
AcDbSymbolTableRecord
100
AcDbBlockTableRecord
  2
MARK_OPEN
  0
BLOCK_RECORD
  5
86
330
1
100
AcDbSymbolTableRecord
100
AcDbBlockTableRecord
  2
MARK_ORIGIN
  0
BLOCK_RECORD
  5
8A
330
1
100
AcDbSymbolTableRecord
100
AcDbBlockTableRecord
  2
MARK_DOT
  0
BLOCK_RECORD
  5
15F
330
1
100
AcDbSymbolTableRecord
100
AcDbBlockTableRecord
  2
DIM1
  0
BLOCK_RECORD
  5
169
330
1
100
AcDbSymbolTableRecord
100
AcDbBlockTableRecord
  2
DIM2
  0
BLOCK_RECORD
  5
173
330
1
100
AcDbSymbolTableRecord
100
AcDbBlockTableRecord
  2
DIM3
  0
BLOCK_RECORD
  5
17D
330
1
100
AcDbSymbolTableRecord
100
AcDbBlockTableRecord
  2
DIM4
  0
BLOCK_RECORD
  5
187
330
1
100
AcDbSymbolTableRecord
100
AcDbBlockTableRecord
  2
DIM5
  0
BLOCK_RECORD
  5
191
330
1
100
AcDbSymbolTableRecord
100
AcDbBlockTableRecord
  2
DIM6
  0
BLOCK_RECORD
  5
19B
330
1
100
AcDbSymbolTableRecord
100
AcDbBlockTableRecord
  2
DIM7
  0
BLOCK_RECORD
  5
1A5
330
1
100
AcDbSymbolTableRecord
100
AcDbBlockTableRecord
  2
DIM8
  0
BLOCK_RECORD
  5
1AF
330
1
100
AcDbSymbolTableRecord
100
AcDbBlockTableRecord
  2
DIM9
  0
BLOCK_RECORD
  5
1B9
330
1
100
AcDbSymbolTableRecord
100
AcDbBlockTableRecord
  2
DIM10
  0
BLOCK_RECORD
  5
1C3
330
1
100
AcDbSymbolTableRecord
100
AcDbBlockTableRecord
  2
DIM11
  0
BLOCK_RECORD
  5
1CD
330
1
100
AcDbSymbolTableRecord
100
AcDbBlockTableRecord
  2
DIM12
  0
BLOCK_RECORD
  5
1D7
330
1
100
AcDbSymbolTableRecord
100
AcDbBlockTableRecord
  2
DIM13
  0
BLOCK_RECORD
  5
1E1
330
1
100
AcDbSymbolTableRecord
100
AcDbBlockTableRecord
  2
DIM14
  0
BLOCK_RECORD
  5
1E9
330
1
100
AcDbSymbolTableRecord
100
AcDbBlockTableRecord
  2
DIM15
  0
ENDTAB
  0
ENDSEC
  0
SECTION
  2
BLOCKS
  0
BLOCK
  5
20
330
1F
100
AcDbEntity
  8
0
100
AcDbBlockBegin
  2
*MODEL_SPACE
 70
     0
 10
0.0
 20
0.0
 30
0.0
  3
*MODEL_SPACE
  1

  0
ENDBLK
  5
21
330
1F
100
AcDbEntity
  8
0
100
AcDbBlockEnd
  0
BLOCK
  5
1C
330
1B
100
AcDbEntity
 67
     1
  8
0
100
AcDbBlockBegin
  2
*PAPER_SPACE
 70
     0
 10
0.0
 20
0.0
 30
0.0
  3
*PAPER_SPACE
  1

  0
ENDBLK
  5
1D
330
1B
100
AcDbEntity
 67
     1
  8
0
100
AcDbBlockEnd
  0
BLOCK
  5
45
330
42
100
AcDbEntity
  8
0
100
AcDbBlockBegin
  2
_ORIGIN
 70
     0
 10
0.0
 20
0.0
 30
0.0
  3
_ORIGIN
  1

  0
CIRCLE
  5
43
330
42
100
AcDbEntity
  8
0
 62
     0
100
AcDbCircle
 10
0.0
 20
0.0
 30
0.0
 40
0.5
  0
LINE
  5
44
330
42
100
AcDbEntity
  8
0
 62
     0
100
AcDbLine
 10
0.0
 20
0.0
 30
0.0
 11
-1.0
 21
0.0
 31
0.0
  0
ENDBLK
  5
46
330
42
100
AcDbEntity
  8
0
100
AcDbBlockEnd
  0
BLOCK
  5
4A
330
47
100
AcDbEntity
  8
0
100
AcDbBlockBegin
  2
_DOTBLANK
 70
     0
 10
0.0
 20
0.0
 30
0.0
  3
_DOTBLANK
  1

  0
CIRCLE
  5
48
330
47
100
AcDbEntity
  8
0
 62
     0
100
AcDbCircle
 10
0.0
 20
0.0
 30
0.0
 40
0.5
  0
LINE
  5
49
330
47
100
AcDbEntity
  8
0
 62
     0
100
AcDbLine
 10
-0.5
 20
0.0
 30
0.0
 11
-1.0
 21
0.0
 31
0.0
  0
ENDBLK
  5
4B
330
47
100
AcDbEntity
  8
0
100
AcDbBlockEnd
  0
BLOCK
  5
4F
330
4C
100
AcDbEntity
  8
0
100
AcDbBlockBegin
  2
_DOT
 70
     0
 10
0.0
 20
0.0
 30
0.0
  3
_DOT
  1

  0
LWPOLYLINE
  5
4D
330
4C
100
AcDbEntity
  8
0
 62
     0
100
AcDbPolyline
 90
        2
 70
     1
 43
0.5
 10
-0.25
 20
0.0
 42
1.0
 10
0.25
 20
0.0
 42
1.0
  0
LINE
  5
4E
330
4C
100
AcDbEntity
  8
0
 62
     0
100
AcDbLine
 10
-0.5
 20
0.0
 30
0.0
 11
-1.0
 21
0.0
 31
0.0
  0
ENDBLK
  5
50
330
4C
100
AcDbEntity
  8
0
100
AcDbBlockEnd
  0
BLOCK
  5
55
330
51
100
AcDbEntity
  8
0
100
AcDbBlockBegin
  2
_OPEN
 70
     0
 10
0.0
 20
0.0
 30
0.0
  3
_OPEN
  1

  0
LINE
  5
52
330
51
100
AcDbEntity
  8
0
 62
     0
100
AcDbLine
 10
0.0
 20
0.0
 30
0.0
 11
-1.0
 21
0.1666666666666667
 31
0.0
  0
LINE
  5
53
330
51
100
AcDbEntity
  8
0
 62
     0
100
AcDbLine
 10
0.0
 20
0.0
 30
0.0
 11
-1.0
 21
-0.1666666666666667
 31
0.0
  0
LINE
  5
54
330
51
100
AcDbEntity
  8
0
 62
     0
100
AcDbLine
 10
0.0
 20
0.0
 30
0.0
 11
-1.0
 21
0.0
 31
0.0
  0
ENDBLK
  5
56
330
51
100
AcDbEntity
  8
0
100
AcDbBlockEnd
  0
BLOCK
  5
5C
330
57
100
AcDbEntity
  8
0
100
AcDbBlockBegin
  2
_CLOSED
 70
     0
 10
0.0
 20
0.0
 30
0.0
  3
_CLOSED
  1

  0
LINE
  5
58
330
57
100
AcDbEntity
  8
0
 62
     0
100
AcDbLine
 10
0.0
 20
0.0
 30
0.0
 11
-1.0
 21
0.1666666666666667
 31
0.0
  0
LINE
  5
59
330
57
100
AcDbEntity
  8
0
 62
     0
100
AcDbLine
 10
0.0
 20
0.0
 30
0.0
 11
-1.0
 21
-0.1666666666666667
 31
0.0
  0
LINE
  5
5A
330
57
100
AcDbEntity
  8
0
 62
     0
100
AcDbLine
 10
-1.0
 20
0.1666666666666667
 30
0.0
 11
-1.0
 21
-0.1666666666666667
 31
0.0
  0
LINE
  5
5B
330
57
100
AcDbEntity
  8
0
 62
     0
100
AcDbLine
 10
0.0
 20
0.0
 30
0.0
 11
-1.0
 21
0.0
 31
0.0
  0
ENDBLK
  5
5D
330
57
100
AcDbEntity
  8
0
100
AcDbBlockEnd
  0
BLOCK
  5
62
330
5E
100
AcDbEntity
  8
0
100
AcDbBlockBegin
  2
_CLOSEDBLANK
 70
     0
 10
0.0
 20
0.0
 30
0.0
  3
_CLOSEDBLANK
  1

  0
LINE
  5
5F
330
5E
100
AcDbEntity
  8
0
 62
     0
100
AcDbLine
 10
0.0
 20
0.0
 30
0.0
 11
-1.0
 21
0.1666666666666667
 31
0.0
  0
LINE
  5
60
330
5E
100
AcDbEntity
  8
0
 62
     0
100
AcDbLine
 10
0.0
 20
0.0
 30
0.0
 11
-1.0
 21
-0.1666666666666667
 31
0.0
  0
LINE
  5
61
330
5E
100
AcDbEntity
  8
0
 62
     0
100
AcDbLine
 10
-1.0
 20
0.1666666666666667
 30
0.0
 11
-1.0
 21
-0.1666666666666667
 31
0.0
  0
ENDBLK
  5
63
330
5E
100
AcDbEntity
  8
0
100
AcDbBlockEnd
  0
BLOCK
  5
66
330
64
100
AcDbEntity
  8
0
100
AcDbBlockBegin
  2
_ARROWFILLED
 70
     0
 10
0.0
 20
0.0
 30
0.0
  3
_ARROWFILLED
  1

  0
SOLID
  5
65
330
64
100
AcDbEntity
  8
0
 62
     0
100
AcDbTrace
 10
0.0
 20
0.0
 30
0.0
 11
-1.0
 21
-0.1666666666666667
 31
0.0
 12
-1.0
 22
0.1666666666666667
 32
0.0
 13
0.0
 23
0.0
 33
0.0
  0
ENDBLK
  5
67
330
64
100
AcDbEntity
  8
0
100
AcDbBlockEnd
  0
BLOCK
  5
6E
330
68
100
AcDbEntity
  8
0
100
AcDbBlockBegin
  2
_BOXBLANK
 70
     0
 10
0.0
 20
0.0
 30
0.0
  3
_BOXBLANK
  1

  0
LINE
  5
69
330
68
100
AcDbEntity
  8
0
 62
     0
100
AcDbLine
 10
-0.5
 20
-0.5
 30
0.0
 11
0.5
 21
-0.5
 31
0.0
  0
LINE
  5
6A
330
68
100
AcDbEntity
  8
0
 62
     0
100
AcDbLine
 10
0.5
 20
-0.5
 30
0.0
 11
0.5
 21
0.5
 31
0.0
  0
LINE
  5
6B
330
68
100
AcDbEntity
  8
0
 62
     0
100
AcDbLine
 10
0.5
 20
0.5
 30
0.0
 11
-0.5
 21
0.5
 31
0.0
  0
LINE
  5
6C
330
68
100
AcDbEntity
  8
0
 62
     0
100
AcDbLine
 10
-0.5
 20
0.5
 30
0.0
 11
-0.5
 21
-0.5
 31
0.0
  0
LINE
  5
6D
330
68
100
AcDbEntity
  8
0
 62
     0
100
AcDbLine
 10
-0.5
 20
0.0
 30
0.0
 11
-1.0
 21
0.0
 31
0.0
  0
ENDBLK
  5
6F
330
68
100
AcDbEntity
  8
0
100
AcDbBlockEnd
  0
BLOCK
  5
73
330
70
100
AcDbEntity
  8
0
100
AcDbBlockBegin
  2
_BOXFILLED
 70
     0
 10
0.0
 20
0.0
 30
0.0
  3
_BOXFILLED
  1

  0
SOLID
  5
71
330
70
100
AcDbEntity
  8
0
 62
     0
100
AcDbTrace
 10
-0.5
 20
0.5
 30
0.0
 11
0.5
 21
0.5
 31
0.0
 12
-0.5
 22
-0.5
 32
0.0
 13
0.5
 23
-0.5
 33
0.0
  0
LINE
  5
72
330
70
100
AcDbEntity
  8
0
 62
     0
100
AcDbLine
 10
-0.5
 20
0.0
 30
0.0
 11
-1.0
 21
0.0
 31
0.0
  0
ENDBLK
  5
74
330
70
100
AcDbEntity
  8
0
100
AcDbBlockEnd
  0
BLOCK
  5
78
330
75
100
AcDbEntity
  8
0
100
AcDbBlockBegin
  2
_INTEGRAL
 70
     0
 10
0.0
 20
0.0
 30
0.0
  3
_INTEGRAL
  1

  0
ARC
  5
76
330
75
100
AcDbEntity
  8
0
 62
     0
100
AcDbCircle
 10
0.444888
 20
-0.0913346
 30
0.0
 40
0.4541666
100
AcDbArc
 50
101.9999999999999
 51
167.9999999999998
  0
ARC
  5
77
330
75
100
AcDbEntity
  8
0
 62
     0
100
AcDbCircle
 10
-0.444888
 20
0.0913346
 30
0.0
 40
0.4541666
100
AcDbArc
 50
281.9999999999997
 51
347.9999999999997
  0
ENDBLK
  5
79
330
75
100
AcDbEntity
  8
0
100
AcDbBlockEnd
  0
BLOCK
  5
7C
330
7A
100
AcDbEntity
  8
0
100
AcDbBlockBegin
  2
_OBLIQUE
 70
     0
 10
0.0
 20
0.0
 30
0.0
  3
_OBLIQUE
  1

  0
LINE
  5
7B
330
7A
100
AcDbEntity
  8
0
 62
     0
100
AcDbLine
 10
-0.5
 20
-0.5
 30
0.0
 11
0.5
 21
0.5
 31
0.0
  0
ENDBLK
  5
7D
330
7A
100
AcDbEntity
  8
0
100
AcDbBlockEnd
  0
BLOCK
  5
7F
330
7E
100
AcDbEntity
  8
0
100
AcDbBlockBegin
  2
_NONE
 70
     0
 10
0.0
 20
0.0
 30
0.0
  3
_NONE
  1

  0
ENDBLK
  5
80
330
7E
100
AcDbEntity
  8
0
100
AcDbBlockEnd
  0
BLOCK
  5
84
330
81
100
AcDbEntity
  8
0
100
AcDbBlockBegin
  2
MARK_OPEN
 70
     0
 10
0.0
 20
0.0
 30
0.0
  3
MARK_OPEN
  1

  0
LINE
  5
82
330
81
100
AcDbEntity
  8
0
 62
     0
100
AcDbLine
 10
0.0
 20
0.0
 30
0.0
 11
-1.0
 21
0.1666666666666667
 31
0.0
  0
LINE
  5
83
330
81
100
AcDbEntity
  8
0
 62
     0
100
AcDbLine
 10
0.0
 20
0.0
 30
0.0
 11
-1.0
 21
-0.1666666666666667
 31
0.0
  0
ENDBLK
  5
85
330
81
100
AcDbEntity
  8
0
100
AcDbBlockEnd
  0
BLOCK
  5
88
330
86
100
AcDbEntity
  8
0
100
AcDbBlockBegin
  2
MARK_ORIGIN
 70
     0
 10
0.0
 20
0.0
 30
0.0
  3
MARK_ORIGIN
  1

  0
CIRCLE
  5
87
330
86
100
AcDbEntity
  8
0
 62
     0
100
AcDbCircle
 10
0.0
 20
0.0
 30
0.0
 40
0.5
  0
ENDBLK
  5
89
330
86
100
AcDbEntity
  8
0
100
AcDbBlockEnd
  0
BLOCK
  5
8C
330
8A
100
AcDbEntity
  8
0
100
AcDbBlockBegin
  2
MARK_DOT
 70
     0
 10
0.0
 20
0.0
 30
0.0
  3
MARK_DOT
  1

  0
LWPOLYLINE
  5
8B
330
8A
100
AcDbEntity
  8
0
 62
     0
100
AcDbPolyline
 90
        2
 70
     1
 43
0.5
 10
-0.25
 20
0.0
 42
1.0
 10
0.25
 20
0.0
 42
1.0
  0
ENDBLK
  5
8D
330
8A
100
AcDbEntity
  8
0
100
AcDbBlockEnd
  0
BLOCK
  5
160
330
15F
100
AcDbEntity
  8
0
100
AcDbBlockBegin
  2
DIM1
 70
     0
 10
0.0
 20
0.0
 30
0.0
  3
DIM1
  1

  0
LINE
  5
162
330
15F
100
AcDbEntity
  8
8
  6
CONTINUOUS
 62
     4
100
AcDbLine
 10
186.0778651379455
 20
158.8483800304773
 30
0.0
 11
186.0778651379455
 21
137.1983800304777
 31
0.0
  0
LINE
  5
163
330
15F
100
AcDbEntity
  8
8
  6
CONTINUOUS
 62
     4
100
AcDbLine
 10
311.0778651379446
 20
158.8483800304773
 30
0.0
 11
311.0778651379446
 21
137.1983800304777
 31
0.0
  0
LINE
  5
164
330
15F
100
AcDbEntity
  8
8
  6
CONTINUOUS
 62
     4
100
AcDbLine
 10
186.0778651379455
 20
139.4483800304777
 30
0.0
 11
311.0778651379446
 21
139.4483800304777
 31
0.0
  0
MTEXT
  5
165
330
15F
100
AcDbEntity
  8
8
  6
CONTINUOUS
 62
     4
100
AcDbMText
 10
248.577865137946
 20
139.4483800304777
 30
0.0
 40
4.5
 41
54.64285714285714
 71
     8
 72
     1
  1
125
  7
ＭＳ_ゴシック
1001
ACAD
1000
ACAD_MTEXT_DEFINED_HEIGHT_BEGIN
1070
    46
1040
4.5
1000
ACAD_MTEXT_DEFINED_HEIGHT_END
  0
INSERT
  5
166
330
15F
100
AcDbEntity
  8
8
  6
CONTINUOUS
 62
     4
100
AcDbBlockReference
  2
_ARROWFILLED
 10
186.0778651379455
 20
139.4483800304777
 30
0.0
 41
3.0
 42
3.0
 43
3.0
 50
179.9999999999998
  0
INSERT
  5
167
330
15F
100
AcDbEntity
  8
8
  6
CONTINUOUS
 62
     4
100
AcDbBlockReference
  2
_ARROWFILLED
 10
311.0778651379446
 20
139.4483800304777
 30
0.0
 41
3.0
 42
3.0
 43
3.0
 50
359.9999999999997
  0
ENDBLK
  5
161
330
15F
100
AcDbEntity
  8
0
100
AcDbBlockEnd
  0
BLOCK
  5
16A
330
169
100
AcDbEntity
  8
0
100
AcDbBlockBegin
  2
DIM2
 70
     0
 10
0.0
 20
0.0
 30
0.0
  3
DIM2
  1

  0
LINE
  5
16C
330
169
100
AcDbEntity
  8
8
  6
CONTINUOUS
 62
     4
100
AcDbLine
 10
98.57786513794554
 20
185.9483800304774
 30
0.0
 11
98.57786513794542
 21
125.1983800304777
 31
0.0
  0
LINE
  5
16D
330
169
100
AcDbEntity
  8
8
  6
CONTINUOUS
 62
     4
100
AcDbLine
 10
398.5778651379455
 20
185.9483800304774
 30
0.0
 11
398.5778651379454
 21
125.1983800304777
 31
0.0
  0
LINE
  5
16E
330
169
100
AcDbEntity
  8
8
  6
CONTINUOUS
 62
     4
100
AcDbLine
 10
98.57786513794542
 20
127.4483800304777
 30
0.0
 11
398.5778651379454
 21
127.4483800304777
 31
0.0
  0
MTEXT
  5
16F
330
169
100
AcDbEntity
  8
8
  6
CONTINUOUS
 62
     4
100
AcDbMText
 10
248.5778651379456
 20
127.4483800304777
 30
0.0
 40
4.5
 41
57.85714285714285
 71
     8
 72
     1
  1
300
  7
ＭＳ_ゴシック
1001
ACAD
1000
ACAD_MTEXT_DEFINED_HEIGHT_BEGIN
1070
    46
1040
4.5
1000
ACAD_MTEXT_DEFINED_HEIGHT_END
  0
INSERT
  5
170
330
169
100
AcDbEntity
  8
8
  6
CONTINUOUS
 62
     4
100
AcDbBlockReference
  2
_ARROWFILLED
 10
98.57786513794542
 20
127.4483800304777
 30
0.0
 41
3.0
 42
3.0
 43
3.0
 50
179.9999999999998
  0
INSERT
  5
171
330
169
100
AcDbEntity
  8
8
  6
CONTINUOUS
 62
     4
100
AcDbBlockReference
  2
_ARROWFILLED
 10
398.5778651379454
 20
127.4483800304777
 30
0.0
 41
3.0
 42
3.0
 43
3.0
 50
359.9999999999997
  0
ENDBLK
  5
16B
330
169
100
AcDbEntity
  8
0
100
AcDbBlockEnd
  0
BLOCK
  5
174
330
173
100
AcDbEntity
  8
0
100
AcDbBlockBegin
  2
DIM3
 70
     0
 10
0.0
 20
0.0
 30
0.0
  3
DIM3
  1

  0
LINE
  5
176
330
173
100
AcDbEntity
  8
8
  6
CONTINUOUS
 62
     4
100
AcDbLine
 10
83.57786513794554
 20
170.9483800304764
 30
0.0
 11
83.57786513794542
 21
113.1983800304777
 31
0.0
  0
LINE
  5
177
330
173
100
AcDbEntity
  8
8
  6
CONTINUOUS
 62
     4
100
AcDbLine
 10
413.5778651379455
 20
170.9483800304774
 30
0.0
 11
413.5778651379454
 21
113.1983800304777
 31
0.0
  0
LINE
  5
178
330
173
100
AcDbEntity
  8
8
  6
CONTINUOUS
 62
     4
100
AcDbLine
 10
83.57786513794542
 20
115.4483800304777
 30
0.0
 11
413.5778651379454
 21
115.4483800304777
 31
0.0
  0
MTEXT
  5
179
330
173
100
AcDbEntity
  8
8
  6
CONTINUOUS
 62
     4
100
AcDbMText
 10
248.5778651379455
 20
115.4483800304777
 30
0.0
 40
4.5
 41
57.85714285714285
 71
     8
 72
     1
  1
330
  7
ＭＳ_ゴシック
1001
ACAD
1000
ACAD_MTEXT_DEFINED_HEIGHT_BEGIN
1070
    46
1040
4.5
1000
ACAD_MTEXT_DEFINED_HEIGHT_END
  0
INSERT
  5
17A
330
173
100
AcDbEntity
  8
8
  6
CONTINUOUS
 62
     4
100
AcDbBlockReference
  2
_ARROWFILLED
 10
83.57786513794542
 20
115.4483800304777
 30
0.0
 41
3.0
 42
3.0
 43
3.0
 50
179.9999999999998
  0
INSERT
  5
17B
330
173
100
AcDbEntity
  8
8
  6
CONTINUOUS
 62
     4
100
AcDbBlockReference
  2
_ARROWFILLED
 10
413.5778651379454
 20
115.4483800304777
 30
0.0
 41
3.0
 42
3.0
 43
3.0
 50
359.9999999999997
  0
ENDBLK
  5
175
330
173
100
AcDbEntity
  8
0
100
AcDbBlockEnd
  0
BLOCK
  5
17E
330
17D
100
AcDbEntity
  8
0
100
AcDbBlockBegin
  2
DIM4
 70
     0
 10
0.0
 20
0.0
 30
0.0
  3
DIM4
  1

  0
LINE
  5
180
330
17D
100
AcDbEntity
  8
8
  6
CONTINUOUS
 62
     4
100
AcDbLine
 10
509.2311186706315
 20
170.9483800304774
 30
0.0
 11
509.2311186706314
 21
113.1983800304779
 31
0.0
  0
LINE
  5
181
330
17D
100
AcDbEntity
  8
8
  6
CONTINUOUS
 62
     4
100
AcDbLine
 10
554.2311186706315
 20
155.9483800304774
 30
0.0
 11
554.2311186706314
 21
113.1983800304779
 31
0.0
  0
LINE
  5
182
330
17D
100
AcDbEntity
  8
8
  6
CONTINUOUS
 62
     4
100
AcDbLine
 10
509.2311186706314
 20
115.4483800304779
 30
0.0
 11
554.2311186706314
 21
115.4483800304779
 31
0.0
  0
MTEXT
  5
183
330
17D
100
AcDbEntity
  8
8
  6
CONTINUOUS
 62
     4
100
AcDbMText
 10
531.7311186706315
 20
115.4483800304779
 30
0.0
 40
4.5
 41
36.42857142857143
 71
     8
 72
     1
  1
45
  7
ＭＳ_ゴシック
1001
ACAD
1000
ACAD_MTEXT_DEFINED_HEIGHT_BEGIN
1070
    46
1040
4.5
1000
ACAD_MTEXT_DEFINED_HEIGHT_END
  0
INSERT
  5
184
330
17D
100
AcDbEntity
  8
8
  6
CONTINUOUS
 62
     4
100
AcDbBlockReference
  2
_ARROWFILLED
 10
509.2311186706314
 20
115.4483800304779
 30
0.0
 41
3.0
 42
3.0
 43
3.0
 50
179.9999999999998
  0
INSERT
  5
185
330
17D
100
AcDbEntity
  8
8
  6
CONTINUOUS
 62
     4
100
AcDbBlockReference
  2
_ARROWFILLED
 10
554.2311186706314
 20
115.4483800304779
 30
0.0
 41
3.0
 42
3.0
 43
3.0
 50
359.9999999999997
  0
ENDBLK
  5
17F
330
17D
100
AcDbEntity
  8
0
100
AcDbBlockEnd
  0
BLOCK
  5
188
330
187
100
AcDbEntity
  8
0
100
AcDbBlockBegin
  2
DIM5
 70
     0
 10
0.0
 20
0.0
 30
0.0
  3
DIM5
  1

  0
LINE
  5
18A
330
187
100
AcDbEntity
  8
8
  6
CONTINUOUS
 62
     4
100
AcDbLine
 10
554.2311186706315
 20
155.9483800304774
 30
0.0
 11
554.2311186706315
 21
137.1983800304777
 31
0.0
  0
LINE
  5
18B
330
187
100
AcDbEntity
  8
8
  6
CONTINUOUS
 62
     4
100
AcDbLine
 10
553.2311186706297
 20
155.9483800304774
 30
0.0
 11
553.2311186706297
 21
137.1983800304777
 31
0.0
  0
LINE
  5
18C
330
187
100
AcDbEntity
  8
8
  6
CONTINUOUS
 62
     4
100
AcDbLine
 10
563.6061186706315
 20
139.4483800304777
 30
0.0
 11
547.2311186706297
 21
139.4483800304777
 31
0.0
  0
MTEXT
  5
18D
330
187
100
AcDbEntity
  8
8
  6
CONTINUOUS
 62
     4
100
AcDbMText
 10
561.3561186706315
 20
139.4483800304777
 30
0.0
 40
4.5
 41
5.357142857142858
 71
     7
 72
     1
  1
1
  7
ＭＳ_ゴシック
1001
ACAD
1000
ACAD_MTEXT_DEFINED_HEIGHT_BEGIN
1070
    46
1040
4.5
1000
ACAD_MTEXT_DEFINED_HEIGHT_END
  0
INSERT
  5
18E
330
187
100
AcDbEntity
  8
8
  6
CONTINUOUS
 62
     4
100
AcDbBlockReference
  2
_ARROWFILLED
 10
554.2311186706315
 20
139.4483800304777
 30
0.0
 41
3.0
 42
3.0
 43
3.0
 50
179.9999999999995
  0
INSERT
  5
18F
330
187
100
AcDbEntity
  8
8
  6
CONTINUOUS
 62
     4
100
AcDbBlockReference
  2
_ARROWFILLED
 10
553.2311186706297
 20
139.4483800304777
 30
0.0
 41
3.0
 42
3.0
 43
3.0
 50
359.9999999999997
  0
ENDBLK
  5
189
330
187
100
AcDbEntity
  8
0
100
AcDbBlockEnd
  0
BLOCK
  5
192
330
191
100
AcDbEntity
  8
0
100
AcDbBlockBegin
  2
DIM6
 70
     0
 10
0.0
 20
0.0
 30
0.0
  3
DIM6
  1

  0
LINE
  5
194
330
191
100
AcDbEntity
  8
8
  6
CONTINUOUS
 62
     4
100
AcDbLine
 10
97.07786513794554
 20
187.4483800304774
 30
0.0
 11
69.32786513794554
 21
187.4483800304774
 31
0.0
  0
LINE
  5
195
330
191
100
AcDbEntity
  8
8
  6
CONTINUOUS
 62
     4
100
AcDbLine
 10
97.07786513794554
 20
287.4483800304773
 30
0.0
 11
69.32786513794554
 21
287.4483800304774
 31
0.0
  0
LINE
  5
196
330
191
100
AcDbEntity
  8
8
  6
CONTINUOUS
 62
     4
100
AcDbLine
 10
71.57786513794554
 20
187.4483800304774
 30
0.0
 11
71.57786513794554
 21
287.4483800304774
 31
0.0
  0
MTEXT
  5
197
330
191
100
AcDbEntity
  8
8
  6
CONTINUOUS
 62
     4
100
AcDbMText
 10
71.57786513794554
 20
237.4483800304773
 30
0.0
 40
4.5
 41
54.64285714285714
 71
     8
 72
     1
  1
100
  7
ＭＳ_ゴシック
 11
1.615544574432587E-15
 21
1.0
 31
0.0
1001
ACAD
1000
ACAD_MTEXT_DEFINED_HEIGHT_BEGIN
1070
    46
1040
4.5
1000
ACAD_MTEXT_DEFINED_HEIGHT_END
  0
INSERT
  5
198
330
191
100
AcDbEntity
  8
8
  6
CONTINUOUS
 62
     4
100
AcDbBlockReference
  2
_ARROWFILLED
 10
71.57786513794554
 20
187.4483800304774
 30
0.0
 41
3.0
 42
3.0
 43
3.0
 50
269.9999999999998
  0
INSERT
  5
199
330
191
100
AcDbEntity
  8
8
  6
CONTINUOUS
 62
     4
100
AcDbBlockReference
  2
_ARROWFILLED
 10
71.57786513794554
 20
287.4483800304774
 30
0.0
 41
3.0
 42
3.0
 43
3.0
 50
89.99999999999991
  0
ENDBLK
  5
193
330
191
100
AcDbEntity
  8
0
100
AcDbBlockEnd
  0
BLOCK
  5
19C
330
19B
100
AcDbEntity
  8
0
100
AcDbBlockBegin
  2
DIM7
 70
     0
 10
0.0
 20
0.0
 30
0.0
  3
DIM7
  1

  0
LINE
  5
19E
330
19B
100
AcDbEntity
  8
8
  6
CONTINUOUS
 62
     4
100
AcDbLine
 10
82.07786513794554
 20
172.4483800304774
 30
0.0
 11
57.32786513794565
 21
172.4483800304774
 31
0.0
  0
LINE
  5
19F
330
19B
100
AcDbEntity
  8
8
  6
CONTINUOUS
 62
     4
100
AcDbLine
 10
82.07786513794554
 20
302.4483800304773
 30
0.0
 11
57.32786513794565
 21
302.4483800304774
 31
0.0
  0
LINE
  5
1A0
330
19B
100
AcDbEntity
  8
8
  6
CONTINUOUS
 62
     4
100
AcDbLine
 10
59.57786513794565
 20
172.4483800304774
 30
0.0
 11
59.57786513794565
 21
302.4483800304774
 31
0.0
  0
MTEXT
  5
1A1
330
19B
100
AcDbEntity
  8
8
  6
CONTINUOUS
 62
     4
100
AcDbMText
 10
59.57786513794565
 20
237.4483800304773
 30
0.0
 40
4.5
 41
54.64285714285714
 71
     8
 72
     1
  1
130
  7
ＭＳ_ゴシック
 11
1.615544574432587E-15
 21
1.0
 31
0.0
1001
ACAD
1000
ACAD_MTEXT_DEFINED_HEIGHT_BEGIN
1070
    46
1040
4.5
1000
ACAD_MTEXT_DEFINED_HEIGHT_END
  0
INSERT
  5
1A2
330
19B
100
AcDbEntity
  8
8
  6
CONTINUOUS
 62
     4
100
AcDbBlockReference
  2
_ARROWFILLED
 10
59.57786513794565
 20
172.4483800304774
 30
0.0
 41
3.0
 42
3.0
 43
3.0
 50
269.9999999999998
  0
INSERT
  5
1A3
330
19B
100
AcDbEntity
  8
8
  6
CONTINUOUS
 62
     4
100
AcDbBlockReference
  2
_ARROWFILLED
 10
59.57786513794565
 20
302.4483800304774
 30
0.0
 41
3.0
 42
3.0
 43
3.0
 50
89.99999999999991
  0
ENDBLK
  5
19D
330
19B
100
AcDbEntity
  8
0
100
AcDbBlockEnd
  0
BLOCK
  5
1A6
330
1A5
100
AcDbEntity
  8
0
100
AcDbBlockBegin
  2
DIM8
 70
     0
 10
0.0
 20
0.0
 30
0.0
  3
DIM8
  1

  0
LINE
  5
1A8
330
1A5
100
AcDbEntity
  8
8
  6
CONTINUOUS
 62
     4
100
AcDbLine
 10
117.9778651379455
 20
164.4483800304774
 30
0.0
 11
45.32786513794576
 21
164.4483800304776
 31
0.0
  0
LINE
  5
1A9
330
1A5
100
AcDbEntity
  8
8
  6
CONTINUOUS
 62
     4
100
AcDbLine
 10
117.9778651379455
 20
310.4483800304773
 30
0.0
 11
45.32786513794576
 21
310.4483800304776
 31
0.0
  0
LINE
  5
1AA
330
1A5
100
AcDbEntity
  8
8
  6
CONTINUOUS
 62
     4
100
AcDbLine
 10
47.57786513794576
 20
164.4483800304776
 30
0.0
 11
47.57786513794576
 21
310.4483800304776
 31
0.0
  0
MTEXT
  5
1AB
330
1A5
100
AcDbEntity
  8
8
  6
CONTINUOUS
 62
     4
100
AcDbMText
 10
47.57786513794576
 20
237.4483800304773
 30
0.0
 40
4.5
 41
54.64285714285714
 71
     8
 72
     1
  1
146
  7
ＭＳ_ゴシック
 11
1.615544574432587E-15
 21
1.0
 31
0.0
1001
ACAD
1000
ACAD_MTEXT_DEFINED_HEIGHT_BEGIN
1070
    46
1040
4.5
1000
ACAD_MTEXT_DEFINED_HEIGHT_END
  0
INSERT
  5
1AC
330
1A5
100
AcDbEntity
  8
8
  6
CONTINUOUS
 62
     4
100
AcDbBlockReference
  2
_ARROWFILLED
 10
47.57786513794576
 20
164.4483800304776
 30
0.0
 41
3.0
 42
3.0
 43
3.0
 50
269.9999999999998
  0
INSERT
  5
1AD
330
1A5
100
AcDbEntity
  8
8
  6
CONTINUOUS
 62
     4
100
AcDbBlockReference
  2
_ARROWFILLED
 10
47.57786513794576
 20
310.4483800304776
 30
0.0
 41
3.0
 42
3.0
 43
3.0
 50
89.99999999999991
  0
ENDBLK
  5
1A7
330
1A5
100
AcDbEntity
  8
0
100
AcDbBlockEnd
  0
BLOCK
  5
1B0
330
1AF
100
AcDbEntity
  8
0
100
AcDbBlockBegin
  2
DIM9
 70
     0
 10
0.0
 20
0.0
 30
0.0
  3
DIM9
  1

  0
LINE
  5
1B2
330
1AF
100
AcDbEntity
  8
8
  6
CONTINUOUS
 62
     4
100
AcDbLine
 10
102.0778651379446
 20
317.4483800304773
 30
0.0
 11
33.32786513794588
 21
317.4483800304776
 31
0.0
  0
LINE
  5
1B3
330
1AF
100
AcDbEntity
  8
8
  6
CONTINUOUS
 62
     4
100
AcDbLine
 10
102.0778651379446
 20
157.4483800304774
 30
0.0
 11
33.32786513794588
 21
157.4483800304776
 31
0.0
  0
LINE
  5
1B4
330
1AF
100
AcDbEntity
  8
8
  6
CONTINUOUS
 62
     4
100
AcDbLine
 10
35.57786513794588
 20
317.4483800304776
 30
0.0
 11
35.57786513794588
 21
157.4483800304776
 31
0.0
  0
MTEXT
  5
1B5
330
1AF
100
AcDbEntity
  8
8
  6
CONTINUOUS
 62
     4
100
AcDbMText
 10
35.57786513794588
 20
237.4483800304773
 30
0.0
 40
4.5
 41
54.64285714285714
 71
     8
 72
     1
  1
160
  7
ＭＳ_ゴシック
 11
1.615544574432587E-15
 21
1.0
 31
0.0
1001
ACAD
1000
ACAD_MTEXT_DEFINED_HEIGHT_BEGIN
1070
    46
1040
4.5
1000
ACAD_MTEXT_DEFINED_HEIGHT_END
  0
INSERT
  5
1B6
330
1AF
100
AcDbEntity
  8
8
  6
CONTINUOUS
 62
     4
100
AcDbBlockReference
  2
_ARROWFILLED
 10
35.57786513794588
 20
317.4483800304776
 30
0.0
 41
3.0
 42
3.0
 43
3.0
 50
89.99999999999991
  0
INSERT
  5
1B7
330
1AF
100
AcDbEntity
  8
8
  6
CONTINUOUS
 62
     4
100
AcDbBlockReference
  2
_ARROWFILLED
 10
35.57786513794588
 20
157.4483800304776
 30
0.0
 41
3.0
 42
3.0
 43
3.0
 50
269.9999999999998
  0
ENDBLK
  5
1B1
330
1AF
100
AcDbEntity
  8
0
100
AcDbBlockEnd
  0
BLOCK
  5
1BA
330
1B9
100
AcDbEntity
  8
0
100
AcDbBlockBegin
  2
DIM10
 70
     0
 10
0.0
 20
0.0
 30
0.0
  3
DIM10
  1

  0
LINE
  5
1BC
330
1B9
100
AcDbEntity
  8
8
  6
CONTINUOUS
 62
     4
100
AcDbLine
 10
431.5778651379455
 20
233.4483800304774
 30
0.0
 11
431.5778651379454
 21
113.1983800304778
 31
0.0
  0
LINE
  5
1BD
330
1B9
100
AcDbEntity
  8
8
  6
CONTINUOUS
 62
     4
100
AcDbLine
 10
413.5778651379455
 20
170.9483800304774
 30
0.0
 11
413.5778651379454
 21
113.1983800304778
 31
0.0
  0
LINE
  5
1BE
330
1B9
100
AcDbEntity
  8
8
  6
CONTINUOUS
 62
     4
100
AcDbLine
 10
446.5778651379456
 20
115.4483800304778
 30
0.0
 11
413.5778651379454
 21
115.4483800304778
 31
0.0
  0
MTEXT
  5
1BF
330
1B9
100
AcDbEntity
  8
8
  6
CONTINUOUS
 62
     4
100
AcDbMText
 10
437.5778651379456
 20
115.4483800304778
 30
0.0
 40
4.5
 41
64.28571428571428
 71
     7
 72
     1
  1
(18)
  7
ＭＳ_ゴシック
1001
ACAD
1000
ACAD_MTEXT_DEFINED_HEIGHT_BEGIN
1070
    46
1040
4.5
1000
ACAD_MTEXT_DEFINED_HEIGHT_END
  0
INSERT
  5
1C0
330
1B9
100
AcDbEntity
  8
8
  6
CONTINUOUS
 62
     4
100
AcDbBlockReference
  2
_ARROWFILLED
 10
431.5778651379454
 20
115.4483800304778
 30
0.0
 41
3.0
 42
3.0
 43
3.0
 50
359.9999999999997
  0
INSERT
  5
1C1
330
1B9
100
AcDbEntity
  8
8
  6
CONTINUOUS
 62
     4
100
AcDbBlockReference
  2
_ARROWFILLED
 10
413.5778651379454
 20
115.4483800304778
 30
0.0
 41
3.0
 42
3.0
 43
3.0
 50
179.9999999999998
  0
ENDBLK
  5
1BB
330
1B9
100
AcDbEntity
  8
0
100
AcDbBlockEnd
  0
BLOCK
  5
1C4
330
1C3
100
AcDbEntity
  8
0
100
AcDbBlockBegin
  2
DIM11
 70
     0
 10
0.0
 20
0.0
 30
0.0
  3
DIM11
  1

  0
LINE
  5
1C6
330
1C3
100
AcDbEntity
  8
8
  6
CONTINUOUS
 62
     4
100
AcDbLine
 10
554.2311186706315
 20
155.9483800304774
 30
0.0
 11
554.2311186706315
 21
125.1983800304777
 31
0.0
  0
LINE
  5
1C7
330
1C3
100
AcDbEntity
  8
8
  6
CONTINUOUS
 62
     4
100
AcDbLine
 10
533.802915440348
 20
235.9483800304774
 30
0.0
 11
533.8029154403478
 21
125.1983800304777
 31
0.0
  0
LINE
  5
1C8
330
1C3
100
AcDbEntity
  8
8
  6
CONTINUOUS
 62
     4
100
AcDbLine
 10
574.8561186706315
 20
127.4483800304777
 30
0.0
 11
533.8029154403478
 21
127.4483800304777
 31
0.0
  0
MTEXT
  5
1C9
330
1C3
100
AcDbEntity
  8
8
  6
CONTINUOUS
 62
     4
100
AcDbMText
 10
561.3561186706315
 20
127.4483800304777
 30
0.0
 40
4.5
 41
96.42857142857142
 71
     7
 72
     1
  1
(20.5)
  7
ＭＳ_ゴシック
1001
ACAD
1000
ACAD_MTEXT_DEFINED_HEIGHT_BEGIN
1070
    46
1040
4.5
1000
ACAD_MTEXT_DEFINED_HEIGHT_END
  0
INSERT
  5
1CA
330
1C3
100
AcDbEntity
  8
8
  6
CONTINUOUS
 62
     4
100
AcDbBlockReference
  2
_ARROWFILLED
 10
554.2311186706315
 20
127.4483800304777
 30
0.0
 41
3.0
 42
3.0
 43
3.0
 50
359.9999999999997
  0
INSERT
  5
1CB
330
1C3
100
AcDbEntity
  8
8
  6
CONTINUOUS
 62
     4
100
AcDbBlockReference
  2
_ARROWFILLED
 10
533.8029154403478
 20
127.4483800304777
 30
0.0
 41
3.0
 42
3.0
 43
3.0
 50
179.9999999999998
  0
ENDBLK
  5
1C5
330
1C3
100
AcDbEntity
  8
0
100
AcDbBlockEnd
  0
BLOCK
  5
1CE
330
1CD
100
AcDbEntity
  8
0
100
AcDbBlockBegin
  2
DIM12
 70
     0
 10
0.0
 20
0.0
 30
0.0
  3
DIM12
  1

  0
LINE
  5
1D0
330
1CD
100
AcDbEntity
  8
8
  6
CONTINUOUS
 62
     4
100
AcDbLine
 10
311.0778651379446
 20
158.8483800304773
 30
0.0
 11
311.0778651379446
 21
137.1983800304777
 31
0.0
  0
LINE
  5
1D1
330
1CD
100
AcDbEntity
  8
8
  6
CONTINUOUS
 62
     4
100
AcDbLine
 10
373.5778651379455
 20
158.8483800304773
 30
0.0
 11
373.5778651379455
 21
137.1983800304777
 31
0.0
  0
LINE
  5
1D2
330
1CD
100
AcDbEntity
  8
8
  6
CONTINUOUS
 62
     4
100
AcDbLine
 10
311.0778651379446
 20
139.4483800304777
 30
0.0
 11
373.5778651379455
 21
139.4483800304777
 31
0.0
  0
MTEXT
  5
1D3
330
1CD
100
AcDbEntity
  8
8
  6
CONTINUOUS
 62
     4
100
AcDbMText
 10
342.3278651379452
 20
139.4483800304777
 30
0.0
 40
4.5
 41
67.49999999999999
 71
     8
 72
     1
  1
62.5
  7
ＭＳ_ゴシック
1001
ACAD
1000
ACAD_MTEXT_DEFINED_HEIGHT_BEGIN
1070
    46
1040
4.5
1000
ACAD_MTEXT_DEFINED_HEIGHT_END
  0
INSERT
  5
1D4
330
1CD
100
AcDbEntity
  8
8
  6
CONTINUOUS
 62
     4
100
AcDbBlockReference
  2
_ARROWFILLED
 10
311.0778651379446
 20
139.4483800304777
 30
0.0
 41
3.0
 42
3.0
 43
3.0
 50
179.9999999999998
  0
INSERT
  5
1D5
330
1CD
100
AcDbEntity
  8
8
  6
CONTINUOUS
 62
     4
100
AcDbBlockReference
  2
_ARROWFILLED
 10
373.5778651379455
 20
139.4483800304777
 30
0.0
 41
3.0
 42
3.0
 43
3.0
 50
359.9999999999997
  0
ENDBLK
  5
1CF
330
1CD
100
AcDbEntity
  8
0
100
AcDbBlockEnd
  0
BLOCK
  5
1D8
330
1D7
100
AcDbEntity
  8
0
100
AcDbBlockBegin
  2
DIM13
 70
     0
 10
0.0
 20
0.0
 30
0.0
  3
DIM13
  1

  0
LINE
  5
1DA
330
1D7
100
AcDbEntity
  8
8
  6
CONTINUOUS
 62
     4
100
AcDbLine
 10
123.5778651379455
 20
158.8483800304773
 30
0.0
 11
123.5778651379455
 21
137.1983800304778
 31
0.0
  0
LINE
  5
1DB
330
1D7
100
AcDbEntity
  8
8
  6
CONTINUOUS
 62
     4
100
AcDbLine
 10
186.0778651379464
 20
158.8483800304773
 30
0.0
 11
186.0778651379464
 21
137.1983800304778
 31
0.0
  0
LINE
  5
1DC
330
1D7
100
AcDbEntity
  8
8
  6
CONTINUOUS
 62
     4
100
AcDbLine
 10
123.5778651379455
 20
139.4483800304778
 30
0.0
 11
186.0778651379464
 21
139.4483800304778
 31
0.0
  0
MTEXT
  5
1DD
330
1D7
100
AcDbEntity
  8
8
  6
CONTINUOUS
 62
     4
100
AcDbMText
 10
154.8278651379461
 20
139.4483800304778
 30
0.0
 40
4.5
 41
67.49999999999999
 71
     8
 72
     1
  1
62.5
  7
ＭＳ_ゴシック
1001
ACAD
1000
ACAD_MTEXT_DEFINED_HEIGHT_BEGIN
1070
    46
1040
4.5
1000
ACAD_MTEXT_DEFINED_HEIGHT_END
  0
INSERT
  5
1DE
330
1D7
100
AcDbEntity
  8
8
  6
CONTINUOUS
 62
     4
100
AcDbBlockReference
  2
_ARROWFILLED
 10
123.5778651379455
 20
139.4483800304778
 30
0.0
 41
3.0
 42
3.0
 43
3.0
 50
179.9999999999998
  0
INSERT
  5
1DF
330
1D7
100
AcDbEntity
  8
8
  6
CONTINUOUS
 62
     4
100
AcDbBlockReference
  2
_ARROWFILLED
 10
186.0778651379464
 20
139.4483800304778
 30
0.0
 41
3.0
 42
3.0
 43
3.0
 50
359.9999999999997
  0
ENDBLK
  5
1D9
330
1D7
100
AcDbEntity
  8
0
100
AcDbBlockEnd
  0
BLOCK
  5
1E2
330
1E1
100
AcDbEntity
  8
0
100
AcDbBlockBegin
  2
DIM14
 70
     0
 10
0.0
 20
0.0
 30
0.0
  3
DIM14
  1

  0
LINE
  5
1E4
330
1E1
100
AcDbEntity
  8
8
  6
CONTINUOUS
 62
     4
100
AcDbLine
 10
259.2068050532183
 20
206.7355873167321
 30
0.0
 11
208.9880368450284
 21
351.8449425875762
 31
0.0
  0
MTEXT
  5
1E5
330
1E1
100
AcDbEntity
  8
8
  6
CONTINUOUS
 62
     4
100
AcDbMText
 10
211.9314355907963
 20
343.339861528385
 30
0.0
 40
4.5
 41
55.71428571428571
 71
     9
 72
     1
  1
φ65
  7
ＭＳ_ゴシック
 11
0.327044305085322
 21
-0.9450090065767939
 31
0.0
1001
ACAD
1000
ACAD_MTEXT_DEFINED_HEIGHT_BEGIN
1070
    46
1040
4.5
1000
ACAD_MTEXT_DEFINED_HEIGHT_END
  0
INSERT
  5
1E6
330
1E1
100
AcDbEntity
  8
8
  6
CONTINUOUS
 62
     4
100
AcDbBlockReference
  2
_ARROWFILLED
 10
259.2068050532183
 20
206.7355873167321
 30
0.0
 41
3.0
 42
3.0
 43
3.0
 50
289.0894746890005
  0
INSERT
  5
1E7
330
1E1
100
AcDbEntity
  8
8
  6
CONTINUOUS
 62
     4
100
AcDbBlockReference
  2
_ARROWFILLED
 10
237.9489252226727
 20
268.1611727442234
 30
0.0
 41
3.0
 42
3.0
 43
3.0
 50
109.0894746890005
  0
ENDBLK
  5
1E3
330
1E1
100
AcDbEntity
  8
0
100
AcDbBlockEnd
  0
BLOCK
  5
1EA
330
1E9
100
AcDbEntity
  8
0
100
AcDbBlockBegin
  2
DIM15
 70
     0
 10
0.0
 20
0.0
 30
0.0
  3
DIM15
  1

  0
LINE
  5
1EC
330
1E9
100
AcDbEntity
  8
8
  6
CONTINUOUS
 62
     4
100
AcDbLine
 10
264.468099970653
 20
215.0039946086976
 30
0.0
 11
180.4245218023303
 21
333.7125272700709
 31
0.0
  0
MTEXT
  5
1ED
330
1E9
100
AcDbEntity
  8
8
  6
CONTINUOUS
 62
     4
100
AcDbMText
 10
185.6249622930337
 20
326.3670920411241
 30
0.0
 40
4.5
 41
55.71428571428571
 71
     9
 72
     1
  1
φ55
  7
ＭＳ_ゴシック
 11
0.5778267211893613
 21
-0.8161594698829097
 31
0.0
1001
ACAD
1000
ACAD_MTEXT_DEFINED_HEIGHT_BEGIN
1070
    46
1040
4.5
1000
ACAD_MTEXT_DEFINED_HEIGHT_END
  0
INSERT
  5
1EE
330
1E9
100
AcDbEntity
  8
8
  6
CONTINUOUS
 62
     4
100
AcDbBlockReference
  2
_ARROWFILLED
 10
264.468099970653
 20
215.0039946086976
 30
0.0
 41
3.0
 42
3.0
 43
3.0
 50
305.2978305142594
  0
INSERT
  5
1EF
330
1E9
100
AcDbEntity
  8
8
  6
CONTINUOUS
 62
     4
100
AcDbBlockReference
  2
_ARROWFILLED
 10
232.6876303052388
 20
259.892765452257
 30
0.0
 41
3.0
 42
3.0
 43
3.0
 50
125.2978305142594
  0
ENDBLK
  5
1EB
330
1E9
100
AcDbEntity
  8
0
100
AcDbBlockEnd
  0
ENDSEC
  0
SECTION
  2
ENTITIES
  0
LINE
  5
A1
330
1F
100
AcDbEntity
  8
9
  6
CONTINUOUS
 62
     7
100
AcDbLine
 10
398.5778651379455
 20
187.4483800304774
 30
0.0
 11
398.5778651379455
 21
287.4483800304773
 31
0.0
  0
LINE
  5
A2
330
1F
100
AcDbEntity
  8
9
  6
CONTINUOUS
 62
     7
100
AcDbLine
 10
398.5778651379455
 20
287.4483800304773
 30
0.0
 11
98.57786513794554
 21
287.4483800304773
 31
0.0
  0
LINE
  5
A3
330
1F
100
AcDbEntity
  8
9
  6
CONTINUOUS
 62
     7
100
AcDbLine
 10
98.57786513794554
 20
287.4483800304773
 30
0.0
 11
98.57786513794554
 21
187.4483800304774
 31
0.0
  0
LINE
  5
A4
330
1F
100
AcDbEntity
  8
9
  6
CONTINUOUS
 62
     7
100
AcDbLine
 10
413.5778651379455
 20
302.4483800304773
 30
0.0
 11
413.5778651379455
 21
172.4483800304774
 31
0.0
  0
LINE
  5
A5
330
1F
100
AcDbEntity
  8
9
  6
CONTINUOUS
 62
     7
100
AcDbLine
 10
413.5778651379455
 20
172.4483800304774
 30
0.0
 11
83.57786513794554
 21
172.4483800304764
 31
0.0
  0
LINE
  5
A6
330
1F
100
AcDbEntity
  8
9
  6
CONTINUOUS
 62
     7
100
AcDbLine
 10
413.5778651379455
 20
302.4483800304773
 30
0.0
 11
83.57786513794554
 21
302.4483800304773
 31
0.0
  0
LINE
  5
A7
330
1F
100
AcDbEntity
  8
9
  6
CONTINUOUS
 62
     7
100
AcDbLine
 10
83.57786513794554
 20
302.4483800304773
 30
0.0
 11
83.57786513794554
 21
172.4483800304764
 31
0.0
  0
LINE
  5
A8
330
1F
100
AcDbEntity
  8
9
  6
CONTINUOUS
 62
     7
100
AcDbLine
 10
547.6811186706313
 20
172.1317133638107
 30
0.0
 11
540.7811186706308
 21
172.1317133638107
 31
0.0
  0
ARC
  5
A9
330
1F
100
AcDbEntity
  8
9
  6
CONTINUOUS
 62
     7
100
AcDbCircle
 10
544.2311186706315
 20
175.0987309076703
 30
0.0
 40
4.550350877192955
100
AcDbArc
 50
220.6956985254003
 51
319.304301474599
  0
LINE
  5
AA
330
1F
100
AcDbEntity
  8
9
  6
CONTINUOUS
 62
     7
100
AcDbLine
 10
547.6811186706313
 20
172.4483800304774
 30
0.0
 11
547.6811186706313
 21
172.1317133638107
 31
0.0
  0
LINE
  5
AB
330
1F
100
AcDbEntity
  8
9
  6
CONTINUOUS
 62
     7
100
AcDbLine
 10
540.7811186706308
 20
172.4483800304774
 30
0.0
 11
540.7811186706308
 21
172.1317133638107
 31
0.0
  0
LINE
  5
AC
330
1F
100
AcDbEntity
  8
9
  6
CONTINUOUS
 62
     7
100
AcDbLine
 10
509.2311186706315
 20
302.4483800304773
 30
0.0
 11
509.2311186706315
 21
172.4483800304774
 31
0.0
  0
LINE
  5
AD
330
1F
100
AcDbEntity
  8
9
  6
CONTINUOUS
 62
     7
100
AcDbLine
 10
554.2311186706315
 20
317.4483800304773
 30
0.0
 11
554.2311186706315
 21
157.4483800304774
 31
0.0
  0
LINE
  5
AE
330
1F
100
AcDbEntity
  8
9
  6
CONTINUOUS
 62
     7
100
AcDbLine
 10
553.2311186706315
 20
317.4483800304773
 30
0.0
 11
553.2311186706306
 21
244.9483800304774
 31
0.0
  0
LINE
  5
AF
330
1F
100
AcDbEntity
  8
9
  6
CONTINUOUS
 62
     7
100
AcDbLine
 10
553.2311186706306
 20
229.9483800304803
 30
0.0
 11
553.2311186706306
 21
157.4483800304774
 31
0.0
  0
LINE
  5
B0
330
1F
100
AcDbEntity
  8
9
  6
CONTINUOUS
 62
     7
100
AcDbLine
 10
509.2311186706315
 20
302.4483800304773
 30
0.0
 11
553.2311186706315
 21
302.4483800304756
 31
0.0
  0
LINE
  5
B1
330
1F
100
AcDbEntity
  8
9
  6
CONTINUOUS
 62
     7
100
AcDbLine
 10
553.2311186706315
 20
301.4483800304756
 30
0.0
 11
554.2311186706315
 21
301.4483800304756
 31
0.0
  0
LINE
  5
B2
330
1F
100
AcDbEntity
  8
9
  6
CONTINUOUS
 62
     7
100
AcDbLine
 10
553.2311186706315
 20
317.4483800304772
 30
0.0
 11
554.2311186706315
 21
317.4483800304772
 31
0.0
  0
LINE
  5
B3
330
1F
100
AcDbEntity
  8
9
  6
CONTINUOUS
 62
     7
100
AcDbLine
 10
509.2311186706315
 20
172.4483800304774
 30
0.0
 11
553.2311186706297
 21
172.4483800304774
 31
0.0
  0
LINE
  5
B4
330
1F
100
AcDbEntity
  8
9
  6
CONTINUOUS
 62
     7
100
AcDbLine
 10
553.2311186706297
 20
173.4483800304774
 30
0.0
 11
554.2311186706315
 21
173.4483800304774
 31
0.0
  0
LINE
  5
B5
330
1F
100
AcDbEntity
  8
9
  6
CONTINUOUS
 62
     7
100
AcDbLine
 10
553.2311186706315
 20
157.4483800304774
 30
0.0
 11
554.2311186706315
 21
157.4483800304774
 31
0.0
  0
LINE
  5
B6
330
1F
100
AcDbEntity
  8
9
  6
CONTINUOUS
 62
     7
100
AcDbLine
 10
398.5778651379455
 20
162.4483800304774
 30
0.0
 11
398.5778651379455
 21
172.4483800304774
 31
0.0
  0
ARC
  5
B7
330
1F
100
AcDbEntity
  8
9
  6
CONTINUOUS
 62
     7
100
AcDbCircle
 10
393.5778651379464
 20
162.4483800304774
 30
0.0
 40
5.0
100
AcDbArc
 50
269.9999999999998
 51
0.0
  0
LINE
  5
B8
330
1F
100
AcDbEntity
  8
9
  6
CONTINUOUS
 62
     7
100
AcDbLine
 10
103.5778651379455
 20
157.4483800304774
 30
0.0
 11
393.5778651379464
 21
157.4483800304782
 31
0.0
  0
LINE
  5
B9
330
1F
100
AcDbEntity
  8
9
  6
CONTINUOUS
 62
     7
100
AcDbLine
 10
98.57786513794554
 20
162.4483800304774
 30
0.0
 11
98.57786513794554
 21
172.4483800304774
 31
0.0
  0
ARC
  5
BA
330
1F
100
AcDbEntity
  8
9
  6
CONTINUOUS
 62
     7
100
AcDbCircle
 10
103.5778651379446
 20
162.4483800304774
 30
0.0
 40
5.0
100
AcDbArc
 50
179.9999999999998
 51
269.9999999999998
  0
LINE
  5
BB
330
1F
100
AcDbEntity
  8
9
  6
CONTINUOUS
 62
     7
100
AcDbLine
 10
97.02786513794723
 20
172.1317133638107
 30
0.0
 11
90.12786513794754
 21
172.1317133638107
 31
0.0
  0
ARC
  5
BC
330
1F
100
AcDbEntity
  8
9
  6
CONTINUOUS
 62
     7
100
AcDbCircle
 10
93.5778651379473
 20
175.0987309076703
 30
0.0
 40
4.550350877192983
100
AcDbArc
 50
220.6956985254003
 51
319.304301474599
  0
LINE
  5
BD
330
1F
100
AcDbEntity
  8
9
  6
CONTINUOUS
 62
     7
100
AcDbLine
 10
97.02786513794723
 20
172.4483800304774
 30
0.0
 11
97.02786513794723
 21
172.1317133638107
 31
0.0
  0
LINE
  5
BE
330
1F
100
AcDbEntity
  8
9
  6
CONTINUOUS
 62
     7
100
AcDbLine
 10
90.12786513794754
 20
172.4483800304774
 30
0.0
 11
90.12786513794754
 21
172.1317133638107
 31
0.0
  0
LINE
  5
BF
330
1F
100
AcDbEntity
  8
9
  6
CONTINUOUS
 62
     7
100
AcDbLine
 10
118.5278651379472
 20
172.1317133638107
 30
0.0
 11
111.6278651379466
 21
172.1317133638107
 31
0.0
  0
ARC
  5
C0
330
1F
100
AcDbEntity
  8
9
  6
CONTINUOUS
 62
     7
100
AcDbCircle
 10
115.0778651379474
 20
175.0987309076703
 30
0.0
 40
4.550350877192983
100
AcDbArc
 50
220.6956985254003
 51
319.304301474599
  0
LINE
  5
C1
330
1F
100
AcDbEntity
  8
9
  6
CONTINUOUS
 62
     7
100
AcDbLine
 10
118.5278651379472
 20
172.4483800304774
 30
0.0
 11
118.5278651379472
 21
172.1317133638107
 31
0.0
  0
LINE
  5
C2
330
1F
100
AcDbEntity
  8
9
  6
CONTINUOUS
 62
     7
100
AcDbLine
 10
111.6278651379466
 20
172.4483800304774
 30
0.0
 11
111.6278651379466
 21
172.1317133638107
 31
0.0
  0
LINE
  5
C3
330
1F
100
AcDbEntity
  8
9
  6
CONTINUOUS
 62
     7
100
AcDbLine
 10
400.1278651379439
 20
172.1317133638107
 30
0.0
 11
407.0278651379444
 21
172.1317133638107
 31
0.0
  0
ARC
  5
C4
330
1F
100
AcDbEntity
  8
9
  6
CONTINUOUS
 62
     7
100
AcDbCircle
 10
403.5778651379437
 20
175.0987309076703
 30
0.0
 40
4.550350877192955
100
AcDbArc
 50
220.6956985254003
 51
319.304301474599
  0
LINE
  5
C5
330
1F
100
AcDbEntity
  8
9
  6
CONTINUOUS
 62
     7
100
AcDbLine
 10
400.1278651379439
 20
172.4483800304774
 30
0.0
 11
400.1278651379439
 21
172.1317133638107
 31
0.0
  0
LINE
  5
C6
330
1F
100
AcDbEntity
  8
9
  6
CONTINUOUS
 62
     7
100
AcDbLine
 10
407.0278651379444
 20
172.4483800304774
 30
0.0
 11
407.0278651379444
 21
172.1317133638107
 31
0.0
  0
LINE
  5
C7
330
1F
100
AcDbEntity
  8
9
  6
CONTINUOUS
 62
     7
100
AcDbLine
 10
378.6278651379448
 20
172.1317133638107
 30
0.0
 11
385.5278651379444
 21
172.1317133638107
 31
0.0
  0
ARC
  5
C8
330
1F
100
AcDbEntity
  8
9
  6
CONTINUOUS
 62
     7
100
AcDbCircle
 10
382.0778651379446
 20
175.0987309076703
 30
0.0
 40
4.550350877192955
100
AcDbArc
 50
220.6956985254003
 51
319.304301474599
  0
LINE
  5
C9
330
1F
100
AcDbEntity
  8
9
  6
CONTINUOUS
 62
     7
100
AcDbLine
 10
378.6278651379448
 20
172.4483800304774
 30
0.0
 11
378.6278651379448
 21
172.1317133638107
 31
0.0
  0
LINE
  5
CA
330
1F
100
AcDbEntity
  8
9
  6
CONTINUOUS
 62
     7
100
AcDbLine
 10
385.5278651379444
 20
172.4483800304774
 30
0.0
 11
385.5278651379444
 21
172.1317133638107
 31
0.0
  0
LINE
  5
CB
330
1F
100
AcDbEntity
  8
3
  6
DASHDOT
 62
     1
100
AcDbLine
 10
248.5778651379457
 20
152.4483800304776
 30
0.0
 11
248.5778651379454
 21
322.4483800304768
 31
0.0
  0
LINE
  5
CC
330
1F
100
AcDbEntity
  8
3
  6
DASHDOT
 62
     1
100
AcDbLine
 10
419.0778651379455
 20
237.4483800304774
 30
0.0
 11
78.57786513794554
 21
237.4483800304772
 31
0.0
  0
LINE
  5
CD
330
1F
100
AcDbEntity
  8
9
  6
CONTINUOUS
 62
     7
100
AcDbLine
 10
547.6811186706313
 20
302.4483800304768
 30
0.0
 11
540.7811186706308
 21
302.4483800304768
 31
0.0
  0
LINE
  5
CE
330
1F
100
AcDbEntity
  8
9
  6
CONTINUOUS
 62
     7
100
AcDbLine
 10
547.6811186706313
 20
302.7650466971438
 30
0.0
 11
540.7811186706308
 21
302.7650466971438
 31
0.0
  0
ARC
  5
CF
330
1F
100
AcDbEntity
  8
9
  6
CONTINUOUS
 62
     7
100
AcDbCircle
 10
544.2311186706315
 20
299.7980291532837
 30
0.0
 40
4.550350877192955
100
AcDbArc
 50
40.69569852540071
 51
139.3043014745993
  0
LINE
  5
D0
330
1F
100
AcDbEntity
  8
9
  6
CONTINUOUS
 62
     7
100
AcDbLine
 10
547.6811186706313
 20
302.4483800304768
 30
0.0
 11
547.6811186706313
 21
302.7650466971438
 31
0.0
  0
LINE
  5
D1
330
1F
100
AcDbEntity
  8
9
  6
CONTINUOUS
 62
     7
100
AcDbLine
 10
540.7811186706308
 20
302.4483800304768
 30
0.0
 11
540.7811186706308
 21
302.7650466971438
 31
0.0
  0
LINE
  5
D2
330
1F
100
AcDbEntity
  8
9
  6
CONTINUOUS
 62
     7
100
AcDbLine
 10
398.5778651379455
 20
187.4483800304774
 30
0.0
 11
98.57786513794554
 21
187.4483800304774
 31
0.0
  0
LINE
  5
D3
330
1F
100
AcDbEntity
  8
9
  6
CONTINUOUS
 62
     7
100
AcDbLine
 10
398.5778651379455
 20
312.4483800304773
 30
0.0
 11
398.5778651379455
 21
302.4483800304773
 31
0.0
  0
ARC
  5
D4
330
1F
100
AcDbEntity
  8
9
  6
CONTINUOUS
 62
     7
100
AcDbCircle
 10
393.5778651379464
 20
312.4483800304773
 30
0.0
 40
5.0
100
AcDbArc
 50
0.0
 51
89.99999999999991
  0
LINE
  5
D5
330
1F
100
AcDbEntity
  8
9
  6
CONTINUOUS
 62
     7
100
AcDbLine
 10
103.5778651379455
 20
317.4483800304773
 30
0.0
 11
393.5778651379464
 21
317.4483800304764
 31
0.0
  0
LINE
  5
D6
330
1F
100
AcDbEntity
  8
9
  6
CONTINUOUS
 62
     7
100
AcDbLine
 10
98.57786513794554
 20
312.4483800304773
 30
0.0
 11
98.57786513794554
 21
302.4483800304773
 31
0.0
  0
ARC
  5
D7
330
1F
100
AcDbEntity
  8
9
  6
CONTINUOUS
 62
     7
100
AcDbCircle
 10
103.5778651379446
 20
312.4483800304773
 30
0.0
 40
5.0
100
AcDbArc
 50
89.99999999999991
 51
179.9999999999998
  0
LINE
  5
D8
330
1F
100
AcDbEntity
  8
9
  6
CONTINUOUS
 62
     7
100
AcDbLine
 10
97.02786513794723
 20
302.7650466971439
 30
0.0
 11
90.12786513794754
 21
302.7650466971439
 31
0.0
  0
ARC
  5
D9
330
1F
100
AcDbEntity
  8
9
  6
CONTINUOUS
 62
     7
100
AcDbCircle
 10
93.5778651379473
 20
299.7980291532845
 30
0.0
 40
4.550350877192983
100
AcDbArc
 50
40.69569852540071
 51
139.3043014745993
  0
LINE
  5
DA
330
1F
100
AcDbEntity
  8
9
  6
CONTINUOUS
 62
     7
100
AcDbLine
 10
97.02786513794723
 20
302.4483800304773
 30
0.0
 11
97.02786513794723
 21
302.7650466971439
 31
0.0
  0
LINE
  5
DB
330
1F
100
AcDbEntity
  8
9
  6
CONTINUOUS
 62
     7
100
AcDbLine
 10
90.12786513794754
 20
302.4483800304773
 30
0.0
 11
90.12786513794754
 21
302.7650466971439
 31
0.0
  0
LINE
  5
DC
330
1F
100
AcDbEntity
  8
9
  6
CONTINUOUS
 62
     7
100
AcDbLine
 10
118.5278651379472
 20
302.7650466971439
 30
0.0
 11
111.6278651379466
 21
302.7650466971439
 31
0.0
  0
ARC
  5
DD
330
1F
100
AcDbEntity
  8
9
  6
CONTINUOUS
 62
     7
100
AcDbCircle
 10
115.0778651379474
 20
299.7980291532845
 30
0.0
 40
4.550350877192983
100
AcDbArc
 50
40.69569852540071
 51
139.3043014745993
  0
LINE
  5
DE
330
1F
100
AcDbEntity
  8
9
  6
CONTINUOUS
 62
     7
100
AcDbLine
 10
118.5278651379472
 20
302.4483800304773
 30
0.0
 11
118.5278651379472
 21
302.7650466971439
 31
0.0
  0
LINE
  5
DF
330
1F
100
AcDbEntity
  8
9
  6
CONTINUOUS
 62
     7
100
AcDbLine
 10
111.6278651379466
 20
302.4483800304773
 30
0.0
 11
111.6278651379466
 21
302.7650466971439
 31
0.0
  0
LINE
  5
E0
330
1F
100
AcDbEntity
  8
9
  6
CONTINUOUS
 62
     7
100
AcDbLine
 10
400.1278651379439
 20
302.7650466971439
 30
0.0
 11
407.0278651379444
 21
302.7650466971439
 31
0.0
  0
ARC
  5
E1
330
1F
100
AcDbEntity
  8
9
  6
CONTINUOUS
 62
     7
100
AcDbCircle
 10
403.5778651379437
 20
299.7980291532845
 30
0.0
 40
4.550350877192955
100
AcDbArc
 50
40.69569852540071
 51
139.3043014745993
  0
LINE
  5
E2
330
1F
100
AcDbEntity
  8
9
  6
CONTINUOUS
 62
     7
100
AcDbLine
 10
400.1278651379439
 20
302.4483800304773
 30
0.0
 11
400.1278651379439
 21
302.7650466971439
 31
0.0
  0
LINE
  5
E3
330
1F
100
AcDbEntity
  8
9
  6
CONTINUOUS
 62
     7
100
AcDbLine
 10
407.0278651379444
 20
302.4483800304773
 30
0.0
 11
407.0278651379444
 21
302.7650466971439
 31
0.0
  0
LINE
  5
E4
330
1F
100
AcDbEntity
  8
9
  6
CONTINUOUS
 62
     7
100
AcDbLine
 10
378.6278651379448
 20
302.7650466971439
 30
0.0
 11
385.5278651379444
 21
302.7650466971439
 31
0.0
  0
ARC
  5
E5
330
1F
100
AcDbEntity
  8
9
  6
CONTINUOUS
 62
     7
100
AcDbCircle
 10
382.0778651379446
 20
299.7980291532845
 30
0.0
 40
4.550350877192955
100
AcDbArc
 50
40.69569852540071
 51
139.3043014745993
  0
LINE
  5
E6
330
1F
100
AcDbEntity
  8
9
  6
CONTINUOUS
 62
     7
100
AcDbLine
 10
378.6278651379448
 20
302.4483800304773
 30
0.0
 11
378.6278651379448
 21
302.7650466971439
 31
0.0
  0
LINE
  5
E7
330
1F
100
AcDbEntity
  8
9
  6
CONTINUOUS
 62
     7
100
AcDbLine
 10
385.5278651379444
 20
302.4483800304773
 30
0.0
 11
385.5278651379444
 21
302.7650466971439
 31
0.0
  0
POLYLINE
  5
E8
330
1F
100
AcDbEntity
  8
9
  6
CONTINUOUS
 62
     7
100
AcDb2dPolyline
 66
     1
 10
0.0
 20
0.0
 30
0.0
  0
VERTEX
  5
E9
330
E8
100
AcDbEntity
  8
9
  6
CONTINUOUS
 62
     7
100
AcDbVertex
100
AcDb2dVertex
 10
544.1952202857606
 20
243.4483800304774
 30
0.0
  0
VERTEX
  5
EA
330
E8
100
AcDbEntity
  8
9
  6
CONTINUOUS
 62
     7
100
AcDbVertex
100
AcDb2dVertex
 10
547.6593219008987
 20
237.4483800304774
 30
0.0
  0
VERTEX
  5
EB
330
E8
100
AcDbEntity
  8
9
  6
CONTINUOUS
 62
     7
100
AcDbVertex
100
AcDb2dVertex
 10
544.1952202857606
 20
231.4483800304774
 30
0.0
  0
VERTEX
  5
EC
330
E8
100
AcDbEntity
  8
9
  6
CONTINUOUS
 62
     7
100
AcDbVertex
100
AcDb2dVertex
 10
537.2670170554852
 20
231.4483800304774
 30
0.0
  0
VERTEX
  5
ED
330
E8
100
AcDbEntity
  8
9
  6
CONTINUOUS
 62
     7
100
AcDbVertex
100
AcDb2dVertex
 10
533.802915440348
 20
237.4483800304774
 30
0.0
  0
VERTEX
  5
EE
330
E8
100
AcDbEntity
  8
9
  6
CONTINUOUS
 62
     7
100
AcDbVertex
100
AcDb2dVertex
 10
537.2670170554852
 20
243.4483800304774
 30
0.0
  0
VERTEX
  5
EF
330
E8
100
AcDbEntity
  8
9
  6
CONTINUOUS
 62
     7
100
AcDbVertex
100
AcDb2dVertex
 10
544.1952202857606
 20
243.4483800304774
 30
0.0
  0
SEQEND
  5
F0
330
E8
100
AcDbEntity
  8
9
  6
CONTINUOUS
 62
     7
  0
CIRCLE
  5
F1
330
1F
100
AcDbEntity
  8
9
  6
CONTINUOUS
 62
     7
100
AcDbCircle
 10
540.7311186706224
 20
237.4483800304774
 30
0.0
 40
1.849999999990359
  0
CIRCLE
  5
F2
330
1F
100
AcDbEntity
  8
9
  6
CONTINUOUS
 62
     7
100
AcDbCircle
 10
540.7311186706224
 20
237.4483800304774
 30
0.0
 40
5.0
  0
LINE
  5
F3
330
1F
100
AcDbEntity
  8
9
  6
CONTINUOUS
 62
     7
100
AcDbLine
 10
553.2311186706311
 20
244.9483800304774
 30
0.0
 11
540.7311186706224
 21
244.9483800304774
 31
0.0
  0
LINE
  5
F4
330
1F
100
AcDbEntity
  8
9
  6
CONTINUOUS
 62
     7
100
AcDbLine
 10
553.2311186706306
 20
229.9483800304803
 30
0.0
 11
540.7311186706243
 21
229.9483800304774
 31
0.0
  0
ARC
  5
F5
330
1F
100
AcDbEntity
  8
9
  6
CONTINUOUS
 62
     7
100
AcDbCircle
 10
540.7311186706224
 20
237.4483800304774
 30
0.0
 40
7.5
100
AcDbArc
 50
89.99999999999991
 51
270.0000000000257
  0
LINE
  5
F6
330
1F
100
AcDbEntity
  8
9
  6
CONTINUOUS
 62
     7
100
AcDbLine
 10
420.5778651379455
 20
243.4483800304774
 30
0.0
 11
420.5778651379455
 21
237.4483800304774
 31
0.0
  0
LINE
  5
F7
330
1F
100
AcDbEntity
  8
9
  6
CONTINUOUS
 62
     7
100
AcDbLine
 10
431.5778651379455
 20
239.9483800304774
 30
0.0
 11
431.5778651379455
 21
234.9483800304774
 31
0.0
  0
ARC
  5
F8
330
1F
100
AcDbEntity
  8
9
  6
CONTINUOUS
 62
     7
100
AcDbCircle
 10
428.5778651379455
 20
239.9483800304774
 30
0.0
 40
3.0
100
AcDbArc
 50
0.0
 51
89.99999999999991
  0
LINE
  5
F9
330
1F
100
AcDbEntity
  8
9
  6
CONTINUOUS
 62
     7
100
AcDbLine
 10
428.5778651379455
 20
243.4483800304774
 30
0.0
 11
428.5778651379455
 21
231.4483800304774
 31
0.0
  0
LINE
  5
FA
330
1F
100
AcDbEntity
  8
9
  6
CONTINUOUS
 62
     7
100
AcDbLine
 10
420.5778651379455
 20
243.4483800304774
 30
0.0
 11
428.5778651379455
 21
243.4483800304774
 31
0.0
  0
LINE
  5
FB
330
1F
100
AcDbEntity
  8
9
  6
CONTINUOUS
 62
     7
100
AcDbLine
 10
418.6778651379441
 20
242.4483800304774
 30
0.0
 11
420.5778651379455
 21
242.4483800304774
 31
0.0
  0
LINE
  5
FC
330
1F
100
AcDbEntity
  8
9
  6
CONTINUOUS
 62
     7
100
AcDbLine
 10
420.5778651379455
 20
231.4483800304774
 30
0.0
 11
420.5778651379455
 21
237.4483800304774
 31
0.0
  0
LINE
  5
FD
330
1F
100
AcDbEntity
  8
9
  6
CONTINUOUS
 62
     7
100
AcDbLine
 10
420.5778651379455
 20
237.4483800304774
 30
0.0
 11
428.5778651379455
 21
237.4483800304774
 31
0.0
  0
LINE
  5
FE
330
1F
100
AcDbEntity
  8
9
  6
CONTINUOUS
 62
     7
100
AcDbLine
 10
418.6778651379441
 20
232.4483800304774
 30
0.0
 11
420.5778651379455
 21
232.4483800304774
 31
0.0
  0
ARC
  5
FF
330
1F
100
AcDbEntity
  8
9
  6
CONTINUOUS
 62
     7
100
AcDbCircle
 10
428.5778651379455
 20
234.9483800304774
 30
0.0
 40
3.0
100
AcDbArc
 50
269.9999999999998
 51
0.0
  0
LINE
  5
100
330
1F
100
AcDbEntity
  8
9
  6
CONTINUOUS
 62
     7
100
AcDbLine
 10
420.5778651379455
 20
231.4483800304774
 30
0.0
 11
428.5778651379455
 21
231.4483800304774
 31
0.0
  0
LINE
  5
101
330
1F
100
AcDbEntity
  8
5
  6
CONTINUOUS
 62
     1
100
AcDbLine
 10
431.5778651379455
 20
239.2983800304767
 30
0.0
 11
450.3017736482247
 21
239.2983684822924
 31
0.0
  0
ARC
  5
102
330
1F
100
AcDbEntity
  8
5
  6
CONTINUOUS
 62
     1
100
AcDbCircle
 10
451.3356910463067
 20
238.3733743466112
 30
0.0
 40
1.387299296151184
100
AcDbArc
 50
138.1825956443248
 51
221.8174143556803
  0
ARC
  5
103
330
1F
100
AcDbEntity
  8
5
  6
CONTINUOUS
 62
     1
100
AcDbCircle
 10
449.2675717715688
 20
236.5233800304771
 30
0.0
 40
1.387515353286915
100
AcDbArc
 50
318.1902521645558
 51
41.80974783544382
  0
ARC
  5
104
330
1F
100
AcDbEntity
  8
5
  6
CONTINUOUS
 62
     1
100
AcDbCircle
 10
449.2675871248762
 20
238.3733741661349
 30
0.0
 40
1.387499999999989
100
AcDbArc
 50
318.190009999997
 51
41.80999999998586
  0
LINE
  5
105
330
1F
100
AcDbEntity
  8
5
  6
CONTINUOUS
 62
     1
100
AcDbLine
 10
431.5778651379455
 20
235.5983800304769
 30
0.0
 11
450.3017738096664
 21
235.5983800304769
 31
0.0
  0
LINE
  5
106
330
1F
100
AcDbEntity
  8
9
  6
CONTINUOUS
 62
     7
100
AcDbLine
 10
414.0778651379455
 20
243.6983800304774
 30
0.0
 11
413.5778651379455
 21
243.6983800304774
 31
0.0
  0
LINE
  5
107
330
1F
100
AcDbEntity
  8
9
  6
CONTINUOUS
 62
     7
100
AcDbLine
 10
414.0778651379455
 20
244.4483800304774
 30
0.0
 11
418.677865137945
 21
244.4483800304774
 31
0.0
  0
LINE
  5
108
330
1F
100
AcDbEntity
  8
9
  6
CONTINUOUS
 62
     7
100
AcDbLine
 10
414.0778651379455
 20
240.9483800304774
 30
0.0
 11
418.677865137945
 21
240.9483800304774
 31
0.0
  0
LINE
  5
109
330
1F
100
AcDbEntity
  8
9
  6
CONTINUOUS
 62
     7
100
AcDbLine
 10
414.0778651379455
 20
230.4483800304764
 30
0.0
 11
418.677865137945
 21
230.4483800304774
 31
0.0
  0
LINE
  5
10A
330
1F
100
AcDbEntity
  8
9
  6
CONTINUOUS
 62
     7
100
AcDbLine
 10
414.0778651379455
 20
233.9483800304774
 30
0.0
 11
418.677865137945
 21
233.9483800304774
 31
0.0
  0
LINE
  5
10B
330
1F
100
AcDbEntity
  8
9
  6
CONTINUOUS
 62
     7
100
AcDbLine
 10
418.677865137945
 20
244.4483800304774
 30
0.0
 11
418.677865137945
 21
237.4483800304774
 31
0.0
  0
LINE
  5
10C
330
1F
100
AcDbEntity
  8
9
  6
CONTINUOUS
 62
     7
100
AcDbLine
 10
418.677865137945
 20
230.4483800304774
 30
0.0
 11
418.677865137945
 21
237.4483800304774
 31
0.0
  0
LINE
  5
10D
330
1F
100
AcDbEntity
  8
9
  6
CONTINUOUS
 62
     7
100
AcDbLine
 10
414.0778651379455
 20
244.4483800304774
 30
0.0
 11
414.0778651379455
 21
230.4483800304764
 31
0.0
  0
LINE
  5
10E
330
1F
100
AcDbEntity
  8
9
  6
CONTINUOUS
 62
     7
100
AcDbLine
 10
414.0778651379455
 20
231.1983800304774
 30
0.0
 11
413.5778651379455
 21
231.1983800304774
 31
0.0
  0
LINE
  5
10F
330
1F
100
AcDbEntity
  8
9
  6
CONTINUOUS
 62
     7
100
AcDbLine
 10
413.5778651379455
 20
243.6983800304774
 30
0.0
 11
413.5778651379455
 21
231.1983800304774
 31
0.0
  0
ARC
  5
110
330
1F
100
AcDbEntity
  8
5
  6
CONTINUOUS
 62
     1
100
AcDbCircle
 10
452.7342442917647
 20
236.5465911013956
 30
0.0
 40
1.387515022395519
100
AcDbArc
 50
138.1902399436259
 51
221.8097600563737
  0
ARC
  5
111
330
1F
100
AcDbEntity
  8
5
  6
CONTINUOUS
 62
     1
100
AcDbCircle
 10
450.666125016935
 20
236.5465968935174
 30
0.0
 40
1.387299627082427
100
AcDbArc
 50
318.1825978710832
 51
41.81739912889851
  0
ARC
  5
112
330
1F
100
AcDbEntity
  8
5
  6
CONTINUOUS
 62
     1
100
AcDbCircle
 10
452.7342292693806
 20
238.3965853634039
 30
0.0
 40
1.387499999999989
100
AcDbArc
 50
138.1900000000142
 51
221.8099970000193
  0
LINE
  5
113
330
1F
100
AcDbEntity
  8
9
  6
CONTINUOUS
 62
     7
100
AcDbLine
 10
245.1278651379457
 20
172.1317133638107
 30
0.0
 11
252.0278651379453
 21
172.1317133638107
 31
0.0
  0
ARC
  5
114
330
1F
100
AcDbEntity
  8
9
  6
CONTINUOUS
 62
     7
100
AcDbCircle
 10
248.5778651379455
 20
175.0987309076703
 30
0.0
 40
4.550350877192955
100
AcDbArc
 50
220.6956985254003
 51
319.304301474599
  0
LINE
  5
115
330
1F
100
AcDbEntity
  8
9
  6
CONTINUOUS
 62
     7
100
AcDbLine
 10
245.1278651379457
 20
172.4483800304774
 30
0.0
 11
245.1278651379457
 21
172.1317133638107
 31
0.0
  0
LINE
  5
116
330
1F
100
AcDbEntity
  8
9
  6
CONTINUOUS
 62
     7
100
AcDbLine
 10
252.0278651379453
 20
172.4483800304774
 30
0.0
 11
252.0278651379453
 21
172.1317133638107
 31
0.0
  0
LINE
  5
117
330
1F
100
AcDbEntity
  8
9
  6
CONTINUOUS
 62
     7
100
AcDbLine
 10
245.1278651379457
 20
302.7650466971439
 30
0.0
 11
252.0278651379453
 21
302.7650466971439
 31
0.0
  0
ARC
  5
118
330
1F
100
AcDbEntity
  8
9
  6
CONTINUOUS
 62
     7
100
AcDbCircle
 10
248.5778651379455
 20
299.7980291532845
 30
0.0
 40
4.550350877192955
100
AcDbArc
 50
40.69569852540071
 51
139.3043014745993
  0
LINE
  5
119
330
1F
100
AcDbEntity
  8
9
  6
CONTINUOUS
 62
     7
100
AcDbLine
 10
245.1278651379457
 20
302.4483800304773
 30
0.0
 11
245.1278651379457
 21
302.7650466971439
 31
0.0
  0
LINE
  5
11A
330
1F
100
AcDbEntity
  8
9
  6
CONTINUOUS
 62
     7
100
AcDbLine
 10
252.0278651379453
 20
302.4483800304773
 30
0.0
 11
252.0278651379453
 21
302.7650466971439
 31
0.0
  0
CIRCLE
  5
11B
330
1F
100
AcDbEntity
  8
9
  6
CONTINUOUS
 62
     7
100
AcDbCircle
 10
123.5778651379455
 20
310.4483800304773
 30
0.0
 40
3.099999999999994
  0
CIRCLE
  5
11C
330
1F
100
AcDbEntity
  8
9
  6
CONTINUOUS
 62
     7
100
AcDbCircle
 10
186.0778651379464
 20
310.4483800304773
 30
0.0
 40
3.099999999999994
  0
CIRCLE
  5
11D
330
1F
100
AcDbEntity
  8
9
  6
CONTINUOUS
 62
     7
100
AcDbCircle
 10
311.0778651379446
 20
310.4483800304773
 30
0.0
 40
3.100000000000023
  0
CIRCLE
  5
11E
330
1F
100
AcDbEntity
  8
9
  6
CONTINUOUS
 62
     7
100
AcDbCircle
 10
373.5778651379455
 20
310.4483800304773
 30
0.0
 40
3.100000000000023
  0
CIRCLE
  5
11F
330
1F
100
AcDbEntity
  8
9
  6
CONTINUOUS
 62
     7
100
AcDbCircle
 10
373.5778651379455
 20
164.4483800304774
 30
0.0
 40
3.100000000000023
  0
CIRCLE
  5
120
330
1F
100
AcDbEntity
  8
9
  6
CONTINUOUS
 62
     7
100
AcDbCircle
 10
311.0778651379446
 20
164.4483800304774
 30
0.0
 40
3.100000000000023
  0
CIRCLE
  5
121
330
1F
100
AcDbEntity
  8
9
  6
CONTINUOUS
 62
     7
100
AcDbCircle
 10
186.0778651379464
 20
164.4483800304774
 30
0.0
 40
3.099999999999994
  0
CIRCLE
  5
122
330
1F
100
AcDbEntity
  8
9
  6
CONTINUOUS
 62
     7
100
AcDbCircle
 10
123.5778651379455
 20
164.4483800304774
 30
0.0
 40
3.099999999999994
  0
LINE
  5
123
330
1F
100
AcDbEntity
  8
3
  6
DASHDOT
 62
     1
100
AcDbLine
 10
504.2311186706315
 20
237.4483800304774
 30
0.0
 11
559.2311186706315
 21
237.4483800304774
 31
0.0
  0
LINE
  5
124
330
1F
100
AcDbEntity
  8
3
  6
DASHDOT
 62
     1
100
AcDbLine
 10
119.4778651379455
 20
310.4483800304773
 30
0.0
 11
127.6778651379455
 21
310.4483800304773
 31
0.0
  0
LINE
  5
125
330
1F
100
AcDbEntity
  8
3
  6
DASHDOT
 62
     1
100
AcDbLine
 10
123.5778651379455
 20
314.5483800304773
 30
0.0
 11
123.5778651379455
 21
306.3483800304774
 31
0.0
  0
LINE
  5
126
330
1F
100
AcDbEntity
  8
3
  6
DASHDOT
 62
     1
100
AcDbLine
 10
552.2311186706315
 20
310.4483800304773
 30
0.0
 11
555.2311186706315
 21
310.4483800304773
 31
0.0
  0
LINE
  5
127
330
1F
100
AcDbEntity
  8
5
  6
CONTINUOUS
 62
     1
100
AcDbLine
 10
476.4297517408108
 20
241.9716211284637
 30
0.0
 11
468.5949982644542
 21
241.9716211284637
 31
0.0
  0
LINE
  5
128
330
1F
100
AcDbEntity
  8
5
  6
CONTINUOUS
 62
     1
100
AcDbLine
 10
485.4297287408108
 20
239.4716011284633
 30
0.0
 11
472.4297197408109
 21
239.4716011284633
 31
0.0
  0
LINE
  5
129
330
1F
100
AcDbEntity
  8
5
  6
CONTINUOUS
 62
     1
100
AcDbLine
 10
482.4297247408108
 20
237.8716011284635
 30
0.0
 11
473.4297237408109
 21
237.8716011284635
 31
0.0
  0
LINE
  5
12A
330
1F
100
AcDbEntity
  8
5
  6
CONTINUOUS
 62
     1
100
AcDbLine
 10
482.4297247408108
 20
236.2716111284634
 30
0.0
 11
473.4297237408109
 21
236.2716111284634
 31
0.0
  0
LINE
  5
12B
330
1F
100
AcDbEntity
  8
5
  6
CONTINUOUS
 62
     1
100
AcDbLine
 10
482.4297247408108
 20
237.0715811284634
 30
0.0
 11
473.4297237408109
 21
237.0715811284634
 31
0.0
  0
LINE
  5
12C
330
1F
100
AcDbEntity
  8
5
  6
CONTINUOUS
 62
     1
100
AcDbLine
 10
482.4297247408108
 20
238.6715811284634
 30
0.0
 11
473.4297237408109
 21
238.6715811284634
 31
0.0
  0
LINE
  5
12D
330
1F
100
AcDbEntity
  8
5
  6
CONTINUOUS
 62
     1
100
AcDbLine
 10
476.4297517408108
 20
232.9715611284632
 30
0.0
 11
468.5949982644542
 21
232.971561128463
 31
0.0
  0
LINE
  5
12E
330
1F
100
AcDbEntity
  8
5
  6
CONTINUOUS
 62
     1
100
AcDbLine
 10
485.4297287408108
 20
235.4715911284633
 30
0.0
 11
472.4297197408109
 21
235.4715911284633
 31
0.0
  0
LINE
  5
12F
330
1F
100
AcDbEntity
  8
5
  6
CONTINUOUS
 62
     1
100
AcDbLine
 10
465.774228185749
 20
240.9618509177178
 30
0.0
 11
459.4771994533048
 21
240.9618509177175
 31
0.0
  0
LINE
  5
130
330
1F
100
AcDbEntity
  8
5
  6
CONTINUOUS
 62
     1
100
AcDbLine
 10
465.774228185749
 20
233.9813313392108
 30
0.0
 11
459.4771994533048
 21
233.9813313392108
 31
0.0
  0
LINE
  5
131
330
1F
100
AcDbEntity
  8
5
  6
CONTINUOUS
 62
     1
100
AcDbLine
 10
459.4771994533048
 20
233.9813313392108
 30
0.0
 11
459.4771994533048
 21
240.9618509177175
 31
0.0
  0
ARC
  5
132
330
1F
100
AcDbEntity
  8
5
  6
CONTINUOUS
 62
     1
100
AcDbCircle
 10
468.5949982644547
 20
239.9716211284637
 30
0.0
 40
2.0
100
AcDbArc
 50
90.00000000001303
 51
120.0000000000151
  0
ARC
  5
133
330
1F
100
AcDbEntity
  8
5
  6
CONTINUOUS
 62
     1
100
AcDbCircle
 10
465.774228185749
 20
242.9618509177169
 30
0.0
 40
2.0
100
AcDbArc
 50
269.9999999999998
 51
300.0000000000147
  0
LINE
  5
134
330
1F
100
AcDbEntity
  8
5
  6
CONTINUOUS
 62
     1
100
AcDbLine
 10
467.5949982644547
 20
241.7036719360318
 30
0.0
 11
466.7742281857495
 21
241.2298001101486
 31
0.0
  0
ARC
  5
135
330
1F
100
AcDbEntity
  8
5
  6
CONTINUOUS
 62
     1
100
AcDbCircle
 10
468.5949982644547
 20
234.971561128463
 30
0.0
 40
2.0
100
AcDbArc
 50
239.9999999999846
 51
269.9999999999866
  0
ARC
  5
136
330
1F
100
AcDbEntity
  8
5
  6
CONTINUOUS
 62
     1
100
AcDbCircle
 10
465.774228185749
 20
231.9813313392098
 30
0.0
 40
2.0
100
AcDbArc
 50
59.99999999998492
 51
89.99999999999991
  0
LINE
  5
137
330
1F
100
AcDbEntity
  8
5
  6
CONTINUOUS
 62
     1
100
AcDbLine
 10
467.5949982644547
 20
233.2395103208949
 30
0.0
 11
466.7742281857495
 21
233.7133821467781
 31
0.0
  0
LINE
  5
138
330
1F
100
AcDbEntity
  8
5
  6
CONTINUOUS
 62
     1
100
AcDbLine
 10
472.4297197408109
 20
235.4715911284633
 30
0.0
 11
472.4297197408109
 21
239.4716011284633
 31
0.0
  0
LINE
  5
139
330
1F
100
AcDbEntity
  8
5
  6
CONTINUOUS
 62
     1
100
AcDbLine
 10
473.4297237408109
 20
235.4715911284633
 30
0.0
 11
473.4297237408109
 21
239.4716011284633
 31
0.0
  0
LINE
  5
13A
330
1F
100
AcDbEntity
  8
5
  6
CONTINUOUS
 62
     1
100
AcDbLine
 10
485.4297287408108
 20
237.4715911284633
 30
0.0
 11
485.4297287408108
 21
242.7216011284633
 31
0.0
  0
ARC
  5
13B
330
1F
100
AcDbEntity
  8
5
  6
CONTINUOUS
 62
     1
100
AcDbCircle
 10
478.4297277408109
 20
241.7216011284633
 30
0.0
 40
1.0
100
AcDbArc
 50
89.99999999999991
 51
179.9999999999998
  0
LINE
  5
13C
330
1F
100
AcDbEntity
  8
5
  6
CONTINUOUS
 62
     1
100
AcDbLine
 10
476.4297517408111
 20
241.4716111284633
 30
0.0
 11
477.4297237408109
 21
241.4716111284633
 31
0.0
  0
LINE
  5
13D
330
1F
100
AcDbEntity
  8
5
  6
CONTINUOUS
 62
     1
100
AcDbLine
 10
476.4297517408108
 20
241.9716211284637
 30
0.0
 11
476.4297517408108
 21
239.4716011284635
 31
0.0
  0
LINE
  5
13E
330
1F
100
AcDbEntity
  8
5
  6
CONTINUOUS
 62
     1
100
AcDbLine
 10
477.4297237408109
 20
241.7216011284633
 30
0.0
 11
477.4297237408109
 21
239.4716011284633
 31
0.0
  0
LINE
  5
13F
330
1F
100
AcDbEntity
  8
5
  6
CONTINUOUS
 62
     1
100
AcDbLine
 10
477.4297237408109
 20
241.4716111284633
 30
0.0
 11
477.4297237408109
 21
239.4716011284633
 31
0.0
  0
LINE
  5
140
330
1F
100
AcDbEntity
  8
5
  6
CONTINUOUS
 62
     1
100
AcDbLine
 10
478.4297277408109
 20
232.2215811284634
 30
0.0
 11
485.4297287408108
 21
232.2215811284634
 31
0.0
  0
LINE
  5
141
330
1F
100
AcDbEntity
  8
5
  6
CONTINUOUS
 62
     1
100
AcDbLine
 10
477.4297237408109
 20
233.4715711284634
 30
0.0
 11
476.4297517408111
 21
233.4715711284634
 31
0.0
  0
LINE
  5
142
330
1F
100
AcDbEntity
  8
5
  6
CONTINUOUS
 62
     1
100
AcDbLine
 10
476.4297517408108
 20
232.9715611284632
 30
0.0
 11
476.4297517408108
 21
235.4715811284631
 31
0.0
  0
LINE
  5
143
330
1F
100
AcDbEntity
  8
5
  6
CONTINUOUS
 62
     1
100
AcDbLine
 10
477.4297237408109
 20
233.2215811284634
 30
0.0
 11
477.4297237408109
 21
235.4715911284633
 31
0.0
  0
LINE
  5
144
330
1F
100
AcDbEntity
  8
5
  6
CONTINUOUS
 62
     1
100
AcDbLine
 10
477.4297237408109
 20
235.4715911284633
 30
0.0
 11
477.4297237408109
 21
233.4715711284634
 31
0.0
  0
ARC
  5
145
330
1F
100
AcDbEntity
  8
5
  6
CONTINUOUS
 62
     1
100
AcDbCircle
 10
478.4297277408109
 20
233.2215811284634
 30
0.0
 40
1.0
100
AcDbArc
 50
179.9999999999998
 51
269.9999999999998
  0
LINE
  5
146
330
1F
100
AcDbEntity
  8
5
  6
CONTINUOUS
 62
     1
100
AcDbLine
 10
482.4297247408108
 20
239.4716011284633
 30
0.0
 11
482.4297247408108
 21
235.4715911284633
 31
0.0
  0
LINE
  5
147
330
1F
100
AcDbEntity
  8
5
  6
CONTINUOUS
 62
     1
100
AcDbLine
 10
485.4297287408108
 20
237.4715911284633
 30
0.0
 11
485.4297287408108
 21
232.2215811284634
 31
0.0
  0
LINE
  5
148
330
1F
100
AcDbEntity
  8
5
  6
CONTINUOUS
 62
     1
100
AcDbLine
 10
484.4297197408109
 20
239.4716011284633
 30
0.0
 11
484.4297197408109
 21
235.4715911284633
 31
0.0
  0
LINE
  5
149
330
1F
100
AcDbEntity
  8
5
  6
CONTINUOUS
 62
     1
100
AcDbLine
 10
478.4297277408109
 20
242.7216011284633
 30
0.0
 11
485.4297287408108
 21
242.7216011284633
 31
0.0
  0
LINE
  5
14A
330
1F
100
AcDbEntity
  8
5
  6
CONTINUOUS
 62
     1
100
AcDbLine
 10
451.7000427460318
 20
239.3215796795614
 30
0.0
 11
459.4771994533048
 21
239.3215796795614
 31
0.0
  0
LINE
  5
14B
330
1F
100
AcDbEntity
  8
5
  6
CONTINUOUS
 62
     1
100
AcDbLine
 10
451.7000426976003
 20
235.6216025773669
 30
0.0
 11
459.4771994533048
 21
235.6216025773669
 31
0.0
  0
CIRCLE
  5
14C
330
1F
100
AcDbEntity
  8
1
  6
CONTINUOUS
 62
     7
100
AcDbCircle
 10
248.5778651379453
 20
237.4483800304772
 30
0.0
 40
27.5
  0
CIRCLE
  5
14D
330
1F
100
AcDbEntity
  8
11
  6
HIDDEN
 62
     3
100
AcDbCircle
 10
248.5778651379453
 20
237.4483800304772
 30
0.0
 40
32.5
  0
HATCH
  5
14E
330
1F
100
AcDbEntity
  8
10
  6
CONTINUOUS
 62
     2
100
AcDbHatch
 10
0.0
 20
0.0
 30
0.0
210
0.0
220
0.0
230
1.0
  2

 70
     0
 71
     0
 91
        4
 92
        0
 93
       40
 72
     1
 10
248.5778651379451
 20
204.9483800304775
 11
249.9954952273185
 21
204.9793128290671
 72
     1
 10
249.9954952273185
 20
204.9793128290671
 11
251.4104267772439
 21
205.0720523424958
 72
     1
 10
251.4104267772439
 20
205.0720523424958
 11
252.8199663850967
 21
205.2264220358286
 72
     1
 10
252.8199663850967
 20
205.2264220358286
 11
254.2214309121203
 21
205.4421280575807
 72
     1
 10
254.2214309121203
 20
205.4421280575807
 11
255.6121525909334
 21
205.7187597990797
 72
     1
 10
255.6121525909334
 20
205.7187597990797
 11
256.989484103777
 21
206.0557906760828
 72
     1
 10
256.989484103777
 20
206.0557906760828
 11
258.350803621834
 21
206.4525791311601
 72
     1
 10
258.350803621834
 20
206.4525791311601
 11
259.6935197960293
 21
206.9083698549354
 72
     1
 10
259.6935197960293
 20
206.9083698549354
 11
261.0150766898105
 21
207.4222952238607
 72
     1
 10
261.0150766898105
 20
207.4222952238607
 11
262.3129586445178
 21
207.9933769517863
 72
     1
 10
262.3129586445178
 20
207.9933769517863
 11
263.5846950680837
 21
208.6205279521853
 72
     1
 10
263.5846950680837
 20
208.6205279521853
 11
264.8278651379451
 21
209.3025544074832
 72
     1
 10
264.8278651379451
 20
209.3025544074832
 11
266.0401024092169
 21
210.0381580415587
 72
     1
 10
266.0401024092169
 20
210.0381580415587
 11
267.2190993193541
 21
210.8259385910852
 72
     1
 10
267.2190993193541
 20
210.8259385910852
 11
268.3626115807285
 21
211.6643964710123
 72
     1
 10
268.3626115807285
 20
211.6643964710123
 11
269.4684624527576
 21
212.5519356291107
 72
     1
 10
269.4684624527576
 20
212.5519356291107
 11
270.5345468854541
 21
213.4868665841484
 72
     1
 10
270.5345468854541
 20
213.4868665841484
 11
271.5588355265079
 21
214.4674096419146
 72
     1
 10
271.5588355265079
 20
214.4674096419146
 11
272.5393785842742
 21
215.4916982829685
 72
     1
 10
272.5393785842742
 20
215.4916982829685
 11
273.4743095393119
 21
216.5577827156649
 72
     1
 10
273.4743095393119
 20
216.5577827156649
 11
274.3618486974103
 21
217.663633587694
 72
     1
 10
274.3618486974103
 20
217.663633587694
 11
275.2003065773374
 21
218.8071458490684
 72
     1
 10
275.2003065773374
 20
218.8071458490684
 11
275.988087126864
 21
219.9861427592056
 72
     1
 10
275.988087126864
 20
219.9861427592056
 11
276.7236907609395
 21
221.1983800304774
 72
     1
 10
276.7236907609395
 20
221.1983800304774
 11
277.4057172162374
 21
222.4415501003388
 72
     1
 10
277.4057172162374
 20
222.4415501003388
 11
278.0328682166364
 21
223.7132865239047
 72
     1
 10
278.0328682166364
 20
223.7132865239047
 11
278.603949944562
 21
225.011168478612
 72
     1
 10
278.603949944562
 20
225.011168478612
 11
279.1178753134873
 21
226.3327253723932
 72
     1
 10
279.1178753134873
 20
226.3327253723932
 11
279.5736660372626
 21
227.6754415465885
 72
     1
 10
279.5736660372626
 20
227.6754415465885
 11
279.97045449234
 21
229.0367610646455
 72
     1
 10
279.97045449234
 20
229.0367610646455
 11
280.3074853693431
 21
230.4140925774891
 72
     1
 10
280.3074853693431
 20
230.4140925774891
 11
280.584117110842
 21
231.8048142563022
 72
     1
 10
280.584117110842
 20
231.8048142563022
 11
280.7998231325941
 21
233.2062787833257
 72
     1
 10
280.7998231325941
 20
233.2062787833257
 11
280.954192825927
 21
234.6158183911785
 72
     1
 10
280.954192825927
 20
234.6158183911785
 11
281.0469323393557
 21
236.030749941104
 72
     1
 10
281.0469323393557
 20
236.030749941104
 11
281.0778651379453
 21
237.4483800304774
 72
     1
 10
281.0778651379453
 20
237.4483800304772
 11
398.5778651379455
 21
237.4483800304774
 72
     1
 10
398.5778651379455
 20
237.4483800304774
 11
398.5778651379455
 21
187.4483800304774
 72
     1
 10
398.5778651379455
 20
187.4483800304774
 11
248.5778651379456
 21
187.4483800304774
 72
     1
 10
248.5778651379456
 20
187.4483800304774
 11
248.5778651379456
 21
204.9483800304772
 97
        0
 92
        0
 93
       40
 72
     1
 10
281.0778651379454
 20
237.4483800304774
 11
281.0469323393557
 21
238.8660101198508
 72
     1
 10
281.0469323393557
 20
238.8660101198508
 11
280.9541928259271
 21
240.2809416697763
 72
     1
 10
280.9541928259271
 20
240.2809416697763
 11
280.7998231325942
 21
241.6904812776291
 72
     1
 10
280.7998231325942
 20
241.6904812776291
 11
280.5841171108422
 21
243.0919458046526
 72
     1
 10
280.5841171108422
 20
243.0919458046526
 11
280.3074853693432
 21
244.4826674834657
 72
     1
 10
280.3074853693432
 20
244.4826674834657
 11
279.9704544923401
 21
245.8599989963093
 72
     1
 10
279.9704544923401
 20
245.8599989963093
 11
279.5736660372627
 21
247.2213185143662
 72
     1
 10
279.5736660372627
 20
247.2213185143662
 11
279.1178753134874
 21
248.5640346885615
 72
     1
 10
279.1178753134874
 20
248.5640346885615
 11
278.6039499445622
 21
249.8855915823427
 72
     1
 10
278.6039499445622
 20
249.8855915823427
 11
278.0328682166365
 21
251.18347353705
 72
     1
 10
278.0328682166365
 20
251.18347353705
 11
277.4057172162376
 21
252.4552099606159
 72
     1
 10
277.4057172162376
 20
252.4552099606159
 11
276.7236907609397
 21
253.6983800304773
 72
     1
 10
276.7236907609397
 20
253.6983800304773
 11
275.9880871268642
 21
254.910617301749
 72
     1
 10
275.9880871268642
 20
254.910617301749
 11
275.2003065773376
 21
256.0896142118863
 72
     1
 10
275.2003065773376
 20
256.0896142118863
 11
274.3618486974106
 21
257.2331264732607
 72
     1
 10
274.3618486974106
 20
257.2331264732607
 11
273.4743095393122
 21
258.3389773452898
 72
     1
 10
273.4743095393122
 20
258.3389773452898
 11
272.5393785842745
 21
259.4050617779862
 72
     1
 10
272.5393785842745
 20
259.4050617779862
 11
271.5588355265083
 21
260.42935041904
 72
     1
 10
271.5588355265083
 20
260.42935041904
 11
270.5345468854545
 21
261.4098934768062
 72
     1
 10
270.5345468854545
 20
261.4098934768062
 11
269.468462452758
 21
262.344824431844
 72
     1
 10
269.468462452758
 20
262.344824431844
 11
268.3626115807289
 21
263.2323635899423
 72
     1
 10
268.3626115807289
 20
263.2323635899423
 11
267.2190993193545
 21
264.0708214698694
 72
     1
 10
267.2190993193545
 20
264.0708214698694
 11
266.0401024092173
 21
264.858602019396
 72
     1
 10
266.0401024092173
 20
264.858602019396
 11
264.8278651379455
 21
265.5942056534714
 72
     1
 10
264.8278651379455
 20
265.5942056534714
 11
263.5846950680842
 21
266.2762321087694
 72
     1
 10
263.5846950680842
 20
266.2762321087694
 11
262.3129586445183
 21
266.9033831091683
 72
     1
 10
262.3129586445183
 20
266.9033831091683
 11
261.015076689811
 21
267.474464837094
 72
     1
 10
261.015076689811
 20
267.474464837094
 11
259.6935197960298
 21
267.9883902060192
 72
     1
 10
259.6935197960298
 20
267.9883902060192
 11
258.3508036218345
 21
268.4441809297945
 72
     1
 10
258.3508036218345
 20
268.4441809297945
 11
256.9894841037776
 21
268.8409693848719
 72
     1
 10
256.9894841037776
 20
268.8409693848719
 11
255.612152590934
 21
269.178000261875
 72
     1
 10
255.612152590934
 20
269.178000261875
 11
254.2214309121209
 21
269.4546320033739
 72
     1
 10
254.2214309121209
 20
269.4546320033739
 11
252.8199663850973
 21
269.670338025126
 72
     1
 10
252.8199663850973
 20
269.670338025126
 11
251.4104267772446
 21
269.8247077184589
 72
     1
 10
251.4104267772446
 20
269.8247077184589
 11
249.9954952273191
 21
269.9174472318875
 72
     1
 10
249.9954952273191
 20
269.9174472318875
 11
248.5778651379457
 21
269.9483800304772
 72
     1
 10
248.5778651379455
 20
269.9483800304772
 11
248.5778651379455
 21
287.4483800304773
 72
     1
 10
248.5778651379455
 20
287.4483800304773
 11
398.5778651379455
 21
287.4483800304773
 72
     1
 10
398.5778651379455
 20
287.4483800304773
 11
398.5778651379455
 21
237.4483800304774
 72
     1
 10
398.5778651379455
 20
237.4483800304774
 11
281.0778651379453
 21
237.4483800304774
 97
        0
 92
        0
 93
       40
 72
     1
 10
248.5778651379455
 20
287.4483800304773
 11
98.57786513794554
 21
287.4483800304773
 72
     1
 10
98.57786513794554
 20
287.4483800304773
 11
98.57786513794554
 21
237.4483800304772
 72
     1
 10
98.57786513794554
 20
237.4483800304772
 11
216.0778651379453
 21
237.4483800304772
 72
     1
 10
216.0778651379453
 20
237.4483800304774
 11
216.1087979365349
 21
238.8660101198508
 72
     1
 10
216.1087979365349
 20
238.8660101198508
 11
216.2015374499636
 21
240.2809416697762
 72
     1
 10
216.2015374499636
 20
240.2809416697762
 11
216.3559071432965
 21
241.690481277629
 72
     1
 10
216.3559071432965
 20
241.690481277629
 11
216.5716131650486
 21
243.0919458046526
 72
     1
 10
216.5716131650486
 20
243.0919458046526
 11
216.8482449065475
 21
244.4826674834657
 72
     1
 10
216.8482449065475
 20
244.4826674834657
 11
217.1852757835506
 21
245.8599989963093
 72
     1
 10
217.1852757835506
 20
245.8599989963093
 11
217.582064238628
 21
247.2213185143662
 72
     1
 10
217.582064238628
 20
247.2213185143662
 11
218.0378549624033
 21
248.5640346885616
 72
     1
 10
218.0378549624033
 20
248.5640346885616
 11
218.5517803313285
 21
249.8855915823428
 72
     1
 10
218.5517803313285
 20
249.8855915823428
 11
219.1228620592542
 21
251.18347353705
 72
     1
 10
219.1228620592542
 20
251.18347353705
 11
219.7500130596531
 21
252.4552099606159
 72
     1
 10
219.7500130596531
 20
252.4552099606159
 11
220.4320395149511
 21
253.6983800304773
 72
     1
 10
220.4320395149511
 20
253.6983800304773
 11
221.1676431490266
 21
254.9106173017491
 72
     1
 10
221.1676431490266
 20
254.9106173017491
 11
221.9554236985531
 21
256.0896142118863
 72
     1
 10
221.9554236985531
 20
256.0896142118863
 11
222.7938815784802
 21
257.2331264732607
 72
     1
 10
222.7938815784802
 20
257.2331264732607
 11
223.6814207365786
 21
258.3389773452898
 72
     1
 10
223.6814207365786
 20
258.3389773452898
 11
224.6163516916163
 21
259.4050617779862
 72
     1
 10
224.6163516916163
 20
259.4050617779862
 11
225.5968947493826
 21
260.4293504190401
 72
     1
 10
225.5968947493826
 20
260.4293504190401
 11
226.6211833904364
 21
261.4098934768063
 72
     1
 10
226.6211833904364
 20
261.4098934768063
 11
227.6872678231328
 21
262.3448244318441
 72
     1
 10
227.6872678231328
 20
262.3448244318441
 11
228.7931186951619
 21
263.2323635899424
 72
     1
 10
228.7931186951619
 20
263.2323635899424
 11
229.9366309565363
 21
264.0708214698695
 72
     1
 10
229.9366309565363
 20
264.0708214698695
 11
231.1156278666735
 21
264.858602019396
 72
     1
 10
231.1156278666735
 20
264.858602019396
 11
232.3278651379453
 21
265.5942056534715
 72
     1
 10
232.3278651379453
 20
265.5942056534715
 11
233.5710352078067
 21
266.2762321087695
 72
     1
 10
233.5710352078067
 20
266.2762321087695
 11
234.8427716313726
 21
266.9033831091684
 72
     1
 10
234.8427716313726
 20
266.9033831091684
 11
236.1406535860799
 21
267.474464837094
 72
     1
 10
236.1406535860799
 20
267.474464837094
 11
237.4622104798611
 21
267.9883902060192
 72
     1
 10
237.4622104798611
 20
267.9883902060192
 11
238.8049266540565
 21
268.4441809297946
 72
     1
 10
238.8049266540565
 20
268.4441809297946
 11
240.1662461721134
 21
268.8409693848719
 72
     1
 10
240.1662461721134
 20
268.8409693848719
 11
241.543577684957
 21
269.1780002618751
 72
     1
 10
241.543577684957
 20
269.1780002618751
 11
242.9342993637701
 21
269.454632003374
 72
     1
 10
242.9342993637701
 20
269.454632003374
 11
244.3357638907936
 21
269.6703380251261
 72
     1
 10
244.3357638907936
 20
269.6703380251261
 11
245.7453034986464
 21
269.824707718459
 72
     1
 10
245.7453034986464
 20
269.824707718459
 11
247.1602350485719
 21
269.9174472318876
 72
     1
 10
247.1602350485719
 20
269.9174472318876
 11
248.5778651379453
 21
269.9483800304772
 72
     1
 10
248.5778651379455
 20
269.9483800304772
 11
248.5778651379455
 21
287.4483800304773
 97
        0
 92
        0
 93
       40
 72
     1
 10
98.57786513794554
 20
237.4483800304772
 11
98.57786513794554
 21
187.4483800304774
 72
     1
 10
98.57786513794554
 20
187.4483800304774
 11
248.5778651379456
 21
187.4483800304774
 72
     1
 10
248.5778651379456
 20
187.4483800304774
 11
248.5778651379456
 21
204.9483800304772
 72
     1
 10
248.5778651379451
 20
204.9483800304772
 11
247.1602350485717
 21
204.9793128290668
 72
     1
 10
247.1602350485717
 20
204.9793128290668
 11
245.7453034986462
 21
205.0720523424955
 72
     1
 10
245.7453034986462
 20
205.0720523424955
 11
244.3357638907934
 21
205.2264220358283
 72
     1
 10
244.3357638907934
 20
205.2264220358283
 11
242.9342993637699
 21
205.4421280575804
 72
     1
 10
242.9342993637699
 20
205.4421280575804
 11
241.5435776849568
 21
205.7187597990794
 72
     1
 10
241.5435776849568
 20
205.7187597990794
 11
240.1662461721132
 21
206.0557906760825
 72
     1
 10
240.1662461721132
 20
206.0557906760825
 11
238.8049266540563
 21
206.4525791311598
 72
     1
 10
238.8049266540563
 20
206.4525791311598
 11
237.4622104798609
 21
206.9083698549352
 72
     1
 10
237.4622104798609
 20
206.9083698549352
 11
236.1406535860797
 21
207.4222952238604
 72
     1
 10
236.1406535860797
 20
207.4222952238604
 11
234.8427716313724
 21
207.9933769517861
 72
     1
 10
234.8427716313724
 20
207.9933769517861
 11
233.5710352078066
 21
208.620527952185
 72
     1
 10
233.5710352078066
 20
208.620527952185
 11
232.3278651379452
 21
209.3025544074829
 72
     1
 10
232.3278651379452
 20
209.3025544074829
 11
231.1156278666734
 21
210.0381580415584
 72
     1
 10
231.1156278666734
 20
210.0381580415584
 11
229.9366309565362
 21
210.825938591085
 72
     1
 10
229.9366309565362
 20
210.825938591085
 11
228.7931186951618
 21
211.6643964710121
 72
     1
 10
228.7931186951618
 20
211.6643964710121
 11
227.6872678231327
 21
212.5519356291104
 72
     1
 10
227.6872678231327
 20
212.5519356291104
 11
226.6211833904362
 21
213.4868665841482
 72
     1
 10
226.6211833904362
 20
213.4868665841482
 11
225.5968947493824
 21
214.4674096419144
 72
     1
 10
225.5968947493824
 20
214.4674096419144
 11
224.6163516916162
 21
215.4916982829683
 72
     1
 10
224.6163516916162
 20
215.4916982829683
 11
223.6814207365784
 21
216.5577827156647
 72
     1
 10
223.6814207365784
 20
216.5577827156647
 11
222.7938815784801
 21
217.6636335876938
 72
     1
 10
222.7938815784801
 20
217.6636335876938
 11
221.955423698553
 21
218.8071458490682
 72
     1
 10
221.955423698553
 20
218.8071458490682
 11
221.1676431490264
 21
219.9861427592054
 72
     1
 10
221.1676431490264
 20
219.9861427592054
 11
220.432039514951
 21
221.1983800304772
 72
     1
 10
220.432039514951
 20
221.1983800304772
 11
219.750013059653
 21
222.4415501003386
 72
     1
 10
219.750013059653
 20
222.4415501003386
 11
219.1228620592541
 21
223.7132865239045
 72
     1
 10
219.1228620592541
 20
223.7132865239045
 11
218.5517803313284
 21
225.0111684786118
 72
     1
 10
218.5517803313284
 20
225.0111684786118
 11
218.0378549624032
 21
226.332725372393
 72
     1
 10
218.0378549624032
 20
226.332725372393
 11
217.5820642386279
 21
227.6754415465884
 72
     1
 10
217.5820642386279
 20
227.6754415465884
 11
217.1852757835506
 21
229.0367610646453
 72
     1
 10
217.1852757835506
 20
229.0367610646453
 11
216.8482449065474
 21
230.4140925774889
 72
     1
 10
216.8482449065474
 20
230.4140925774889
 11
216.5716131650485
 21
231.804814256302
 72
     1
 10
216.5716131650485
 20
231.804814256302
 11
216.3559071432965
 21
233.2062787833255
 72
     1
 10
216.3559071432965
 20
233.2062787833255
 11
216.2015374499636
 21
234.6158183911783
 72
     1
 10
216.2015374499636
 20
234.6158183911783
 11
216.1087979365349
 21
236.0307499411038
 72
     1
 10
216.1087979365349
 20
236.0307499411038
 11
216.0778651379453
 21
237.4483800304772
 72
     1
 10
216.0778651379453
 20
237.4483800304772
 11
98.57786513794554
 21
237.4483800304772
 97
        0
 75
     0
 76
     2
 52
0.0
 41
0.5
 77
     0
 78
     2
 53
45.0
 43
-604.867712960543
 44
68.93781032617136
 45
-5.051394068101445
 46
5.051394068101416
 79
     0
 53
135.0
 43
-604.867712960543
 44
68.93781032617136
 45
-5.051394068101445
 46
-5.051394068101402
 79
     0
 98
        0
  0
LINE
  5
14F
330
1F
100
AcDbEntity
  8
3
  6
DASHDOT
 62
     1
100
AcDbLine
 10
552.2311186706315
 20
164.4483800304774
 30
0.0
 11
555.2311186706315
 21
164.4483800304774
 31
0.0
  0
LINE
  5
150
330
1F
100
AcDbEntity
  8
3
  6
DASHDOT
 62
     1
100
AcDbLine
 10
181.9778651379464
 20
310.4483800304773
 30
0.0
 11
190.1778651379464
 21
310.4483800304773
 31
0.0
  0
LINE
  5
151
330
1F
100
AcDbEntity
  8
3
  6
DASHDOT
 62
     1
100
AcDbLine
 10
186.0778651379464
 20
314.5483800304773
 30
0.0
 11
186.0778651379464
 21
306.3483800304774
 31
0.0
  0
LINE
  5
152
330
1F
100
AcDbEntity
  8
3
  6
DASHDOT
 62
     1
100
AcDbLine
 10
306.9778651379446
 20
310.4483800304773
 30
0.0
 11
315.1778651379446
 21
310.4483800304773
 31
0.0
  0
LINE
  5
153
330
1F
100
AcDbEntity
  8
3
  6
DASHDOT
 62
     1
100
AcDbLine
 10
311.0778651379446
 20
314.5483800304773
 30
0.0
 11
311.0778651379446
 21
306.3483800304774
 31
0.0
  0
LINE
  5
154
330
1F
100
AcDbEntity
  8
3
  6
DASHDOT
 62
     1
100
AcDbLine
 10
369.4778651379455
 20
310.4483800304773
 30
0.0
 11
377.6778651379455
 21
310.4483800304773
 31
0.0
  0
LINE
  5
155
330
1F
100
AcDbEntity
  8
3
  6
DASHDOT
 62
     1
100
AcDbLine
 10
373.5778651379455
 20
314.5483800304773
 30
0.0
 11
373.5778651379455
 21
306.3483800304774
 31
0.0
  0
LINE
  5
156
330
1F
100
AcDbEntity
  8
3
  6
DASHDOT
 62
     1
100
AcDbLine
 10
369.4778651379455
 20
164.4483800304774
 30
0.0
 11
377.6778651379455
 21
164.4483800304774
 31
0.0
  0
LINE
  5
157
330
1F
100
AcDbEntity
  8
3
  6
DASHDOT
 62
     1
100
AcDbLine
 10
373.5778651379455
 20
168.5483800304773
 30
0.0
 11
373.5778651379455
 21
160.3483800304773
 31
0.0
  0
LINE
  5
158
330
1F
100
AcDbEntity
  8
3
  6
DASHDOT
 62
     1
100
AcDbLine
 10
306.9778651379446
 20
164.4483800304774
 30
0.0
 11
315.1778651379446
 21
164.4483800304774
 31
0.0
  0
LINE
  5
159
330
1F
100
AcDbEntity
  8
3
  6
DASHDOT
 62
     1
100
AcDbLine
 10
311.0778651379446
 20
168.5483800304773
 30
0.0
 11
311.0778651379446
 21
160.3483800304773
 31
0.0
  0
LINE
  5
15A
330
1F
100
AcDbEntity
  8
3
  6
DASHDOT
 62
     1
100
AcDbLine
 10
181.9778651379464
 20
164.4483800304774
 30
0.0
 11
190.1778651379464
 21
164.4483800304774
 31
0.0
  0
LINE
  5
15B
330
1F
100
AcDbEntity
  8
3
  6
DASHDOT
 62
     1
100
AcDbLine
 10
186.0778651379464
 20
168.5483800304773
 30
0.0
 11
186.0778651379464
 21
160.3483800304773
 31
0.0
  0
LINE
  5
15C
330
1F
100
AcDbEntity
  8
3
  6
DASHDOT
 62
     1
100
AcDbLine
 10
119.4778651379455
 20
164.4483800304774
 30
0.0
 11
127.6778651379455
 21
164.4483800304774
 31
0.0
  0
LINE
  5
15D
330
1F
100
AcDbEntity
  8
3
  6
DASHDOT
 62
     1
100
AcDbLine
 10
123.5778651379455
 20
168.5483800304773
 30
0.0
 11
123.5778651379455
 21
160.3483800304773
 31
0.0
  0
DIMENSION
  5
168
330
1F
100
AcDbEntity
  8
8
  6
CONTINUOUS
 62
     4
100
AcDbDimension
  2
DIM1
 10
311.0778651379446
 20
139.4483800304777
 30
0.0
 11
248.577865137946
 21
139.4483800304777
 31
0.0
 70
   160
  1
<>
  3
STANDARD
100
AcDbAlignedDimension
 13
186.0778651379455
 23
160.3483800304773
 33
0.0
 14
311.0778651379446
 24
160.3483800304773
 34
0.0
100
AcDbRotatedDimension
1001
ACAD
1000
DSTYLE
1002
{
1070
   287
1070
     4
1070
     7
1000

1070
     6
1000

1070
   279
1070
     1
1070
   340
1005
15E
1070
   140
1040
4.5
1070
    40
1040
1.0
1070
   147
1040
0.0
1070
    76
1070
     0
1070
    75
1070
     0
1070
   173
1070
     1
1070
   289
1070
     2
1070
   288
1070
     1
1070
    77
1070
     1
1070
   172
1070
     1
1070
   174
1070
     0
1070
    74
1070
     0
1070
    73
1070
     0
1070
   284
1070
     8
1070
    78
1070
     8
1070
    42
1040
1.5
1070
    44
1040
2.25
1070
    43
1040
30.0
1070
   271
1070
     2
1070
    41
1040
3.0
1002
}
  0
DIMENSION
  5
172
330
1F
100
AcDbEntity
  8
8
  6
CONTINUOUS
 62
     4
100
AcDbDimension
  2
DIM2
 10
398.5778651379454
 20
127.4483800304777
 30
0.0
 11
248.5778651379456
 21
127.4483800304777
 31
0.0
 70
   160
  1
<>
  3
STANDARD
100
AcDbAlignedDimension
 13
98.57786513794554
 23
187.4483800304774
 33
0.0
 14
398.5778651379455
 24
187.4483800304774
 34
0.0
100
AcDbRotatedDimension
1001
ACAD
1000
DSTYLE
1002
{
1070
   287
1070
     4
1070
     7
1000

1070
     6
1000

1070
   279
1070
     1
1070
   340
1005
15E
1070
   140
1040
4.5
1070
    40
1040
1.0
1070
   147
1040
0.0
1070
    76
1070
     0
1070
    75
1070
     0
1070
   173
1070
     1
1070
   289
1070
     2
1070
   288
1070
     1
1070
    77
1070
     1
1070
   172
1070
     1
1070
   174
1070
     0
1070
    74
1070
     0
1070
    73
1070
     0
1070
   284
1070
     8
1070
    78
1070
     8
1070
    42
1040
1.5
1070
    44
1040
2.25
1070
    43
1040
30.0
1070
   271
1070
     2
1070
    41
1040
3.0
1002
}
  0
DIMENSION
  5
17C
330
1F
100
AcDbEntity
  8
8
  6
CONTINUOUS
 62
     4
100
AcDbDimension
  2
DIM3
 10
413.5778651379454
 20
115.4483800304777
 30
0.0
 11
248.5778651379455
 21
115.4483800304777
 31
0.0
 70
   160
  1
<>
  3
STANDARD
100
AcDbAlignedDimension
 13
83.57786513794554
 23
172.4483800304764
 33
0.0
 14
413.5778651379455
 24
172.4483800304774
 34
0.0
100
AcDbRotatedDimension
1001
ACAD
1000
DSTYLE
1002
{
1070
   287
1070
     4
1070
     7
1000

1070
     6
1000

1070
   279
1070
     1
1070
   340
1005
15E
1070
   140
1040
4.5
1070
    40
1040
1.0
1070
   147
1040
0.0
1070
    76
1070
     0
1070
    75
1070
     0
1070
   173
1070
     1
1070
   289
1070
     2
1070
   288
1070
     1
1070
    77
1070
     1
1070
   172
1070
     1
1070
   174
1070
     0
1070
    74
1070
     0
1070
    73
1070
     0
1070
   284
1070
     8
1070
    78
1070
     8
1070
    42
1040
1.5
1070
    44
1040
2.25
1070
    43
1040
30.0
1070
   271
1070
     2
1070
    41
1040
3.0
1002
}
  0
DIMENSION
  5
186
330
1F
100
AcDbEntity
  8
8
  6
CONTINUOUS
 62
     4
100
AcDbDimension
  2
DIM4
 10
554.2311186706314
 20
115.4483800304779
 30
0.0
 11
531.7311186706315
 21
115.4483800304779
 31
0.0
 70
   160
  1
<>
  3
STANDARD
100
AcDbAlignedDimension
 13
509.2311186706315
 23
172.4483800304774
 33
0.0
 14
554.2311186706315
 24
157.4483800304774
 34
0.0
100
AcDbRotatedDimension
1001
ACAD
1000
DSTYLE
1002
{
1070
   287
1070
     4
1070
     7
1000

1070
     6
1000

1070
   279
1070
     1
1070
   340
1005
15E
1070
   140
1040
4.5
1070
    40
1040
1.0
1070
   147
1040
0.0
1070
    76
1070
     0
1070
    75
1070
     0
1070
   173
1070
     1
1070
   289
1070
     2
1070
   288
1070
     1
1070
    77
1070
     1
1070
   172
1070
     1
1070
   174
1070
     0
1070
    74
1070
     0
1070
    73
1070
     0
1070
   284
1070
     8
1070
    78
1070
     8
1070
    42
1040
1.5
1070
    44
1040
2.25
1070
    43
1040
30.0
1070
   271
1070
     2
1070
    41
1040
3.0
1002
}
  0
DIMENSION
  5
190
330
1F
100
AcDbEntity
  8
8
  6
CONTINUOUS
 62
     4
100
AcDbDimension
  2
DIM5
 10
553.2311186706297
 20
139.4483800304777
 30
0.0
 11
562.4811186706315
 21
139.4483800304777
 31
0.0
 70
   160
  1
<>
  3
STANDARD
100
AcDbAlignedDimension
 13
554.2311186706315
 23
157.4483800304774
 33
0.0
 14
553.2311186706297
 24
157.4483800304774
 34
0.0
 50
179.9999999999998
100
AcDbRotatedDimension
1001
ACAD
1000
DSTYLE
1002
{
1070
   287
1070
     4
1070
     7
1000

1070
     6
1000

1070
   279
1070
     1
1070
   340
1005
15E
1070
   140
1040
4.5
1070
    40
1040
1.0
1070
   147
1040
0.0
1070
    76
1070
     0
1070
    75
1070
     0
1070
   173
1070
     1
1070
   289
1070
     2
1070
   288
1070
     1
1070
    77
1070
     1
1070
   172
1070
     1
1070
   174
1070
     0
1070
    74
1070
     0
1070
    73
1070
     0
1070
   284
1070
     8
1070
    78
1070
     8
1070
    42
1040
1.5
1070
    44
1040
2.25
1070
    43
1040
30.0
1070
   271
1070
     2
1070
    41
1040
3.0
1002
}
  0
DIMENSION
  5
19A
330
1F
100
AcDbEntity
  8
8
  6
CONTINUOUS
 62
     4
100
AcDbDimension
  2
DIM6
 10
71.57786513794554
 20
287.4483800304774
 30
0.0
 11
71.57786513794554
 21
237.4483800304773
 31
0.0
 70
   160
  1
<>
  3
STANDARD
100
AcDbAlignedDimension
 13
98.57786513794554
 23
187.4483800304774
 33
0.0
 14
98.57786513794554
 24
287.4483800304773
 34
0.0
 50
89.99999999999991
100
AcDbRotatedDimension
1001
ACAD
1000
DSTYLE
1002
{
1070
   287
1070
     4
1070
     7
1000

1070
     6
1000

1070
   279
1070
     1
1070
   340
1005
15E
1070
   140
1040
4.5
1070
    40
1040
1.0
1070
   147
1040
0.0
1070
    76
1070
     0
1070
    75
1070
     0
1070
   173
1070
     1
1070
   289
1070
     2
1070
   288
1070
     1
1070
    77
1070
     1
1070
   172
1070
     1
1070
   174
1070
     0
1070
    74
1070
     0
1070
    73
1070
     0
1070
   284
1070
     8
1070
    78
1070
     8
1070
    42
1040
1.5
1070
    44
1040
2.25
1070
    43
1040
30.0
1070
   271
1070
     2
1070
    41
1040
3.0
1002
}
  0
DIMENSION
  5
1A4
330
1F
100
AcDbEntity
  8
8
  6
CONTINUOUS
 62
     4
100
AcDbDimension
  2
DIM7
 10
59.57786513794565
 20
302.4483800304774
 30
0.0
 11
59.57786513794565
 21
237.4483800304773
 31
0.0
 70
   160
  1
<>
  3
STANDARD
100
AcDbAlignedDimension
 13
83.57786513794554
 23
172.4483800304774
 33
0.0
 14
83.57786513794554
 24
302.4483800304773
 34
0.0
 50
89.99999999999991
100
AcDbRotatedDimension
1001
ACAD
1000
DSTYLE
1002
{
1070
   287
1070
     4
1070
     7
1000

1070
     6
1000

1070
   279
1070
     1
1070
   340
1005
15E
1070
   140
1040
4.5
1070
    40
1040
1.0
1070
   147
1040
0.0
1070
    76
1070
     0
1070
    75
1070
     0
1070
   173
1070
     1
1070
   289
1070
     2
1070
   288
1070
     1
1070
    77
1070
     1
1070
   172
1070
     1
1070
   174
1070
     0
1070
    74
1070
     0
1070
    73
1070
     0
1070
   284
1070
     8
1070
    78
1070
     8
1070
    42
1040
1.5
1070
    44
1040
2.25
1070
    43
1040
30.0
1070
   271
1070
     2
1070
    41
1040
3.0
1002
}
  0
DIMENSION
  5
1AE
330
1F
100
AcDbEntity
  8
8
  6
CONTINUOUS
 62
     4
100
AcDbDimension
  2
DIM8
 10
47.57786513794576
 20
310.4483800304776
 30
0.0
 11
47.57786513794576
 21
237.4483800304773
 31
0.0
 70
   160
  1
<>
  3
STANDARD
100
AcDbAlignedDimension
 13
119.4778651379455
 23
164.4483800304774
 33
0.0
 14
119.4778651379455
 24
310.4483800304773
 34
0.0
 50
89.99999999999991
100
AcDbRotatedDimension
1001
ACAD
1000
DSTYLE
1002
{
1070
   287
1070
     4
1070
     7
1000

1070
     6
1000

1070
   279
1070
     1
1070
   340
1005
15E
1070
   140
1040
4.5
1070
    40
1040
1.0
1070
   147
1040
0.0
1070
    76
1070
     0
1070
    75
1070
     0
1070
   173
1070
     1
1070
   289
1070
     2
1070
   288
1070
     1
1070
    77
1070
     1
1070
   172
1070
     1
1070
   174
1070
     0
1070
    74
1070
     0
1070
    73
1070
     0
1070
   284
1070
     8
1070
    78
1070
     8
1070
    42
1040
1.5
1070
    44
1040
2.25
1070
    43
1040
30.0
1070
   271
1070
     2
1070
    41
1040
3.0
1002
}
  0
DIMENSION
  5
1B8
330
1F
100
AcDbEntity
  8
8
  6
CONTINUOUS
 62
     4
100
AcDbDimension
  2
DIM9
 10
35.57786513794588
 20
157.4483800304776
 30
0.0
 11
35.57786513794588
 21
237.4483800304773
 31
0.0
 70
   160
  1
<>
 53
89.99999999999991
  3
STANDARD
100
AcDbAlignedDimension
 13
103.5778651379446
 23
317.4483800304773
 33
0.0
 14
103.5778651379446
 24
157.4483800304774
 34
0.0
 50
-89.99999999999991
100
AcDbRotatedDimension
1001
ACAD
1000
DSTYLE
1002
{
1070
   287
1070
     4
1070
     7
1000

1070
     6
1000

1070
   279
1070
     1
1070
   340
1005
15E
1070
   140
1040
4.5
1070
    40
1040
1.0
1070
   147
1040
0.0
1070
    76
1070
     0
1070
    75
1070
     0
1070
   173
1070
     1
1070
   289
1070
     2
1070
   288
1070
     1
1070
    77
1070
     1
1070
   172
1070
     1
1070
   174
1070
     0
1070
    74
1070
     0
1070
    73
1070
     0
1070
   284
1070
     8
1070
    78
1070
     8
1070
    42
1040
1.5
1070
    44
1040
2.25
1070
    43
1040
30.0
1070
   271
1070
     2
1070
    41
1040
3.0
1002
}
  0
DIMENSION
  5
1C2
330
1F
100
AcDbEntity
  8
8
  6
CONTINUOUS
 62
     4
100
AcDbDimension
  2
DIM10
 10
413.5778651379454
 20
115.4483800304778
 30
0.0
 11
442.0778651379456
 21
115.4483800304778
 31
0.0
 70
   160
  1
(<>
  3
STANDARD
100
AcDbAlignedDimension
 13
431.5778651379455
 23
234.9483800304774
 33
0.0
 14
413.5778651379455
 24
172.4483800304774
 34
0.0
 50
179.9999999999998
100
AcDbRotatedDimension
1001
ACAD
1000
DSTYLE
1002
{
1070
   287
1070
     4
1070
     7
1000

1070
     6
1000

1070
   279
1070
     1
1070
   340
1005
15E
1070
   140
1040
4.5
1070
    40
1040
1.0
1070
   147
1040
0.0
1070
    76
1070
     0
1070
    75
1070
     0
1070
   173
1070
     1
1070
   289
1070
     2
1070
   288
1070
     1
1070
    77
1070
     1
1070
   172
1070
     1
1070
   174
1070
     0
1070
    74
1070
     0
1070
    73
1070
     0
1070
   284
1070
     8
1070
    78
1070
     8
1070
    42
1040
1.5
1070
    44
1040
2.25
1070
    43
1040
30.0
1070
   271
1070
     2
1070
    41
1040
3.0
1002
}
  0
DIMENSION
  5
1CC
330
1F
100
AcDbEntity
  8
8
  6
CONTINUOUS
 62
     4
100
AcDbDimension
  2
DIM11
 10
533.8029154403478
 20
127.4483800304777
 30
0.0
 11
568.1061186706315
 21
127.4483800304777
 31
0.0
 70
   160
  1
(<>
  3
STANDARD
100
AcDbAlignedDimension
 13
554.2311186706315
 23
157.4483800304774
 33
0.0
 14
533.802915440348
 24
237.4483800304774
 34
0.0
 50
179.9999999999998
100
AcDbRotatedDimension
1001
ACAD
1000
DSTYLE
1002
{
1070
   287
1070
     4
1070
     7
1000

1070
     6
1000

1070
   279
1070
     1
1070
   340
1005
15E
1070
   140
1040
4.5
1070
    40
1040
1.0
1070
   147
1040
0.0
1070
    76
1070
     0
1070
    75
1070
     0
1070
   173
1070
     1
1070
   289
1070
     2
1070
   288
1070
     1
1070
    77
1070
     1
1070
   172
1070
     1
1070
   174
1070
     0
1070
    74
1070
     0
1070
    73
1070
     0
1070
   284
1070
     8
1070
    78
1070
     8
1070
    42
1040
1.5
1070
    44
1040
2.25
1070
    43
1040
30.0
1070
   271
1070
     2
1070
    41
1040
3.0
1002
}
  0
DIMENSION
  5
1D6
330
1F
100
AcDbEntity
  8
8
  6
CONTINUOUS
 62
     4
100
AcDbDimension
  2
DIM12
 10
373.5778651379455
 20
139.4483800304777
 30
0.0
 11
342.3278651379452
 21
139.4483800304777
 31
0.0
 70
   160
  1
<>
  3
STANDARD
100
AcDbAlignedDimension
 13
311.0778651379446
 23
160.3483800304773
 33
0.0
 14
373.5778651379455
 24
160.3483800304773
 34
0.0
100
AcDbRotatedDimension
1001
ACAD
1000
DSTYLE
1002
{
1070
   287
1070
     4
1070
     7
1000

1070
     6
1000

1070
   279
1070
     1
1070
   340
1005
15E
1070
   140
1040
4.5
1070
    40
1040
1.0
1070
   147
1040
0.0
1070
    76
1070
     0
1070
    75
1070
     0
1070
   173
1070
     1
1070
   289
1070
     2
1070
   288
1070
     1
1070
    77
1070
     1
1070
   172
1070
     1
1070
   174
1070
     0
1070
    74
1070
     0
1070
    73
1070
     0
1070
   284
1070
     8
1070
    78
1070
     8
1070
    42
1040
1.5
1070
    44
1040
2.25
1070
    43
1040
30.0
1070
   271
1070
     2
1070
    41
1040
3.0
1002
}
  0
DIMENSION
  5
1E0
330
1F
100
AcDbEntity
  8
8
  6
CONTINUOUS
 62
     4
100
AcDbDimension
  2
DIM13
 10
186.0778651379464
 20
139.4483800304778
 30
0.0
 11
154.8278651379461
 21
139.4483800304778
 31
0.0
 70
   160
  1
<>
  3
STANDARD
100
AcDbAlignedDimension
 13
123.5778651379455
 23
160.3483800304773
 33
0.0
 14
186.0778651379464
 24
160.3483800304773
 34
0.0
100
AcDbRotatedDimension
1001
ACAD
1000
DSTYLE
1002
{
1070
   287
1070
     4
1070
     7
1000

1070
     6
1000

1070
   279
1070
     1
1070
   340
1005
15E
1070
   140
1040
4.5
1070
    40
1040
1.0
1070
   147
1040
0.0
1070
    76
1070
     0
1070
    75
1070
     0
1070
   173
1070
     1
1070
   289
1070
     2
1070
   288
1070
     1
1070
    77
1070
     1
1070
   172
1070
     1
1070
   174
1070
     0
1070
    74
1070
     0
1070
    73
1070
     0
1070
   284
1070
     8
1070
    78
1070
     8
1070
    42
1040
1.5
1070
    44
1040
2.25
1070
    43
1040
30.0
1070
   271
1070
     2
1070
    41
1040
3.0
1002
}
  0
DIMENSION
  5
1E8
330
1F
100
AcDbEntity
  8
8
  6
CONTINUOUS
 62
     4
100
AcDbDimension
  2
DIM14
 10
259.2068050532183
 20
206.7355873167321
 30
0.0
 11
212.5860064827101
 21
348.3282517444225
 31
0.0
 70
   163
  1
<>
  3
STANDARD
100
AcDbDiametricDimension
 15
237.9489252226727
 25
268.1611727442234
 35
0.0
 40
0.0
1001
ACAD
1000
DSTYLE
1002
{
1070
   287
1070
     2
1070
     7
1000

1070
     6
1000

1070
   340
1005
15E
1070
   140
1040
4.5
1070
    40
1040
1.0
1070
   147
1040
0.0
1070
    76
1070
     0
1070
    75
1070
     0
1070
   173
1070
     1
1070
   289
1070
     2
1070
   288
1070
     1
1070
    77
1070
     1
1070
   172
1070
     1
1070
   174
1070
     0
1070
    74
1070
     0
1070
    73
1070
     0
1070
   284
1070
     8
1070
    78
1070
     8
1070
    42
1040
1.5
1070
    44
1040
2.25
1070
    43
1040
30.0
1070
   271
1070
     2
1070
    41
1040
3.0
1002
}
  0
DIMENSION
  5
1F0
330
1F
100
AcDbEntity
  8
8
  6
CONTINUOUS
 62
     4
100
AcDbDimension
  2
DIM15
 10
264.468099970653
 20
215.0039946086976
 30
0.0
 11
184.8611008549181
 21
331.3399197782732
 31
0.0
 70
   163
  1
<>
  3
STANDARD
100
AcDbDiametricDimension
 15
232.6876303052388
 25
259.892765452257
 35
0.0
 40
0.0
1001
ACAD
1000
DSTYLE
1002
{
1070
   287
1070
     2
1070
     7
1000

1070
     6
1000

1070
   340
1005
15E
1070
   140
1040
4.5
1070
    40
1040
1.0
1070
   147
1040
0.0
1070
    76
1070
     0
1070
    75
1070
     0
1070
   173
1070
     1
1070
   289
1070
     2
1070
   288
1070
     1
1070
    77
1070
     1
1070
   172
1070
     1
1070
   174
1070
     0
1070
    74
1070
     0
1070
    73
1070
     0
1070
   284
1070
     8
1070
    78
1070
     8
1070
    42
1040
1.5
1070
    44
1040
2.25
1070
    43
1040
30.0
1070
   271
1070
     2
1070
    41
1040
3.0
1002
}
  0
INSERT
  5
1F1
330
1F
100
AcDbEntity
  8
8
  6
CONTINUOUS
 62
     4
100
AcDbBlockReference
  2
_OPEN
 10
125.1278651379456
 20
313.1330587822092
 30
0.0
 41
4.5
 42
4.5
 43
4.5
 50
239.9999999999998
  0
POLYLINE
  5
1F2
330
1F
100
AcDbEntity
  8
8
  6
CONTINUOUS
 62
     4
100
AcDb2dPolyline
 66
     1
 10
0.0
 20
0.0
 30
0.0
  0
VERTEX
  5
1F3
330
1F2
100
AcDbEntity
  8
8
  6
CONTINUOUS
 62
     4
100
AcDbVertex
100
AcDb2dVertex
 10
125.1278651379456
 20
313.1330587822092
 30
0.0
  0
VERTEX
  5
1F4
330
1F2
100
AcDbEntity
  8
8
  6
CONTINUOUS
 62
     4
100
AcDbVertex
100
AcDb2dVertex
 10
135.2528651379456
 20
330.670073208844
 30
0.0
  0
VERTEX
  5
1F5
330
1F2
100
AcDbEntity
  8
8
  6
CONTINUOUS
 62
     4
100
AcDbVertex
100
AcDb2dVertex
 10
154.5428651379456
 20
330.670073208844
 30
0.0
  0
SEQEND
  5
1F6
330
1F2
100
AcDbEntity
  8
8
  6
CONTINUOUS
 62
     4
  0
MTEXT
  5
1F7
330
1F
100
AcDbEntity
  8
8
  6
CONTINUOUS
 62
     4
100
AcDbMText
 10
138.7928651379456
 20
330.670073208844
 30
0.0
 40
4.5
 41
23.06869875
 71
     7
 72
     1
  1
{\fＭＳ ゴシック;\T0.750000;8-φ6.2}
1001
ACAD
1000
ACAD_MTEXT_DEFINED_HEIGHT_BEGIN
1070
    46
1040
4.5
1000
ACAD_MTEXT_DEFINED_HEIGHT_END
  0
MTEXT
  5
1F8
330
1F
100
AcDbEntity
  8
8
  6
CONTINUOUS
 62
     4
100
AcDbMText
 10
447.243853162116
 20
228.0880527546609
 30
0.0
 40
4.5
 41
15.86956499999999
 71
     1
 72
     1
  1
{\fＭＳ ゴシック;\T0.750000;L=500}
1001
ACAD
1000
ACAD_MTEXT_DEFINED_HEIGHT_BEGIN
1070
    46
1040
4.5
1000
ACAD_MTEXT_DEFINED_HEIGHT_END
  0
VIEWPORT
  5
3F
330
1B
100
AcDbEntity
 67
     1
  8
0
100
AcDbViewport
 10
297.0
 20
210.0
 30
0.0
 40
594.0
 41
420.0
 68
     1
 69
     1
1001
ACAD
1000
MVIEW
1002
{
1070
    16
1010
0.0
1020
0.0
1030
0.0
1010
0.0
1020
0.0
1030
1.0
1040
0.0
1040
9.0
1040
297.0
1040
210.0
1040
50.0
1040
0.0
1040
0.0
1070
     0
1070
   100
1070
     0
1070
     3
1070
     0
1070
     0
1070
     0
1070
     0
1040
0.0
1040
0.0
1040
0.0
1040
0.5
1040
0.5
1040
0.5
1040
0.5
1070
     0
1002
{
1002
}
1002
}
  0
ENDSEC
  0
SECTION
  2
OBJECTS
  0
DICTIONARY
  5
C
330
0
100
AcDbDictionary
  3
ACAD_GROUP
350
D
  3
ACAD_LAYOUT
350
1A
  3
ACAD_MATERIAL
350
3B
  3
ACAD_MLEADERSTYLE
350
21B
  3
ACAD_MLINESTYLE
350
17
  3
ACAD_PLOTSETTINGS
350
19
  3
ACAD_VISUALSTYLE
350
2A
  3
ACDBHEADERROUNDTRIPXREC
350
1F9
  3
ACDBVARIABLEDICTIONARY
350
219
  0
DICTIONARY
  5
D
102
{ACAD_REACTORS
330
C
102
}
330
C
100
AcDbDictionary
  0
DICTIONARY
  5
1A
102
{ACAD_REACTORS
330
C
102
}
330
C
100
AcDbDictionary
  0
DICTIONARY
  5
3B
102
{ACAD_REACTORS
330
C
102
}
330
C
100
AcDbDictionary
  3
BYBLOCK
350
3D
  3
BYLAYER
350
3C
  3
GLOBAL
350
3E
  0
DICTIONARY
  5
21B
102
{ACAD_REACTORS
330
C
102
}
330
C
100
AcDbDictionary
  0
DICTIONARY
  5
17
102
{ACAD_REACTORS
330
C
102
}
330
C
100
AcDbDictionary
  3
STANDARD
350
18
  0
DICTIONARY
  5
19
102
{ACAD_REACTORS
330
C
102
}
330
C
100
AcDbDictionary
  0
DICTIONARY
  5
2A
102
{ACAD_REACTORS
330
C
102
}
330
C
100
AcDbDictionary
  3
2DWIREFRAME
350
2F
  3
3D_HIDDEN
350
31
  3
3DWIREFRAME
350
30
  3
BASIC
350
32
  3
BRIGHTEN
350
36
  3
COLORCHANGE
350
3A
  3
CONCEPTUAL
350
34
  3
DIM
350
35
  3
FACEPATTERN
350
39
  3
FLAT
350
2B
  3
FLATWITHEDGES
350
2C
  3
GOURAUD
350
2D
  3
GOURAUDWITHEDGES
350
2E
  3
LINEPATTERN
350
38
  3
REALISTIC
350
33
  3
THICKEN
350
37
  0
DICTIONARY
  5
1F9
102
{ACAD_REACTORS
330
C
102
}
330
C
100
AcDbDictionary
  3
CEPSNTYPE
350
202
  3
DIMSTYLEDATA
350
218
  3
FINGERPRINTGUID
350
203
  3
HYPERLINKBASE
350
1FC
  3
INSUNITS
350
201
  3
LAYOUTDICT
350
1FE
  3
LWETCUNION
350
200
  3
PLOTSETDICT
350
1FF
  3
PSVPSCALE
350
205
  3
PUCSBASE
350
208
  3
PUCSORGBACK
350
20E
  3
PUCSORGBOTTOM
350
20A
  3
PUCSORGFRONT
350
20D
  3
PUCSORGLEFT
350
20B
  3
PUCSORGRIGHT
350
20C
  3
PUCSORGTOP
350
209
  3
PUCSORTHOREF
350
206
  3
PUCSORTHOVIEW
350
207
  3
STYLESHEET
350
1FD
  3
TSTACKALIGN
350
1FA
  3
TSTACKSIZE
350
1FB
  3
UCSBASE
350
211
  3
UCSORGBACK
350
217
  3
UCSORGBOTTOM
350
213
  3
UCSORGFRONT
350
216
  3
UCSORGLEFT
350
214
  3
UCSORGRIGHT
350
215
  3
UCSORGTOP
350
212
  3
UCSORTHOREF
350
20F
  3
UCSORTHOVIEW
350
210
  3
VERSIONGUID
350
204
  0
DICTIONARY
  5
219
102
{ACAD_REACTORS
330
C
102
}
330
C
100
AcDbDictionary
  3
DIMASSOC
350
21C
  3
HIDETEXT
350
21D
  0
MATERIAL
  5
3D
102
{ACAD_REACTORS
330
3B
102
}
102
{ACAD_XDICTIONARY
360
220
102
}
330
3B
100
AcDbMaterial
  1
ByBlock
  0
MATERIAL
  5
3C
102
{ACAD_REACTORS
330
3B
102
}
102
{ACAD_XDICTIONARY
360
21E
102
}
330
3B
100
AcDbMaterial
  1
ByLayer
  0
MATERIAL
  5
3E
102
{ACAD_REACTORS
330
3B
102
}
102
{ACAD_XDICTIONARY
360
222
102
}
330
3B
100
AcDbMaterial
  1
Global
  0
MLINESTYLE
  5
18
102
{ACAD_REACTORS
330
17
102
}
330
17
100
AcDbMlineStyle
  2
Standard
 70
     0
  3

 62
   256
 51
90.0
 52
90.0
 71
     2
 49
0.5
 62
   256
  6
BYLAYER
 49
-0.5
 62
   256
  6
BYLAYER
  0
ACAD_PROXY_OBJECT
  5
2F
102
{ACAD_REACTORS
330
2A
102
}
330
2A
100
AcDbProxyObject
 90
      499
 91
      501
 93
      436
310
42CC9915DA5C99599C985B595049028333333333333E3BF0000000000000FB0107901411070040501600405405064090741402480A0340
1001
ACAD
1000
AcDbSavedByObjectVersion
1070
     0
  0
ACAD_PROXY_OBJECT
  5
31
102
{ACAD_REACTORS
330
2A
102
}
330
2A
100
AcDbProxyObject
 90
      499
 91
      501
 93
      500
310
424CD108121A5919195B90640502408333333333333E3BF0000000000000FB01079024090700405020000000000001110200405405064090740C02480A0340
1001
ACAD
1000
AcDbSavedByObjectVersion
1070
     0
  0
ACAD_PROXY_OBJECT
  5
30
102
{ACAD_REACTORS
330
2A
102
}
330
2A
100
AcDbProxyObject
 90
      499
 91
      501
 93
      436
310
42CCD915DA5C99599C985B595059028333333333333E3BF0000000000000FB0107901411070040501600405405064090741402480A0340
1001
ACAD
1000
AcDbSavedByObjectVersion
1070
     0
  0
ACAD_PROXY_OBJECT
  5
32
102
{ACAD_REACTORS
330
2A
102
}
330
2A
100
AcDbProxyObject
 90
      499
 91
      501
 93
      388
310
4150985CDA58D07406404333333333333E3BF0000000000000FB0107A41107004050150841D405064090741402480A0350
1001
ACAD
1000
AcDbSavedByObjectVersion
1070
     0
  0
ACAD_PROXY_OBJECT
  5
36
102
{ACAD_REACTORS
330
2A
102
}
330
2A
100
AcDbProxyObject
 90
      499
 91
      501
 93
      428
310
42109C9A59DA1D195B90C409028333333333333E3BF0000000000000FB010790141107004050150841D405064090741402480A029950
1001
ACAD
1000
AcDbSavedByObjectVersion
1070
     0
  0
ACAD_PROXY_OBJECT
  5
3A
102
{ACAD_REACTORS
330
2A
102
}
330
2A
100
AcDbProxyObject
 90
      499
 91
      501
 93
      452
310
42D0DBDB1BDC90DA185B99D95104090240C333333333333E3BF0000000000000FB0108901411070040501508421405064090741402480A0350
1001
ACAD
1000
AcDbSavedByObjectVersion
1070
     0
  0
ACAD_PROXY_OBJECT
  5
34
102
{ACAD_REACTORS
330
2A
102
}
330
2A
100
AcDbProxyObject
 90
      499
 91
      501
 93
      500
310
4290DBDB98D95C1D1D585B10940D028333333333333E3BF0000000000000FB0107902409070040501000000000000111010841D405064090740C02480A0340
1001
ACAD
1000
AcDbSavedByObjectVersion
1070
     0
  0
ACAD_PROXY_OBJECT
  5
35
102
{ACAD_REACTORS
330
2A
102
}
330
2A
100
AcDbProxyObject
 90
      499
 91
      501
 93
      412
310
40D11A5B50B409028333333333333E3BF0000000000000FB010790141107004050150841D405064090741402480A02677FFFFFD0
1001
ACAD
1000
AcDbSavedByObjectVersion
1070
     0
  0
ACAD_PROXY_OBJECT
  5
39
102
{ACAD_REACTORS
330
2A
102
}
330
2A
100
AcDbProxyObject
 90
      499
 91
      501
 93
      444
310
42D19858D95C185D1D195C9B90F409028333333333333E3BF0000000000000FB010790141107004050150841D405064090741402480A0350
1001
ACAD
1000
AcDbSavedByObjectVersion
1070
     0
  0
ACAD_PROXY_OBJECT
  5
2B
102
{ACAD_REACTORS
330
2A
102
}
330
2A
100
AcDbProxyObject
 90
      499
 91
      501
 93
      388
310
41119B185D240901404333333333333E3BF0000000000000F9010740A41107004050150841D405064090741402480A1B50
1001
ACAD
1000
AcDbSavedByObjectVersion
1070
     0
  0
ACAD_PROXY_OBJECT
  5
2C
102
{ACAD_REACTORS
330
2A
102
}
330
2A
100
AcDbProxyObject
 90
      499
 91
      501
 93
      476
310
43519B185D15DA5D1A115919D95CD0140901404333333333333E3BF0000000000000F9010740901411070040501600405405064090741402480A1B50
1001
ACAD
1000
AcDbSavedByObjectVersion
1070
     0
  0
ACAD_PROXY_OBJECT
  5
2D
102
{ACAD_REACTORS
330
2A
102
}
330
2A
100
AcDbProxyObject
 90
      499
 91
      501
 93
      412
310
41D1DBDD5C985D5910240902404333333333333E3BF0000000000000F9010740A411070040501641D405064090741402480A1B50
1001
ACAD
1000
AcDbSavedByObjectVersion
1070
     0
  0
ACAD_PROXY_OBJECT
  5
2E
102
{ACAD_REACTORS
330
2A
102
}
330
2A
100
AcDbProxyObject
 90
      499
 91
      501
 93
      500
310
4411DBDD5C985D5915DA5D1A115919D95CD0340902404333333333333E3BF0000000000000F9010740901411070040501600405405064090741402480A1B50
1001
ACAD
1000
AcDbSavedByObjectVersion
1070
     0
  0
ACAD_PROXY_OBJECT
  5
38
102
{ACAD_REACTORS
330
2A
102
}
330
2A
100
AcDbProxyObject
 90
      499
 91
      501
 93
      444
310
42D31A5B995C185D1D195C9B90E409028333333333333E3BF0000000000000FB010790141107004050750841D405064090741402483A0350
1001
ACAD
1000
AcDbSavedByObjectVersion
1070
     0
  0
ACAD_PROXY_OBJECT
  5
33
102
{ACAD_REACTORS
330
2A
102
}
330
2A
100
AcDbProxyObject
 90
      499
 91
      501
 93
      420
310
425499585B1A5CDD1A58D08409028333333333333E3BF0000000000000FB01079019070040501508421405064090741402480A1B40
1001
ACAD
1000
AcDbSavedByObjectVersion
1070
     0
  0
ACAD_PROXY_OBJECT
  5
37
102
{ACAD_REACTORS
330
2A
102
}
330
2A
100
AcDbProxyObject
 90
      499
 91
      501
 93
      412
310
41D51A1A58DAD95B90D409028333333333333E3BF0000000000000FB010790141107004050150C41D405064090741402480A0350
1001
ACAD
1000
AcDbSavedByObjectVersion
1070
     0
  0
XRECORD
  5
202
102
{ACAD_REACTORS
330
1F9
102
}
330
1F9
100
AcDbXrecord
 90
        0
  0
XRECORD
  5
218
102
{ACAD_REACTORS
330
1F9
102
}
330
1F9
100
AcDbXrecord
1000
DSTYLE
1002
{
1070
   171
 70
     2
1070
   143
 40
25.4
1070
   274
 70
     2
1070
    41
 40
1.55291427
1070
   289
 70
     2
1070
   141
 40
0.09
1070
    43
 40
30.0
1070
   278
 70
    46
1070
    44
 40
2.0
1070
    42
 40
2.0
1070
   147
 40
0.09
1070
    77
 70
     3
1070
   272
 70
     4
1070
   146
 40
0.5
1070
   279
 70
     2
1070
   283
 70
     1
1070
   145
 40
0.7
1070
   340
340
11
1070
   140
 40
2.8
1070
   288
 70
     1
1002
}
  0
XRECORD
  5
203
102
{ACAD_REACTORS
330
1F9
102
}
330
1F9
100
AcDbXrecord
  1
{44B5C051-DF8C-41BA-9036-D36D60CAEB76}
  0
XRECORD
  5
1FC
102
{ACAD_REACTORS
330
1F9
102
}
330
1F9
100
AcDbXrecord
  1

  0
XRECORD
  5
201
102
{ACAD_REACTORS
330
1F9
102
}
330
1F9
100
AcDbXrecord
 90
        4
  0
XRECORD
  5
1FE
102
{ACAD_REACTORS
330
1F9
102
}
330
1F9
100
AcDbXrecord
340
1A
  0
XRECORD
  5
200
102
{ACAD_REACTORS
330
1F9
102
}
330
1F9
100
AcDbXrecord
 90
    10781
  0
XRECORD
  5
1FF
102
{ACAD_REACTORS
330
1F9
102
}
330
1F9
100
AcDbXrecord
340
19
  0
XRECORD
  5
205
102
{ACAD_REACTORS
330
1F9
102
}
330
1F9
100
AcDbXrecord
 40
0.0
  0
XRECORD
  5
208
102
{ACAD_REACTORS
330
1F9
102
}
330
1F9
100
AcDbXrecord
340
0
  0
XRECORD
  5
20E
102
{ACAD_REACTORS
330
1F9
102
}
330
1F9
100
AcDbXrecord
 10
0.0
 20
0.0
 30
0.0
  0
XRECORD
  5
20A
102
{ACAD_REACTORS
330
1F9
102
}
330
1F9
100
AcDbXrecord
 10
0.0
 20
0.0
 30
0.0
  0
XRECORD
  5
20D
102
{ACAD_REACTORS
330
1F9
102
}
330
1F9
100
AcDbXrecord
 10
0.0
 20
0.0
 30
0.0
  0
XRECORD
  5
20B
102
{ACAD_REACTORS
330
1F9
102
}
330
1F9
100
AcDbXrecord
 10
0.0
 20
0.0
 30
0.0
  0
XRECORD
  5
20C
102
{ACAD_REACTORS
330
1F9
102
}
330
1F9
100
AcDbXrecord
 10
0.0
 20
0.0
 30
0.0
  0
XRECORD
  5
209
102
{ACAD_REACTORS
330
1F9
102
}
330
1F9
100
AcDbXrecord
 10
0.0
 20
0.0
 30
0.0
  0
XRECORD
  5
206
102
{ACAD_REACTORS
330
1F9
102
}
330
1F9
100
AcDbXrecord
340
0
  0
XRECORD
  5
207
102
{ACAD_REACTORS
330
1F9
102
}
330
1F9
100
AcDbXrecord
 70
     0
  0
XRECORD
  5
1FD
102
{ACAD_REACTORS
330
1F9
102
}
330
1F9
100
AcDbXrecord
  1

  0
XRECORD
  5
1FA
102
{ACAD_REACTORS
330
1F9
102
}
330
1F9
100
AcDbXrecord
 90
        1
  0
XRECORD
  5
1FB
102
{ACAD_REACTORS
330
1F9
102
}
330
1F9
100
AcDbXrecord
 90
       70
  0
XRECORD
  5
211
102
{ACAD_REACTORS
330
1F9
102
}
330
1F9
100
AcDbXrecord
340
0
  0
XRECORD
  5
217
102
{ACAD_REACTORS
330
1F9
102
}
330
1F9
100
AcDbXrecord
 10
0.0
 20
0.0
 30
0.0
  0
XRECORD
  5
213
102
{ACAD_REACTORS
330
1F9
102
}
330
1F9
100
AcDbXrecord
 10
0.0
 20
0.0
 30
0.0
  0
XRECORD
  5
216
102
{ACAD_REACTORS
330
1F9
102
}
330
1F9
100
AcDbXrecord
 10
0.0
 20
0.0
 30
0.0
  0
XRECORD
  5
214
102
{ACAD_REACTORS
330
1F9
102
}
330
1F9
100
AcDbXrecord
 10
0.0
 20
0.0
 30
0.0
  0
XRECORD
  5
215
102
{ACAD_REACTORS
330
1F9
102
}
330
1F9
100
AcDbXrecord
 10
0.0
 20
0.0
 30
0.0
  0
XRECORD
  5
212
102
{ACAD_REACTORS
330
1F9
102
}
330
1F9
100
AcDbXrecord
 10
0.0
 20
0.0
 30
0.0
  0
XRECORD
  5
20F
102
{ACAD_REACTORS
330
1F9
102
}
330
1F9
100
AcDbXrecord
340
0
  0
XRECORD
  5
210
102
{ACAD_REACTORS
330
1F9
102
}
330
1F9
100
AcDbXrecord
 70
     0
  0
XRECORD
  5
204
102
{ACAD_REACTORS
330
1F9
102
}
330
1F9
100
AcDbXrecord
  1
{FAEB1C32-E019-11D5-929B-00C0DF256EC4}
  0
DICTIONARYVAR
  5
21C
102
{ACAD_REACTORS
330
219
102
}
330
219
100
DictionaryVariables
280
     0
  1
1
  0
DICTIONARYVAR
  5
21D
102
{ACAD_REACTORS
330
219
102
}
330
219
100
DictionaryVariables
280
     0
  1
1
  0
DICTIONARY
  5
220
330
3D
100
AcDbDictionary
280
     1
  3
ACAD_XREC_ROUNDTRIP
360
221
  0
DICTIONARY
  5
21E
330
3C
100
AcDbDictionary
280
     1
  3
ACAD_XREC_ROUNDTRIP
360
21F
  0
DICTIONARY
  5
222
330
3E
100
AcDbDictionary
280
     1
  3
ACAD_XREC_ROUNDTRIP
360
223
  0
XRECORD
  5
221
102
{ACAD_REACTORS
330
220
102
}
330
220
100
AcDbXrecord
102
MATERIAL
148
0.0
149
0.0
149
0.0
 93
        0
 94
      127
282
     0
 72
     1
 77
     1
171
     1
175
     1
179
     1
273
     0
  0
XRECORD
  5
21F
102
{ACAD_REACTORS
330
21E
102
}
330
21E
100
AcDbXrecord
102
MATERIAL
148
0.0
149
0.0
149
0.0
 93
        0
 94
      127
282
     0
 72
     1
 77
     1
171
     1
175
     1
179
     1
273
     0
  0
XRECORD
  5
223
102
{ACAD_REACTORS
330
222
102
}
330
222
100
AcDbXrecord
102
MATERIAL
148
0.0
149
0.0
149
0.0
 93
        0
 94
      127
282
     0
 72
     1
 77
     1
171
     1
175
     1
179
     1
273
     0
  0
ENDSEC
  0
EOF
