  0
SECTION
  2
HEADER
  9
$ACADVER
  1
AC1027
  9
$ACADMAINTVER
 70
     8
  9
$DWGCODEPAGE
  3
ANSI_932
  9
$REQUIREDVERSIONS
160
                 0
  9
$INSBASE
 10
0.0
 20
0.0
 30
0.0
  9
$EXTMIN
 10
30.92774566473989
 20
30.92774566473988
 30
0.0
  9
$EXTMAX
 10
598.4614824143191
 20
302.4553286474807
 30
0.0
  9
$LIMMIN
 10
0.0
 20
0.0
  9
$LIMMAX
 10
1189.0
 20
841.0
  9
$ORTHOMODE
 70
     0
  9
$REGENMODE
 70
     1
  9
$FILLMODE
 70
     1
  9
$QTEXTMODE
 70
     0
  9
$MIRRTEXT
 70
     1
  9
$LTSCALE
 40
0.25
  9
$ATTMODE
 70
     1
  9
$TEXTSIZE
 40
2.8
  9
$TRACEWID
 40
0.05
  9
$TEXTSTYLE
  7
Standard
  9
$CLAYER
  8
0
  9
$CELTYPE
  6
ByLayer
  9
$CECOLOR
 62
   256
  9
$CELTSCALE
 40
1.0
  9
$DISPSILH
 70
     0
  9
$DIMSCALE
 40
1.0
  9
$DIMASZ
 40
1.55291427
  9
$DIMEXO
 40
2.0
  9
$DIMDLI
 40
30.0
  9
$DIMRND
 40
0.0
  9
$DIMDLE
 40
0.0
  9
$DIMEXE
 40
2.0
  9
$DIMTP
 40
0.0
  9
$DIMTM
 40
0.0
  9
$DIMTXT
 40
2.8
  9
$DIMCEN
 40
0.09
  9
$DIMTSZ
 40
0.0
  9
$DIMTOL
 70
     0
  9
$DIMLIM
 70
     0
  9
$DIMTIH
 70
     0
  9
$DIMTOH
 70
     0
  9
$DIMSE1
 70
     0
  9
$DIMSE2
 70
     0
  9
$DIMTAD
 70
     3
  9
$DIMZIN
 70
     8
  9
$DIMBLK
  1

  9
$DIMASO
 70
     1
  9
$DIMSHO
 70
     1
  9
$DIMPOST
  1

  9
$DIMAPOST
  1

  9
$DIMALT
 70
     0
  9
$DIMALTD
 70
     2
  9
$DIMALTF
 40
25.4
  9
$DIMLFAC
 40
1.0
  9
$DIMTOFL
 70
     1
  9
$DIMTVP
 40
0.7
  9
$DIMTIX
 70
     0
  9
$DIMSOXD
 70
     0
  9
$DIMSAH
 70
     0
  9
$DIMBLK1
  1

  9
$DIMBLK2
  1

  9
$DIMSTYLE
  2
Standard
  9
$DIMCLRD
 70
     0
  9
$DIMCLRE
 70
     0
  9
$DIMCLRT
 70
     0
  9
$DIMTFAC
 40
0.5
  9
$DIMGAP
 40
0.09
  9
$DIMJUST
 70
     0
  9
$DIMSD1
 70
     0
  9
$DIMSD2
 70
     0
  9
$DIMTOLJ
 70
     1
  9
$DIMTZIN
 70
     8
  9
$DIMALTZ
 70
     0
  9
$DIMALTTZ
 70
     0
  9
$DIMUPT
 70
     1
  9
$DIMDEC
 70
     2
  9
$DIMTDEC
 70
     4
  9
$DIMALTU
 70
     2
  9
$DIMALTTD
 70
     2
  9
$DIMTXSTY
  7
Standard
  9
$DIMAUNIT
 70
     0
  9
$DIMADEC
 70
     0
  9
$DIMALTRND
 40
0.0
  9
$DIMAZIN
 70
     0
  9
$DIMDSEP
 70
    46
  9
$DIMATFIT
 70
     2
  9
$DIMFRAC
 70
     0
  9
$DIMLDRBLK
  1

  9
$DIMLUNIT
 70
     2
  9
$DIMLWD
 70
    -2
  9
$DIMLWE
 70
    -2
  9
$DIMTMOVE
 70
     2
  9
$DIMFXL
 40
1.0
  9
$DIMFXLON
 70
     0
  9
$DIMJOGANG
 40
0.7853981633974483
  9
$DIMTFILL
 70
     0
  9
$DIMTFILLCLR
 70
     0
  9
$DIMARCSYM
 70
     0
  9
$DIMLTYPE
  6

  9
$DIMLTEX1
  6

  9
$DIMLTEX2
  6

  9
$DIMTXTDIRECTION
 70
     0
  9
$LUNITS
 70
     2
  9
$LUPREC
 70
     4
  9
$SKETCHINC
 40
0.1
  9
$FILLETRAD
 40
0.5
  9
$AUNITS
 70
     0
  9
$AUPREC
 70
     0
  9
$MENU
  1
.
  9
$ELEVATION
 40
0.0
  9
$PELEVATION
 40
0.0
  9
$THICKNESS
 40
0.0
  9
$LIMCHECK
 70
     0
  9
$CHAMFERA
 40
0.0
  9
$CHAMFERB
 40
0.0
  9
$CHAMFERC
 40
0.0
  9
$CHAMFERD
 40
0.0
  9
$SKPOLY
 70
     0
  9
$TDCREATE
 40
2460053.936053241
  9
$TDUCREATE
 40
2460053.561053241
  9
$TDUPDATE
 40
2460053.561060509
  9
$TDUUPDATE
 40
2460053.186060509
  9
$TDINDWG
 40
0.0000000116
  9
$TDUSRTIMER
 40
0.0000000116
  9
$USRTIMER
 70
     1
  9
$ANGBASE
 50
0.0
  9
$ANGDIR
 70
     0
  9
$PDMODE
 70
     0
  9
$PDSIZE
 40
0.0
  9
$PLINEWID
 40
0.0
  9
$SPLFRAME
 70
     0
  9
$SPLINETYPE
 70
     6
  9
$SPLINESEGS
 70
     8
  9
$HANDSEED
  5
2B5
  9
$SURFTAB1
 70
     6
  9
$SURFTAB2
 70
     6
  9
$SURFTYPE
 70
     6
  9
$SURFU
 70
     6
  9
$SURFV
 70
     6
  9
$UCSBASE
  2

  9
$UCSNAME
  2

  9
$UCSORG
 10
0.0
 20
0.0
 30
0.0
  9
$UCSXDIR
 10
1.0
 20
0.0
 30
0.0
  9
$UCSYDIR
 10
0.0
 20
1.0
 30
0.0
  9
$UCSORTHOREF
  2

  9
$UCSORTHOVIEW
 70
     0
  9
$UCSORGTOP
 10
0.0
 20
0.0
 30
0.0
  9
$UCSORGBOTTOM
 10
0.0
 20
0.0
 30
0.0
  9
$UCSORGLEFT
 10
0.0
 20
0.0
 30
0.0
  9
$UCSORGRIGHT
 10
0.0
 20
0.0
 30
0.0
  9
$UCSORGFRONT
 10
0.0
 20
0.0
 30
0.0
  9
$UCSORGBACK
 10
0.0
 20
0.0
 30
0.0
  9
$PUCSBASE
  2

  9
$PUCSNAME
  2

  9
$PUCSORG
 10
0.0
 20
0.0
 30
0.0
  9
$PUCSXDIR
 10
1.0
 20
0.0
 30
0.0
  9
$PUCSYDIR
 10
0.0
 20
1.0
 30
0.0
  9
$PUCSORTHOREF
  2

  9
$PUCSORTHOVIEW
 70
     0
  9
$PUCSORGTOP
 10
0.0
 20
0.0
 30
0.0
  9
$PUCSORGBOTTOM
 10
0.0
 20
0.0
 30
0.0
  9
$PUCSORGLEFT
 10
0.0
 20
0.0
 30
0.0
  9
$PUCSORGRIGHT
 10
0.0
 20
0.0
 30
0.0
  9
$PUCSORGFRONT
 10
0.0
 20
0.0
 30
0.0
  9
$PUCSORGBACK
 10
0.0
 20
0.0
 30
0.0
  9
$USERI1
 70
     0
  9
$USERI2
 70
     0
  9
$USERI3
 70
     0
  9
$USERI4
 70
     0
  9
$USERI5
 70
     0
  9
$USERR1
 40
0.0
  9
$USERR2
 40
0.0
  9
$USERR3
 40
0.0
  9
$USERR4
 40
0.0
  9
$USERR5
 40
0.0
  9
$WORLDVIEW
 70
     1
  9
$SHADEDGE
 70
     3
  9
$SHADEDIF
 70
    70
  9
$TILEMODE
 70
     1
  9
$MAXACTVP
 70
    64
  9
$PINSBASE
 10
0.0
 20
0.0
 30
0.0
  9
$PLIMCHECK
 70
     0
  9
$PEXTMIN
 10
0.0
 20
0.0
 30
0.0
  9
$PEXTMAX
 10
1189.0
 20
841.0
 30
0.0
  9
$PLIMMIN
 10
0.0
 20
0.0
  9
$PLIMMAX
 10
1189.0
 20
841.0
  9
$UNITMODE
 70
     0
  9
$VISRETAIN
 70
     1
  9
$PLINEGEN
 70
     0
  9
$PSLTSCALE
 70
     1
  9
$TREEDEPTH
 70
  3020
  9
$CMLSTYLE
  2
Standard
  9
$CMLJUST
 70
     0
  9
$CMLSCALE
 40
1.0
  9
$PROXYGRAPHICS
 70
     1
  9
$MEASUREMENT
 70
     1
  9
$CELWEIGHT
370
    -1
  9
$ENDCAPS
280
     0
  9
$JOINSTYLE
280
     0
  9
$LWDISPLAY
290
     0
  9
$INSUNITS
 70
     4
  9
$HYPERLINKBASE
  1

  9
$STYLESHEET
  1

  9
$XEDIT
290
     1
  9
$CEPSNTYPE
380
     0
  9
$PSTYLEMODE
290
     1
  9
$FINGERPRINTGUID
  2
{708F54F0-1304-4478-98F3-C206E0658843}
  9
$VERSIONGUID
  2
{FAEB1C32-E019-11D5-929B-00C0DF256EC4}
  9
$EXTNAMES
290
     1
  9
$PSVPSCALE
 40
0.0
  9
$OLESTARTUP
290
     0
  9
$SORTENTS
280
   127
  9
$INDEXCTL
280
     0
  9
$HIDETEXT
280
     1
  9
$XCLIPFRAME
280
     2
  9
$HALOGAP
280
     0
  9
$OBSCOLOR
 70
   257
  9
$OBSLTYPE
280
     0
  9
$INTERSECTIONDISPLAY
280
     0
  9
$INTERSECTIONCOLOR
 70
   257
  9
$DIMASSOC
280
     1
  9
$PROJECTNAME
  1

  9
$CAMERADISPLAY
290
     0
  9
$LENSLENGTH
 40
50.0
  9
$CAMERAHEIGHT
 40
0.0
  9
$STEPSPERSEC
 40
2.0
  9
$STEPSIZE
 40
6.0
  9
$3DDWFPREC
 40
2.0
  9
$PSOLWIDTH
 40
0.25
  9
$PSOLHEIGHT
 40
4.0
  9
$LOFTANG1
 40
1.570796326794897
  9
$LOFTANG2
 40
1.570796326794897
  9
$LOFTMAG1
 40
0.0
  9
$LOFTMAG2
 40
0.0
  9
$LOFTPARAM
 70
     7
  9
$LOFTNORMALS
280
     1
  9
$LATITUDE
 40
37.795
  9
$LONGITUDE
 40
-122.394
  9
$NORTHDIRECTION
 40
0.0
  9
$TIMEZONE
 70
 -8000
  9
$LIGHTGLYPHDISPLAY
280
     1
  9
$TILEMODELIGHTSYNCH
280
     1
  9
$CMATERIAL
347
44
  9
$SOLIDHIST
280
     1
  9
$SHOWHIST
280
     1
  9
$DWFFRAME
280
     2
  9
$DGNFRAME
280
     2
  9
$REALWORLDSCALE
290
     1
  9
$INTERFERECOLOR
 62
   256
  9
$CSHADOW
280
     0
  9
$SHADOWPLANELOCATION
 40
0.0
  0
ENDSEC
  0
SECTION
  2
CLASSES
  0
CLASS
  1
ACDBDICTIONARYWDFLT
  2
AcDbDictionaryWithDefault
  3
ObjectDBX Classes
 90
        0
 91
        4
280
     0
281
     0
  0
CLASS
  1
VISUALSTYLE
  2
AcDbVisualStyle
  3
ObjectDBX Classes
 90
     4095
 91
        4
280
     0
281
     0
  0
CLASS
  1
MATERIAL
  2
AcDbMaterial
  3
ObjectDBX Classes
 90
     1153
 91
        4
280
     0
281
     0
  0
CLASS
  1
SCALE
  2
AcDbScale
  3
ObjectDBX Classes
 90
     1153
 91
        4
280
     0
281
     0
  0
CLASS
  1
SUN
  2
AcDbSun
  3
SCENEOE
 90
     1153
 91
        4
280
     0
281
     0
  0
CLASS
  1
DICTIONARYVAR
  2
AcDbDictionaryVar
  3
ObjectDBX Classes
 90
        0
 91
        4
280
     0
281
     0
  0
ENDSEC
  0
SECTION
  2
TABLES
  0
TABLE
  2
VPORT
  5
8
330
0
100
AcDbSymbolTable
 70
     1
  0
VPORT
  5
29
330
8
100
AcDbSymbolTableRecord
100
AcDbViewportTableRecord
  2
*Active
 70
     0
 10
0.0
 20
0.0
 11
1.0
 21
1.0
 12
10.42990654205607
 22
4.5
 13
0.0
 23
0.0
 14
0.5
 24
0.5
 15
0.5
 25
0.5
 16
0.0
 26
0.0
 36
1.0
 17
0.0
 27
0.0
 37
0.0
 40
9.0
 41
1.972972972850329
 42
50.0
 43
0.0
 44
0.0
 50
0.0
 51
0.0
 71
     0
 72
   100
 73
     1
 74
     3
 75
     0
 76
     0
 77
     0
 78
     0
281
     0
 65
     1
110
0.0
120
0.0
130
0.0
111
1.0
121
0.0
131
0.0
112
0.0
122
1.0
132
0.0
 79
     0
146
0.0
 60
     3
 61
     5
292
     1
282
     1
141
0.0
142
0.0
 63
   250
361
69
  0
ENDTAB
  0
TABLE
  2
LTYPE
  5
5
330
0
100
AcDbSymbolTable
 70
     9
  0
LTYPE
  5
14
330
5
100
AcDbSymbolTableRecord
100
AcDbLinetypeTableRecord
  2
ByBlock
 70
     0
  3

 72
    65
 73
     0
 40
0.0
  0
LTYPE
  5
15
330
5
100
AcDbSymbolTableRecord
100
AcDbLinetypeTableRecord
  2
ByLayer
 70
     0
  3

 72
    65
 73
     0
 40
0.0
  0
LTYPE
  5
16
330
5
100
AcDbSymbolTableRecord
100
AcDbLinetypeTableRecord
  2
Continuous
 70
     0
  3
Solid line
 72
    65
 73
     0
 40
0.0
  0
LTYPE
  5
B9
330
5
100
AcDbSymbolTableRecord
100
AcDbLinetypeTableRecord
  2
DOT
 70
     0
  3
DOT
 72
    65
 73
     2
 40
4.0
 49
6.0
 74
     0
 49
-2.0
 74
     0
  0
LTYPE
  5
BA
330
5
100
AcDbSymbolTableRecord
100
AcDbLinetypeTableRecord
  2
HIDDEN
 70
     0
  3
HIDDEN
 72
    65
 73
     2
 40
4.2
 49
8.4
 74
     0
 49
-4.2
 74
     0
  0
LTYPE
  5
BB
330
5
100
AcDbSymbolTableRecord
100
AcDbLinetypeTableRecord
  2
DASHDOT
 70
     0
  3
DASHDOT
 72
    65
 73
     4
 40
14.5
 49
30.0
 74
     0
 49
-9.0
 74
     0
 49
2.5
 74
     0
 49
-9.0
 74
     0
  0
LTYPE
  5
BC
330
5
100
AcDbSymbolTableRecord
100
AcDbLinetypeTableRecord
  2
PHANTOM
 70
     0
  3
PHANTOM
 72
    65
 73
     6
 40
12.0
 49
30.0
 74
     0
 49
-9.0
 74
     0
 49
2.5
 74
     0
 49
-5.0
 74
     0
 49
2.5
 74
     0
 49
-9.0
 74
     0
  0
LTYPE
  5
BD
330
5
100
AcDbSymbolTableRecord
100
AcDbLinetypeTableRecord
  2
ACAD_ISO14W100
 70
     0
  3
ACAD_ISO14W100
 72
    65
 73
     8
 40
1.5
 49
12.0
 74
     0
 49
-3.0
 74
     0
 49
0.5
 74
     0
 49
-3.0
 74
     0
 49
0.5
 74
     0
 49
-3.0
 74
     0
 49
0.5
 74
     0
 49
-3.0
 74
     0
  0
LTYPE
  5
BE
330
5
100
AcDbSymbolTableRecord
100
AcDbLinetypeTableRecord
  2
ACAD_ISO06W100
 70
     0
  3
ACAD_ISO06W100
 72
    65
 73
     8
 40
13.5
 49
24.0
 74
     0
 49
-3.0
 74
     0
 49
0.5
 74
     0
 49
-3.0
 74
     0
 49
0.5
 74
     0
 49
-3.0
 74
     0
 49
0.5
 74
     0
 49
-3.0
 74
     0
  0
LTYPE
  5
BF
330
5
100
AcDbSymbolTableRecord
100
AcDbLinetypeTableRecord
  2
ACAD_ISO11W100
 70
     0
  3
ACAD_ISO11W100
 72
    65
 73
     6
 40
15.5
 49
12.0
 74
     0
 49
-3.0
 74
     0
 49
12.0
 74
     0
 49
-3.0
 74
     0
 49
0.5
 74
     0
 49
-3.0
 74
     0
  0
LTYPE
  5
C0
330
5
100
AcDbSymbolTableRecord
100
AcDbLinetypeTableRecord
  2
ACAD_ISO13W100
 70
     0
  3
ACAD_ISO13W100
 72
    65
 73
     8
 40
13.0
 49
12.0
 74
     0
 49
-3.0
 74
     0
 49
12.0
 74
     0
 49
-3.0
 74
     0
 49
0.5
 74
     0
 49
-3.0
 74
     0
 49
0.5
 74
     0
 49
-3.0
 74
     0
  0
ENDTAB
  0
TABLE
  2
LAYER
  5
2
330
0
100
AcDbSymbolTable
 70
    22
  0
LAYER
  5
10
330
2
100
AcDbSymbolTableRecord
100
AcDbLayerTableRecord
  2
0
 70
     0
 62
     7
  6
Continuous
370
    -3
390
F
347
46
348
0
  0
LAYER
  5
C1
330
2
100
AcDbSymbolTableRecord
100
AcDbLayerTableRecord
  2
1
 70
     0
 62
     7
  6
Continuous
370
    35
390
F
347
46
348
0
  0
LAYER
  5
C2
330
2
100
AcDbSymbolTableRecord
100
AcDbLayerTableRecord
  2
2
 70
     0
 62
    70
  6
Continuous
370
     9
390
F
347
46
348
0
  0
LAYER
  5
C3
330
2
100
AcDbSymbolTableRecord
100
AcDbLayerTableRecord
  2
3
 70
     0
 62
     1
  6
DASHDOT
370
    13
390
F
347
46
348
0
  0
LAYER
  5
C4
330
2
100
AcDbSymbolTableRecord
100
AcDbLayerTableRecord
  2
4
 70
     0
 62
     2
  6
Continuous
370
     9
390
F
347
46
348
0
  0
LAYER
  5
C5
330
2
100
AcDbSymbolTableRecord
100
AcDbLayerTableRecord
  2
5
 70
     0
 62
    30
  6
Continuous
370
     9
390
F
347
46
348
0
  0
LAYER
  5
C6
330
2
100
AcDbSymbolTableRecord
100
AcDbLayerTableRecord
  2
6
 70
     0
 62
    14
  6
Continuous
370
     9
390
F
347
46
348
0
  0
LAYER
  5
C7
330
2
100
AcDbSymbolTableRecord
100
AcDbLayerTableRecord
  2
7
 70
     0
 62
     4
  6
Continuous
370
    18
390
F
347
46
348
0
  0
LAYER
  5
C8
330
2
100
AcDbSymbolTableRecord
100
AcDbLayerTableRecord
  2
8
 70
     0
 62
     6
  6
Continuous
370
     9
390
F
347
46
348
0
  0
LAYER
  5
C9
330
2
100
AcDbSymbolTableRecord
100
AcDbLayerTableRecord
  2
9
 70
     0
 62
     2
  6
Continuous
370
     9
390
F
347
46
348
0
  0
LAYER
  5
CA
330
2
100
AcDbSymbolTableRecord
100
AcDbLayerTableRecord
  2
10
 70
     0
 62
     3
  6
Continuous
370
     9
390
F
347
46
348
0
  0
LAYER
  5
CB
330
2
100
AcDbSymbolTableRecord
100
AcDbLayerTableRecord
  2
11
 70
     0
 62
   251
  6
Continuous
370
     9
390
F
347
46
348
0
  0
LAYER
  5
CC
330
2
100
AcDbSymbolTableRecord
100
AcDbLayerTableRecord
  2
12
 70
     0
 62
   136
  6
Continuous
370
     9
390
F
347
46
348
0
  0
LAYER
  5
CD
330
2
100
AcDbSymbolTableRecord
100
AcDbLayerTableRecord
  2
13
 70
     0
 62
   216
  6
Continuous
370
     9
390
F
347
46
348
0
  0
LAYER
  5
CE
330
2
100
AcDbSymbolTableRecord
100
AcDbLayerTableRecord
  2
14
 70
     0
 62
    56
  6
Continuous
370
     9
390
F
347
46
348
0
  0
LAYER
  5
CF
330
2
100
AcDbSymbolTableRecord
100
AcDbLayerTableRecord
  2
15
 70
     0
 62
    96
  6
Continuous
370
     9
390
F
347
46
348
0
  0
LAYER
  5
D0
330
2
100
AcDbSymbolTableRecord
100
AcDbLayerTableRecord
  2
16
 70
     0
 62
    16
  6
Continuous
370
     9
390
F
347
46
348
0
  0
LAYER
  5
D1
330
2
100
AcDbSymbolTableRecord
100
AcDbLayerTableRecord
  2
17
 70
     0
 62
   132
  6
Continuous
370
     9
390
F
347
46
348
0
  0
LAYER
  5
D2
330
2
100
AcDbSymbolTableRecord
100
AcDbLayerTableRecord
  2
18
 70
     0
 62
   212
  6
Continuous
370
     9
390
F
347
46
348
0
  0
LAYER
  5
D3
330
2
100
AcDbSymbolTableRecord
100
AcDbLayerTableRecord
  2
19
 70
     0
 62
    52
  6
Continuous
370
     9
390
F
347
46
348
0
  0
LAYER
  5
D4
330
2
100
AcDbSymbolTableRecord
100
AcDbLayerTableRecord
  2
20
 70
     0
 62
   250
  6
Continuous
370
     9
390
F
347
46
348
0
  0
LAYER
  5
D5
330
2
100
AcDbSymbolTableRecord
100
AcDbLayerTableRecord
  2
21
 70
     0
 62
     7
  6
Continuous
370
     9
390
F
347
46
348
0
  0
ENDTAB
  0
TABLE
  2
STYLE
  5
3
330
0
100
AcDbSymbolTable
 70
     3
  0
STYLE
  5
11
330
3
100
AcDbSymbolTableRecord
100
AcDbTextStyleTableRecord
  2
Standard
 70
     0
 40
0.0
 41
1.0
 50
0.0
 71
     0
 42
2.8
  3
txt
  4
bigfont
  0
STYLE
  5
6C
330
3
100
AcDbSymbolTableRecord
100
AcDbTextStyleTableRecord
  2
T_STANDARD
 70
     4
 40
10.0
 41
1.0
 50
0.0
 71
     0
 42
2.8
  3
txt
  4
bigfont
1001
ACAD
1000

1071
      256
  0
STYLE
  5
103
330
3
100
AcDbSymbolTableRecord
100
AcDbTextStyleTableRecord
  2
ＭＳ ゴシック
 70
     0
 40
0.0
 41
1.0
 50
0.0
 71
     0
 42
2.8
  3

  4

1001
ACAD
1000
ＭＳ ゴシック
1071
      256
  0
ENDTAB
  0
TABLE
  2
VIEW
  5
6
330
0
100
AcDbSymbolTable
 70
     0
  0
ENDTAB
  0
TABLE
  2
UCS
  5
7
330
0
100
AcDbSymbolTable
 70
     0
  0
ENDTAB
  0
TABLE
  2
APPID
  5
9
330
0
100
AcDbSymbolTable
 70
     2
  0
APPID
  5
12
330
9
100
AcDbSymbolTableRecord
100
AcDbRegAppTableRecord
  2
ACAD
 70
     0
  0
APPID
  5
6B
330
9
100
AcDbSymbolTableRecord
100
AcDbRegAppTableRecord
  2
ODA
 70
     0
  0
ENDTAB
  0
TABLE
  2
DIMSTYLE
  5
A
330
0
100
AcDbSymbolTable
 70
     1
100
AcDbDimStyleTable
  0
DIMSTYLE
105
27
102
{ACAD_REACTORS
330
10D
330
15A
330
164
330
254
330
25E
330
268
330
272
330
27C
330
286
330
290
330
29A
330
2A4
330
2AE
102
}
330
A
100
AcDbSymbolTableRecord
100
AcDbDimStyleTableRecord
  2
Standard
 70
     0
178
     0
340
11
  0
ENDTAB
  0
TABLE
  2
BLOCK_RECORD
  5
1
330
0
100
AcDbSymbolTable
 70
    31
  0
BLOCK_RECORD
  5
1F
330
1
100
AcDbSymbolTableRecord
100
AcDbBlockTableRecord
  2
*Model_Space
340
22
 70
     0
280
     1
281
     0
  0
BLOCK_RECORD
  5
1B
330
1
100
AcDbSymbolTableRecord
100
AcDbBlockTableRecord
  2
*Paper_Space
340
1E
 70
     0
280
     1
281
     0
  0
BLOCK_RECORD
  5
23
330
1
100
AcDbSymbolTableRecord
100
AcDbBlockTableRecord
  2
*Paper_Space0
340
26
 70
     0
280
     1
281
     0
  0
BLOCK_RECORD
  5
6D
330
1
100
AcDbSymbolTableRecord
100
AcDbBlockTableRecord
  2
_ORIGIN
340
0
 70
     0
280
     1
281
     0
  0
BLOCK_RECORD
  5
72
330
1
100
AcDbSymbolTableRecord
100
AcDbBlockTableRecord
  2
_DOTBLANK
340
0
 70
     0
280
     1
281
     0
  0
BLOCK_RECORD
  5
77
330
1
100
AcDbSymbolTableRecord
100
AcDbBlockTableRecord
  2
_DOT
340
0
 70
     0
280
     1
281
     0
  0
BLOCK_RECORD
  5
7C
330
1
100
AcDbSymbolTableRecord
100
AcDbBlockTableRecord
  2
_OPEN
340
0
102
{BLKREFS
331
17D
102
}
 70
     0
280
     1
281
     0
  0
BLOCK_RECORD
  5
82
330
1
100
AcDbSymbolTableRecord
100
AcDbBlockTableRecord
  2
_CLOSED
340
0
 70
     0
280
     1
281
     0
  0
BLOCK_RECORD
  5
89
330
1
100
AcDbSymbolTableRecord
100
AcDbBlockTableRecord
  2
_CLOSEDBLANK
340
0
 70
     0
280
     1
281
     0
  0
BLOCK_RECORD
  5
8F
330
1
100
AcDbSymbolTableRecord
100
AcDbBlockTableRecord
  2
_ARROWFILLED
340
0
102
{BLKREFS
331
10B
331
10C
331
158
331
159
331
162
331
163
331
252
331
253
331
25C
331
25D
331
266
331
267
331
270
331
271
331
27A
331
27B
331
284
331
285
331
28E
331
28F
331
298
331
299
331
2A2
331
2A3
331
2AC
331
2AD
102
}
 70
     0
280
     1
281
     0
  0
BLOCK_RECORD
  5
93
330
1
100
AcDbSymbolTableRecord
100
AcDbBlockTableRecord
  2
_BOXBLANK
340
0
 70
     0
280
     1
281
     0
  0
BLOCK_RECORD
  5
9B
330
1
100
AcDbSymbolTableRecord
100
AcDbBlockTableRecord
  2
_BOXFILLED
340
0
 70
     0
280
     1
281
     0
  0
BLOCK_RECORD
  5
A0
330
1
100
AcDbSymbolTableRecord
100
AcDbBlockTableRecord
  2
_INTEGRAL
340
0
 70
     0
280
     1
281
     0
  0
BLOCK_RECORD
  5
A5
330
1
100
AcDbSymbolTableRecord
100
AcDbBlockTableRecord
  2
_OBLIQUE
340
0
 70
     0
280
     1
281
     0
  0
BLOCK_RECORD
  5
A9
330
1
100
AcDbSymbolTableRecord
100
AcDbBlockTableRecord
  2
_NONE
340
0
 70
     0
280
     1
281
     0
  0
BLOCK_RECORD
  5
AC
330
1
100
AcDbSymbolTableRecord
100
AcDbBlockTableRecord
  2
MARK_OPEN
340
0
 70
     0
280
     1
281
     0
  0
BLOCK_RECORD
  5
B1
330
1
100
AcDbSymbolTableRecord
100
AcDbBlockTableRecord
  2
MARK_ORIGIN
340
0
 70
     0
280
     1
281
     0
  0
BLOCK_RECORD
  5
B5
330
1
100
AcDbSymbolTableRecord
100
AcDbBlockTableRecord
  2
MARK_DOT
340
0
 70
     0
280
     1
281
     0
  0
BLOCK_RECORD
  5
104
330
1
100
AcDbSymbolTableRecord
100
AcDbBlockTableRecord
  2
Dim1
340
0
 70
     0
280
     1
281
     0
  0
BLOCK_RECORD
  5
151
330
1
100
AcDbSymbolTableRecord
100
AcDbBlockTableRecord
  2
Dim2
340
0
 70
     0
280
     1
281
     0
  0
BLOCK_RECORD
  5
15B
330
1
100
AcDbSymbolTableRecord
100
AcDbBlockTableRecord
  2
Dim3
340
0
 70
     0
280
     1
281
     0
  0
BLOCK_RECORD
  5
240
330
1
100
AcDbSymbolTableRecord
100
AcDbBlockTableRecord
  2
*G19
340
0
102
{BLKREFS
331
245
102
}
 70
     0
280
     1
281
     0
  0
BLOCK_RECORD
  5
246
330
1
100
AcDbSymbolTableRecord
100
AcDbBlockTableRecord
  2
*G20
340
0
102
{BLKREFS
331
24A
102
}
 70
     0
280
     1
281
     0
  0
BLOCK_RECORD
  5
24B
330
1
100
AcDbSymbolTableRecord
100
AcDbBlockTableRecord
  2
Dim4
340
0
 70
     0
280
     1
281
     0
  0
BLOCK_RECORD
  5
255
330
1
100
AcDbSymbolTableRecord
100
AcDbBlockTableRecord
  2
Dim5
340
0
 70
     0
280
     1
281
     0
  0
BLOCK_RECORD
  5
25F
330
1
100
AcDbSymbolTableRecord
100
AcDbBlockTableRecord
  2
Dim6
340
0
 70
     0
280
     1
281
     0
  0
BLOCK_RECORD
  5
269
330
1
100
AcDbSymbolTableRecord
100
AcDbBlockTableRecord
  2
Dim7
340
0
 70
     0
280
     1
281
     0
  0
BLOCK_RECORD
  5
273
330
1
100
AcDbSymbolTableRecord
100
AcDbBlockTableRecord
  2
Dim8
340
0
 70
     0
280
     1
281
     0
  0
BLOCK_RECORD
  5
27D
330
1
100
AcDbSymbolTableRecord
100
AcDbBlockTableRecord
  2
Dim9
340
0
 70
     0
280
     1
281
     0
  0
BLOCK_RECORD
  5
287
330
1
100
AcDbSymbolTableRecord
100
AcDbBlockTableRecord
  2
Dim10
340
0
 70
     0
280
     1
281
     0
  0
BLOCK_RECORD
  5
291
330
1
100
AcDbSymbolTableRecord
100
AcDbBlockTableRecord
  2
Dim11
340
0
 70
     0
280
     1
281
     0
  0
BLOCK_RECORD
  5
29B
330
1
100
AcDbSymbolTableRecord
100
AcDbBlockTableRecord
  2
Dim12
340
0
 70
     0
280
     1
281
     0
  0
BLOCK_RECORD
  5
2A5
330
1
100
AcDbSymbolTableRecord
100
AcDbBlockTableRecord
  2
Dim13
340
0
 70
     0
280
     1
281
     0
  0
ENDTAB
  0
ENDSEC
  0
SECTION
  2
BLOCKS
  0
BLOCK
  5
20
330
1F
100
AcDbEntity
  8
0
100
AcDbBlockBegin
  2
*Model_Space
 70
     0
 10
0.0
 20
0.0
 30
0.0
  3
*Model_Space
  1
*Model_Space
  0
ENDBLK
  5
21
330
1F
100
AcDbEntity
  8
0
100
AcDbBlockEnd
  0
BLOCK
  5
1C
330
1B
100
AcDbEntity
 67
     1
  8
0
100
AcDbBlockBegin
  2
*Paper_Space
 70
     0
 10
0.0
 20
0.0
 30
0.0
  3
*Paper_Space
  1
*Paper_Space
  0
ENDBLK
  5
1D
330
1B
100
AcDbEntity
 67
     1
  8
0
100
AcDbBlockEnd
  0
BLOCK
  5
24
330
23
100
AcDbEntity
  8
0
100
AcDbBlockBegin
  2
*Paper_Space0
 70
     0
 10
0.0
 20
0.0
 30
0.0
  3
*Paper_Space0
  1
*Paper_Space0
  0
ENDBLK
  5
25
330
23
100
AcDbEntity
  8
0
100
AcDbBlockEnd
  0
BLOCK
  5
70
330
6D
100
AcDbEntity
  8
0
100
AcDbBlockBegin
  2
_ORIGIN
 70
     0
 10
0.0
 20
0.0
 30
0.0
  3
_ORIGIN
  1
_ORIGIN
  0
CIRCLE
  5
6E
330
6D
100
AcDbEntity
  8
0
 62
     0
100
AcDbCircle
 10
0.0
 20
0.0
 30
0.0
 40
0.5
  0
LINE
  5
6F
330
6D
100
AcDbEntity
  8
0
 62
     0
100
AcDbLine
 10
0.0
 20
0.0
 30
0.0
 11
-1.0
 21
0.0
 31
0.0
  0
ENDBLK
  5
71
330
6D
100
AcDbEntity
  8
0
100
AcDbBlockEnd
  0
BLOCK
  5
75
330
72
100
AcDbEntity
  8
0
100
AcDbBlockBegin
  2
_DOTBLANK
 70
     0
 10
0.0
 20
0.0
 30
0.0
  3
_DOTBLANK
  1
_DOTBLANK
  0
CIRCLE
  5
73
330
72
100
AcDbEntity
  8
0
 62
     0
100
AcDbCircle
 10
0.0
 20
0.0
 30
0.0
 40
0.5
  0
LINE
  5
74
330
72
100
AcDbEntity
  8
0
 62
     0
100
AcDbLine
 10
-0.5
 20
0.0
 30
0.0
 11
-1.0
 21
0.0
 31
0.0
  0
ENDBLK
  5
76
330
72
100
AcDbEntity
  8
0
100
AcDbBlockEnd
  0
BLOCK
  5
7A
330
77
100
AcDbEntity
  8
0
100
AcDbBlockBegin
  2
_DOT
 70
     0
 10
0.0
 20
0.0
 30
0.0
  3
_DOT
  1
_DOT
  0
LWPOLYLINE
  5
78
330
77
100
AcDbEntity
  8
0
 62
     0
100
AcDbPolyline
 90
        2
 70
     1
 43
0.5
 10
-0.25
 20
0.0
 42
1.0
 10
0.25
 20
0.0
 42
1.0
  0
LINE
  5
79
330
77
100
AcDbEntity
  8
0
 62
     0
100
AcDbLine
 10
-0.5
 20
0.0
 30
0.0
 11
-1.0
 21
0.0
 31
0.0
  0
ENDBLK
  5
7B
330
77
100
AcDbEntity
  8
0
100
AcDbBlockEnd
  0
BLOCK
  5
80
330
7C
100
AcDbEntity
  8
0
100
AcDbBlockBegin
  2
_OPEN
 70
     0
 10
0.0
 20
0.0
 30
0.0
  3
_OPEN
  1
_OPEN
  0
LINE
  5
7D
330
7C
100
AcDbEntity
  8
0
 62
     0
100
AcDbLine
 10
0.0
 20
0.0
 30
0.0
 11
-1.0
 21
0.1666666666666667
 31
0.0
  0
LINE
  5
7E
330
7C
100
AcDbEntity
  8
0
 62
     0
100
AcDbLine
 10
0.0
 20
0.0
 30
0.0
 11
-1.0
 21
-0.1666666666666667
 31
0.0
  0
LINE
  5
7F
330
7C
100
AcDbEntity
  8
0
 62
     0
100
AcDbLine
 10
0.0
 20
0.0
 30
0.0
 11
-1.0
 21
0.0
 31
0.0
  0
ENDBLK
  5
81
330
7C
100
AcDbEntity
  8
0
100
AcDbBlockEnd
  0
BLOCK
  5
87
330
82
100
AcDbEntity
  8
0
100
AcDbBlockBegin
  2
_CLOSED
 70
     0
 10
0.0
 20
0.0
 30
0.0
  3
_CLOSED
  1
_CLOSED
  0
LINE
  5
83
330
82
100
AcDbEntity
  8
0
 62
     0
100
AcDbLine
 10
0.0
 20
0.0
 30
0.0
 11
-1.0
 21
0.1666666666666667
 31
0.0
  0
LINE
  5
84
330
82
100
AcDbEntity
  8
0
 62
     0
100
AcDbLine
 10
0.0
 20
0.0
 30
0.0
 11
-1.0
 21
-0.1666666666666667
 31
0.0
  0
LINE
  5
85
330
82
100
AcDbEntity
  8
0
 62
     0
100
AcDbLine
 10
-1.0
 20
0.1666666666666667
 30
0.0
 11
-1.0
 21
-0.1666666666666667
 31
0.0
  0
LINE
  5
86
330
82
100
AcDbEntity
  8
0
 62
     0
100
AcDbLine
 10
0.0
 20
0.0
 30
0.0
 11
-1.0
 21
0.0
 31
0.0
  0
ENDBLK
  5
88
330
82
100
AcDbEntity
  8
0
100
AcDbBlockEnd
  0
BLOCK
  5
8D
330
89
100
AcDbEntity
  8
0
100
AcDbBlockBegin
  2
_CLOSEDBLANK
 70
     0
 10
0.0
 20
0.0
 30
0.0
  3
_CLOSEDBLANK
  1
_CLOSEDBLANK
  0
LINE
  5
8A
330
89
100
AcDbEntity
  8
0
 62
     0
100
AcDbLine
 10
0.0
 20
0.0
 30
0.0
 11
-1.0
 21
0.1666666666666667
 31
0.0
  0
LINE
  5
8B
330
89
100
AcDbEntity
  8
0
 62
     0
100
AcDbLine
 10
0.0
 20
0.0
 30
0.0
 11
-1.0
 21
-0.1666666666666667
 31
0.0
  0
LINE
  5
8C
330
89
100
AcDbEntity
  8
0
 62
     0
100
AcDbLine
 10
-1.0
 20
0.1666666666666667
 30
0.0
 11
-1.0
 21
-0.1666666666666667
 31
0.0
  0
ENDBLK
  5
8E
330
89
100
AcDbEntity
  8
0
100
AcDbBlockEnd
  0
BLOCK
  5
91
330
8F
100
AcDbEntity
  8
0
100
AcDbBlockBegin
  2
_ARROWFILLED
 70
     0
 10
0.0
 20
0.0
 30
0.0
  3
_ARROWFILLED
  1
_ARROWFILLED
  0
SOLID
  5
90
330
8F
100
AcDbEntity
  8
0
 62
     0
100
AcDbTrace
 10
0.0
 20
0.0
 30
0.0
 11
-1.0
 21
-0.1666666666666667
 31
0.0
 12
-1.0
 22
0.1666666666666667
 32
0.0
 13
0.0
 23
0.0
 33
0.0
  0
ENDBLK
  5
92
330
8F
100
AcDbEntity
  8
0
100
AcDbBlockEnd
  0
BLOCK
  5
99
330
93
100
AcDbEntity
  8
0
100
AcDbBlockBegin
  2
_BOXBLANK
 70
     0
 10
0.0
 20
0.0
 30
0.0
  3
_BOXBLANK
  1
_BOXBLANK
  0
LINE
  5
94
330
93
100
AcDbEntity
  8
0
 62
     0
100
AcDbLine
 10
-0.5
 20
-0.5
 30
0.0
 11
0.5
 21
-0.5
 31
0.0
  0
LINE
  5
95
330
93
100
AcDbEntity
  8
0
 62
     0
100
AcDbLine
 10
0.5
 20
-0.5
 30
0.0
 11
0.5
 21
0.5
 31
0.0
  0
LINE
  5
96
330
93
100
AcDbEntity
  8
0
 62
     0
100
AcDbLine
 10
0.5
 20
0.5
 30
0.0
 11
-0.5
 21
0.5
 31
0.0
  0
LINE
  5
97
330
93
100
AcDbEntity
  8
0
 62
     0
100
AcDbLine
 10
-0.5
 20
0.5
 30
0.0
 11
-0.5
 21
-0.5
 31
0.0
  0
LINE
  5
98
330
93
100
AcDbEntity
  8
0
 62
     0
100
AcDbLine
 10
-0.5
 20
0.0
 30
0.0
 11
-1.0
 21
0.0
 31
0.0
  0
ENDBLK
  5
9A
330
93
100
AcDbEntity
  8
0
100
AcDbBlockEnd
  0
BLOCK
  5
9E
330
9B
100
AcDbEntity
  8
0
100
AcDbBlockBegin
  2
_BOXFILLED
 70
     0
 10
0.0
 20
0.0
 30
0.0
  3
_BOXFILLED
  1
_BOXFILLED
  0
SOLID
  5
9C
330
9B
100
AcDbEntity
  8
0
 62
     0
100
AcDbTrace
 10
-0.5
 20
0.5
 30
0.0
 11
0.5
 21
0.5
 31
0.0
 12
-0.5
 22
-0.5
 32
0.0
 13
0.5
 23
-0.5
 33
0.0
  0
LINE
  5
9D
330
9B
100
AcDbEntity
  8
0
 62
     0
100
AcDbLine
 10
-0.5
 20
0.0
 30
0.0
 11
-1.0
 21
0.0
 31
0.0
  0
ENDBLK
  5
9F
330
9B
100
AcDbEntity
  8
0
100
AcDbBlockEnd
  0
BLOCK
  5
A3
330
A0
100
AcDbEntity
  8
0
100
AcDbBlockBegin
  2
_INTEGRAL
 70
     0
 10
0.0
 20
0.0
 30
0.0
  3
_INTEGRAL
  1
_INTEGRAL
  0
ARC
  5
A1
330
A0
100
AcDbEntity
  8
0
 62
     0
100
AcDbCircle
 10
0.444888
 20
-0.0913346
 30
0.0
 40
0.4541666
100
AcDbArc
 50
101.9999999999999
 51
167.9999999999998
  0
ARC
  5
A2
330
A0
100
AcDbEntity
  8
0
 62
     0
100
AcDbCircle
 10
-0.444888
 20
0.0913346
 30
0.0
 40
0.4541666
100
AcDbArc
 50
281.9999999999997
 51
347.9999999999997
  0
ENDBLK
  5
A4
330
A0
100
AcDbEntity
  8
0
100
AcDbBlockEnd
  0
BLOCK
  5
A7
330
A5
100
AcDbEntity
  8
0
100
AcDbBlockBegin
  2
_OBLIQUE
 70
     0
 10
0.0
 20
0.0
 30
0.0
  3
_OBLIQUE
  1
_OBLIQUE
  0
LINE
  5
A6
330
A5
100
AcDbEntity
  8
0
 62
     0
100
AcDbLine
 10
-0.5
 20
-0.5
 30
0.0
 11
0.5
 21
0.5
 31
0.0
  0
ENDBLK
  5
A8
330
A5
100
AcDbEntity
  8
0
100
AcDbBlockEnd
  0
BLOCK
  5
AA
330
A9
100
AcDbEntity
  8
0
100
AcDbBlockBegin
  2
_NONE
 70
     0
 10
0.0
 20
0.0
 30
0.0
  3
_NONE
  1
_NONE
  0
ENDBLK
  5
AB
330
A9
100
AcDbEntity
  8
0
100
AcDbBlockEnd
  0
BLOCK
  5
AF
330
AC
100
AcDbEntity
  8
0
100
AcDbBlockBegin
  2
MARK_OPEN
 70
     0
 10
0.0
 20
0.0
 30
0.0
  3
MARK_OPEN
  1
MARK_OPEN
  0
LINE
  5
AD
330
AC
100
AcDbEntity
  8
0
 62
     0
100
AcDbLine
 10
0.0
 20
0.0
 30
0.0
 11
-1.0
 21
0.1666666666666667
 31
0.0
  0
LINE
  5
AE
330
AC
100
AcDbEntity
  8
0
 62
     0
100
AcDbLine
 10
0.0
 20
0.0
 30
0.0
 11
-1.0
 21
-0.1666666666666667
 31
0.0
  0
ENDBLK
  5
B0
330
AC
100
AcDbEntity
  8
0
100
AcDbBlockEnd
  0
BLOCK
  5
B3
330
B1
100
AcDbEntity
  8
0
100
AcDbBlockBegin
  2
MARK_ORIGIN
 70
     0
 10
0.0
 20
0.0
 30
0.0
  3
MARK_ORIGIN
  1
MARK_ORIGIN
  0
CIRCLE
  5
B2
330
B1
100
AcDbEntity
  8
0
 62
     0
100
AcDbCircle
 10
0.0
 20
0.0
 30
0.0
 40
0.5
  0
ENDBLK
  5
B4
330
B1
100
AcDbEntity
  8
0
100
AcDbBlockEnd
  0
BLOCK
  5
B7
330
B5
100
AcDbEntity
  8
0
100
AcDbBlockBegin
  2
MARK_DOT
 70
     0
 10
0.0
 20
0.0
 30
0.0
  3
MARK_DOT
  1
MARK_DOT
  0
LWPOLYLINE
  5
B6
330
B5
100
AcDbEntity
  8
0
 62
     0
100
AcDbPolyline
 90
        2
 70
     1
 43
0.5
 10
-0.25
 20
0.0
 42
1.0
 10
0.25
 20
0.0
 42
1.0
  0
ENDBLK
  5
B8
330
B5
100
AcDbEntity
  8
0
100
AcDbBlockEnd
  0
BLOCK
  5
105
330
104
100
AcDbEntity
  8
0
100
AcDbBlockBegin
  2
Dim1
 70
     0
 10
0.0
 20
0.0
 30
0.0
  3
Dim1
  1
Dim1
  0
LINE
  5
107
330
104
100
AcDbEntity
  8
8
  6
Continuous
 62
     6
370
     9
100
AcDbLine
 10
581.2114824143191
 20
125.783635469114
 30
0.0
 11
581.2114824143191
 21
107.4086354691144
 31
0.0
  0
LINE
  5
108
330
104
100
AcDbEntity
  8
8
  6
Continuous
 62
     6
370
     9
100
AcDbLine
 10
580.2114824143172
 20
125.783635469114
 30
0.0
 11
580.2114824143172
 21
107.4086354691144
 31
0.0
  0
LINE
  5
109
330
104
100
AcDbEntity
  8
8
  6
Continuous
 62
     6
370
     9
100
AcDbLine
 10
588.898982414319
 20
108.5336354691144
 30
0.0
 11
577.2114824143172
 21
108.5336354691144
 31
0.0
  0
MTEXT
  5
10A
330
104
100
AcDbEntity
  8
8
  6
Continuous
 62
     6
370
     9
100
AcDbMText
 10
588.898982414319
 20
108.5336354691144
 30
0.0
 40
2.25
 41
2.678571428571429
 46
2.25
 71
     4
 72
     1
  1
1
  7
ＭＳ ゴシック
 73
     1
 44
1.0
1001
ACAD
1000
ACAD_MTEXT_DEFINED_HEIGHT_BEGIN
1070
    46
1040
2.25
1000
ACAD_MTEXT_DEFINED_HEIGHT_END
  0
INSERT
  5
10B
330
104
100
AcDbEntity
  8
8
  6
Continuous
 62
     6
370
     9
100
AcDbBlockReference
  2
_ARROWFILLED
 10
581.2114824143191
 20
108.5336354691144
 30
0.0
 41
1.5
 42
1.5
 43
1.5
 50
179.9999999999995
  0
INSERT
  5
10C
330
104
100
AcDbEntity
  8
8
  6
Continuous
 62
     6
370
     9
100
AcDbBlockReference
  2
_ARROWFILLED
 10
580.2114824143172
 20
108.5336354691144
 30
0.0
 41
1.5
 42
1.5
 43
1.5
 50
359.9999999999997
  0
ENDBLK
  5
106
330
104
100
AcDbEntity
  8
0
100
AcDbBlockEnd
  0
BLOCK
  5
152
330
151
100
AcDbEntity
  8
0
100
AcDbBlockBegin
  2
Dim2
 70
     0
 10
0.0
 20
0.0
 30
0.0
  3
Dim2
  1
Dim2
  0
LINE
  5
154
330
151
100
AcDbEntity
  8
8
  6
Continuous
 62
     6
370
     9
100
AcDbLine
 10
458.5582288816332
 20
203.283635469114
 30
0.0
 11
458.558228881633
 21
83.4086354691145
 31
0.0
  0
LINE
  5
155
330
151
100
AcDbEntity
  8
8
  6
Continuous
 62
     6
370
     9
100
AcDbLine
 10
440.5582288816331
 20
140.783635469114
 30
0.0
 11
440.558228881633
 21
83.4086354691145
 31
0.0
  0
LINE
  5
156
330
151
100
AcDbEntity
  8
8
  6
Continuous
 62
     6
370
     9
100
AcDbLine
 10
466.8082288816331
 20
84.5336354691145
 30
0.0
 11
440.558228881633
 21
84.5336354691145
 31
0.0
  0
MTEXT
  5
157
330
151
100
AcDbEntity
  8
8
  6
Continuous
 62
     6
370
     9
100
AcDbMText
 10
466.8082288816331
 20
84.5336354691145
 30
0.0
 40
2.25
 41
32.14285714285714
 46
2.25
 71
     4
 72
     1
  1
(18)
  7
ＭＳ ゴシック
 73
     1
 44
1.0
1001
ACAD
1000
ACAD_MTEXT_DEFINED_HEIGHT_BEGIN
1070
    46
1040
2.25
1000
ACAD_MTEXT_DEFINED_HEIGHT_END
  0
INSERT
  5
158
330
151
100
AcDbEntity
  8
8
  6
Continuous
 62
     6
370
     9
100
AcDbBlockReference
  2
_ARROWFILLED
 10
458.558228881633
 20
84.5336354691145
 30
0.0
 41
1.5
 42
1.5
 43
1.5
 50
359.9999999999997
  0
INSERT
  5
159
330
151
100
AcDbEntity
  8
8
  6
Continuous
 62
     6
370
     9
100
AcDbBlockReference
  2
_ARROWFILLED
 10
440.558228881633
 20
84.5336354691145
 30
0.0
 41
1.5
 42
1.5
 43
1.5
 50
179.9999999999998
  0
ENDBLK
  5
153
330
151
100
AcDbEntity
  8
0
100
AcDbBlockEnd
  0
BLOCK
  5
15C
330
15B
100
AcDbEntity
  8
0
100
AcDbBlockBegin
  2
Dim3
 70
     0
 10
0.0
 20
0.0
 30
0.0
  3
Dim3
  1
Dim3
  0
LINE
  5
15E
330
15B
100
AcDbEntity
  8
8
  6
Continuous
 62
     6
370
     9
100
AcDbLine
 10
581.2114824143191
 20
125.783635469114
 30
0.0
 11
581.2114824143191
 21
95.40863546911444
 31
0.0
  0
LINE
  5
15F
330
15B
100
AcDbEntity
  8
8
  6
Continuous
 62
     6
370
     9
100
AcDbLine
 10
560.7832791840357
 20
205.783635469114
 30
0.0
 11
560.7832791840355
 21
95.40863546911444
 31
0.0
  0
LINE
  5
160
330
15B
100
AcDbEntity
  8
8
  6
Continuous
 62
     6
370
     9
100
AcDbLine
 10
591.7114824143191
 20
96.53363546911444
 30
0.0
 11
560.7832791840355
 21
96.53363546911444
 31
0.0
  0
MTEXT
  5
161
330
15B
100
AcDbEntity
  8
8
  6
Continuous
 62
     6
370
     9
100
AcDbMText
 10
591.7114824143191
 20
96.53363546911444
 30
0.0
 40
2.25
 41
48.21428571428571
 46
2.25
 71
     4
 72
     1
  1
(20.5)
  7
ＭＳ ゴシック
 73
     1
 44
1.0
1001
ACAD
1000
ACAD_MTEXT_DEFINED_HEIGHT_BEGIN
1070
    46
1040
2.25
1000
ACAD_MTEXT_DEFINED_HEIGHT_END
  0
INSERT
  5
162
330
15B
100
AcDbEntity
  8
8
  6
Continuous
 62
     6
370
     9
100
AcDbBlockReference
  2
_ARROWFILLED
 10
581.2114824143191
 20
96.53363546911444
 30
0.0
 41
1.5
 42
1.5
 43
1.5
 50
359.9999999999997
  0
INSERT
  5
163
330
15B
100
AcDbEntity
  8
8
  6
Continuous
 62
     6
370
     9
100
AcDbBlockReference
  2
_ARROWFILLED
 10
560.7832791840355
 20
96.53363546911444
 30
0.0
 41
1.5
 42
1.5
 43
1.5
 50
179.9999999999998
  0
ENDBLK
  5
15D
330
15B
100
AcDbEntity
  8
0
100
AcDbBlockEnd
  0
BLOCK
  5
241
330
240
100
AcDbEntity
  8
0
100
AcDbBlockBegin
  2
*G19
 70
     1
 10
0.0
 20
0.0
 30
0.0
  3
*G19
  1
*G19
  0
MTEXT
  5
243
330
240
100
AcDbEntity
  8
2
  6
Continuous
 62
    70
370
     9
100
AcDbMText
 10
95.9706798956602
 20
65.05271566473928
 30
0.0
 40
2.399976
 41
11.00329680885957
 46
2.399976
 71
     4
 72
     1
  1
{\fＭＳ ゴシック;\T1.375006;2 NC}
 73
     1
 44
1.0
1001
ACAD
1000
ACAD_MTEXT_DEFINED_HEIGHT_BEGIN
1070
    46
1040
2.399976
1000
ACAD_MTEXT_DEFINED_HEIGHT_END
  0
MTEXT
  5
244
330
240
100
AcDbEntity
  8
2
  6
Continuous
 62
    70
370
     9
100
AcDbMText
 10
95.9706798956602
 20
61.05274766473927
 30
0.0
 40
2.399976
 41
7.975092810226379
 46
2.399976
 71
     4
 72
     1
  1
{\fＭＳ ゴシック;\T1.375006;3 -}
 73
     1
 44
1.0
1001
ACAD
1000
ACAD_MTEXT_DEFINED_HEIGHT_BEGIN
1070
    46
1040
2.399976
1000
ACAD_MTEXT_DEFINED_HEIGHT_END
  0
ENDBLK
  5
242
330
240
100
AcDbEntity
  8
0
100
AcDbBlockEnd
  0
BLOCK
  5
247
330
246
100
AcDbEntity
  8
0
100
AcDbBlockBegin
  2
*G20
 70
     1
 10
0.0
 20
0.0
 30
0.0
  3
*G20
  1
*G20
  0
MTEXT
  5
249
330
246
100
AcDbEntity
  8
2
  6
Continuous
 62
    70
370
     9
100
AcDbMText
 10
96.1202650244395
 20
69.6595317393668
 30
0.0
 40
2.399976
 41
7.908651788243244
 46
2.399976
 71
     4
 72
     1
  1
{\fＭＳ ゴシック;\T1.410806;1 +}
 73
     1
 44
1.0
1001
ACAD
1000
ACAD_MTEXT_DEFINED_HEIGHT_BEGIN
1070
    46
1040
2.399976
1000
ACAD_MTEXT_DEFINED_HEIGHT_END
  0
ENDBLK
  5
248
330
246
100
AcDbEntity
  8
0
100
AcDbBlockEnd
  0
BLOCK
  5
24C
330
24B
100
AcDbEntity
  8
0
100
AcDbBlockBegin
  2
Dim4
 70
     0
 10
0.0
 20
0.0
 30
0.0
  3
Dim4
  1
Dim4
  0
LINE
  5
24E
330
24B
100
AcDbEntity
  8
8
  6
Continuous
 62
     6
370
     9
100
AcDbLine
 10
213.0582288816334
 20
128.683635469114
 30
0.0
 11
213.0582288816334
 21
107.4086354691144
 31
0.0
  0
LINE
  5
24F
330
24B
100
AcDbEntity
  8
8
  6
Continuous
 62
     6
370
     9
100
AcDbLine
 10
338.0582288816323
 20
128.683635469114
 30
0.0
 11
338.0582288816323
 21
107.4086354691144
 31
0.0
  0
LINE
  5
250
330
24B
100
AcDbEntity
  8
8
  6
Continuous
 62
     6
370
     9
100
AcDbLine
 10
213.0582288816334
 20
108.5336354691144
 30
0.0
 11
338.0582288816323
 21
108.5336354691144
 31
0.0
  0
MTEXT
  5
251
330
24B
100
AcDbEntity
  8
8
  6
Continuous
 62
     6
370
     9
100
AcDbMText
 10
275.5582288816338
 20
108.5336354691144
 30
0.0
 40
2.25
 41
27.32142857142857
 46
2.25
 71
     8
 72
     1
  1
125
  7
ＭＳ ゴシック
 73
     1
 44
1.0
1001
ACAD
1000
ACAD_MTEXT_DEFINED_HEIGHT_BEGIN
1070
    46
1040
2.25
1000
ACAD_MTEXT_DEFINED_HEIGHT_END
  0
INSERT
  5
252
330
24B
100
AcDbEntity
  8
8
  6
Continuous
 62
     6
370
     9
100
AcDbBlockReference
  2
_ARROWFILLED
 10
213.0582288816334
 20
108.5336354691144
 30
0.0
 41
1.5
 42
1.5
 43
1.5
 50
179.9999999999998
  0
INSERT
  5
253
330
24B
100
AcDbEntity
  8
8
  6
Continuous
 62
     6
370
     9
100
AcDbBlockReference
  2
_ARROWFILLED
 10
338.0582288816323
 20
108.5336354691144
 30
0.0
 41
1.5
 42
1.5
 43
1.5
 50
359.9999999999997
  0
ENDBLK
  5
24D
330
24B
100
AcDbEntity
  8
0
100
AcDbBlockEnd
  0
BLOCK
  5
256
330
255
100
AcDbEntity
  8
0
100
AcDbBlockBegin
  2
Dim5
 70
     0
 10
0.0
 20
0.0
 30
0.0
  3
Dim5
  1
Dim5
  0
LINE
  5
258
330
255
100
AcDbEntity
  8
8
  6
Continuous
 62
     6
370
     9
100
AcDbLine
 10
125.5582288816332
 20
155.783635469114
 30
0.0
 11
125.5582288816331
 21
95.40863546911444
 31
0.0
  0
LINE
  5
259
330
255
100
AcDbEntity
  8
8
  6
Continuous
 62
     6
370
     9
100
AcDbLine
 10
425.5582288816332
 20
155.783635469114
 30
0.0
 11
425.5582288816331
 21
95.40863546911444
 31
0.0
  0
LINE
  5
25A
330
255
100
AcDbEntity
  8
8
  6
Continuous
 62
     6
370
     9
100
AcDbLine
 10
125.5582288816331
 20
96.53363546911444
 30
0.0
 11
425.5582288816331
 21
96.53363546911444
 31
0.0
  0
MTEXT
  5
25B
330
255
100
AcDbEntity
  8
8
  6
Continuous
 62
     6
370
     9
100
AcDbMText
 10
275.5582288816332
 20
96.53363546911444
 30
0.0
 40
2.25
 41
28.92857142857143
 46
2.25
 71
     8
 72
     1
  1
300
  7
ＭＳ ゴシック
 73
     1
 44
1.0
1001
ACAD
1000
ACAD_MTEXT_DEFINED_HEIGHT_BEGIN
1070
    46
1040
2.25
1000
ACAD_MTEXT_DEFINED_HEIGHT_END
  0
INSERT
  5
25C
330
255
100
AcDbEntity
  8
8
  6
Continuous
 62
     6
370
     9
100
AcDbBlockReference
  2
_ARROWFILLED
 10
125.5582288816331
 20
96.53363546911444
 30
0.0
 41
1.5
 42
1.5
 43
1.5
 50
179.9999999999998
  0
INSERT
  5
25D
330
255
100
AcDbEntity
  8
8
  6
Continuous
 62
     6
370
     9
100
AcDbBlockReference
  2
_ARROWFILLED
 10
425.5582288816331
 20
96.53363546911444
 30
0.0
 41
1.5
 42
1.5
 43
1.5
 50
359.9999999999997
  0
ENDBLK
  5
257
330
255
100
AcDbEntity
  8
0
100
AcDbBlockEnd
  0
BLOCK
  5
260
330
25F
100
AcDbEntity
  8
0
100
AcDbBlockBegin
  2
Dim6
 70
     0
 10
0.0
 20
0.0
 30
0.0
  3
Dim6
  1
Dim6
  0
LINE
  5
262
330
25F
100
AcDbEntity
  8
8
  6
Continuous
 62
     6
370
     9
100
AcDbLine
 10
110.5582288816332
 20
140.7836354691131
 30
0.0
 11
110.5582288816331
 21
83.40863546911444
 31
0.0
  0
LINE
  5
263
330
25F
100
AcDbEntity
  8
8
  6
Continuous
 62
     6
370
     9
100
AcDbLine
 10
440.5582288816331
 20
140.783635469114
 30
0.0
 11
440.558228881633
 21
83.40863546911444
 31
0.0
  0
LINE
  5
264
330
25F
100
AcDbEntity
  8
8
  6
Continuous
 62
     6
370
     9
100
AcDbLine
 10
110.5582288816331
 20
84.53363546911444
 30
0.0
 11
440.558228881633
 21
84.53363546911444
 31
0.0
  0
MTEXT
  5
265
330
25F
100
AcDbEntity
  8
8
  6
Continuous
 62
     6
370
     9
100
AcDbMText
 10
275.5582288816332
 20
84.53363546911444
 30
0.0
 40
2.25
 41
28.92857142857143
 46
2.25
 71
     8
 72
     1
  1
330
  7
ＭＳ ゴシック
 73
     1
 44
1.0
1001
ACAD
1000
ACAD_MTEXT_DEFINED_HEIGHT_BEGIN
1070
    46
1040
2.25
1000
ACAD_MTEXT_DEFINED_HEIGHT_END
  0
INSERT
  5
266
330
25F
100
AcDbEntity
  8
8
  6
Continuous
 62
     6
370
     9
100
AcDbBlockReference
  2
_ARROWFILLED
 10
110.5582288816331
 20
84.53363546911444
 30
0.0
 41
1.5
 42
1.5
 43
1.5
 50
179.9999999999998
  0
INSERT
  5
267
330
25F
100
AcDbEntity
  8
8
  6
Continuous
 62
     6
370
     9
100
AcDbBlockReference
  2
_ARROWFILLED
 10
440.558228881633
 20
84.53363546911444
 30
0.0
 41
1.5
 42
1.5
 43
1.5
 50
359.9999999999997
  0
ENDBLK
  5
261
330
25F
100
AcDbEntity
  8
0
100
AcDbBlockEnd
  0
BLOCK
  5
26A
330
269
100
AcDbEntity
  8
0
100
AcDbBlockBegin
  2
Dim7
 70
     0
 10
0.0
 20
0.0
 30
0.0
  3
Dim7
  1
Dim7
  0
LINE
  5
26C
330
269
100
AcDbEntity
  8
8
  6
Continuous
 62
     6
370
     9
100
AcDbLine
 10
536.2114824143191
 20
140.783635469114
 30
0.0
 11
536.211482414319
 21
83.40863546911456
 31
0.0
  0
LINE
  5
26D
330
269
100
AcDbEntity
  8
8
  6
Continuous
 62
     6
370
     9
100
AcDbLine
 10
581.2114824143191
 20
125.783635469114
 30
0.0
 11
581.211482414319
 21
83.40863546911456
 31
0.0
  0
LINE
  5
26E
330
269
100
AcDbEntity
  8
8
  6
Continuous
 62
     6
370
     9
100
AcDbLine
 10
536.211482414319
 20
84.53363546911456
 30
0.0
 11
581.211482414319
 21
84.53363546911456
 31
0.0
  0
MTEXT
  5
26F
330
269
100
AcDbEntity
  8
8
  6
Continuous
 62
     6
370
     9
100
AcDbMText
 10
558.7114824143191
 20
84.53363546911456
 30
0.0
 40
2.25
 41
18.21428571428572
 46
2.25
 71
     8
 72
     1
  1
45
  7
ＭＳ ゴシック
 73
     1
 44
1.0
1001
ACAD
1000
ACAD_MTEXT_DEFINED_HEIGHT_BEGIN
1070
    46
1040
2.25
1000
ACAD_MTEXT_DEFINED_HEIGHT_END
  0
INSERT
  5
270
330
269
100
AcDbEntity
  8
8
  6
Continuous
 62
     6
370
     9
100
AcDbBlockReference
  2
_ARROWFILLED
 10
536.211482414319
 20
84.53363546911456
 30
0.0
 41
1.5
 42
1.5
 43
1.5
 50
179.9999999999998
  0
INSERT
  5
271
330
269
100
AcDbEntity
  8
8
  6
Continuous
 62
     6
370
     9
100
AcDbBlockReference
  2
_ARROWFILLED
 10
581.211482414319
 20
84.53363546911456
 30
0.0
 41
1.5
 42
1.5
 43
1.5
 50
359.9999999999997
  0
ENDBLK
  5
26B
330
269
100
AcDbEntity
  8
0
100
AcDbBlockEnd
  0
BLOCK
  5
274
330
273
100
AcDbEntity
  8
0
100
AcDbBlockBegin
  2
Dim8
 70
     0
 10
0.0
 20
0.0
 30
0.0
  3
Dim8
  1
Dim8
  0
LINE
  5
276
330
273
100
AcDbEntity
  8
8
  6
Continuous
 62
     6
370
     9
100
AcDbLine
 10
124.8082288816332
 20
156.533635469114
 30
0.0
 11
97.43322888163333
 21
156.5336354691141
 31
0.0
  0
LINE
  5
277
330
273
100
AcDbEntity
  8
8
  6
Continuous
 62
     6
370
     9
100
AcDbLine
 10
124.8082288816332
 20
256.5336354691141
 30
0.0
 11
97.43322888163333
 21
256.5336354691142
 31
0.0
  0
LINE
  5
278
330
273
100
AcDbEntity
  8
8
  6
Continuous
 62
     6
370
     9
100
AcDbLine
 10
98.55822888163333
 20
156.5336354691141
 30
0.0
 11
98.55822888163333
 21
256.5336354691142
 31
0.0
  0
MTEXT
  5
279
330
273
100
AcDbEntity
  8
8
  6
Continuous
 62
     6
370
     9
100
AcDbMText
 10
98.55822888163328
 20
206.533635469114
 30
0.0
 40
2.25
 41
27.32142857142857
 46
2.25
 71
     8
 72
     1
  1
100
  7
ＭＳ ゴシック
 11
1.615544574432587E-15
 21
1.0
 31
0.0
 73
     1
 44
1.0
1001
ACAD
1000
ACAD_MTEXT_DEFINED_HEIGHT_BEGIN
1070
    46
1040
2.25
1000
ACAD_MTEXT_DEFINED_HEIGHT_END
  0
INSERT
  5
27A
330
273
100
AcDbEntity
  8
8
  6
Continuous
 62
     6
370
     9
100
AcDbBlockReference
  2
_ARROWFILLED
 10
98.55822888163333
 20
156.5336354691141
 30
0.0
 41
1.5
 42
1.5
 43
1.5
 50
269.9999999999998
  0
INSERT
  5
27B
330
273
100
AcDbEntity
  8
8
  6
Continuous
 62
     6
370
     9
100
AcDbBlockReference
  2
_ARROWFILLED
 10
98.55822888163333
 20
256.5336354691142
 30
0.0
 41
1.5
 42
1.5
 43
1.5
 50
89.99999999999991
  0
ENDBLK
  5
275
330
273
100
AcDbEntity
  8
0
100
AcDbBlockEnd
  0
BLOCK
  5
27E
330
27D
100
AcDbEntity
  8
0
100
AcDbBlockBegin
  2
Dim9
 70
     0
 10
0.0
 20
0.0
 30
0.0
  3
Dim9
  1
Dim9
  0
LINE
  5
280
330
27D
100
AcDbEntity
  8
8
  6
Continuous
 62
     6
370
     9
100
AcDbLine
 10
109.8082288816332
 20
141.533635469114
 30
0.0
 11
85.43322888163353
 21
141.5336354691141
 31
0.0
  0
LINE
  5
281
330
27D
100
AcDbEntity
  8
8
  6
Continuous
 62
     6
370
     9
100
AcDbLine
 10
109.8082288816332
 20
271.5336354691141
 30
0.0
 11
85.43322888163353
 21
271.5336354691141
 31
0.0
  0
LINE
  5
282
330
27D
100
AcDbEntity
  8
8
  6
Continuous
 62
     6
370
     9
100
AcDbLine
 10
86.55822888163353
 20
141.5336354691141
 30
0.0
 11
86.55822888163353
 21
271.5336354691141
 31
0.0
  0
MTEXT
  5
283
330
27D
100
AcDbEntity
  8
8
  6
Continuous
 62
     6
370
     9
100
AcDbMText
 10
86.55822888163351
 20
206.5336354691141
 30
0.0
 40
2.25
 41
27.32142857142857
 46
2.25
 71
     8
 72
     1
  1
130
  7
ＭＳ ゴシック
 11
1.615544574432587E-15
 21
1.0
 31
0.0
 73
     1
 44
1.0
1001
ACAD
1000
ACAD_MTEXT_DEFINED_HEIGHT_BEGIN
1070
    46
1040
2.25
1000
ACAD_MTEXT_DEFINED_HEIGHT_END
  0
INSERT
  5
284
330
27D
100
AcDbEntity
  8
8
  6
Continuous
 62
     6
370
     9
100
AcDbBlockReference
  2
_ARROWFILLED
 10
86.55822888163353
 20
141.5336354691141
 30
0.0
 41
1.5
 42
1.5
 43
1.5
 50
269.9999999999998
  0
INSERT
  5
285
330
27D
100
AcDbEntity
  8
8
  6
Continuous
 62
     6
370
     9
100
AcDbBlockReference
  2
_ARROWFILLED
 10
86.55822888163353
 20
271.5336354691141
 30
0.0
 41
1.5
 42
1.5
 43
1.5
 50
89.99999999999991
  0
ENDBLK
  5
27F
330
27D
100
AcDbEntity
  8
0
100
AcDbBlockEnd
  0
BLOCK
  5
288
330
287
100
AcDbEntity
  8
0
100
AcDbBlockBegin
  2
Dim10
 70
     0
 10
0.0
 20
0.0
 30
0.0
  3
Dim10
  1
Dim10
  0
LINE
  5
28A
330
287
100
AcDbEntity
  8
8
  6
Continuous
 62
     6
370
     9
100
AcDbLine
 10
145.7082288816332
 20
133.533635469114
 30
0.0
 11
73.43322888163348
 21
133.5336354691142
 31
0.0
  0
LINE
  5
28B
330
287
100
AcDbEntity
  8
8
  6
Continuous
 62
     6
370
     9
100
AcDbLine
 10
145.7082288816332
 20
279.5336354691141
 30
0.0
 11
73.43322888163348
 21
279.5336354691143
 31
0.0
  0
LINE
  5
28C
330
287
100
AcDbEntity
  8
8
  6
Continuous
 62
     6
370
     9
100
AcDbLine
 10
74.55822888163348
 20
133.5336354691142
 30
0.0
 11
74.55822888163348
 21
279.5336354691143
 31
0.0
  0
MTEXT
  5
28D
330
287
100
AcDbEntity
  8
8
  6
Continuous
 62
     6
370
     9
100
AcDbMText
 10
74.55822888163348
 20
206.5336354691141
 30
0.0
 40
2.25
 41
27.32142857142857
 46
2.25
 71
     8
 72
     1
  1
146
  7
ＭＳ ゴシック
 11
1.615544574432587E-15
 21
1.0
 31
0.0
 73
     1
 44
1.0
1001
ACAD
1000
ACAD_MTEXT_DEFINED_HEIGHT_BEGIN
1070
    46
1040
2.25
1000
ACAD_MTEXT_DEFINED_HEIGHT_END
  0
INSERT
  5
28E
330
287
100
AcDbEntity
  8
8
  6
Continuous
 62
     6
370
     9
100
AcDbBlockReference
  2
_ARROWFILLED
 10
74.55822888163348
 20
133.5336354691142
 30
0.0
 41
1.5
 42
1.5
 43
1.5
 50
269.9999999999998
  0
INSERT
  5
28F
330
287
100
AcDbEntity
  8
8
  6
Continuous
 62
     6
370
     9
100
AcDbBlockReference
  2
_ARROWFILLED
 10
74.55822888163348
 20
279.5336354691143
 30
0.0
 41
1.5
 42
1.5
 43
1.5
 50
89.99999999999991
  0
ENDBLK
  5
289
330
287
100
AcDbEntity
  8
0
100
AcDbBlockEnd
  0
BLOCK
  5
292
330
291
100
AcDbEntity
  8
0
100
AcDbBlockBegin
  2
Dim11
 70
     0
 10
0.0
 20
0.0
 30
0.0
  3
Dim11
  1
Dim11
  0
LINE
  5
294
330
291
100
AcDbEntity
  8
8
  6
Continuous
 62
     6
370
     9
100
AcDbLine
 10
129.8082288816323
 20
286.5336354691141
 30
0.0
 11
61.4332288816335
 21
286.5336354691143
 31
0.0
  0
LINE
  5
295
330
291
100
AcDbEntity
  8
8
  6
Continuous
 62
     6
370
     9
100
AcDbLine
 10
129.8082288816323
 20
126.533635469114
 30
0.0
 11
61.4332288816335
 21
126.5336354691142
 31
0.0
  0
LINE
  5
296
330
291
100
AcDbEntity
  8
8
  6
Continuous
 62
     6
370
     9
100
AcDbLine
 10
62.5582288816335
 20
286.5336354691143
 30
0.0
 11
62.5582288816335
 21
126.5336354691142
 31
0.0
  0
MTEXT
  5
297
330
291
100
AcDbEntity
  8
8
  6
Continuous
 62
     6
370
     9
100
AcDbMText
 10
62.55822888163348
 20
206.5336354691141
 30
0.0
 40
2.25
 41
27.32142857142857
 46
2.25
 71
     8
 72
     1
  1
160
  7
ＭＳ ゴシック
 11
1.615544574432587E-15
 21
1.0
 31
0.0
 73
     1
 44
1.0
1001
ACAD
1000
ACAD_MTEXT_DEFINED_HEIGHT_BEGIN
1070
    46
1040
2.25
1000
ACAD_MTEXT_DEFINED_HEIGHT_END
  0
INSERT
  5
298
330
291
100
AcDbEntity
  8
8
  6
Continuous
 62
     6
370
     9
100
AcDbBlockReference
  2
_ARROWFILLED
 10
62.5582288816335
 20
286.5336354691143
 30
0.0
 41
1.5
 42
1.5
 43
1.5
 50
89.99999999999991
  0
INSERT
  5
299
330
291
100
AcDbEntity
  8
8
  6
Continuous
 62
     6
370
     9
100
AcDbBlockReference
  2
_ARROWFILLED
 10
62.5582288816335
 20
126.5336354691142
 30
0.0
 41
1.5
 42
1.5
 43
1.5
 50
269.9999999999998
  0
ENDBLK
  5
293
330
291
100
AcDbEntity
  8
0
100
AcDbBlockEnd
  0
BLOCK
  5
29C
330
29B
100
AcDbEntity
  8
0
100
AcDbBlockBegin
  2
Dim12
 70
     0
 10
0.0
 20
0.0
 30
0.0
  3
Dim12
  1
Dim12
  0
LINE
  5
29E
330
29B
100
AcDbEntity
  8
8
  6
Continuous
 62
     6
370
     9
100
AcDbLine
 10
338.0582288816323
 20
128.683635469114
 30
0.0
 11
338.0582288816323
 21
107.4086354691144
 31
0.0
  0
LINE
  5
29F
330
29B
100
AcDbEntity
  8
8
  6
Continuous
 62
     6
370
     9
100
AcDbLine
 10
400.5582288816332
 20
128.683635469114
 30
0.0
 11
400.5582288816331
 21
107.4086354691144
 31
0.0
  0
LINE
  5
2A0
330
29B
100
AcDbEntity
  8
8
  6
Continuous
 62
     6
370
     9
100
AcDbLine
 10
338.0582288816323
 20
108.5336354691144
 30
0.0
 11
400.5582288816331
 21
108.5336354691144
 31
0.0
  0
MTEXT
  5
2A1
330
29B
100
AcDbEntity
  8
8
  6
Continuous
 62
     6
370
     9
100
AcDbMText
 10
369.308228881633
 20
108.5336354691144
 30
0.0
 40
2.25
 41
33.74999999999999
 46
2.25
 71
     8
 72
     1
  1
62.5
  7
ＭＳ ゴシック
 73
     1
 44
1.0
1001
ACAD
1000
ACAD_MTEXT_DEFINED_HEIGHT_BEGIN
1070
    46
1040
2.25
1000
ACAD_MTEXT_DEFINED_HEIGHT_END
  0
INSERT
  5
2A2
330
29B
100
AcDbEntity
  8
8
  6
Continuous
 62
     6
370
     9
100
AcDbBlockReference
  2
_ARROWFILLED
 10
338.0582288816323
 20
108.5336354691144
 30
0.0
 41
1.5
 42
1.5
 43
1.5
 50
179.9999999999998
  0
INSERT
  5
2A3
330
29B
100
AcDbEntity
  8
8
  6
Continuous
 62
     6
370
     9
100
AcDbBlockReference
  2
_ARROWFILLED
 10
400.5582288816331
 20
108.5336354691144
 30
0.0
 41
1.5
 42
1.5
 43
1.5
 50
359.9999999999997
  0
ENDBLK
  5
29D
330
29B
100
AcDbEntity
  8
0
100
AcDbBlockEnd
  0
BLOCK
  5
2A6
330
2A5
100
AcDbEntity
  8
0
100
AcDbBlockBegin
  2
Dim13
 70
     0
 10
0.0
 20
0.0
 30
0.0
  3
Dim13
  1
Dim13
  0
LINE
  5
2A8
330
2A5
100
AcDbEntity
  8
8
  6
Continuous
 62
     6
370
     9
100
AcDbLine
 10
150.5582288816332
 20
128.683635469114
 30
0.0
 11
150.5582288816332
 21
107.4086354691145
 31
0.0
  0
LINE
  5
2A9
330
2A5
100
AcDbEntity
  8
8
  6
Continuous
 62
     6
370
     9
100
AcDbLine
 10
213.0582288816342
 20
128.683635469114
 30
0.0
 11
213.0582288816342
 21
107.4086354691145
 31
0.0
  0
LINE
  5
2AA
330
2A5
100
AcDbEntity
  8
8
  6
Continuous
 62
     6
370
     9
100
AcDbLine
 10
150.5582288816332
 20
108.5336354691145
 30
0.0
 11
213.0582288816342
 21
108.5336354691145
 31
0.0
  0
MTEXT
  5
2AB
330
2A5
100
AcDbEntity
  8
8
  6
Continuous
 62
     6
370
     9
100
AcDbMText
 10
181.8082288816339
 20
108.5336354691145
 30
0.0
 40
2.25
 41
33.74999999999999
 46
2.25
 71
     8
 72
     1
  1
62.5
  7
ＭＳ ゴシック
 73
     1
 44
1.0
1001
ACAD
1000
ACAD_MTEXT_DEFINED_HEIGHT_BEGIN
1070
    46
1040
2.25
1000
ACAD_MTEXT_DEFINED_HEIGHT_END
  0
INSERT
  5
2AC
330
2A5
100
AcDbEntity
  8
8
  6
Continuous
 62
     6
370
     9
100
AcDbBlockReference
  2
_ARROWFILLED
 10
150.5582288816332
 20
108.5336354691145
 30
0.0
 41
1.5
 42
1.5
 43
1.5
 50
179.9999999999998
  0
INSERT
  5
2AD
330
2A5
100
AcDbEntity
  8
8
  6
Continuous
 62
     6
370
     9
100
AcDbBlockReference
  2
_ARROWFILLED
 10
213.0582288816342
 20
108.5336354691145
 30
0.0
 41
1.5
 42
1.5
 43
1.5
 50
359.9999999999997
  0
ENDBLK
  5
2A7
330
2A5
100
AcDbEntity
  8
0
100
AcDbBlockEnd
  0
ENDSEC
  0
SECTION
  2
ENTITIES
  0
HATCH
  5
D6
330
1F
100
AcDbEntity
  8
10
  6
Continuous
 62
     2
370
     9
100
AcDbHatch
 10
0.0
 20
0.0
 30
0.0
210
0.0
220
0.0
230
1.0
  2

 70
     0
 71
     0
 91
        4
 92
        0
 93
        4
 72
     1
 10
275.5582288816332
 20
206.5336354691139
 11
275.5582288816331
 21
256.5336354691141
 72
     1
 10
275.5582288816331
 20
256.5336354691141
 11
125.5582288816332
 21
256.5336354691141
 72
     1
 10
125.5582288816332
 20
256.5336354691141
 11
125.5582288816333
 21
206.5336354691139
 72
     1
 10
125.5582288816333
 20
206.5336354691139
 11
275.5582288816332
 21
206.5336354691139
 97
        0
 92
        0
 93
        4
 72
     1
 10
275.5582288816332
 20
206.5336354691139
 11
425.5582288816332
 21
206.533635469114
 72
     1
 10
425.5582288816332
 20
206.533635469114
 11
425.5582288816332
 21
256.5336354691141
 72
     1
 10
425.5582288816332
 20
256.5336354691141
 11
275.5582288816331
 21
256.5336354691141
 72
     1
 10
275.5582288816331
 20
256.5336354691141
 11
275.5582288816332
 21
206.5336354691139
 97
        0
 92
        0
 93
        4
 72
     1
 10
275.5582288816333
 20
156.533635469114
 11
425.5582288816332
 21
156.533635469114
 72
     1
 10
425.5582288816332
 20
156.533635469114
 11
425.5582288816332
 21
206.533635469114
 72
     1
 10
425.5582288816332
 20
206.533635469114
 11
275.5582288816332
 21
206.5336354691139
 72
     1
 10
275.5582288816332
 20
206.5336354691139
 11
275.5582288816333
 21
156.533635469114
 97
        0
 92
        0
 93
        4
 72
     1
 10
275.5582288816332
 20
206.5336354691139
 11
125.5582288816332
 21
206.5336354691139
 72
     1
 10
125.5582288816332
 20
206.5336354691139
 11
125.5582288816332
 21
156.533635469114
 72
     1
 10
125.5582288816332
 20
156.533635469114
 11
275.5582288816333
 21
156.533635469114
 72
     1
 10
275.5582288816333
 20
156.533635469114
 11
275.5582288816332
 21
206.5336354691139
 97
        0
 75
     0
 76
     2
 52
0.0
 41
1.0
 77
     0
 78
     2
 53
45.0
 43
-273.479801776058
 44
-120.9509572009437
 45
-5.051394068101445
 46
5.051394068101459
 79
     0
 53
135.0
 43
-273.479801776058
 44
-120.9509572009437
 45
-5.051394068101445
 46
-5.05139406810143
 79
     0
 98
        0
  0
LINE
  5
D7
330
1F
100
AcDbEntity
  8
9
  6
Continuous
 62
     2
370
     9
100
AcDbLine
 10
425.5582288816332
 20
156.533635469114
 30
0.0
 11
425.5582288816332
 21
256.5336354691141
 31
0.0
  0
LINE
  5
D8
330
1F
100
AcDbEntity
  8
9
  6
Continuous
 62
     2
370
     9
100
AcDbLine
 10
425.5582288816332
 20
256.5336354691141
 30
0.0
 11
125.5582288816332
 21
256.5336354691141
 31
0.0
  0
LINE
  5
D9
330
1F
100
AcDbEntity
  8
9
  6
Continuous
 62
     2
370
     9
100
AcDbLine
 10
125.5582288816332
 20
256.5336354691141
 30
0.0
 11
125.5582288816332
 21
156.533635469114
 31
0.0
  0
LINE
  5
DA
330
1F
100
AcDbEntity
  8
9
  6
Continuous
 62
     2
370
     9
100
AcDbLine
 10
440.5582288816331
 20
271.5336354691141
 30
0.0
 11
440.5582288816331
 21
141.533635469114
 31
0.0
  0
LINE
  5
DB
330
1F
100
AcDbEntity
  8
9
  6
Continuous
 62
     2
370
     9
100
AcDbLine
 10
440.5582288816331
 20
141.533635469114
 30
0.0
 11
110.5582288816332
 21
141.5336354691131
 31
0.0
  0
LINE
  5
DC
330
1F
100
AcDbEntity
  8
9
  6
Continuous
 62
     2
370
     9
100
AcDbLine
 10
440.5582288816331
 20
271.5336354691141
 30
0.0
 11
110.5582288816332
 21
271.5336354691141
 31
0.0
  0
LINE
  5
DD
330
1F
100
AcDbEntity
  8
9
  6
Continuous
 62
     2
370
     9
100
AcDbLine
 10
110.5582288816332
 20
271.5336354691141
 30
0.0
 11
110.5582288816332
 21
141.5336354691131
 31
0.0
  0
LINE
  5
DE
330
1F
100
AcDbEntity
  8
9
  6
Continuous
 62
     2
370
     9
100
AcDbLine
 10
574.661482414319
 20
141.2169688024474
 30
0.0
 11
567.7614824143185
 21
141.2169688024474
 31
0.0
  0
ARC
  5
DF
330
1F
100
AcDbEntity
  8
9
  6
Continuous
 62
     2
370
     9
100
AcDbCircle
 10
571.2114824143191
 20
144.183986346307
 30
0.0
 40
4.550350877192955
100
AcDbArc
 50
220.6956985254003
 51
319.304301474599
  0
LINE
  5
E0
330
1F
100
AcDbEntity
  8
9
  6
Continuous
 62
     2
370
     9
100
AcDbLine
 10
574.661482414319
 20
141.533635469114
 30
0.0
 11
574.661482414319
 21
141.2169688024474
 31
0.0
  0
LINE
  5
E1
330
1F
100
AcDbEntity
  8
9
  6
Continuous
 62
     2
370
     9
100
AcDbLine
 10
567.7614824143185
 20
141.533635469114
 30
0.0
 11
567.7614824143185
 21
141.2169688024474
 31
0.0
  0
LINE
  5
E2
330
1F
100
AcDbEntity
  8
9
  6
Continuous
 62
     2
370
     9
100
AcDbLine
 10
536.2114824143191
 20
271.5336354691141
 30
0.0
 11
536.2114824143191
 21
141.533635469114
 31
0.0
  0
LINE
  5
E3
330
1F
100
AcDbEntity
  8
9
  6
Continuous
 62
     2
370
     9
100
AcDbLine
 10
581.2114824143191
 20
286.5336354691141
 30
0.0
 11
581.2114824143191
 21
126.533635469114
 31
0.0
  0
LINE
  5
E4
330
1F
100
AcDbEntity
  8
9
  6
Continuous
 62
     2
370
     9
100
AcDbLine
 10
580.2114824143191
 20
286.5336354691141
 30
0.0
 11
580.2114824143183
 21
214.033635469114
 31
0.0
  0
LINE
  5
E5
330
1F
100
AcDbEntity
  8
9
  6
Continuous
 62
     2
370
     9
100
AcDbLine
 10
580.2114824143183
 20
199.0336354691169
 30
0.0
 11
580.2114824143183
 21
126.533635469114
 31
0.0
  0
LINE
  5
E6
330
1F
100
AcDbEntity
  8
9
  6
Continuous
 62
     2
370
     9
100
AcDbLine
 10
536.2114824143191
 20
271.5336354691141
 30
0.0
 11
580.2114824143191
 21
271.5336354691121
 31
0.0
  0
LINE
  5
E7
330
1F
100
AcDbEntity
  8
9
  6
Continuous
 62
     2
370
     9
100
AcDbLine
 10
580.2114824143191
 20
270.5336354691121
 30
0.0
 11
581.2114824143191
 21
270.5336354691121
 31
0.0
  0
LINE
  5
E8
330
1F
100
AcDbEntity
  8
9
  6
Continuous
 62
     2
370
     9
100
AcDbLine
 10
580.2114824143191
 20
286.5336354691138
 30
0.0
 11
581.2114824143191
 21
286.5336354691138
 31
0.0
  0
LINE
  5
E9
330
1F
100
AcDbEntity
  8
9
  6
Continuous
 62
     2
370
     9
100
AcDbLine
 10
536.2114824143191
 20
141.533635469114
 30
0.0
 11
580.2114824143172
 21
141.533635469114
 31
0.0
  0
LINE
  5
EA
330
1F
100
AcDbEntity
  8
9
  6
Continuous
 62
     2
370
     9
100
AcDbLine
 10
580.2114824143172
 20
142.533635469114
 30
0.0
 11
581.2114824143191
 21
142.533635469114
 31
0.0
  0
LINE
  5
EB
330
1F
100
AcDbEntity
  8
9
  6
Continuous
 62
     2
370
     9
100
AcDbLine
 10
580.2114824143191
 20
126.533635469114
 30
0.0
 11
581.2114824143191
 21
126.533635469114
 31
0.0
  0
LINE
  5
EC
330
1F
100
AcDbEntity
  8
9
  6
Continuous
 62
     2
370
     9
100
AcDbLine
 10
425.5582288816332
 20
131.533635469114
 30
0.0
 11
425.5582288816332
 21
141.533635469114
 31
0.0
  0
ARC
  5
ED
330
1F
100
AcDbEntity
  8
9
  6
Continuous
 62
     2
370
     9
100
AcDbCircle
 10
420.5582288816341
 20
131.533635469114
 30
0.0
 40
5.0
100
AcDbArc
 50
269.9999999999998
 51
0.0
  0
LINE
  5
EE
330
1F
100
AcDbEntity
  8
9
  6
Continuous
 62
     2
370
     9
100
AcDbLine
 10
130.5582288816332
 20
126.533635469114
 30
0.0
 11
420.5582288816341
 21
126.5336354691149
 31
0.0
  0
LINE
  5
EF
330
1F
100
AcDbEntity
  8
9
  6
Continuous
 62
     2
370
     9
100
AcDbLine
 10
125.5582288816332
 20
131.533635469114
 30
0.0
 11
125.5582288816332
 21
141.533635469114
 31
0.0
  0
ARC
  5
F0
330
1F
100
AcDbEntity
  8
9
  6
Continuous
 62
     2
370
     9
100
AcDbCircle
 10
130.5582288816323
 20
131.533635469114
 30
0.0
 40
5.0
100
AcDbArc
 50
179.9999999999998
 51
269.9999999999998
  0
LINE
  5
F1
330
1F
100
AcDbEntity
  8
9
  6
Continuous
 62
     2
370
     9
100
AcDbLine
 10
124.0082288816349
 20
141.2169688024474
 30
0.0
 11
117.1082288816352
 21
141.2169688024474
 31
0.0
  0
ARC
  5
F2
330
1F
100
AcDbEntity
  8
9
  6
Continuous
 62
     2
370
     9
100
AcDbCircle
 10
120.558228881635
 20
144.183986346307
 30
0.0
 40
4.550350877192983
100
AcDbArc
 50
220.6956985254003
 51
319.304301474599
  0
LINE
  5
F3
330
1F
100
AcDbEntity
  8
9
  6
Continuous
 62
     2
370
     9
100
AcDbLine
 10
124.0082288816349
 20
141.533635469114
 30
0.0
 11
124.0082288816349
 21
141.2169688024474
 31
0.0
  0
LINE
  5
F4
330
1F
100
AcDbEntity
  8
9
  6
Continuous
 62
     2
370
     9
100
AcDbLine
 10
117.1082288816352
 20
141.533635469114
 30
0.0
 11
117.1082288816352
 21
141.2169688024474
 31
0.0
  0
LINE
  5
F5
330
1F
100
AcDbEntity
  8
9
  6
Continuous
 62
     2
370
     9
100
AcDbLine
 10
145.5082288816347
 20
141.2169688024474
 30
0.0
 11
138.6082288816343
 21
141.2169688024474
 31
0.0
  0
ARC
  5
F6
330
1F
100
AcDbEntity
  8
9
  6
Continuous
 62
     2
370
     9
100
AcDbCircle
 10
142.058228881635
 20
144.183986346307
 30
0.0
 40
4.550350877192983
100
AcDbArc
 50
220.6956985254003
 51
319.304301474599
  0
LINE
  5
F7
330
1F
100
AcDbEntity
  8
9
  6
Continuous
 62
     2
370
     9
100
AcDbLine
 10
145.5082288816347
 20
141.533635469114
 30
0.0
 11
145.5082288816347
 21
141.2169688024474
 31
0.0
  0
LINE
  5
F8
330
1F
100
AcDbEntity
  8
9
  6
Continuous
 62
     2
370
     9
100
AcDbLine
 10
138.6082288816343
 20
141.533635469114
 30
0.0
 11
138.6082288816343
 21
141.2169688024474
 31
0.0
  0
LINE
  5
F9
330
1F
100
AcDbEntity
  8
9
  6
Continuous
 62
     2
370
     9
100
AcDbLine
 10
427.1082288816315
 20
141.2169688024474
 30
0.0
 11
434.008228881632
 21
141.2169688024474
 31
0.0
  0
ARC
  5
FA
330
1F
100
AcDbEntity
  8
9
  6
Continuous
 62
     2
370
     9
100
AcDbCircle
 10
430.5582288816314
 20
144.183986346307
 30
0.0
 40
4.550350877192955
100
AcDbArc
 50
220.6956985254003
 51
319.304301474599
  0
LINE
  5
FB
330
1F
100
AcDbEntity
  8
9
  6
Continuous
 62
     2
370
     9
100
AcDbLine
 10
427.1082288816315
 20
141.533635469114
 30
0.0
 11
427.1082288816315
 21
141.2169688024474
 31
0.0
  0
LINE
  5
FC
330
1F
100
AcDbEntity
  8
9
  6
Continuous
 62
     2
370
     9
100
AcDbLine
 10
434.008228881632
 20
141.533635469114
 30
0.0
 11
434.008228881632
 21
141.2169688024474
 31
0.0
  0
LINE
  5
FD
330
1F
100
AcDbEntity
  8
9
  6
Continuous
 62
     2
370
     9
100
AcDbLine
 10
405.6082288816324
 20
141.2169688024474
 30
0.0
 11
412.5082288816321
 21
141.2169688024474
 31
0.0
  0
ARC
  5
FE
330
1F
100
AcDbEntity
  8
9
  6
Continuous
 62
     2
370
     9
100
AcDbCircle
 10
409.0582288816323
 20
144.183986346307
 30
0.0
 40
4.550350877192955
100
AcDbArc
 50
220.6956985254003
 51
319.304301474599
  0
LINE
  5
FF
330
1F
100
AcDbEntity
  8
9
  6
Continuous
 62
     2
370
     9
100
AcDbLine
 10
405.6082288816324
 20
141.533635469114
 30
0.0
 11
405.6082288816324
 21
141.2169688024474
 31
0.0
  0
LINE
  5
100
330
1F
100
AcDbEntity
  8
9
  6
Continuous
 62
     2
370
     9
100
AcDbLine
 10
412.5082288816321
 20
141.533635469114
 30
0.0
 11
412.5082288816321
 21
141.2169688024474
 31
0.0
  0
LINE
  5
101
330
1F
100
AcDbEntity
  8
3
  6
DASHDOT
 62
     1
370
    13
100
AcDbLine
 10
275.5582288816333
 20
121.5336354691142
 30
0.0
 11
275.5582288816331
 21
291.5336354691133
 31
0.0
  0
LINE
  5
102
330
1F
100
AcDbEntity
  8
3
  6
DASHDOT
 62
     1
370
    13
100
AcDbLine
 10
445.5582288816331
 20
206.533635469114
 30
0.0
 11
105.5582288816332
 21
206.5336354691139
 31
0.0
  0
DIMENSION
  5
10D
330
1F
100
AcDbEntity
  8
8
  6
Continuous
 62
     6
370
     9
100
AcDbDimension
280
     0
  2
Dim1
 10
580.2114824143172
 20
108.5336354691144
 30
0.0
 11
589.461482414319
 21
108.5336354691144
 31
0.0
 70
   160
  1
<>
 71
     5
 42
-1.0
 73
     0
 74
     0
 75
     0
  3
Standard
100
AcDbAlignedDimension
 13
581.2114824143191
 23
126.533635469114
 33
0.0
 14
580.2114824143172
 24
126.533635469114
 34
0.0
 50
179.9999999999998
100
AcDbRotatedDimension
1001
ACAD
1000
DSTYLE
1002
{
1070
   279
1070
     2
1070
   340
1005
103
1070
   140
1040
2.25
1070
    40
1040
1.0
1070
   147
1040
0.0
1070
    76
1070
     0
1070
    75
1070
     0
1070
   344
1005
0
1070
   343
1005
0
1070
   173
1070
     1
1070
   289
1070
     2
1070
   288
1070
     1
1070
    77
1070
     1
1070
   172
1070
     1
1070
   174
1070
     0
1070
    74
1070
     0
1070
    73
1070
     0
1070
   284
1070
     8
1070
    78
1070
     8
1070
    42
1040
0.75
1070
    44
1040
1.125
1070
    43
1040
30.0
1070
   271
1070
     2
1070
    41
1040
1.5
1002
}
  0
LINE
  5
10E
330
1F
100
AcDbEntity
  8
9
  6
Continuous
 62
     2
370
     9
100
AcDbLine
 10
574.661482414319
 20
271.5336354691133
 30
0.0
 11
567.7614824143185
 21
271.5336354691133
 31
0.0
  0
LINE
  5
10F
330
1F
100
AcDbEntity
  8
9
  6
Continuous
 62
     2
370
     9
100
AcDbLine
 10
574.661482414319
 20
271.8503021357803
 30
0.0
 11
567.7614824143185
 21
271.8503021357803
 31
0.0
  0
ARC
  5
110
330
1F
100
AcDbEntity
  8
9
  6
Continuous
 62
     2
370
     9
100
AcDbCircle
 10
571.2114824143191
 20
268.8832845919204
 30
0.0
 40
4.550350877192955
100
AcDbArc
 50
40.69569852540071
 51
139.3043014745993
  0
LINE
  5
111
330
1F
100
AcDbEntity
  8
9
  6
Continuous
 62
     2
370
     9
100
AcDbLine
 10
574.661482414319
 20
271.5336354691133
 30
0.0
 11
574.661482414319
 21
271.8503021357803
 31
0.0
  0
LINE
  5
112
330
1F
100
AcDbEntity
  8
9
  6
Continuous
 62
     2
370
     9
100
AcDbLine
 10
567.7614824143185
 20
271.5336354691133
 30
0.0
 11
567.7614824143185
 21
271.8503021357803
 31
0.0
  0
LINE
  5
113
330
1F
100
AcDbEntity
  8
9
  6
Continuous
 62
     2
370
     9
100
AcDbLine
 10
425.5582288816332
 20
156.533635469114
 30
0.0
 11
125.5582288816332
 21
156.533635469114
 31
0.0
  0
LINE
  5
114
330
1F
100
AcDbEntity
  8
9
  6
Continuous
 62
     2
370
     9
100
AcDbLine
 10
425.5582288816332
 20
281.5336354691141
 30
0.0
 11
425.5582288816332
 21
271.5336354691141
 31
0.0
  0
ARC
  5
115
330
1F
100
AcDbEntity
  8
9
  6
Continuous
 62
     2
370
     9
100
AcDbCircle
 10
420.5582288816341
 20
281.5336354691141
 30
0.0
 40
5.0
100
AcDbArc
 50
0.0
 51
89.99999999999991
  0
LINE
  5
116
330
1F
100
AcDbEntity
  8
9
  6
Continuous
 62
     2
370
     9
100
AcDbLine
 10
130.5582288816332
 20
286.5336354691141
 30
0.0
 11
420.5582288816341
 21
286.5336354691132
 31
0.0
  0
LINE
  5
117
330
1F
100
AcDbEntity
  8
9
  6
Continuous
 62
     2
370
     9
100
AcDbLine
 10
125.5582288816332
 20
281.5336354691141
 30
0.0
 11
125.5582288816332
 21
271.5336354691141
 31
0.0
  0
ARC
  5
118
330
1F
100
AcDbEntity
  8
9
  6
Continuous
 62
     2
370
     9
100
AcDbCircle
 10
130.5582288816323
 20
281.5336354691141
 30
0.0
 40
5.0
100
AcDbArc
 50
89.99999999999991
 51
179.9999999999998
  0
LINE
  5
119
330
1F
100
AcDbEntity
  8
9
  6
Continuous
 62
     2
370
     9
100
AcDbLine
 10
124.0082288816349
 20
271.8503021357807
 30
0.0
 11
117.1082288816352
 21
271.8503021357807
 31
0.0
  0
ARC
  5
11A
330
1F
100
AcDbEntity
  8
9
  6
Continuous
 62
     2
370
     9
100
AcDbCircle
 10
120.558228881635
 20
268.883284591921
 30
0.0
 40
4.550350877192983
100
AcDbArc
 50
40.69569852540071
 51
139.3043014745993
  0
LINE
  5
11B
330
1F
100
AcDbEntity
  8
9
  6
Continuous
 62
     2
370
     9
100
AcDbLine
 10
124.0082288816349
 20
271.5336354691141
 30
0.0
 11
124.0082288816349
 21
271.8503021357807
 31
0.0
  0
LINE
  5
11C
330
1F
100
AcDbEntity
  8
9
  6
Continuous
 62
     2
370
     9
100
AcDbLine
 10
117.1082288816352
 20
271.5336354691141
 30
0.0
 11
117.1082288816352
 21
271.8503021357807
 31
0.0
  0
LINE
  5
11D
330
1F
100
AcDbEntity
  8
9
  6
Continuous
 62
     2
370
     9
100
AcDbLine
 10
145.5082288816347
 20
271.8503021357807
 30
0.0
 11
138.6082288816343
 21
271.8503021357807
 31
0.0
  0
ARC
  5
11E
330
1F
100
AcDbEntity
  8
9
  6
Continuous
 62
     2
370
     9
100
AcDbCircle
 10
142.058228881635
 20
268.883284591921
 30
0.0
 40
4.550350877192983
100
AcDbArc
 50
40.69569852540071
 51
139.3043014745993
  0
LINE
  5
11F
330
1F
100
AcDbEntity
  8
9
  6
Continuous
 62
     2
370
     9
100
AcDbLine
 10
145.5082288816347
 20
271.5336354691141
 30
0.0
 11
145.5082288816347
 21
271.8503021357807
 31
0.0
  0
LINE
  5
120
330
1F
100
AcDbEntity
  8
9
  6
Continuous
 62
     2
370
     9
100
AcDbLine
 10
138.6082288816343
 20
271.5336354691141
 30
0.0
 11
138.6082288816343
 21
271.8503021357807
 31
0.0
  0
LINE
  5
121
330
1F
100
AcDbEntity
  8
9
  6
Continuous
 62
     2
370
     9
100
AcDbLine
 10
427.1082288816315
 20
271.8503021357807
 30
0.0
 11
434.008228881632
 21
271.8503021357807
 31
0.0
  0
ARC
  5
122
330
1F
100
AcDbEntity
  8
9
  6
Continuous
 62
     2
370
     9
100
AcDbCircle
 10
430.5582288816314
 20
268.883284591921
 30
0.0
 40
4.550350877192955
100
AcDbArc
 50
40.69569852540071
 51
139.3043014745993
  0
LINE
  5
123
330
1F
100
AcDbEntity
  8
9
  6
Continuous
 62
     2
370
     9
100
AcDbLine
 10
427.1082288816315
 20
271.5336354691141
 30
0.0
 11
427.1082288816315
 21
271.8503021357807
 31
0.0
  0
LINE
  5
124
330
1F
100
AcDbEntity
  8
9
  6
Continuous
 62
     2
370
     9
100
AcDbLine
 10
434.008228881632
 20
271.5336354691141
 30
0.0
 11
434.008228881632
 21
271.8503021357807
 31
0.0
  0
LINE
  5
125
330
1F
100
AcDbEntity
  8
9
  6
Continuous
 62
     2
370
     9
100
AcDbLine
 10
405.6082288816324
 20
271.8503021357807
 30
0.0
 11
412.5082288816321
 21
271.8503021357807
 31
0.0
  0
ARC
  5
126
330
1F
100
AcDbEntity
  8
9
  6
Continuous
 62
     2
370
     9
100
AcDbCircle
 10
409.0582288816323
 20
268.883284591921
 30
0.0
 40
4.550350877192955
100
AcDbArc
 50
40.69569852540071
 51
139.3043014745993
  0
LINE
  5
127
330
1F
100
AcDbEntity
  8
9
  6
Continuous
 62
     2
370
     9
100
AcDbLine
 10
405.6082288816324
 20
271.5336354691141
 30
0.0
 11
405.6082288816324
 21
271.8503021357807
 31
0.0
  0
LINE
  5
128
330
1F
100
AcDbEntity
  8
9
  6
Continuous
 62
     2
370
     9
100
AcDbLine
 10
412.5082288816321
 20
271.5336354691141
 30
0.0
 11
412.5082288816321
 21
271.8503021357807
 31
0.0
  0
POLYLINE
  5
129
330
1F
100
AcDbEntity
  8
9
  6
Continuous
 62
     2
370
     9
100
AcDb2dPolyline
 66
     1
 10
0.0
 20
0.0
 30
0.0
  0
VERTEX
  5
12A
330
129
100
AcDbEntity
  8
9
  6
Continuous
 62
     2
370
     9
100
AcDbVertex
100
AcDb2dVertex
 10
571.1755840294483
 20
212.533635469114
 30
0.0
  0
VERTEX
  5
12B
330
129
100
AcDbEntity
  8
9
  6
Continuous
 62
     2
370
     9
100
AcDbVertex
100
AcDb2dVertex
 10
574.6396856445864
 20
206.533635469114
 30
0.0
  0
VERTEX
  5
12C
330
129
100
AcDbEntity
  8
9
  6
Continuous
 62
     2
370
     9
100
AcDbVertex
100
AcDb2dVertex
 10
571.1755840294483
 20
200.533635469114
 30
0.0
  0
VERTEX
  5
12D
330
129
100
AcDbEntity
  8
9
  6
Continuous
 62
     2
370
     9
100
AcDbVertex
100
AcDb2dVertex
 10
564.2473807991729
 20
200.533635469114
 30
0.0
  0
VERTEX
  5
12E
330
129
100
AcDbEntity
  8
9
  6
Continuous
 62
     2
370
     9
100
AcDbVertex
100
AcDb2dVertex
 10
560.7832791840357
 20
206.533635469114
 30
0.0
  0
VERTEX
  5
12F
330
129
100
AcDbEntity
  8
9
  6
Continuous
 62
     2
370
     9
100
AcDbVertex
100
AcDb2dVertex
 10
564.2473807991729
 20
212.533635469114
 30
0.0
  0
VERTEX
  5
130
330
129
100
AcDbEntity
  8
9
  6
Continuous
 62
     2
370
     9
100
AcDbVertex
100
AcDb2dVertex
 10
571.1755840294483
 20
212.533635469114
 30
0.0
  0
SEQEND
  5
131
330
129
100
AcDbEntity
  8
9
  6
Continuous
 62
     2
370
     9
  0
CIRCLE
  5
132
330
1F
100
AcDbEntity
  8
9
  6
Continuous
 62
     2
370
     9
100
AcDbCircle
 10
567.7114824143101
 20
206.533635469114
 30
0.0
 40
1.849999999990359
  0
CIRCLE
  5
133
330
1F
100
AcDbEntity
  8
9
  6
Continuous
 62
     2
370
     9
100
AcDbCircle
 10
567.7114824143101
 20
206.533635469114
 30
0.0
 40
5.0
  0
LINE
  5
134
330
1F
100
AcDbEntity
  8
9
  6
Continuous
 62
     2
370
     9
100
AcDbLine
 10
580.2114824143187
 20
214.033635469114
 30
0.0
 11
567.7114824143101
 21
214.033635469114
 31
0.0
  0
LINE
  5
135
330
1F
100
AcDbEntity
  8
9
  6
Continuous
 62
     2
370
     9
100
AcDbLine
 10
580.2114824143183
 20
199.0336354691169
 30
0.0
 11
567.711482414312
 21
199.033635469114
 31
0.0
  0
ARC
  5
136
330
1F
100
AcDbEntity
  8
9
  6
Continuous
 62
     2
370
     9
100
AcDbCircle
 10
567.7114824143101
 20
206.533635469114
 30
0.0
 40
7.5
100
AcDbArc
 50
89.99999999999991
 51
270.0000000000257
  0
LINE
  5
137
330
1F
100
AcDbEntity
  8
9
  6
Continuous
 62
     2
370
     9
100
AcDbLine
 10
447.5582288816331
 20
212.533635469114
 30
0.0
 11
447.5582288816331
 21
206.533635469114
 31
0.0
  0
LINE
  5
138
330
1F
100
AcDbEntity
  8
9
  6
Continuous
 62
     2
370
     9
100
AcDbLine
 10
458.5582288816332
 20
209.033635469114
 30
0.0
 11
458.5582288816332
 21
204.033635469114
 31
0.0
  0
ARC
  5
139
330
1F
100
AcDbEntity
  8
9
  6
Continuous
 62
     2
370
     9
100
AcDbCircle
 10
455.5582288816332
 20
209.033635469114
 30
0.0
 40
3.0
100
AcDbArc
 50
0.0
 51
89.99999999999991
  0
LINE
  5
13A
330
1F
100
AcDbEntity
  8
9
  6
Continuous
 62
     2
370
     9
100
AcDbLine
 10
455.5582288816332
 20
212.533635469114
 30
0.0
 11
455.5582288816332
 21
200.533635469114
 31
0.0
  0
LINE
  5
13B
330
1F
100
AcDbEntity
  8
9
  6
Continuous
 62
     2
370
     9
100
AcDbLine
 10
447.5582288816331
 20
212.533635469114
 30
0.0
 11
455.5582288816332
 21
212.533635469114
 31
0.0
  0
LINE
  5
13C
330
1F
100
AcDbEntity
  8
9
  6
Continuous
 62
     2
370
     9
100
AcDbLine
 10
445.6582288816318
 20
211.533635469114
 30
0.0
 11
447.5582288816331
 21
211.533635469114
 31
0.0
  0
LINE
  5
13D
330
1F
100
AcDbEntity
  8
9
  6
Continuous
 62
     2
370
     9
100
AcDbLine
 10
447.5582288816331
 20
200.533635469114
 30
0.0
 11
447.5582288816331
 21
206.533635469114
 31
0.0
  0
LINE
  5
13E
330
1F
100
AcDbEntity
  8
9
  6
Continuous
 62
     2
370
     9
100
AcDbLine
 10
447.5582288816331
 20
206.533635469114
 30
0.0
 11
455.5582288816332
 21
206.533635469114
 31
0.0
  0
LINE
  5
13F
330
1F
100
AcDbEntity
  8
9
  6
Continuous
 62
     2
370
     9
100
AcDbLine
 10
445.6582288816318
 20
201.533635469114
 30
0.0
 11
447.5582288816331
 21
201.533635469114
 31
0.0
  0
ARC
  5
140
330
1F
100
AcDbEntity
  8
9
  6
Continuous
 62
     2
370
     9
100
AcDbCircle
 10
455.5582288816332
 20
204.033635469114
 30
0.0
 40
3.0
100
AcDbArc
 50
269.9999999999998
 51
0.0
  0
LINE
  5
141
330
1F
100
AcDbEntity
  8
9
  6
Continuous
 62
     2
370
     9
100
AcDbLine
 10
447.5582288816331
 20
200.533635469114
 30
0.0
 11
455.5582288816332
 21
200.533635469114
 31
0.0
  0
LINE
  5
142
330
1F
100
AcDbEntity
  8
5
  6
Continuous
 62
    30
370
     9
100
AcDbLine
 10
458.5582288816332
 20
208.3836354691134
 30
0.0
 11
477.2821373919123
 21
208.3836239209291
 31
0.0
  0
ARC
  5
143
330
1F
100
AcDbEntity
  8
5
  6
Continuous
 62
    30
370
     9
100
AcDbCircle
 10
478.3160547899943
 20
207.458629785248
 30
0.0
 40
1.387299296151184
100
AcDbArc
 50
138.1825956443264
 51
221.8174143556779
  0
ARC
  5
144
330
1F
100
AcDbEntity
  8
5
  6
Continuous
 62
    30
370
     9
100
AcDbCircle
 10
476.2479355152565
 20
205.6086354691138
 30
0.0
 40
1.387515353286915
100
AcDbArc
 50
318.1902521645565
 51
41.80974783544313
  0
ARC
  5
145
330
1F
100
AcDbEntity
  8
5
  6
Continuous
 62
    30
370
     9
100
AcDbCircle
 10
476.2479508685637
 20
207.4586296047715
 30
0.0
 40
1.387499999999989
100
AcDbArc
 50
318.1900099999988
 51
41.80999999998498
  0
LINE
  5
146
330
1F
100
AcDbEntity
  8
5
  6
Continuous
 62
    30
370
     9
100
AcDbLine
 10
458.5582288816332
 20
204.6836354691136
 30
0.0
 11
477.2821375533541
 21
204.6836354691136
 31
0.0
  0
LINE
  5
147
330
1F
100
AcDbEntity
  8
9
  6
Continuous
 62
     2
370
     9
100
AcDbLine
 10
441.0582288816331
 20
212.783635469114
 30
0.0
 11
440.5582288816331
 21
212.783635469114
 31
0.0
  0
LINE
  5
148
330
1F
100
AcDbEntity
  8
9
  6
Continuous
 62
     2
370
     9
100
AcDbLine
 10
441.0582288816331
 20
213.533635469114
 30
0.0
 11
445.6582288816327
 21
213.533635469114
 31
0.0
  0
LINE
  5
149
330
1F
100
AcDbEntity
  8
9
  6
Continuous
 62
     2
370
     9
100
AcDbLine
 10
441.0582288816331
 20
210.033635469114
 30
0.0
 11
445.6582288816327
 21
210.033635469114
 31
0.0
  0
LINE
  5
14A
330
1F
100
AcDbEntity
  8
9
  6
Continuous
 62
     2
370
     9
100
AcDbLine
 10
441.0582288816331
 20
199.5336354691131
 30
0.0
 11
445.6582288816327
 21
199.533635469114
 31
0.0
  0
LINE
  5
14B
330
1F
100
AcDbEntity
  8
9
  6
Continuous
 62
     2
370
     9
100
AcDbLine
 10
441.0582288816331
 20
203.033635469114
 30
0.0
 11
445.6582288816327
 21
203.033635469114
 31
0.0
  0
LINE
  5
14C
330
1F
100
AcDbEntity
  8
9
  6
Continuous
 62
     2
370
     9
100
AcDbLine
 10
445.6582288816327
 20
213.533635469114
 30
0.0
 11
445.6582288816327
 21
206.533635469114
 31
0.0
  0
LINE
  5
14D
330
1F
100
AcDbEntity
  8
9
  6
Continuous
 62
     2
370
     9
100
AcDbLine
 10
445.6582288816327
 20
199.533635469114
 30
0.0
 11
445.6582288816327
 21
206.533635469114
 31
0.0
  0
LINE
  5
14E
330
1F
100
AcDbEntity
  8
9
  6
Continuous
 62
     2
370
     9
100
AcDbLine
 10
441.0582288816331
 20
213.533635469114
 30
0.0
 11
441.0582288816331
 21
199.5336354691131
 31
0.0
  0
LINE
  5
14F
330
1F
100
AcDbEntity
  8
9
  6
Continuous
 62
     2
370
     9
100
AcDbLine
 10
441.0582288816331
 20
200.283635469114
 30
0.0
 11
440.5582288816331
 21
200.283635469114
 31
0.0
  0
LINE
  5
150
330
1F
100
AcDbEntity
  8
9
  6
Continuous
 62
     2
370
     9
100
AcDbLine
 10
440.5582288816331
 20
212.783635469114
 30
0.0
 11
440.5582288816331
 21
200.283635469114
 31
0.0
  0
DIMENSION
  5
15A
330
1F
100
AcDbEntity
  8
8
  6
Continuous
 62
     6
370
     9
100
AcDbDimension
280
     0
  2
Dim2
 10
440.558228881633
 20
84.5336354691145
 30
0.0
 11
469.0582288816331
 21
84.5336354691145
 31
0.0
 70
   160
  1
(<>
 71
     5
 42
-1.0
 73
     0
 74
     0
 75
     0
  3
Standard
100
AcDbAlignedDimension
 13
458.5582288816332
 23
204.033635469114
 33
0.0
 14
440.5582288816331
 24
141.533635469114
 34
0.0
 50
179.9999999999998
100
AcDbRotatedDimension
1001
ACAD
1000
DSTYLE
1002
{
1070
   279
1070
     2
1070
   340
1005
103
1070
   140
1040
2.25
1070
    40
1040
1.0
1070
   147
1040
0.0
1070
    76
1070
     0
1070
    75
1070
     0
1070
   344
1005
0
1070
   343
1005
0
1070
   173
1070
     1
1070
   289
1070
     2
1070
   288
1070
     1
1070
    77
1070
     1
1070
   172
1070
     1
1070
   174
1070
     0
1070
    74
1070
     0
1070
    73
1070
     0
1070
   284
1070
     8
1070
    78
1070
     8
1070
    42
1040
0.75
1070
    44
1040
1.125
1070
    43
1040
30.0
1070
   271
1070
     2
1070
    41
1040
1.5
1002
}
  0
DIMENSION
  5
164
330
1F
100
AcDbEntity
  8
8
  6
Continuous
 62
     6
370
     9
100
AcDbDimension
280
     0
  2
Dim3
 10
560.7832791840355
 20
96.53363546911444
 30
0.0
 11
595.0864824143191
 21
96.53363546911444
 31
0.0
 70
   160
  1
(<>
 71
     5
 42
-1.0
 73
     0
 74
     0
 75
     0
  3
Standard
100
AcDbAlignedDimension
 13
581.2114824143191
 23
126.533635469114
 33
0.0
 14
560.7832791840357
 24
206.533635469114
 34
0.0
 50
179.9999999999998
100
AcDbRotatedDimension
1001
ACAD
1000
DSTYLE
1002
{
1070
   279
1070
     2
1070
   340
1005
103
1070
   140
1040
2.25
1070
    40
1040
1.0
1070
   147
1040
0.0
1070
    76
1070
     0
1070
    75
1070
     0
1070
   344
1005
0
1070
   343
1005
0
1070
   173
1070
     1
1070
   289
1070
     2
1070
   288
1070
     1
1070
    77
1070
     1
1070
   172
1070
     1
1070
   174
1070
     0
1070
    74
1070
     0
1070
    73
1070
     0
1070
   284
1070
     8
1070
    78
1070
     8
1070
    42
1040
0.75
1070
    44
1040
1.125
1070
    43
1040
30.0
1070
   271
1070
     2
1070
    41
1040
1.5
1002
}
  0
ARC
  5
165
330
1F
100
AcDbEntity
  8
5
  6
Continuous
 62
    30
370
     9
100
AcDbCircle
 10
479.7146080354524
 20
205.6318465400323
 30
0.0
 40
1.387515022395519
100
AcDbArc
 50
138.1902399436259
 51
221.8097600563737
  0
ARC
  5
166
330
1F
100
AcDbEntity
  8
5
  6
Continuous
 62
    30
370
     9
100
AcDbCircle
 10
477.6464887606227
 20
205.6318523321541
 30
0.0
 40
1.387299627082427
100
AcDbArc
 50
318.1825978710816
 51
41.81739912889607
  0
ARC
  5
167
330
1F
100
AcDbEntity
  8
5
  6
Continuous
 62
    30
370
     9
100
AcDbCircle
 10
479.7145930130683
 20
207.4818408020406
 30
0.0
 40
1.387499999999989
100
AcDbArc
 50
138.190000000015
 51
221.8099970000186
  0
MTEXT
  5
168
330
1F
100
AcDbEntity
  8
8
  6
Continuous
 62
     6
370
     9
100
AcDbMText
 10
474.2242169058037
 20
197.1733081932976
 30
0.0
 40
4.5
 41
29.24845499555999
 46
4.5
 71
     1
 72
     1
  1
{\fＭＳ ゴシック;\T1.555898;L=500}
 73
     1
 44
1.0
1001
ACAD
1000
ACAD_MTEXT_DEFINED_HEIGHT_BEGIN
1070
    46
1040
4.5
1000
ACAD_MTEXT_DEFINED_HEIGHT_END
  0
LINE
  5
169
330
1F
100
AcDbEntity
  8
9
  6
Continuous
 62
     2
370
     9
100
AcDbLine
 10
272.1082288816334
 20
141.2169688024474
 30
0.0
 11
279.008228881633
 21
141.2169688024474
 31
0.0
  0
ARC
  5
16A
330
1F
100
AcDbEntity
  8
9
  6
Continuous
 62
     2
370
     9
100
AcDbCircle
 10
275.5582288816332
 20
144.183986346307
 30
0.0
 40
4.550350877192955
100
AcDbArc
 50
220.6956985254003
 51
319.304301474599
  0
LINE
  5
16B
330
1F
100
AcDbEntity
  8
9
  6
Continuous
 62
     2
370
     9
100
AcDbLine
 10
272.1082288816334
 20
141.533635469114
 30
0.0
 11
272.1082288816334
 21
141.2169688024474
 31
0.0
  0
LINE
  5
16C
330
1F
100
AcDbEntity
  8
9
  6
Continuous
 62
     2
370
     9
100
AcDbLine
 10
279.008228881633
 20
141.533635469114
 30
0.0
 11
279.008228881633
 21
141.2169688024474
 31
0.0
  0
LINE
  5
16D
330
1F
100
AcDbEntity
  8
9
  6
Continuous
 62
     2
370
     9
100
AcDbLine
 10
272.1082288816334
 20
271.8503021357807
 30
0.0
 11
279.008228881633
 21
271.8503021357807
 31
0.0
  0
ARC
  5
16E
330
1F
100
AcDbEntity
  8
9
  6
Continuous
 62
     2
370
     9
100
AcDbCircle
 10
275.5582288816332
 20
268.883284591921
 30
0.0
 40
4.550350877192955
100
AcDbArc
 50
40.69569852540071
 51
139.3043014745993
  0
LINE
  5
16F
330
1F
100
AcDbEntity
  8
9
  6
Continuous
 62
     2
370
     9
100
AcDbLine
 10
272.1082288816334
 20
271.5336354691141
 30
0.0
 11
272.1082288816334
 21
271.8503021357807
 31
0.0
  0
LINE
  5
170
330
1F
100
AcDbEntity
  8
9
  6
Continuous
 62
     2
370
     9
100
AcDbLine
 10
279.008228881633
 20
271.5336354691141
 30
0.0
 11
279.008228881633
 21
271.8503021357807
 31
0.0
  0
CIRCLE
  5
171
330
1F
100
AcDbEntity
  8
9
  6
Continuous
 62
     2
370
     9
100
AcDbCircle
 10
150.5582288816332
 20
279.5336354691141
 30
0.0
 40
3.099999999999994
  0
CIRCLE
  5
172
330
1F
100
AcDbEntity
  8
9
  6
Continuous
 62
     2
370
     9
100
AcDbCircle
 10
213.0582288816342
 20
279.5336354691141
 30
0.0
 40
3.099999999999994
  0
CIRCLE
  5
173
330
1F
100
AcDbEntity
  8
9
  6
Continuous
 62
     2
370
     9
100
AcDbCircle
 10
338.0582288816323
 20
279.5336354691141
 30
0.0
 40
3.100000000000023
  0
CIRCLE
  5
174
330
1F
100
AcDbEntity
  8
9
  6
Continuous
 62
     2
370
     9
100
AcDbCircle
 10
400.5582288816332
 20
279.5336354691141
 30
0.0
 40
3.100000000000023
  0
CIRCLE
  5
175
330
1F
100
AcDbEntity
  8
9
  6
Continuous
 62
     2
370
     9
100
AcDbCircle
 10
400.5582288816332
 20
133.533635469114
 30
0.0
 40
3.100000000000023
  0
CIRCLE
  5
176
330
1F
100
AcDbEntity
  8
9
  6
Continuous
 62
     2
370
     9
100
AcDbCircle
 10
338.0582288816323
 20
133.533635469114
 30
0.0
 40
3.100000000000023
  0
CIRCLE
  5
177
330
1F
100
AcDbEntity
  8
9
  6
Continuous
 62
     2
370
     9
100
AcDbCircle
 10
213.0582288816342
 20
133.533635469114
 30
0.0
 40
3.099999999999994
  0
CIRCLE
  5
178
330
1F
100
AcDbEntity
  8
9
  6
Continuous
 62
     2
370
     9
100
AcDbCircle
 10
150.5582288816332
 20
133.533635469114
 30
0.0
 40
3.099999999999994
  0
LINE
  5
179
330
1F
100
AcDbEntity
  8
3
  6
DASHDOT
 62
     1
370
    13
100
AcDbLine
 10
531.211482414319
 20
206.5336354691141
 30
0.0
 11
586.2114824143191
 21
206.5336354691141
 31
0.0
  0
LINE
  5
17A
330
1F
100
AcDbEntity
  8
3
  6
DASHDOT
 62
     1
370
    13
100
AcDbLine
 10
146.4582288816332
 20
279.5336354691141
 30
0.0
 11
154.6582288816332
 21
279.5336354691141
 31
0.0
  0
LINE
  5
17B
330
1F
100
AcDbEntity
  8
3
  6
DASHDOT
 62
     1
370
    13
100
AcDbLine
 10
150.5582288816332
 20
283.633635469114
 30
0.0
 11
150.5582288816332
 21
275.4336354691141
 31
0.0
  0
LINE
  5
17C
330
1F
100
AcDbEntity
  8
3
  6
DASHDOT
 62
     1
370
    13
100
AcDbLine
 10
579.2114824143191
 20
279.5336354691141
 30
0.0
 11
582.211482414319
 21
279.5336354691141
 31
0.0
  0
INSERT
  5
17D
330
1F
100
AcDbEntity
  8
8
  6
Continuous
 62
     6
370
     9
100
AcDbBlockReference
  2
_OPEN
 10
152.1082288816332
 20
282.2183142208457
 30
0.0
 41
2.25
 42
2.25
 43
2.25
 50
239.9999999999999
  0
POLYLINE
  5
17E
330
1F
100
AcDbEntity
  8
8
  6
Continuous
 62
     6
370
     9
100
AcDb2dPolyline
 66
     1
 10
0.0
 20
0.0
 30
0.0
  0
VERTEX
  5
17F
330
17E
100
AcDbEntity
  8
8
  6
Continuous
 62
     6
370
     9
100
AcDbVertex
100
AcDb2dVertex
 10
152.1082288816332
 20
282.2183142208457
 30
0.0
  0
VERTEX
  5
180
330
17E
100
AcDbEntity
  8
8
  6
Continuous
 62
     6
370
     9
100
AcDbVertex
100
AcDb2dVertex
 10
162.2332288816332
 20
299.7553286474807
 30
0.0
  0
VERTEX
  5
181
330
17E
100
AcDbEntity
  8
8
  6
Continuous
 62
     6
370
     9
100
AcDbVertex
100
AcDb2dVertex
 10
172.6282288816332
 20
299.7553286474807
 30
0.0
  0
SEQEND
  5
182
330
17E
100
AcDbEntity
  8
8
  6
Continuous
 62
     6
370
     9
  0
MTEXT
  5
183
330
1F
100
AcDbEntity
  8
8
  6
Continuous
 62
     6
370
     9
100
AcDbMText
 10
164.0032288816332
 20
300.2053286474807
 30
0.0
 40
2.25
 41
12.22024989825
 46
2.25
 71
     7
 72
     1
  1
{\fＭＳ ゴシック;\T1.016260;8-Ø6.2}
 73
     1
 44
1.0
1001
ACAD
1000
ACAD_MTEXT_DEFINED_HEIGHT_BEGIN
1070
    46
1040
2.25
1000
ACAD_MTEXT_DEFINED_HEIGHT_END
  0
LINE
  5
184
330
1F
100
AcDbEntity
  8
5
  6
Continuous
 62
    30
370
     9
100
AcDbLine
 10
503.4101154844985
 20
211.0568765671003
 30
0.0
 11
495.575362008142
 21
211.0568765671005
 31
0.0
  0
LINE
  5
185
330
1F
100
AcDbEntity
  8
5
  6
Continuous
 62
    30
370
     9
100
AcDbLine
 10
512.4100924844985
 20
208.5568565671001
 30
0.0
 11
499.4100834844986
 21
208.5568565671001
 31
0.0
  0
LINE
  5
186
330
1F
100
AcDbEntity
  8
5
  6
Continuous
 62
    30
370
     9
100
AcDbLine
 10
509.4100884844984
 20
206.9568565671001
 30
0.0
 11
500.4100874844986
 21
206.9568565671001
 31
0.0
  0
LINE
  5
187
330
1F
100
AcDbEntity
  8
5
  6
Continuous
 62
    30
370
     9
100
AcDbLine
 10
509.4100884844984
 20
205.3568665671001
 30
0.0
 11
500.4100874844986
 21
205.3568665671001
 31
0.0
  0
LINE
  5
188
330
1F
100
AcDbEntity
  8
5
  6
Continuous
 62
    30
370
     9
100
AcDbLine
 10
509.4100884844984
 20
206.1568365671001
 30
0.0
 11
500.4100874844986
 21
206.1568365671001
 31
0.0
  0
LINE
  5
189
330
1F
100
AcDbEntity
  8
5
  6
Continuous
 62
    30
370
     9
100
AcDbLine
 10
509.4100884844984
 20
207.7568365671001
 30
0.0
 11
500.4100874844986
 21
207.7568365671001
 31
0.0
  0
LINE
  5
18A
330
1F
100
AcDbEntity
  8
5
  6
Continuous
 62
    30
370
     9
100
AcDbLine
 10
503.4101154844985
 20
202.0568165670998
 30
0.0
 11
495.575362008142
 21
202.0568165670997
 31
0.0
  0
LINE
  5
18B
330
1F
100
AcDbEntity
  8
5
  6
Continuous
 62
    30
370
     9
100
AcDbLine
 10
512.4100924844985
 20
204.5568465671001
 30
0.0
 11
499.4100834844986
 21
204.5568465671001
 31
0.0
  0
LINE
  5
18C
330
1F
100
AcDbEntity
  8
5
  6
Continuous
 62
    30
370
     9
100
AcDbLine
 10
492.7545919294366
 20
210.0471063563545
 30
0.0
 11
486.4575631969925
 21
210.0471063563543
 31
0.0
  0
LINE
  5
18D
330
1F
100
AcDbEntity
  8
5
  6
Continuous
 62
    30
370
     9
100
AcDbLine
 10
492.7545919294366
 20
203.0665867778475
 30
0.0
 11
486.4575631969925
 21
203.0665867778475
 31
0.0
  0
LINE
  5
18E
330
1F
100
AcDbEntity
  8
5
  6
Continuous
 62
    30
370
     9
100
AcDbLine
 10
486.4575631969925
 20
203.0665867778475
 30
0.0
 11
486.4575631969925
 21
210.0471063563543
 31
0.0
  0
ARC
  5
18F
330
1F
100
AcDbEntity
  8
5
  6
Continuous
 62
    30
370
     9
100
AcDbCircle
 10
495.5753620081424
 20
209.0568765671005
 30
0.0
 40
2.0
100
AcDbArc
 50
90.00000000001303
 51
120.0000000000151
  0
ARC
  5
190
330
1F
100
AcDbEntity
  8
5
  6
Continuous
 62
    30
370
     9
100
AcDbCircle
 10
492.7545919294366
 20
212.0471063563536
 30
0.0
 40
2.0
100
AcDbArc
 50
269.9999999999998
 51
300.0000000000147
  0
LINE
  5
191
330
1F
100
AcDbEntity
  8
5
  6
Continuous
 62
    30
370
     9
100
AcDbLine
 10
494.5753620081424
 20
210.7889273746685
 30
0.0
 11
493.7545919294372
 21
210.3150555487853
 31
0.0
  0
ARC
  5
192
330
1F
100
AcDbEntity
  8
5
  6
Continuous
 62
    30
370
     9
100
AcDbCircle
 10
495.5753620081424
 20
204.0568165670997
 30
0.0
 40
2.0
100
AcDbArc
 50
239.9999999999846
 51
269.9999999999866
  0
ARC
  5
193
330
1F
100
AcDbEntity
  8
5
  6
Continuous
 62
    30
370
     9
100
AcDbCircle
 10
492.7545919294366
 20
201.0665867778465
 30
0.0
 40
2.0
100
AcDbArc
 50
59.99999999998492
 51
89.99999999999991
  0
LINE
  5
194
330
1F
100
AcDbEntity
  8
5
  6
Continuous
 62
    30
370
     9
100
AcDbLine
 10
494.5753620081424
 20
202.3247657595316
 30
0.0
 11
493.7545919294372
 21
202.7986375854148
 31
0.0
  0
LINE
  5
195
330
1F
100
AcDbEntity
  8
5
  6
Continuous
 62
    30
370
     9
100
AcDbLine
 10
499.4100834844986
 20
204.5568465671001
 30
0.0
 11
499.4100834844986
 21
208.5568565671001
 31
0.0
  0
LINE
  5
196
330
1F
100
AcDbEntity
  8
5
  6
Continuous
 62
    30
370
     9
100
AcDbLine
 10
500.4100874844986
 20
204.5568465671001
 30
0.0
 11
500.4100874844986
 21
208.5568565671001
 31
0.0
  0
LINE
  5
197
330
1F
100
AcDbEntity
  8
5
  6
Continuous
 62
    30
370
     9
100
AcDbLine
 10
512.4100924844985
 20
206.5568465671001
 30
0.0
 11
512.4100924844985
 21
211.8068565671
 31
0.0
  0
ARC
  5
198
330
1F
100
AcDbEntity
  8
5
  6
Continuous
 62
    30
370
     9
100
AcDbCircle
 10
505.4100914844986
 20
210.8068565671
 30
0.0
 40
1.0
100
AcDbArc
 50
89.99999999999991
 51
179.9999999999998
  0
LINE
  5
199
330
1F
100
AcDbEntity
  8
5
  6
Continuous
 62
    30
370
     9
100
AcDbLine
 10
503.4101154844989
 20
210.5568665671
 30
0.0
 11
504.4100874844986
 21
210.5568665671
 31
0.0
  0
LINE
  5
19A
330
1F
100
AcDbEntity
  8
5
  6
Continuous
 62
    30
370
     9
100
AcDbLine
 10
503.4101154844985
 20
211.0568765671003
 30
0.0
 11
503.4101154844985
 21
208.5568565671003
 31
0.0
  0
LINE
  5
19B
330
1F
100
AcDbEntity
  8
5
  6
Continuous
 62
    30
370
     9
100
AcDbLine
 10
504.4100874844986
 20
210.8068565671
 30
0.0
 11
504.4100874844986
 21
208.5568565671001
 31
0.0
  0
LINE
  5
19C
330
1F
100
AcDbEntity
  8
5
  6
Continuous
 62
    30
370
     9
100
AcDbLine
 10
504.4100874844986
 20
210.5568665671
 30
0.0
 11
504.4100874844986
 21
208.5568565671001
 31
0.0
  0
LINE
  5
19D
330
1F
100
AcDbEntity
  8
5
  6
Continuous
 62
    30
370
     9
100
AcDbLine
 10
505.4100914844986
 20
201.3068365671001
 30
0.0
 11
512.4100924844985
 21
201.3068365671001
 31
0.0
  0
LINE
  5
19E
330
1F
100
AcDbEntity
  8
5
  6
Continuous
 62
    30
370
     9
100
AcDbLine
 10
504.4100874844986
 20
202.5568265671
 30
0.0
 11
503.4101154844989
 21
202.5568265671
 31
0.0
  0
LINE
  5
19F
330
1F
100
AcDbEntity
  8
5
  6
Continuous
 62
    30
370
     9
100
AcDbLine
 10
503.4101154844985
 20
202.0568165670998
 30
0.0
 11
503.4101154844985
 21
204.5568365670999
 31
0.0
  0
LINE
  5
1A0
330
1F
100
AcDbEntity
  8
5
  6
Continuous
 62
    30
370
     9
100
AcDbLine
 10
504.4100874844986
 20
202.3068365671001
 30
0.0
 11
504.4100874844986
 21
204.5568465671001
 31
0.0
  0
LINE
  5
1A1
330
1F
100
AcDbEntity
  8
5
  6
Continuous
 62
    30
370
     9
100
AcDbLine
 10
504.4100874844986
 20
204.5568465671001
 30
0.0
 11
504.4100874844986
 21
202.5568265671
 31
0.0
  0
ARC
  5
1A2
330
1F
100
AcDbEntity
  8
5
  6
Continuous
 62
    30
370
     9
100
AcDbCircle
 10
505.4100914844986
 20
202.3068365671001
 30
0.0
 40
1.0
100
AcDbArc
 50
179.9999999999998
 51
269.9999999999998
  0
LINE
  5
1A3
330
1F
100
AcDbEntity
  8
5
  6
Continuous
 62
    30
370
     9
100
AcDbLine
 10
509.4100884844984
 20
208.5568565671001
 30
0.0
 11
509.4100884844984
 21
204.5568465671001
 31
0.0
  0
LINE
  5
1A4
330
1F
100
AcDbEntity
  8
5
  6
Continuous
 62
    30
370
     9
100
AcDbLine
 10
512.4100924844985
 20
206.5568465671001
 30
0.0
 11
512.4100924844985
 21
201.3068365671001
 31
0.0
  0
LINE
  5
1A5
330
1F
100
AcDbEntity
  8
5
  6
Continuous
 62
    30
370
     9
100
AcDbLine
 10
511.4100834844986
 20
208.5568565671001
 30
0.0
 11
511.4100834844986
 21
204.5568465671001
 31
0.0
  0
LINE
  5
1A6
330
1F
100
AcDbEntity
  8
5
  6
Continuous
 62
    30
370
     9
100
AcDbLine
 10
505.4100914844986
 20
211.8068565671
 30
0.0
 11
512.4100924844985
 21
211.8068565671
 31
0.0
  0
LINE
  5
1A7
330
1F
100
AcDbEntity
  8
5
  6
Continuous
 62
    30
370
     9
100
AcDbLine
 10
478.6804064897195
 20
208.4068351181981
 30
0.0
 11
486.4575631969925
 21
208.4068351181981
 31
0.0
  0
LINE
  5
1A8
330
1F
100
AcDbEntity
  8
5
  6
Continuous
 62
    30
370
     9
100
AcDbLine
 10
478.6804064412879
 20
204.7068580160036
 30
0.0
 11
486.4575631969925
 21
204.7068580160036
 31
0.0
  0
LINE
  5
1A9
330
1F
100
AcDbEntity
  8
6
  6
Continuous
 62
    14
370
     9
100
AcDbLine
 10
30.92774566473989
 20
53.42774566473987
 30
0.0
 11
138.9277456647399
 21
53.42774566473987
 31
0.0
  0
LINE
  5
1AA
330
1F
100
AcDbEntity
  8
6
  6
Continuous
 62
    14
370
     9
100
AcDbLine
 10
30.92774566473989
 20
45.92773066473957
 30
0.0
 11
138.9277456647399
 21
45.92773066473957
 31
0.0
  0
LINE
  5
1AB
330
1F
100
AcDbEntity
  8
6
  6
Continuous
 62
    14
370
     9
100
AcDbLine
 10
30.92774566473989
 20
38.42774566473987
 30
0.0
 11
138.9277456647399
 21
38.42774566473987
 31
0.0
  0
LINE
  5
1AC
330
1F
100
AcDbEntity
  8
6
  6
Continuous
 62
    14
370
     9
100
AcDbLine
 10
30.92774566473989
 20
30.92774566473988
 30
0.0
 11
138.9277456647399
 21
30.92774566473988
 31
0.0
  0
LINE
  5
1AD
330
1F
100
AcDbEntity
  8
6
  6
Continuous
 62
    14
370
     9
100
AcDbLine
 10
96.92774566473989
 20
53.42774566473987
 30
0.0
 11
96.92774566473989
 21
30.92774566473988
 31
0.0
  0
LINE
  5
1AE
330
1F
100
AcDbEntity
  8
6
  6
Continuous
 62
    14
370
     9
100
AcDbLine
 10
96.92774566473989
 20
53.42774566473987
 30
0.0
 11
96.92774566473989
 21
30.92774566473988
 31
0.0
  0
LINE
  5
1AF
330
1F
100
AcDbEntity
  8
6
  6
Continuous
 62
    14
370
     9
100
AcDbLine
 10
60.92776066473995
 20
53.42774566473987
 30
0.0
 11
60.92776066473995
 21
30.92774566473988
 31
0.0
  0
LINE
  5
1B0
330
1F
100
AcDbEntity
  8
6
  6
Continuous
 62
    14
370
     9
100
AcDbLine
 10
30.92774566473989
 20
53.42774566473987
 30
0.0
 11
30.92774566473989
 21
30.92774566473988
 31
0.0
  0
LINE
  5
1B1
330
1F
100
AcDbEntity
  8
6
  6
Continuous
 62
    14
370
     9
100
AcDbLine
 10
30.92774566473989
 20
53.42774566473987
 30
0.0
 11
60.92776066473995
 21
45.92773066473957
 31
0.0
  0
LINE
  5
1B2
330
1F
100
AcDbEntity
  8
6
  6
Continuous
 62
    14
370
     9
100
AcDbLine
 10
138.9277456647399
 20
53.42774566473987
 30
0.0
 11
138.9277456647399
 21
30.92774566473988
 31
0.0
  0
LINE
  5
1B3
330
1F
100
AcDbEntity
  8
5
  6
Continuous
 62
    30
370
     9
100
AcDbLine
 10
83.6937442602032
 20
65.68270291473985
 30
0.0
 11
83.6937442602032
 21
66.94271341473987
 31
0.0
  0
LINE
  5
1B4
330
1F
100
AcDbEntity
  8
5
  6
Continuous
 62
    30
370
     9
100
AcDbLine
 10
92.82874006020327
 20
60.59020291473986
 30
0.0
 11
92.82874006020327
 21
69.51522391473989
 31
0.0
  0
LINE
  5
1B5
330
1F
100
AcDbEntity
  8
5
  6
Continuous
 62
    30
370
     9
100
AcDbLine
 10
92.30373796020356
 20
69.51522391473989
 30
0.0
 11
92.30373796020356
 21
60.59020291473986
 31
0.0
  0
LINE
  5
1B6
330
1F
100
AcDbEntity
  8
5
  6
Continuous
 62
    30
370
     9
100
AcDbLine
 10
91.7787495102032
 20
69.20020291473972
 30
0.0
 11
91.7787495102032
 21
60.90522391473952
 31
0.0
  0
LINE
  5
1B7
330
1F
100
AcDbEntity
  8
5
  6
Continuous
 62
    30
370
     9
100
AcDbLine
 10
86.00373061020335
 20
69.20020291473972
 30
0.0
 11
86.00373061020335
 21
60.90522391473952
 31
0.0
  0
LINE
  5
1B8
330
1F
100
AcDbEntity
  8
5
  6
Continuous
 62
    30
370
     9
100
AcDbLine
 10
83.37873481020327
 20
66.83769241474002
 30
0.0
 11
83.37873481020327
 21
63.2677239147396
 31
0.0
  0
LINE
  5
1B9
330
1F
100
AcDbEntity
  8
5
  6
Continuous
 62
    30
370
     9
100
AcDbLine
 10
89.41624216020344
 20
66.10270816473971
 30
0.0
 11
89.41624216020344
 21
64.00271866473955
 31
0.0
  0
LINE
  5
1BA
330
1F
100
AcDbEntity
  8
5
  6
Continuous
 62
    30
370
     9
100
AcDbLine
 10
90.46624531020328
 20
64.00271866473955
 30
0.0
 11
90.46624531020328
 21
66.10270816473971
 31
0.0
  0
LINE
  5
1BB
330
1F
100
AcDbEntity
  8
5
  6
Continuous
 62
    30
370
     9
100
AcDbLine
 10
86.31873901020325
 20
69.51522391473989
 30
0.0
 11
91.4637411102033
 21
69.51522391473989
 31
0.0
  0
LINE
  5
1BC
330
1F
100
AcDbEntity
  8
5
  6
Continuous
 62
    30
370
     9
100
AcDbLine
 10
86.00374321020334
 20
70.04022391473993
 30
0.0
 11
91.77873691020343
 21
70.04022391473993
 31
0.0
  0
LINE
  5
1BD
330
1F
100
AcDbEntity
  8
5
  6
Continuous
 62
    30
370
     9
100
AcDbLine
 10
91.7787495102032
 20
70.56520291473984
 30
0.0
 11
86.00373061020335
 21
70.56520291473984
 31
0.0
  0
LINE
  5
1BE
330
1F
100
AcDbEntity
  8
5
  6
Continuous
 62
    30
370
     9
100
AcDbLine
 10
88.36625161020336
 20
68.46516616473988
 30
0.0
 11
87.31624111020326
 21
68.46516616473988
 31
0.0
  0
LINE
  5
1BF
330
1F
100
AcDbEntity
  8
5
  6
Continuous
 62
    30
370
     9
100
AcDbLine
 10
87.31624111020326
 20
66.89015566474015
 30
0.0
 11
88.36625161020336
 21
66.89015566474015
 31
0.0
  0
LINE
  5
1C0
330
1F
100
AcDbEntity
  8
5
  6
Continuous
 62
    30
370
     9
100
AcDbLine
 10
90.46624531020328
 20
66.10270816473971
 30
0.0
 11
89.41624216020344
 21
66.10270816473971
 31
0.0
  0
ARC
  5
1C1
330
1F
100
AcDbEntity
  8
5
  6
Continuous
 62
    30
370
     9
100
AcDbCircle
 10
91.7787495102032
 20
69.51522391473989
 30
0.0
 40
1.049999999999997
100
AcDbArc
 50
0.0
 51
89.99999999999991
  0
ARC
  5
1C2
330
1F
100
AcDbEntity
  8
5
  6
Continuous
 62
    30
370
     9
100
AcDbCircle
 10
91.4637411102033
 20
69.20020291473972
 30
0.0
 40
0.3149999999999977
100
AcDbArc
 50
0.0
 51
89.99999999999991
  0
ARC
  5
1C3
330
1F
100
AcDbEntity
  8
5
  6
Continuous
 62
    30
370
     9
100
AcDbCircle
 10
91.77873691020343
 20
69.51522391473989
 30
0.0
 40
0.5250000000000057
100
AcDbArc
 50
0.0
 51
89.99999999999991
  0
LINE
  5
1C4
330
1F
100
AcDbEntity
  8
5
  6
Continuous
 62
    30
370
     9
100
AcDbLine
 10
90.46624531020328
 20
68.72765566474018
 30
0.0
 11
89.41624216020344
 21
68.72765566474018
 31
0.0
  0
LINE
  5
1C5
330
1F
100
AcDbEntity
  8
5
  6
Continuous
 62
    30
370
     9
100
AcDbLine
 10
88.36625161020336
 20
66.89015566474015
 30
0.0
 11
88.36625161020336
 21
68.46516616473988
 31
0.0
  0
LINE
  5
1C6
330
1F
100
AcDbEntity
  8
5
  6
Continuous
 62
    30
370
     9
100
AcDbLine
 10
89.41624216020344
 20
68.72765566474018
 30
0.0
 11
89.41624216020344
 21
66.62766616473985
 31
0.0
  0
LINE
  5
1C7
330
1F
100
AcDbEntity
  8
5
  6
Continuous
 62
    30
370
     9
100
AcDbLine
 10
90.46624531020328
 20
66.62766616473985
 30
0.0
 11
90.46624531020328
 21
68.72765566474018
 31
0.0
  0
LINE
  5
1C8
330
1F
100
AcDbEntity
  8
5
  6
Continuous
 62
    30
370
     9
100
AcDbLine
 10
89.41624216020344
 20
66.62766616473985
 30
0.0
 11
90.46624531020328
 21
66.62766616473985
 31
0.0
  0
LINE
  5
1C9
330
1F
100
AcDbEntity
  8
5
  6
Continuous
 62
    30
370
     9
100
AcDbLine
 10
84.42873796020356
 20
66.10271341473961
 30
0.0
 11
84.42873796020356
 21
67.15272391473982
 31
0.0
  0
ARC
  5
1CA
330
1F
100
AcDbEntity
  8
5
  6
Continuous
 62
    30
370
     9
100
AcDbCircle
 10
83.6937442602032
 20
66.83769241474002
 30
0.0
 40
0.3149999999999977
100
AcDbArc
 50
89.99999999999991
 51
179.9999999999998
  0
LINE
  5
1CB
330
1F
100
AcDbEntity
  8
5
  6
Continuous
 62
    30
370
     9
100
AcDbLine
 10
83.90373691020343
 20
66.94271341473987
 30
0.0
 11
83.90373691020343
 21
67.15272391473982
 31
0.0
  0
LINE
  5
1CC
330
1F
100
AcDbEntity
  8
5
  6
Continuous
 62
    30
370
     9
100
AcDbLine
 10
83.6937442602032
 20
66.94271341473987
 30
0.0
 11
83.90373691020343
 21
66.94271341473987
 31
0.0
  0
LINE
  5
1CD
330
1F
100
AcDbEntity
  8
5
  6
Continuous
 62
    30
370
     9
100
AcDbLine
 10
84.42873796020356
 20
66.10271341473961
 30
0.0
 11
86.00373061020335
 21
66.10271341473961
 31
0.0
  0
LINE
  5
1CE
330
1F
100
AcDbEntity
  8
5
  6
Continuous
 62
    30
370
     9
100
AcDbLine
 10
83.6937442602032
 20
67.15272391473982
 30
0.0
 11
86.00373061020335
 21
67.15272391473982
 31
0.0
  0
ARC
  5
1CF
330
1F
100
AcDbEntity
  8
5
  6
Continuous
 62
    30
370
     9
100
AcDbCircle
 10
86.31873901020325
 20
69.20020291473972
 30
0.0
 40
0.3149999999999977
100
AcDbArc
 50
89.99999999999991
 51
179.9999999999998
  0
ARC
  5
1D0
330
1F
100
AcDbEntity
  8
5
  6
Continuous
 62
    30
370
     9
100
AcDbCircle
 10
86.00374321020334
 20
69.51522391473989
 30
0.0
 40
0.5250000000000057
100
AcDbArc
 50
89.99999999999991
 51
179.9999999999998
  0
ARC
  5
1D1
330
1F
100
AcDbEntity
  8
5
  6
Continuous
 62
    30
370
     9
100
AcDbCircle
 10
86.00373061020335
 20
69.51522391473989
 30
0.0
 40
1.049999999999997
100
AcDbArc
 50
89.99999999999991
 51
179.9999999999998
  0
LINE
  5
1D2
330
1F
100
AcDbEntity
  8
5
  6
Continuous
 62
    30
370
     9
100
AcDbLine
 10
87.31624111020326
 20
68.20265566474015
 30
0.0
 11
86.79124636020336
 21
68.20265566474015
 31
0.0
  0
LINE
  5
1D3
330
1F
100
AcDbEntity
  8
5
  6
Continuous
 62
    30
370
     9
100
AcDbLine
 10
87.31624111020326
 20
68.46516616473988
 30
0.0
 11
87.31624111020326
 21
68.20265566474015
 31
0.0
  0
LINE
  5
1D4
330
1F
100
AcDbEntity
  8
5
  6
Continuous
 62
    30
370
     9
100
AcDbLine
 10
86.79124636020336
 20
68.20265566474015
 30
0.0
 11
86.79124636020336
 21
67.15267666473969
 31
0.0
  0
LINE
  5
1D5
330
1F
100
AcDbEntity
  8
5
  6
Continuous
 62
    30
370
     9
100
AcDbLine
 10
87.31624111020326
 20
67.15267666473969
 30
0.0
 11
87.31624111020326
 21
66.89015566474015
 31
0.0
  0
LINE
  5
1D6
330
1F
100
AcDbEntity
  8
5
  6
Continuous
 62
    30
370
     9
100
AcDbLine
 10
86.79124636020336
 20
67.15267666473969
 30
0.0
 11
87.31624111020326
 21
67.15267666473969
 31
0.0
  0
LINE
  5
1D7
330
1F
100
AcDbEntity
  8
5
  6
Continuous
 62
    30
370
     9
100
AcDbLine
 10
85.47874216020344
 20
69.51522391473989
 30
0.0
 11
85.47874216020344
 21
67.15272391473982
 31
0.0
  0
LINE
  5
1D8
330
1F
100
AcDbEntity
  8
5
  6
Continuous
 62
    30
370
     9
100
AcDbLine
 10
84.95374006020327
 20
69.51522391473989
 30
0.0
 11
84.95374006020327
 21
67.15272391473982
 31
0.0
  0
LINE
  5
1D9
330
1F
100
AcDbEntity
  8
5
  6
Continuous
 62
    30
370
     9
100
AcDbLine
 10
91.4637411102033
 20
60.59020291473986
 30
0.0
 11
86.31873901020325
 21
60.59020291473986
 31
0.0
  0
LINE
  5
1DA
330
1F
100
AcDbEntity
  8
5
  6
Continuous
 62
    30
370
     9
100
AcDbLine
 10
91.77873691020343
 20
60.06520291473983
 30
0.0
 11
86.00374321020334
 21
60.06520291473983
 31
0.0
  0
LINE
  5
1DB
330
1F
100
AcDbEntity
  8
5
  6
Continuous
 62
    30
370
     9
100
AcDbLine
 10
91.7787495102032
 20
59.54022391473993
 30
0.0
 11
86.00373061020335
 21
59.54022391473993
 31
0.0
  0
LINE
  5
1DC
330
1F
100
AcDbEntity
  8
5
  6
Continuous
 62
    30
370
     9
100
AcDbLine
 10
87.31624111020326
 20
61.64026066473936
 30
0.0
 11
88.36625161020336
 21
61.64026066473936
 31
0.0
  0
LINE
  5
1DD
330
1F
100
AcDbEntity
  8
5
  6
Continuous
 62
    30
370
     9
100
AcDbLine
 10
88.36625161020336
 20
63.21527116473961
 30
0.0
 11
87.31624111020326
 21
63.21527116473961
 31
0.0
  0
LINE
  5
1DE
330
1F
100
AcDbEntity
  8
5
  6
Continuous
 62
    30
370
     9
100
AcDbLine
 10
87.31624111020326
 20
64.26520816473985
 30
0.0
 11
88.36625161020336
 21
64.26520816473985
 31
0.0
  0
LINE
  5
1DF
330
1F
100
AcDbEntity
  8
5
  6
Continuous
 62
    30
370
     9
100
AcDbLine
 10
88.36625161020336
 20
65.84021866473958
 30
0.0
 11
87.31624111020326
 21
65.84021866473958
 31
0.0
  0
ARC
  5
1E0
330
1F
100
AcDbEntity
  8
5
  6
Continuous
 62
    30
370
     9
100
AcDbCircle
 10
91.7787495102032
 20
60.59020291473986
 30
0.0
 40
1.049999999999997
100
AcDbArc
 50
269.9999999999998
 51
0.0
  0
ARC
  5
1E1
330
1F
100
AcDbEntity
  8
5
  6
Continuous
 62
    30
370
     9
100
AcDbCircle
 10
91.4637411102033
 20
60.90522391473952
 30
0.0
 40
0.3149999999999977
100
AcDbArc
 50
269.9999999999998
 51
0.0
  0
ARC
  5
1E2
330
1F
100
AcDbEntity
  8
5
  6
Continuous
 62
    30
370
     9
100
AcDbCircle
 10
91.77873691020343
 20
60.59020291473986
 30
0.0
 40
0.5250000000000057
100
AcDbArc
 50
269.9999999999998
 51
0.0
  0
LINE
  5
1E3
330
1F
100
AcDbEntity
  8
5
  6
Continuous
 62
    30
370
     9
100
AcDbLine
 10
89.41624216020344
 20
61.37777116473957
 30
0.0
 11
90.46624531020328
 21
61.37777116473957
 31
0.0
  0
LINE
  5
1E4
330
1F
100
AcDbEntity
  8
5
  6
Continuous
 62
    30
370
     9
100
AcDbLine
 10
90.46624531020328
 20
61.37777116473957
 30
0.0
 11
90.46624531020328
 21
63.4777606647394
 31
0.0
  0
LINE
  5
1E5
330
1F
100
AcDbEntity
  8
5
  6
Continuous
 62
    30
370
     9
100
AcDbLine
 10
89.41624216020344
 20
63.4777606647394
 30
0.0
 11
89.41624216020344
 21
61.37777116473957
 31
0.0
  0
LINE
  5
1E6
330
1F
100
AcDbEntity
  8
5
  6
Continuous
 62
    30
370
     9
100
AcDbLine
 10
88.36625161020336
 20
61.64026066473936
 30
0.0
 11
88.36625161020336
 21
63.21527116473961
 31
0.0
  0
LINE
  5
1E7
330
1F
100
AcDbEntity
  8
5
  6
Continuous
 62
    30
370
     9
100
AcDbLine
 10
90.46624531020328
 20
63.4777606647394
 30
0.0
 11
89.41624216020344
 21
63.4777606647394
 31
0.0
  0
LINE
  5
1E8
330
1F
100
AcDbEntity
  8
5
  6
Continuous
 62
    30
370
     9
100
AcDbLine
 10
89.41624216020344
 20
64.00271866473955
 30
0.0
 11
90.46624531020328
 21
64.00271866473955
 31
0.0
  0
LINE
  5
1E9
330
1F
100
AcDbEntity
  8
5
  6
Continuous
 62
    30
370
     9
100
AcDbLine
 10
88.36625161020336
 20
64.26520816473985
 30
0.0
 11
88.36625161020336
 21
65.84021866473958
 31
0.0
  0
ARC
  5
1EA
330
1F
100
AcDbEntity
  8
5
  6
Continuous
 62
    30
370
     9
100
AcDbCircle
 10
86.31873901020325
 20
60.90522391473952
 30
0.0
 40
0.3149999999999977
100
AcDbArc
 50
179.9999999999998
 51
269.9999999999998
  0
ARC
  5
1EB
330
1F
100
AcDbEntity
  8
5
  6
Continuous
 62
    30
370
     9
100
AcDbCircle
 10
86.00374321020334
 20
60.59020291473986
 30
0.0
 40
0.5250000000000057
100
AcDbArc
 50
179.9999999999998
 51
269.9999999999998
  0
ARC
  5
1EC
330
1F
100
AcDbEntity
  8
5
  6
Continuous
 62
    30
370
     9
100
AcDbCircle
 10
86.00373061020335
 20
60.59020291473986
 30
0.0
 40
1.049999999999997
100
AcDbArc
 50
179.9999999999998
 51
269.9999999999998
  0
LINE
  5
1ED
330
1F
100
AcDbEntity
  8
5
  6
Continuous
 62
    30
370
     9
100
AcDbLine
 10
86.79124636020336
 20
61.90278166473975
 30
0.0
 11
87.31624111020326
 21
61.90278166473975
 31
0.0
  0
LINE
  5
1EE
330
1F
100
AcDbEntity
  8
5
  6
Continuous
 62
    30
370
     9
100
AcDbLine
 10
87.31624111020326
 20
61.90278166473975
 30
0.0
 11
87.31624111020326
 21
61.64026066473936
 31
0.0
  0
LINE
  5
1EF
330
1F
100
AcDbEntity
  8
5
  6
Continuous
 62
    30
370
     9
100
AcDbLine
 10
86.79124636020336
 20
62.95276066473937
 30
0.0
 11
86.79124636020336
 21
61.90278166473975
 31
0.0
  0
LINE
  5
1F0
330
1F
100
AcDbEntity
  8
5
  6
Continuous
 62
    30
370
     9
100
AcDbLine
 10
87.31624111020326
 20
63.21527116473961
 30
0.0
 11
87.31624111020326
 21
62.95276066473937
 31
0.0
  0
LINE
  5
1F1
330
1F
100
AcDbEntity
  8
5
  6
Continuous
 62
    30
370
     9
100
AcDbLine
 10
87.31624111020326
 20
62.95276066473937
 30
0.0
 11
86.79124636020336
 21
62.95276066473937
 31
0.0
  0
LINE
  5
1F2
330
1F
100
AcDbEntity
  8
5
  6
Continuous
 62
    30
370
     9
100
AcDbLine
 10
83.6937442602032
 20
63.16271341473989
 30
0.0
 11
83.6937442602032
 21
64.42272391473992
 31
0.0
  0
LINE
  5
1F3
330
1F
100
AcDbEntity
  8
5
  6
Continuous
 62
    30
370
     9
100
AcDbLine
 10
84.42873796020356
 20
62.95270291473992
 30
0.0
 11
84.42873796020356
 21
64.00271341473965
 31
0.0
  0
LINE
  5
1F4
330
1F
100
AcDbEntity
  8
5
  6
Continuous
 62
    30
370
     9
100
AcDbLine
 10
83.90373691020343
 20
64.42272391473992
 30
0.0
 11
83.6937442602032
 21
64.42272391473992
 31
0.0
  0
LINE
  5
1F5
330
1F
100
AcDbEntity
  8
5
  6
Continuous
 62
    30
370
     9
100
AcDbLine
 10
86.00373061020335
 20
64.00271341473965
 30
0.0
 11
84.42873796020356
 21
64.00271341473965
 31
0.0
  0
ARC
  5
1F6
330
1F
100
AcDbEntity
  8
5
  6
Continuous
 62
    30
370
     9
100
AcDbCircle
 10
83.6937442602032
 20
63.2677239147396
 30
0.0
 40
0.3149999999999977
100
AcDbArc
 50
179.9999999999998
 51
269.9999999999998
  0
LINE
  5
1F7
330
1F
100
AcDbEntity
  8
5
  6
Continuous
 62
    30
370
     9
100
AcDbLine
 10
83.90373691020343
 20
62.95270291473992
 30
0.0
 11
83.90373691020343
 21
63.16271341473989
 31
0.0
  0
LINE
  5
1F8
330
1F
100
AcDbEntity
  8
5
  6
Continuous
 62
    30
370
     9
100
AcDbLine
 10
83.90373691020343
 20
63.16271341473989
 30
0.0
 11
83.6937442602032
 21
63.16271341473989
 31
0.0
  0
LINE
  5
1F9
330
1F
100
AcDbEntity
  8
5
  6
Continuous
 62
    30
370
     9
100
AcDbLine
 10
83.6937442602032
 20
62.95270291473992
 30
0.0
 11
86.00373061020335
 21
62.95270291473992
 31
0.0
  0
LINE
  5
1FA
330
1F
100
AcDbEntity
  8
5
  6
Continuous
 62
    30
370
     9
100
AcDbLine
 10
86.79124636020336
 20
64.5277291647397
 30
0.0
 11
87.31624111020326
 21
64.5277291647397
 31
0.0
  0
LINE
  5
1FB
330
1F
100
AcDbEntity
  8
5
  6
Continuous
 62
    30
370
     9
100
AcDbLine
 10
87.31624111020326
 20
64.5277291647397
 30
0.0
 11
87.31624111020326
 21
64.26520816473985
 31
0.0
  0
LINE
  5
1FC
330
1F
100
AcDbEntity
  8
5
  6
Continuous
 62
    30
370
     9
100
AcDbLine
 10
85.47874216020344
 20
60.59020291473986
 30
0.0
 11
85.47874216020344
 21
62.95270291473992
 31
0.0
  0
LINE
  5
1FD
330
1F
100
AcDbEntity
  8
5
  6
Continuous
 62
    30
370
     9
100
AcDbLine
 10
84.95374006020327
 20
60.59020291473986
 30
0.0
 11
84.95374006020327
 21
62.95270291473992
 31
0.0
  0
LINE
  5
1FE
330
1F
100
AcDbEntity
  8
5
  6
Continuous
 62
    30
370
     9
100
AcDbLine
 10
83.90373691020343
 20
65.68270291473985
 30
0.0
 11
83.6937442602032
 21
65.68270291473985
 31
0.0
  0
LINE
  5
1FF
330
1F
100
AcDbEntity
  8
5
  6
Continuous
 62
    30
370
     9
100
AcDbLine
 10
87.31624111020326
 20
65.84021866473958
 30
0.0
 11
87.31624111020326
 21
65.57770816473985
 31
0.0
  0
LINE
  5
200
330
1F
100
AcDbEntity
  8
5
  6
Continuous
 62
    30
370
     9
100
AcDbLine
 10
87.31624111020326
 20
65.57770816473985
 30
0.0
 11
86.79124636020336
 21
65.57770816473985
 31
0.0
  0
LINE
  5
201
330
1F
100
AcDbEntity
  8
5
  6
Continuous
 62
    30
370
     9
100
AcDbLine
 10
83.90373691020343
 20
64.42272391473992
 30
0.0
 11
83.90373691020343
 21
65.68270291473985
 31
0.0
  0
LINE
  5
202
330
1F
100
AcDbEntity
  8
5
  6
Continuous
 62
    30
370
     9
100
AcDbLine
 10
86.79124636020336
 20
65.57770816473985
 30
0.0
 11
86.79124636020336
 21
64.5277291647397
 31
0.0
  0
LINE
  5
203
330
1F
100
AcDbEntity
  8
5
  6
Continuous
 62
    30
370
     9
100
AcDbLine
 10
81.27792727431896
 20
67.15271866473958
 30
0.0
 11
67.62791782431921
 21
67.15271866473958
 31
0.0
  0
LINE
  5
204
330
1F
100
AcDbEntity
  8
5
  6
Continuous
 62
    30
370
     9
100
AcDbLine
 10
78.12792307431872
 20
65.47271866473957
 30
0.0
 11
68.6779220243184
 21
65.47271866473957
 31
0.0
  0
LINE
  5
205
330
1F
100
AcDbEntity
  8
5
  6
Continuous
 62
    30
370
     9
100
AcDbLine
 10
78.12792307431872
 20
63.79272916473936
 30
0.0
 11
68.6779220243184
 21
63.79272916473936
 31
0.0
  0
LINE
  5
206
330
1F
100
AcDbEntity
  8
5
  6
Continuous
 62
    30
370
     9
100
AcDbLine
 10
78.12792307431872
 20
64.63269766473954
 30
0.0
 11
68.6779220243184
 21
64.63269766473954
 31
0.0
  0
LINE
  5
207
330
1F
100
AcDbEntity
  8
5
  6
Continuous
 62
    30
370
     9
100
AcDbLine
 10
78.12792307431872
 20
66.31269766473989
 30
0.0
 11
68.6779220243184
 21
66.31269766473989
 31
0.0
  0
LINE
  5
208
330
1F
100
AcDbEntity
  8
5
  6
Continuous
 62
    30
370
     9
100
AcDbLine
 10
81.27792727431896
 20
62.95270816473984
 30
0.0
 11
67.62791782431921
 21
62.95270816473984
 31
0.0
  0
LINE
  5
209
330
1F
100
AcDbEntity
  8
5
  6
Continuous
 62
    30
370
     9
100
AcDbLine
 10
54.02783185706383
 20
66.6802183716587
 30
0.0
 11
30.92783185706393
 21
66.6802183716587
 31
0.0
  0
LINE
  5
20A
330
1F
100
AcDbEntity
  8
5
  6
Continuous
 62
    30
370
     9
100
AcDbLine
 10
54.02777152243701
 20
63.42521837677926
 30
0.0
 11
30.92777152243733
 21
63.42521820841798
 31
0.0
  0
LINE
  5
20B
330
1F
100
AcDbEntity
  8
5
  6
Continuous
 62
    30
370
     9
100
AcDbLine
 10
54.02777152243722
 20
62.1127081647406
 30
0.0
 11
54.02777152243722
 21
67.99270816474038
 31
0.0
  0
LINE
  5
20C
330
1F
100
AcDbEntity
  8
5
  6
Continuous
 62
    30
370
     9
100
AcDbLine
 10
67.62791782431921
 20
62.95270816473984
 30
0.0
 11
67.62791782431921
 21
67.15271866473958
 31
0.0
  0
LINE
  5
20D
330
1F
100
AcDbEntity
  8
5
  6
Continuous
 62
    30
370
     9
100
AcDbLine
 10
68.6779220243184
 20
62.95270816473984
 30
0.0
 11
68.6779220243184
 21
67.15271866473958
 31
0.0
  0
LINE
  5
20E
330
1F
100
AcDbEntity
  8
5
  6
Continuous
 62
    30
370
     9
100
AcDbLine
 10
81.27792727431896
 20
65.05270816473981
 30
0.0
 11
81.27792727431896
 21
70.56521866473955
 31
0.0
  0
ARC
  5
20F
330
1F
100
AcDbEntity
  8
5
  6
Continuous
 62
    30
370
     9
100
AcDbCircle
 10
73.92792622431901
 20
69.51521866473948
 30
0.0
 40
1.049999999999997
100
AcDbArc
 50
89.99999999999991
 51
179.9999999999998
  0
LINE
  5
210
330
1F
100
AcDbEntity
  8
5
  6
Continuous
 62
    30
370
     9
100
AcDbLine
 10
71.82795142431885
 20
69.25272916473969
 30
0.0
 11
72.87792202431845
 21
69.25272916473969
 31
0.0
  0
LINE
  5
211
330
1F
100
AcDbEntity
  8
5
  6
Continuous
 62
    30
370
     9
100
AcDbLine
 10
71.82795142431885
 20
69.77773966473987
 30
0.0
 11
71.82795142431885
 21
67.15271866473992
 31
0.0
  0
LINE
  5
212
330
1F
100
AcDbEntity
  8
5
  6
Continuous
 62
    30
370
     9
100
AcDbLine
 10
72.87792202431845
 20
69.51521866473948
 30
0.0
 11
72.87792202431845
 21
67.15271866473958
 31
0.0
  0
LINE
  5
213
330
1F
100
AcDbEntity
  8
5
  6
Continuous
 62
    30
370
     9
100
AcDbLine
 10
72.87792202431845
 20
69.25272916473969
 30
0.0
 11
72.87792202431845
 21
67.15271866473958
 31
0.0
  0
LINE
  5
214
330
1F
100
AcDbEntity
  8
5
  6
Continuous
 62
    30
370
     9
100
AcDbLine
 10
73.92792622431901
 20
59.54019766473957
 30
0.0
 11
81.27792727431896
 21
59.54019766473957
 31
0.0
  0
LINE
  5
215
330
1F
100
AcDbEntity
  8
5
  6
Continuous
 62
    30
370
     9
100
AcDbLine
 10
72.87792202431845
 20
60.85268716473941
 30
0.0
 11
71.82795142431885
 21
60.85268716473941
 31
0.0
  0
LINE
  5
216
330
1F
100
AcDbEntity
  8
5
  6
Continuous
 62
    30
370
     9
100
AcDbLine
 10
71.82795142431885
 20
60.32767666473957
 30
0.0
 11
71.82795142431885
 21
62.95269766473952
 31
0.0
  0
LINE
  5
217
330
1F
100
AcDbEntity
  8
5
  6
Continuous
 62
    30
370
     9
100
AcDbLine
 10
72.87792202431845
 20
60.59019766473962
 30
0.0
 11
72.87792202431845
 21
62.95270816473984
 31
0.0
  0
LINE
  5
218
330
1F
100
AcDbEntity
  8
5
  6
Continuous
 62
    30
370
     9
100
AcDbLine
 10
72.87792202431845
 20
62.95270816473984
 30
0.0
 11
72.87792202431845
 21
60.85268716473941
 31
0.0
  0
ARC
  5
219
330
1F
100
AcDbEntity
  8
5
  6
Continuous
 62
    30
370
     9
100
AcDbCircle
 10
73.92792622431901
 20
60.59019766473962
 30
0.0
 40
1.049999999999997
100
AcDbArc
 50
179.9999999999998
 51
269.9999999999998
  0
LINE
  5
21A
330
1F
100
AcDbEntity
  8
5
  6
Continuous
 62
    30
370
     9
100
AcDbLine
 10
78.12792307431872
 20
67.15271866473958
 30
0.0
 11
78.12792307431872
 21
62.95270816473984
 31
0.0
  0
LINE
  5
21B
330
1F
100
AcDbEntity
  8
5
  6
Continuous
 62
    30
370
     9
100
AcDbLine
 10
81.27792727431896
 20
65.05270816473981
 30
0.0
 11
81.27792727431896
 21
59.54019766473957
 31
0.0
  0
LINE
  5
21C
330
1F
100
AcDbEntity
  8
5
  6
Continuous
 62
    30
370
     9
100
AcDbLine
 10
80.2279178243189
 20
67.15271866473958
 30
0.0
 11
80.2279178243189
 21
62.95270816473984
 31
0.0
  0
LINE
  5
21D
330
1F
100
AcDbEntity
  8
5
  6
Continuous
 62
    30
370
     9
100
AcDbLine
 10
73.92792622431901
 20
70.56521866473955
 30
0.0
 11
81.27792727431896
 21
70.56521866473955
 31
0.0
  0
LINE
  5
21E
330
1F
100
AcDbEntity
  8
5
  6
Continuous
 62
    30
370
     9
100
AcDbLine
 10
71.82795142431885
 20
69.77773966473987
 30
0.0
 11
63.60146027414456
 21
69.77773966473987
 31
0.0
  0
LINE
  5
21F
330
1F
100
AcDbEntity
  8
5
  6
Continuous
 62
    30
370
     9
100
AcDbLine
 10
58.38371160697059
 20
67.99270816474038
 30
0.0
 11
54.02777152243722
 21
67.99270816474038
 31
0.0
  0
ARC
  5
220
330
1F
100
AcDbEntity
  8
5
  6
Continuous
 62
    30
370
     9
100
AcDbCircle
 10
63.65393504413511
 20
67.27915421477778
 30
0.0
 40
2.499136421295923
100
AcDbArc
 50
91.20313712916781
 51
128.5407048705055
  0
ARC
  5
221
330
1F
100
AcDbEntity
  8
5
  6
Continuous
 62
    30
370
     9
100
AcDbCircle
 10
58.13455878605717
 20
74.7458253055083
 30
0.0
 40
6.757711761025504
100
AcDbArc
 50
272.1129402668354
 51
301.7409359603985
  0
LINE
  5
222
330
1F
100
AcDbEntity
  8
5
  6
Continuous
 62
    30
370
     9
100
AcDbLine
 10
62.09679693715842
 20
69.23389301268637
 30
0.0
 11
61.68965169150421
 21
68.99882759550903
 31
0.0
  0
LINE
  5
223
330
1F
100
AcDbEntity
  8
5
  6
Continuous
 62
    30
370
     9
100
AcDbLine
 10
71.82795142431885
 20
60.32767666474111
 30
0.0
 11
63.60146027414456
 21
60.32767666474111
 31
0.0
  0
LINE
  5
224
330
1F
100
AcDbEntity
  8
5
  6
Continuous
 62
    30
370
     9
100
AcDbLine
 10
58.38371160697059
 20
62.1127081647406
 30
0.0
 11
54.02777152243722
 21
62.1127081647406
 31
0.0
  0
ARC
  5
225
330
1F
100
AcDbEntity
  8
5
  6
Continuous
 62
    30
370
     9
100
AcDbCircle
 10
63.65393504413511
 20
62.8262621147032
 30
0.0
 40
2.499136421295923
100
AcDbArc
 50
231.4592951295071
 51
268.7968628708318
  0
ARC
  5
226
330
1F
100
AcDbEntity
  8
5
  6
Continuous
 62
    30
370
     9
100
AcDbCircle
 10
58.13455878605717
 20
55.35959102397267
 30
0.0
 40
6.757711761025504
100
AcDbArc
 50
58.25906403960116
 51
87.88705973316422
  0
LINE
  5
227
330
1F
100
AcDbEntity
  8
5
  6
Continuous
 62
    30
370
     9
100
AcDbLine
 10
62.09679693715842
 20
60.87152331679461
 30
0.0
 11
61.68965169150421
 21
61.10658873397195
 31
0.0
  0
LINE
  5
228
330
1F
100
AcDbEntity
  8
3
  6
DASHDOT
 62
     1
370
    13
100
AcDbLine
 10
579.2114824143191
 20
133.5336354691141
 30
0.0
 11
582.211482414319
 21
133.5336354691141
 31
0.0
  0
LINE
  5
229
330
1F
100
AcDbEntity
  8
3
  6
DASHDOT
 62
     1
370
    13
100
AcDbLine
 10
208.9582288816342
 20
279.5336354691141
 30
0.0
 11
217.1582288816342
 21
279.5336354691141
 31
0.0
  0
LINE
  5
22A
330
1F
100
AcDbEntity
  8
3
  6
DASHDOT
 62
     1
370
    13
100
AcDbLine
 10
213.0582288816342
 20
283.633635469114
 30
0.0
 11
213.0582288816342
 21
275.4336354691141
 31
0.0
  0
LINE
  5
22B
330
1F
100
AcDbEntity
  8
3
  6
DASHDOT
 62
     1
370
    13
100
AcDbLine
 10
333.9582288816323
 20
279.5336354691141
 30
0.0
 11
342.1582288816323
 21
279.5336354691141
 31
0.0
  0
LINE
  5
22C
330
1F
100
AcDbEntity
  8
3
  6
DASHDOT
 62
     1
370
    13
100
AcDbLine
 10
338.0582288816323
 20
283.633635469114
 30
0.0
 11
338.0582288816323
 21
275.4336354691141
 31
0.0
  0
LINE
  5
22D
330
1F
100
AcDbEntity
  8
3
  6
DASHDOT
 62
     1
370
    13
100
AcDbLine
 10
396.4582288816332
 20
279.5336354691141
 30
0.0
 11
404.6582288816331
 21
279.5336354691141
 31
0.0
  0
LINE
  5
22E
330
1F
100
AcDbEntity
  8
3
  6
DASHDOT
 62
     1
370
    13
100
AcDbLine
 10
400.5582288816332
 20
283.633635469114
 30
0.0
 11
400.5582288816332
 21
275.4336354691141
 31
0.0
  0
LINE
  5
22F
330
1F
100
AcDbEntity
  8
3
  6
DASHDOT
 62
     1
370
    13
100
AcDbLine
 10
396.4582288816332
 20
133.533635469114
 30
0.0
 11
404.6582288816331
 21
133.533635469114
 31
0.0
  0
LINE
  5
230
330
1F
100
AcDbEntity
  8
3
  6
DASHDOT
 62
     1
370
    13
100
AcDbLine
 10
400.5582288816332
 20
137.633635469114
 30
0.0
 11
400.5582288816332
 21
129.433635469114
 31
0.0
  0
LINE
  5
231
330
1F
100
AcDbEntity
  8
3
  6
DASHDOT
 62
     1
370
    13
100
AcDbLine
 10
333.9582288816323
 20
133.533635469114
 30
0.0
 11
342.1582288816323
 21
133.533635469114
 31
0.0
  0
LINE
  5
232
330
1F
100
AcDbEntity
  8
3
  6
DASHDOT
 62
     1
370
    13
100
AcDbLine
 10
338.0582288816323
 20
137.633635469114
 30
0.0
 11
338.0582288816323
 21
129.433635469114
 31
0.0
  0
LINE
  5
233
330
1F
100
AcDbEntity
  8
3
  6
DASHDOT
 62
     1
370
    13
100
AcDbLine
 10
208.9582288816342
 20
133.533635469114
 30
0.0
 11
217.1582288816342
 21
133.533635469114
 31
0.0
  0
LINE
  5
234
330
1F
100
AcDbEntity
  8
3
  6
DASHDOT
 62
     1
370
    13
100
AcDbLine
 10
213.0582288816342
 20
137.633635469114
 30
0.0
 11
213.0582288816342
 21
129.433635469114
 31
0.0
  0
LINE
  5
235
330
1F
100
AcDbEntity
  8
3
  6
DASHDOT
 62
     1
370
    13
100
AcDbLine
 10
146.4582288816332
 20
133.533635469114
 30
0.0
 11
154.6582288816332
 21
133.533635469114
 31
0.0
  0
LINE
  5
236
330
1F
100
AcDbEntity
  8
3
  6
DASHDOT
 62
     1
370
    13
100
AcDbLine
 10
150.5582288816332
 20
137.633635469114
 30
0.0
 11
150.5582288816332
 21
129.433635469114
 31
0.0
  0
MTEXT
  5
237
330
1F
100
AcDbEntity
  8
2
  6
Continuous
 62
    70
370
     9
100
AcDbMText
 10
30.92783185706393
 20
79.25936412941562
 30
0.0
 40
3.9
 41
82.28784862225197
 46
3.9
 71
     4
 72
     1
  1
{\fＭＳ ゴシック;\T1.166668;Details of Connector}
 73
     1
 44
1.0
1001
ACAD
1000
ACAD_MTEXT_DEFINED_HEIGHT_BEGIN
1070
    46
1040
3.9
1000
ACAD_MTEXT_DEFINED_HEIGHT_END
  0
MTEXT
  5
238
330
1F
100
AcDbEntity
  8
2
  6
Continuous
 62
    70
370
     9
100
AcDbMText
 10
62.42776066473995
 20
49.67773816474006
 30
0.0
 40
3.0
 41
16.28565226116
 46
3.0
 71
     4
 72
     1
  1
{\fＭＳ ゴシック;\T1.275567;Light}
 73
     1
 44
1.0
1001
ACAD
1000
ACAD_MTEXT_DEFINED_HEIGHT_BEGIN
1070
    46
1040
3.0
1000
ACAD_MTEXT_DEFINED_HEIGHT_END
  0
MTEXT
  5
239
330
1F
100
AcDbEntity
  8
2
  6
Continuous
 62
    70
370
     9
100
AcDbMText
 10
62.42776066473995
 20
42.17775316473968
 30
0.0
 40
3.0
 41
30.491413062
 46
3.0
 71
     4
 72
     1
  1
{\fＭＳ ゴシック;\T1.270325;SMR-03V-B}
 73
     1
 44
1.0
1001
ACAD
1000
ACAD_MTEXT_DEFINED_HEIGHT_BEGIN
1070
    46
1040
3.0
1000
ACAD_MTEXT_DEFINED_HEIGHT_END
  0
MTEXT
  5
23A
330
1F
100
AcDbEntity
  8
2
  6
Continuous
 62
    70
370
     9
100
AcDbMText
 10
62.42776066473995
 20
34.67775316473968
 30
0.0
 40
3.0
 41
44.67909247175998
 46
3.0
 71
     4
 72
     1
  1
{\fＭＳ ゴシック;\T1.278554;BYM-001T-P0.6}
 73
     1
 44
1.0
1001
ACAD
1000
ACAD_MTEXT_DEFINED_HEIGHT_BEGIN
1070
    46
1040
3.0
1000
ACAD_MTEXT_DEFINED_HEIGHT_END
  0
MTEXT
  5
23B
330
1F
100
AcDbEntity
  8
2
  6
Continuous
 62
    70
370
     9
100
AcDbMText
 10
98.42774566473989
 20
42.17775316473968
 30
0.0
 40
3.0
 41
34.04022557067
 46
3.0
 71
     4
 72
     1
  1
{\fＭＳ ゴシック;\T1.270749;SMP-03V-BC}
 73
     1
 44
1.0
1001
ACAD
1000
ACAD_MTEXT_DEFINED_HEIGHT_BEGIN
1070
    46
1040
3.0
1000
ACAD_MTEXT_DEFINED_HEIGHT_END
  0
MTEXT
  5
23C
330
1F
100
AcDbEntity
  8
2
  6
Continuous
 62
    70
370
     9
100
AcDbMText
 10
98.42774566473989
 20
34.67775316473968
 30
0.0
 40
3.0
 41
48.23039545310999
 46
3.0
 71
     4
 72
     1
  1
{\fＭＳ ゴシック;\T1.276981;BHF-001T-0.8SS}
 73
     1
 44
1.0
1001
ACAD
1000
ACAD_MTEXT_DEFINED_HEIGHT_BEGIN
1070
    46
1040
3.0
1000
ACAD_MTEXT_DEFINED_HEIGHT_END
  0
MTEXT
  5
23D
330
1F
100
AcDbEntity
  8
2
  6
Continuous
 62
    70
370
     9
100
AcDbMText
 10
98.42774566473989
 20
49.67773816474006
 30
0.0
 40
3.0
 41
49.07804415492001
 46
3.0
 71
     4
 72
     1
  1
{\fＭＳ ゴシック;\T1.236293;Power　Supply　}
 73
     1
 44
1.0
1001
ACAD
1000
ACAD_MTEXT_DEFINED_HEIGHT_BEGIN
1070
    46
1040
3.0
1000
ACAD_MTEXT_DEFINED_HEIGHT_END
  0
MTEXT
  5
23E
330
1F
100
AcDbEntity
  8
2
  6
Continuous
 62
    70
370
     9
100
AcDbMText
 10
32.42774566473989
 20
42.17775316473968
 30
0.0
 40
3.0
 41
30.47134834272
 46
3.0
 71
     4
 72
     1
  1
{\fＭＳ ゴシック;\T1.286932;Connector}
 73
     1
 44
1.0
1001
ACAD
1000
ACAD_MTEXT_DEFINED_HEIGHT_BEGIN
1070
    46
1040
3.0
1000
ACAD_MTEXT_DEFINED_HEIGHT_END
  0
MTEXT
  5
23F
330
1F
100
AcDbEntity
  8
2
  6
Continuous
 62
    70
370
     9
100
AcDbMText
 10
32.42774566473989
 20
34.67775316473968
 30
0.0
 40
3.0
 41
23.38700212026
 46
3.0
 71
     4
 72
     1
  1
{\fＭＳ ゴシック;\T1.274033;Contact}
 73
     1
 44
1.0
1001
ACAD
1000
ACAD_MTEXT_DEFINED_HEIGHT_BEGIN
1070
    46
1040
3.0
1000
ACAD_MTEXT_DEFINED_HEIGHT_END
  0
INSERT
  5
245
330
1F
100
AcDbEntity
  8
0
100
AcDbBlockReference
  2
*G19
 10
0.0
 20
0.0
 30
0.0
  0
INSERT
  5
24A
330
1F
100
AcDbEntity
  8
0
100
AcDbBlockReference
  2
*G20
 10
0.0
 20
0.0
 30
0.0
  0
DIMENSION
  5
254
330
1F
100
AcDbEntity
  8
8
  6
Continuous
 62
     6
370
     9
100
AcDbDimension
280
     0
  2
Dim4
 10
338.0582288816323
 20
108.5336354691144
 30
0.0
 11
275.5582288816338
 21
108.5336354691144
 31
0.0
 70
   160
  1
<>
 71
     8
 42
-1.0
 73
     0
 74
     0
 75
     0
  3
Standard
100
AcDbAlignedDimension
 13
213.0582288816334
 23
129.433635469114
 33
0.0
 14
338.0582288816323
 24
129.433635469114
 34
0.0
100
AcDbRotatedDimension
1001
ACAD
1000
DSTYLE
1002
{
1070
   279
1070
     1
1070
   340
1005
103
1070
   140
1040
2.25
1070
    40
1040
1.0
1070
   147
1040
0.0
1070
    76
1070
     0
1070
    75
1070
     0
1070
   344
1005
0
1070
   343
1005
0
1070
   173
1070
     1
1070
   289
1070
     2
1070
   288
1070
     1
1070
    77
1070
     1
1070
   172
1070
     1
1070
   174
1070
     0
1070
    74
1070
     0
1070
    73
1070
     0
1070
   284
1070
     8
1070
    78
1070
     8
1070
    42
1040
0.75
1070
    44
1040
1.125
1070
    43
1040
30.0
1070
   271
1070
     2
1070
    41
1040
1.5
1002
}
  0
DIMENSION
  5
25E
330
1F
100
AcDbEntity
  8
8
  6
Continuous
 62
     6
370
     9
100
AcDbDimension
280
     0
  2
Dim5
 10
425.5582288816331
 20
96.53363546911444
 30
0.0
 11
275.5582288816332
 21
96.53363546911444
 31
0.0
 70
   160
  1
<>
 71
     8
 42
-1.0
 73
     0
 74
     0
 75
     0
  3
Standard
100
AcDbAlignedDimension
 13
125.5582288816332
 23
156.533635469114
 33
0.0
 14
425.5582288816332
 24
156.533635469114
 34
0.0
100
AcDbRotatedDimension
1001
ACAD
1000
DSTYLE
1002
{
1070
   279
1070
     1
1070
   340
1005
103
1070
   140
1040
2.25
1070
    40
1040
1.0
1070
   147
1040
0.0
1070
    76
1070
     0
1070
    75
1070
     0
1070
   344
1005
0
1070
   343
1005
0
1070
   173
1070
     1
1070
   289
1070
     2
1070
   288
1070
     1
1070
    77
1070
     1
1070
   172
1070
     1
1070
   174
1070
     0
1070
    74
1070
     0
1070
    73
1070
     0
1070
   284
1070
     8
1070
    78
1070
     8
1070
    42
1040
0.75
1070
    44
1040
1.125
1070
    43
1040
30.0
1070
   271
1070
     2
1070
    41
1040
1.5
1002
}
  0
DIMENSION
  5
268
330
1F
100
AcDbEntity
  8
8
  6
Continuous
 62
     6
370
     9
100
AcDbDimension
280
     0
  2
Dim6
 10
440.558228881633
 20
84.53363546911444
 30
0.0
 11
275.5582288816332
 21
84.53363546911444
 31
0.0
 70
   160
  1
<>
 71
     8
 42
-1.0
 73
     0
 74
     0
 75
     0
  3
Standard
100
AcDbAlignedDimension
 13
110.5582288816332
 23
141.5336354691131
 33
0.0
 14
440.5582288816331
 24
141.533635469114
 34
0.0
100
AcDbRotatedDimension
1001
ACAD
1000
DSTYLE
1002
{
1070
   279
1070
     1
1070
   340
1005
103
1070
   140
1040
2.25
1070
    40
1040
1.0
1070
   147
1040
0.0
1070
    76
1070
     0
1070
    75
1070
     0
1070
   344
1005
0
1070
   343
1005
0
1070
   173
1070
     1
1070
   289
1070
     2
1070
   288
1070
     1
1070
    77
1070
     1
1070
   172
1070
     1
1070
   174
1070
     0
1070
    74
1070
     0
1070
    73
1070
     0
1070
   284
1070
     8
1070
    78
1070
     8
1070
    42
1040
0.75
1070
    44
1040
1.125
1070
    43
1040
30.0
1070
   271
1070
     2
1070
    41
1040
1.5
1002
}
  0
DIMENSION
  5
272
330
1F
100
AcDbEntity
  8
8
  6
Continuous
 62
     6
370
     9
100
AcDbDimension
280
     0
  2
Dim7
 10
581.211482414319
 20
84.53363546911456
 30
0.0
 11
558.7114824143191
 21
84.53363546911456
 31
0.0
 70
   160
  1
<>
 71
     8
 42
-1.0
 73
     0
 74
     0
 75
     0
  3
Standard
100
AcDbAlignedDimension
 13
536.2114824143191
 23
141.533635469114
 33
0.0
 14
581.2114824143191
 24
126.533635469114
 34
0.0
100
AcDbRotatedDimension
1001
ACAD
1000
DSTYLE
1002
{
1070
   279
1070
     1
1070
   340
1005
103
1070
   140
1040
2.25
1070
    40
1040
1.0
1070
   147
1040
0.0
1070
    76
1070
     0
1070
    75
1070
     0
1070
   344
1005
0
1070
   343
1005
0
1070
   173
1070
     1
1070
   289
1070
     2
1070
   288
1070
     1
1070
    77
1070
     1
1070
   172
1070
     1
1070
   174
1070
     0
1070
    74
1070
     0
1070
    73
1070
     0
1070
   284
1070
     8
1070
    78
1070
     8
1070
    42
1040
0.75
1070
    44
1040
1.125
1070
    43
1040
30.0
1070
   271
1070
     2
1070
    41
1040
1.5
1002
}
  0
DIMENSION
  5
27C
330
1F
100
AcDbEntity
  8
8
  6
Continuous
 62
     6
370
     9
100
AcDbDimension
280
     0
  2
Dim8
 10
98.55822888163333
 20
256.5336354691142
 30
0.0
 11
98.55822888163328
 21
206.533635469114
 31
0.0
 70
   160
  1
<>
 71
     8
 42
-1.0
 73
     0
 74
     0
 75
     0
  3
Standard
100
AcDbAlignedDimension
 13
125.5582288816332
 23
156.533635469114
 33
0.0
 14
125.5582288816332
 24
256.5336354691141
 34
0.0
 50
89.99999999999991
100
AcDbRotatedDimension
1001
ACAD
1000
DSTYLE
1002
{
1070
   279
1070
     1
1070
   340
1005
103
1070
   140
1040
2.25
1070
    40
1040
1.0
1070
   147
1040
0.0
1070
    76
1070
     0
1070
    75
1070
     0
1070
   344
1005
0
1070
   343
1005
0
1070
   173
1070
     1
1070
   289
1070
     2
1070
   288
1070
     1
1070
    77
1070
     1
1070
   172
1070
     1
1070
   174
1070
     0
1070
    74
1070
     0
1070
    73
1070
     0
1070
   284
1070
     8
1070
    78
1070
     8
1070
    42
1040
0.75
1070
    44
1040
1.125
1070
    43
1040
30.0
1070
   271
1070
     2
1070
    41
1040
1.5
1002
}
  0
DIMENSION
  5
286
330
1F
100
AcDbEntity
  8
8
  6
Continuous
 62
     6
370
     9
100
AcDbDimension
280
     0
  2
Dim9
 10
86.55822888163353
 20
271.5336354691141
 30
0.0
 11
86.55822888163351
 21
206.5336354691141
 31
0.0
 70
   160
  1
<>
 71
     8
 42
-1.0
 73
     0
 74
     0
 75
     0
  3
Standard
100
AcDbAlignedDimension
 13
110.5582288816332
 23
141.533635469114
 33
0.0
 14
110.5582288816332
 24
271.5336354691141
 34
0.0
 50
89.99999999999991
100
AcDbRotatedDimension
1001
ACAD
1000
DSTYLE
1002
{
1070
   279
1070
     1
1070
   340
1005
103
1070
   140
1040
2.25
1070
    40
1040
1.0
1070
   147
1040
0.0
1070
    76
1070
     0
1070
    75
1070
     0
1070
   344
1005
0
1070
   343
1005
0
1070
   173
1070
     1
1070
   289
1070
     2
1070
   288
1070
     1
1070
    77
1070
     1
1070
   172
1070
     1
1070
   174
1070
     0
1070
    74
1070
     0
1070
    73
1070
     0
1070
   284
1070
     8
1070
    78
1070
     8
1070
    42
1040
0.75
1070
    44
1040
1.125
1070
    43
1040
30.0
1070
   271
1070
     2
1070
    41
1040
1.5
1002
}
  0
DIMENSION
  5
290
330
1F
100
AcDbEntity
  8
8
  6
Continuous
 62
     6
370
     9
100
AcDbDimension
280
     0
  2
Dim10
 10
74.55822888163348
 20
279.5336354691143
 30
0.0
 11
74.55822888163348
 21
206.5336354691141
 31
0.0
 70
   160
  1
<>
 71
     8
 42
-1.0
 73
     0
 74
     0
 75
     0
  3
Standard
100
AcDbAlignedDimension
 13
146.4582288816332
 23
133.533635469114
 33
0.0
 14
146.4582288816332
 24
279.5336354691141
 34
0.0
 50
89.99999999999991
100
AcDbRotatedDimension
1001
ACAD
1000
DSTYLE
1002
{
1070
   279
1070
     1
1070
   340
1005
103
1070
   140
1040
2.25
1070
    40
1040
1.0
1070
   147
1040
0.0
1070
    76
1070
     0
1070
    75
1070
     0
1070
   344
1005
0
1070
   343
1005
0
1070
   173
1070
     1
1070
   289
1070
     2
1070
   288
1070
     1
1070
    77
1070
     1
1070
   172
1070
     1
1070
   174
1070
     0
1070
    74
1070
     0
1070
    73
1070
     0
1070
   284
1070
     8
1070
    78
1070
     8
1070
    42
1040
0.75
1070
    44
1040
1.125
1070
    43
1040
30.0
1070
   271
1070
     2
1070
    41
1040
1.5
1002
}
  0
DIMENSION
  5
29A
330
1F
100
AcDbEntity
  8
8
  6
Continuous
 62
     6
370
     9
100
AcDbDimension
280
     0
  2
Dim11
 10
62.5582288816335
 20
126.5336354691142
 30
0.0
 11
62.55822888163348
 21
206.5336354691141
 31
0.0
 70
   160
  1
<>
 71
     8
 42
-1.0
 73
     0
 74
     0
 75
     0
 53
89.99999999999991
  3
Standard
100
AcDbAlignedDimension
 13
130.5582288816323
 23
286.5336354691141
 33
0.0
 14
130.5582288816323
 24
126.533635469114
 34
0.0
 50
-89.99999999999991
100
AcDbRotatedDimension
1001
ACAD
1000
DSTYLE
1002
{
1070
   279
1070
     1
1070
   340
1005
103
1070
   140
1040
2.25
1070
    40
1040
1.0
1070
   147
1040
0.0
1070
    76
1070
     0
1070
    75
1070
     0
1070
   344
1005
0
1070
   343
1005
0
1070
   173
1070
     1
1070
   289
1070
     2
1070
   288
1070
     1
1070
    77
1070
     1
1070
   172
1070
     1
1070
   174
1070
     0
1070
    74
1070
     0
1070
    73
1070
     0
1070
   284
1070
     8
1070
    78
1070
     8
1070
    42
1040
0.75
1070
    44
1040
1.125
1070
    43
1040
30.0
1070
   271
1070
     2
1070
    41
1040
1.5
1002
}
  0
DIMENSION
  5
2A4
330
1F
100
AcDbEntity
  8
8
  6
Continuous
 62
     6
370
     9
100
AcDbDimension
280
     0
  2
Dim12
 10
400.5582288816331
 20
108.5336354691144
 30
0.0
 11
369.308228881633
 21
108.5336354691144
 31
0.0
 70
   160
  1
<>
 71
     8
 42
-1.0
 73
     0
 74
     0
 75
     0
  3
Standard
100
AcDbAlignedDimension
 13
338.0582288816323
 23
129.433635469114
 33
0.0
 14
400.5582288816332
 24
129.433635469114
 34
0.0
100
AcDbRotatedDimension
1001
ACAD
1000
DSTYLE
1002
{
1070
   279
1070
     1
1070
   340
1005
103
1070
   140
1040
2.25
1070
    40
1040
1.0
1070
   147
1040
0.0
1070
    76
1070
     0
1070
    75
1070
     0
1070
   344
1005
0
1070
   343
1005
0
1070
   173
1070
     1
1070
   289
1070
     2
1070
   288
1070
     1
1070
    77
1070
     1
1070
   172
1070
     1
1070
   174
1070
     0
1070
    74
1070
     0
1070
    73
1070
     0
1070
   284
1070
     8
1070
    78
1070
     8
1070
    42
1040
0.75
1070
    44
1040
1.125
1070
    43
1040
30.0
1070
   271
1070
     2
1070
    41
1040
1.5
1002
}
  0
DIMENSION
  5
2AE
330
1F
100
AcDbEntity
  8
8
  6
Continuous
 62
     6
370
     9
100
AcDbDimension
280
     0
  2
Dim13
 10
213.0582288816342
 20
108.5336354691145
 30
0.0
 11
181.8082288816339
 21
108.5336354691145
 31
0.0
 70
   160
  1
<>
 71
     8
 42
-1.0
 73
     0
 74
     0
 75
     0
  3
Standard
100
AcDbAlignedDimension
 13
150.5582288816332
 23
129.433635469114
 33
0.0
 14
213.0582288816342
 24
129.433635469114
 34
0.0
100
AcDbRotatedDimension
1001
ACAD
1000
DSTYLE
1002
{
1070
   279
1070
     1
1070
   340
1005
103
1070
   140
1040
2.25
1070
    40
1040
1.0
1070
   147
1040
0.0
1070
    76
1070
     0
1070
    75
1070
     0
1070
   344
1005
0
1070
   343
1005
0
1070
   173
1070
     1
1070
   289
1070
     2
1070
   288
1070
     1
1070
    77
1070
     1
1070
   172
1070
     1
1070
   174
1070
     0
1070
    74
1070
     0
1070
    73
1070
     0
1070
   284
1070
     8
1070
    78
1070
     8
1070
    42
1040
0.75
1070
    44
1040
1.125
1070
    43
1040
30.0
1070
   271
1070
     2
1070
    41
1040
1.5
1002
}
  0
VIEWPORT
  5
6A
330
1B
100
AcDbEntity
 67
     1
  8
0
100
AcDbViewport
 10
594.5
 20
420.5
 30
0.0
 40
1189.0
 41
841.0
 68
     1
 69
     1
 12
594.5
 22
420.5
 13
0.0
 23
0.0
 14
0.5
 24
0.5
 15
0.5
 25
0.5
 16
0.0
 26
0.0
 36
1.0
 17
0.0
 27
0.0
 37
0.0
 42
50.0
 43
0.0
 44
0.0
 45
9.0
 50
0.0
 51
0.0
 72
   100
 90
   557152
  1

281
     0
 71
     1
 74
     0
110
0.0
120
0.0
130
0.0
111
1.0
121
0.0
131
0.0
112
0.0
122
1.0
132
0.0
 79
     0
146
0.0
170
     0
 61
     5
292
     1
282
     1
141
0.0
142
0.0
 63
   256
  0
ENDSEC
  0
SECTION
  2
OBJECTS
  0
DICTIONARY
  5
C
330
0
100
AcDbDictionary
281
     1
  3
ACAD_DETAILVIEWSTYLE
350
2B3
  3
ACAD_GROUP
350
D
  3
ACAD_LAYOUT
350
1A
  3
ACAD_MATERIAL
350
43
  3
ACAD_MLEADERSTYLE
350
2B2
  3
ACAD_MLINESTYLE
350
17
  3
ACAD_PLOTSETTINGS
350
19
  3
ACAD_PLOTSTYLENAME
350
E
  3
ACAD_SCALELIST
350
47
  3
ACAD_SECTIONVIEWSTYLE
350
2B4
  3
ACAD_TABLESTYLE
350
2B1
  3
ACAD_VISUALSTYLE
350
2A
  3
AcDbVariableDictionary
350
2AF
  0
SUN
  5
69
330
29
100
AcDbSun
 90
        1
290
     0
 63
     7
421
 16777215
 40
1.0
291
     1
 91
  2455826
 92
 54000000
292
     0
 70
     2
 71
   256
280
     1
  0
DICTIONARY
  5
2B3
102
{ACAD_REACTORS
330
C
102
}
330
C
100
AcDbDictionary
281
     1
  0
DICTIONARY
  5
D
102
{ACAD_REACTORS
330
C
102
}
330
C
100
AcDbDictionary
281
     1
  0
DICTIONARY
  5
1A
102
{ACAD_REACTORS
330
C
102
}
330
C
100
AcDbDictionary
281
     1
  3
Layout1
350
1E
  3
Layout2
350
26
  3
Model
350
22
  0
DICTIONARY
  5
43
102
{ACAD_REACTORS
330
C
102
}
330
C
100
AcDbDictionary
281
     1
  3
ByBlock
350
45
  3
ByLayer
350
44
  3
Global
350
46
  0
DICTIONARY
  5
2B2
102
{ACAD_REACTORS
330
C
102
}
330
C
100
AcDbDictionary
281
     1
  0
DICTIONARY
  5
17
102
{ACAD_REACTORS
330
C
102
}
330
C
100
AcDbDictionary
281
     1
  3
Standard
350
18
  0
DICTIONARY
  5
19
102
{ACAD_REACTORS
330
C
102
}
330
C
100
AcDbDictionary
281
     1
  0
ACDBDICTIONARYWDFLT
  5
E
102
{ACAD_REACTORS
330
C
102
}
330
C
100
AcDbDictionary
281
     1
  3
Normal
350
F
100
AcDbDictionaryWithDefault
340
F
  0
DICTIONARY
  5
47
102
{ACAD_REACTORS
330
C
102
}
330
C
100
AcDbDictionary
281
     1
  3
A0
350
48
  3
A1
350
49
  3
A2
350
4A
  3
A3
350
4B
  3
A4
350
4C
  3
A5
350
4D
  3
A6
350
4E
  3
A7
350
4F
  3
A8
350
50
  3
A9
350
51
  3
B0
350
52
  3
B1
350
53
  3
B2
350
54
  3
B3
350
55
  3
B4
350
56
  3
B5
350
57
  3
B6
350
58
  3
B7
350
59
  3
B8
350
5A
  3
B9
350
5B
  3
C0
350
5C
  3
C1
350
5D
  3
C2
350
5E
  3
C3
350
5F
  3
C4
350
60
  3
C5
350
61
  3
C6
350
62
  3
C7
350
63
  3
C8
350
64
  3
C9
350
65
  3
D0
350
66
  3
D1
350
67
  3
D2
350
68
  0
DICTIONARY
  5
2B4
102
{ACAD_REACTORS
330
C
102
}
330
C
100
AcDbDictionary
281
     1
  0
DICTIONARY
  5
2B1
102
{ACAD_REACTORS
330
C
102
}
330
C
100
AcDbDictionary
281
     1
  0
DICTIONARY
  5
2A
102
{ACAD_REACTORS
330
C
102
}
330
C
100
AcDbDictionary
281
     1
  3
2dWireframe
350
2F
  3
Basic
350
32
  3
Brighten
350
36
  3
ColorChange
350
3A
  3
Conceptual
350
34
  3
Dim
350
35
  3
EdgeColorOff
350
3D
  3
Facepattern
350
39
  3
Flat
350
2B
  3
FlatWithEdges
350
2C
  3
Gouraud
350
2D
  3
GouraudWithEdges
350
2E
  3
Hidden
350
31
  3
JitterOff
350
3B
  3
Linepattern
350
38
  3
OverhangOff
350
3C
  3
Realistic
350
33
  3
Shaded
350
42
  3
Shaded with edges
350
41
  3
Shades of Gray
350
3E
  3
Sketchy
350
3F
  3
Thicken
350
37
  3
Wireframe
350
30
  3
X-Ray
350
40
  0
DICTIONARY
  5
2AF
102
{ACAD_REACTORS
330
C
102
}
330
C
100
AcDbDictionary
281
     1
  3
CANNOSCALE
350
2B0
  0
LAYOUT
  5
1E
102
{ACAD_REACTORS
330
1A
102
}
330
1A
100
AcDbPlotSettings
  1

  2
none_device
  4

  6

 40
0.0
 41
0.0
 42
0.0
 43
0.0
 44
0.0
 45
0.0
 46
0.0
 47
0.0
 48
0.0
 49
0.0
140
0.0
141
0.0
142
1.0
143
1.0
 70
   688
 72
     0
 73
     0
 74
     5
  7

 75
    16
 76
     0
 77
     2
 78
   300
147
1.0
148
0.0
149
0.0
100
AcDbLayout
  1
Layout1
 70
     1
 71
     1
 10
0.0
 20
0.0
 11
1189.0
 21
841.0
 12
0.0
 22
0.0
 32
0.0
 14
0.0
 24
0.0
 34
0.0
 15
1189.0
 25
841.0
 35
0.0
146
0.0
 13
0.0
 23
0.0
 33
0.0
 16
1.0
 26
0.0
 36
0.0
 17
0.0
 27
1.0
 37
0.0
 76
     0
330
1B
331
6A
  0
LAYOUT
  5
26
102
{ACAD_REACTORS
330
1A
102
}
330
1A
100
AcDbPlotSettings
  1

  2
none_device
  4

  6

 40
0.0
 41
0.0
 42
0.0
 43
0.0
 44
0.0
 45
0.0
 46
0.0
 47
0.0
 48
0.0
 49
0.0
140
0.0
141
0.0
142
1.0
143
1.0
 70
   688
 72
     0
 73
     0
 74
     5
  7

 75
    16
 76
     0
 77
     2
 78
   300
147
1.0
148
0.0
149
0.0
100
AcDbLayout
  1
Layout2
 70
     1
 71
     2
 10
0.0
 20
0.0
 11
0.0
 21
0.0
 12
0.0
 22
0.0
 32
0.0
 14
0.0
 24
0.0
 34
0.0
 15
0.0
 25
0.0
 35
0.0
146
0.0
 13
0.0
 23
0.0
 33
0.0
 16
1.0
 26
0.0
 36
0.0
 17
0.0
 27
1.0
 37
0.0
 76
     0
330
23
  0
LAYOUT
  5
22
102
{ACAD_REACTORS
330
1A
102
}
330
1A
100
AcDbPlotSettings
  1

  2
none_device
  4
Letter_(8.50_x_11.00_Inches)
  6

 40
6.35
 41
6.35
 42
6.35000508
 43
6.35000508
 44
215.9
 45
279.4
 46
0.0
 47
0.0
 48
0.0
 49
0.0
140
0.0
141
0.0
142
1.0
143
1.0
 70
  1712
 72
     0
 73
     0
 74
     0
  7

 75
     0
 76
     0
 77
     2
 78
   300
147
1.0
148
0.0
149
0.0
100
AcDbLayout
  1
Model
 70
     1
 71
     0
 10
0.0
 20
0.0
 11
1189.0
 21
841.0
 12
0.0
 22
0.0
 32
0.0
 14
30.92774566473989
 24
30.92774566473988
 34
0.0
 15
598.4614824143191
 25
302.4553286474807
 35
0.0
146
0.0
 13
0.0
 23
0.0
 33
0.0
 16
1.0
 26
0.0
 36
0.0
 17
0.0
 27
1.0
 37
0.0
 76
     0
330
1F
331
29
  0
MATERIAL
  5
45
102
{ACAD_REACTORS
330
43
102
}
330
43
100
AcDbMaterial
  1
ByBlock
 72
     1
 94
      127
  0
MATERIAL
  5
44
102
{ACAD_REACTORS
330
43
102
}
330
43
100
AcDbMaterial
  1
ByLayer
 72
     1
 94
      127
  0
MATERIAL
  5
46
102
{ACAD_REACTORS
330
43
102
}
330
43
100
AcDbMaterial
  1
Global
 72
     1
 94
      127
  0
MLINESTYLE
  5
18
102
{ACAD_REACTORS
330
17
102
}
330
17
100
AcDbMlineStyle
  2
Standard
 70
     0
  3

 62
   256
 51
90.0
 52
90.0
 71
     2
 49
0.5
 62
   256
  6
BYLAYER
 49
-0.5
 62
   256
  6
BYLAYER
  0
ACDBPLACEHOLDER
  5
F
102
{ACAD_REACTORS
330
E
102
}
330
E
  0
SCALE
  5
48
102
{ACAD_REACTORS
330
47
102
}
330
47
100
AcDbScale
 70
     0
300
1:1
140
1.0
141
1.0
290
     1
  0
SCALE
  5
49
102
{ACAD_REACTORS
330
47
102
}
330
47
100
AcDbScale
 70
     0
300
1:2
140
1.0
141
2.0
290
     0
  0
SCALE
  5
4A
102
{ACAD_REACTORS
330
47
102
}
330
47
100
AcDbScale
 70
     0
300
1:4
140
1.0
141
4.0
290
     0
  0
SCALE
  5
4B
102
{ACAD_REACTORS
330
47
102
}
330
47
100
AcDbScale
 70
     0
300
1:5
140
1.0
141
5.0
290
     0
  0
SCALE
  5
4C
102
{ACAD_REACTORS
330
47
102
}
330
47
100
AcDbScale
 70
     0
300
1:8
140
1.0
141
8.0
290
     0
  0
SCALE
  5
4D
102
{ACAD_REACTORS
330
47
102
}
330
47
100
AcDbScale
 70
     0
300
1:10
140
1.0
141
10.0
290
     0
  0
SCALE
  5
4E
102
{ACAD_REACTORS
330
47
102
}
330
47
100
AcDbScale
 70
     0
300
1:16
140
1.0
141
16.0
290
     0
  0
SCALE
  5
4F
102
{ACAD_REACTORS
330
47
102
}
330
47
100
AcDbScale
 70
     0
300
1:20
140
1.0
141
20.0
290
     0
  0
SCALE
  5
50
102
{ACAD_REACTORS
330
47
102
}
330
47
100
AcDbScale
 70
     0
300
1:30
140
1.0
141
30.0
290
     0
  0
SCALE
  5
51
102
{ACAD_REACTORS
330
47
102
}
330
47
100
AcDbScale
 70
     0
300
1:40
140
1.0
141
40.0
290
     0
  0
SCALE
  5
52
102
{ACAD_REACTORS
330
47
102
}
330
47
100
AcDbScale
 70
     0
300
1:50
140
1.0
141
50.0
290
     0
  0
SCALE
  5
53
102
{ACAD_REACTORS
330
47
102
}
330
47
100
AcDbScale
 70
     0
300
1:100
140
1.0
141
100.0
290
     0
  0
SCALE
  5
54
102
{ACAD_REACTORS
330
47
102
}
330
47
100
AcDbScale
 70
     0
300
2:1
140
2.0
141
1.0
290
     0
  0
SCALE
  5
55
102
{ACAD_REACTORS
330
47
102
}
330
47
100
AcDbScale
 70
     0
300
4:1
140
4.0
141
1.0
290
     0
  0
SCALE
  5
56
102
{ACAD_REACTORS
330
47
102
}
330
47
100
AcDbScale
 70
     0
300
8:1
140
8.0
141
1.0
290
     0
  0
SCALE
  5
57
102
{ACAD_REACTORS
330
47
102
}
330
47
100
AcDbScale
 70
     0
300
10:1
140
10.0
141
1.0
290
     0
  0
SCALE
  5
58
102
{ACAD_REACTORS
330
47
102
}
330
47
100
AcDbScale
 70
     0
300
100:1
140
100.0
141
1.0
290
     0
  0
SCALE
  5
59
102
{ACAD_REACTORS
330
47
102
}
330
47
100
AcDbScale
 70
     0
300
1/128" = 1'-0"
140
0.0078125
141
12.0
290
     0
  0
SCALE
  5
5A
102
{ACAD_REACTORS
330
47
102
}
330
47
100
AcDbScale
 70
     0
300
1/64" = 1'-0"
140
0.015625
141
12.0
290
     0
  0
SCALE
  5
5B
102
{ACAD_REACTORS
330
47
102
}
330
47
100
AcDbScale
 70
     0
300
1/32" = 1'-0"
140
0.03125
141
12.0
290
     0
  0
SCALE
  5
5C
102
{ACAD_REACTORS
330
47
102
}
330
47
100
AcDbScale
 70
     0
300
1/16" = 1'-0"
140
0.0625
141
12.0
290
     0
  0
SCALE
  5
5D
102
{ACAD_REACTORS
330
47
102
}
330
47
100
AcDbScale
 70
     0
300
3/32" = 1'-0"
140
0.09375
141
12.0
290
     0
  0
SCALE
  5
5E
102
{ACAD_REACTORS
330
47
102
}
330
47
100
AcDbScale
 70
     0
300
1/8" = 1'-0"
140
0.125
141
12.0
290
     0
  0
SCALE
  5
5F
102
{ACAD_REACTORS
330
47
102
}
330
47
100
AcDbScale
 70
     0
300
3/16" = 1'-0"
140
0.1875
141
12.0
290
     0
  0
SCALE
  5
60
102
{ACAD_REACTORS
330
47
102
}
330
47
100
AcDbScale
 70
     0
300
1/4" = 1'-0"
140
0.25
141
12.0
290
     0
  0
SCALE
  5
61
102
{ACAD_REACTORS
330
47
102
}
330
47
100
AcDbScale
 70
     0
300
3/8" = 1'-0"
140
0.375
141
12.0
290
     0
  0
SCALE
  5
62
102
{ACAD_REACTORS
330
47
102
}
330
47
100
AcDbScale
 70
     0
300
1/2" = 1'-0"
140
0.5
141
12.0
290
     0
  0
SCALE
  5
63
102
{ACAD_REACTORS
330
47
102
}
330
47
100
AcDbScale
 70
     0
300
3/4" = 1'-0"
140
0.75
141
12.0
290
     0
  0
SCALE
  5
64
102
{ACAD_REACTORS
330
47
102
}
330
47
100
AcDbScale
 70
     0
300
1" = 1'-0"
140
1.0
141
12.0
290
     0
  0
SCALE
  5
65
102
{ACAD_REACTORS
330
47
102
}
330
47
100
AcDbScale
 70
     0
300
1-1/2" = 1'-0"
140
1.5
141
12.0
290
     0
  0
SCALE
  5
66
102
{ACAD_REACTORS
330
47
102
}
330
47
100
AcDbScale
 70
     0
300
3" = 1'-0"
140
3.0
141
12.0
290
     0
  0
SCALE
  5
67
102
{ACAD_REACTORS
330
47
102
}
330
47
100
AcDbScale
 70
     0
300
6" = 1'-0"
140
6.0
141
12.0
290
     0
  0
SCALE
  5
68
102
{ACAD_REACTORS
330
47
102
}
330
47
100
AcDbScale
 70
     0
300
1'-0" = 1'-0"
140
12.0
141
12.0
290
     0
  0
VISUALSTYLE
  5
2F
102
{ACAD_REACTORS
330
2A
102
}
330
2A
100
AcDbVisualStyle
  2
2dWireframe
 70
     4
177
     3
291
     0
 70
    58
 90
        0
176
     1
 90
        2
176
     1
 90
        0
176
     1
 90
        0
176
     1
 40
0.6
176
     1
 40
30.0
176
     1
 62
     7
420
 16777215
176
     1
 90
        1
176
     1
 90
        4
176
     1
 62
     7
176
     1
 62
   257
176
     1
 90
        1
176
     1
 90
        1
176
     1
 40
1.0
176
     1
 90
        0
176
     1
 62
   257
176
     1
 40
1.0
176
     1
 90
        1
176
     1
 90
        6
176
     1
 90
        2
176
     1
 62
     7
176
     1
 90
        5
176
     1
 90
        0
176
     1
 90
        0
176
     1
290
     0
176
     1
 90
        1
176
     1
 40
0.0
176
     1
 90
        0
176
     1
290
     1
176
     1
290
     1
176
     1
290
     0
176
     1
290
     0
176
     1
290
     0
176
     1
290
     0
176
     1
290
     0
176
     1
290
     0
176
     1
290
     0
176
     1
 90
       50
176
     1
 40
0.0
176
     1
 40
1.0
176
     1
 90
        0
176
     1
 62
    18
420
        0
176
     1
 90
       50
176
     1
 90
        3
176
     1
 62
     5
420
      255
176
     1
290
     0
176
     1
 90
       50
176
     1
 90
       50
176
     1
 90
       50
176
     1
290
     0
176
     1
 90
       50
176
     1
 62
   256
176
     0
 40
1.0
176
     0
 90
        2
176
     1
  1
strokes_ogs.tif
176
     1
290
     0
176
     1
 40
1.0
176
     1
 40
1.0
176
     1
  0
VISUALSTYLE
  5
32
102
{ACAD_REACTORS
330
2A
102
}
330
2A
100
AcDbVisualStyle
  2
Basic
 70
     7
177
     3
291
     1
 70
    58
 90
        1
176
     1
 90
        0
176
     1
 90
        1
176
     1
 90
        0
176
     1
 40
0.6
176
     1
 40
30.0
176
     1
 62
     7
420
 16777215
176
     1
 90
        0
176
     1
 90
        4
176
     1
 62
     7
176
     1
 62
   257
176
     1
 90
        1
176
     1
 90
        1
176
     1
 40
1.0
176
     1
 90
        8
176
     1
 62
     7
176
     1
 40
1.0
176
     1
 90
        1
176
     1
 90
        6
176
     1
 90
        2
176
     1
 62
     7
176
     1
 90
        5
176
     1
 90
        0
176
     1
 90
        0
176
     1
290
     0
176
     1
 90
        1
176
     1
 40
0.0
176
     1
 90
        0
176
     1
290
     0
176
     1
290
     1
176
     1
290
     1
176
     1
290
     0
176
     1
290
     0
176
     1
290
     0
176
     1
290
     0
176
     1
290
     0
176
     1
290
     0
176
     1
 90
       50
176
     1
 40
0.0
176
     1
 40
1.0
176
     1
 90
        0
176
     1
 62
    18
420
        0
176
     1
 90
       50
176
     1
 90
        3
176
     1
 62
     5
420
      255
176
     1
290
     0
176
     1
 90
       50
176
     1
 90
       50
176
     1
 90
       50
176
     1
290
     0
176
     1
 90
       50
176
     1
 62
   256
176
     0
 40
1.0
176
     0
 90
        2
176
     1
  1
strokes_ogs.tif
176
     1
290
     0
176
     1
 40
1.0
176
     1
 40
1.0
176
     1
  0
VISUALSTYLE
  5
36
102
{ACAD_REACTORS
330
2A
102
}
330
2A
100
AcDbVisualStyle
  2
Brighten
 70
    12
177
     3
291
     1
 70
    58
 90
        2
176
     1
 90
        2
176
     1
 90
        0
176
     1
 90
        0
176
     1
 40
0.6
176
     1
 40
30.0
176
     1
 62
     7
420
 16777215
176
     1
 90
        1
176
     1
 90
        4
176
     1
 62
     7
176
     1
 62
   257
176
     1
 90
        1
176
     1
 90
        1
176
     1
 40
1.0
176
     1
 90
        8
176
     1
 62
     7
176
     1
 40
1.0
176
     1
 90
        1
176
     1
 90
        6
176
     1
 90
        2
176
     1
 62
     7
176
     1
 90
        5
176
     1
 90
        0
176
     1
 90
        0
176
     1
290
     0
176
     1
 90
        1
176
     1
 40
50.0
176
     1
 90
        0
176
     1
290
     0
176
     1
290
     1
176
     1
290
     1
176
     1
290
     0
176
     1
290
     0
176
     1
290
     0
176
     1
290
     0
176
     1
290
     0
176
     1
290
     0
176
     1
 90
       50
176
     1
 40
0.0
176
     1
 40
1.0
176
     1
 90
        0
176
     1
 62
    18
420
        0
176
     1
 90
       50
176
     1
 90
        3
176
     1
 62
     5
420
      255
176
     1
290
     0
176
     1
 90
       50
176
     1
 90
       50
176
     1
 90
       50
176
     1
290
     0
176
     1
 90
       50
176
     1
 62
   256
176
     0
 40
1.0
176
     0
 90
        2
176
     1
  1
strokes_ogs.tif
176
     1
290
     0
176
     1
 40
1.0
176
     1
 40
1.0
176
     1
  0
VISUALSTYLE
  5
3A
102
{ACAD_REACTORS
330
2A
102
}
330
2A
100
AcDbVisualStyle
  2
ColorChange
 70
    16
177
     3
291
     1
 70
    58
 90
        2
176
     1
 90
        2
176
     1
 90
        3
176
     1
 90
        0
176
     1
 40
0.6
176
     1
 40
30.0
176
     1
 62
     8
420
  8421504
176
     1
 90
        1
176
     1
 90
        4
176
     1
 62
     7
176
     1
 62
   257
176
     1
 90
        1
176
     1
 90
        1
176
     1
 40
1.0
176
     1
 90
        8
176
     1
 62
     8
420
  8421504
176
     1
 40
1.0
176
     1
 90
        1
176
     1
 90
        6
176
     1
 90
        2
176
     1
 62
     7
176
     1
 90
        5
176
     1
 90
        0
176
     1
 90
        0
176
     1
290
     0
176
     1
 90
        1
176
     1
 40
0.0
176
     1
 90
        0
176
     1
290
     0
176
     1
290
     1
176
     1
290
     1
176
     1
290
     0
176
     1
290
     0
176
     1
290
     0
176
     1
290
     0
176
     1
290
     0
176
     1
290
     0
176
     1
 90
       50
176
     1
 40
0.0
176
     1
 40
1.0
176
     1
 90
        0
176
     1
 62
    18
420
        0
176
     1
 90
       50
176
     1
 90
        3
176
     1
 62
     5
420
      255
176
     1
290
     0
176
     1
 90
       50
176
     1
 90
       50
176
     1
 90
       50
176
     1
290
     0
176
     1
 90
       50
176
     1
 62
   256
176
     0
 40
1.0
176
     0
 90
        2
176
     1
  1
strokes_ogs.tif
176
     1
290
     0
176
     1
 40
1.0
176
     1
 40
1.0
176
     1
  0
VISUALSTYLE
  5
34
102
{ACAD_REACTORS
330
2A
102
}
330
2A
100
AcDbVisualStyle
  2
Conceptual
 70
     9
177
     3
291
     0
 70
    58
 90
        3
176
     1
 90
        2
176
     1
 90
        0
176
     1
 90
        0
176
     1
 40
0.6
176
     1
 40
30.0
176
     1
 62
     7
420
 16777215
176
     1
 90
        2
176
     1
 90
        2
176
     1
 62
     7
176
     1
 62
   257
176
     1
 90
        1
176
     1
 90
        1
176
     1
 40
179.0
176
     1
 90
        8
176
     1
 62
     7
176
     1
 40
1.0
176
     1
 90
        1
176
     1
 90
        6
176
     1
 90
        2
176
     1
 62
     7
176
     1
 90
        3
176
     1
 90
        0
176
     1
 90
        0
176
     1
290
     0
176
     1
 90
        1
176
     1
 40
0.0
176
     1
 90
        0
176
     1
290
     0
176
     1
290
     1
176
     1
290
     1
176
     1
290
     0
176
     1
290
     0
176
     1
290
     0
176
     1
290
     0
176
     1
290
     0
176
     1
290
     0
176
     1
 90
       50
176
     1
 40
0.0
176
     1
 40
1.0
176
     1
 90
        0
176
     1
 62
    18
420
        0
176
     1
 90
       50
176
     1
 90
        3
176
     1
 62
     5
420
      255
176
     1
290
     0
176
     1
 90
       50
176
     1
 90
       50
176
     1
 90
       50
176
     1
290
     0
176
     1
 90
       50
176
     1
 62
   256
176
     0
 40
1.0
176
     0
 90
        2
176
     1
  1
strokes_ogs.tif
176
     1
290
     0
176
     1
 40
1.0
176
     1
 40
1.0
176
     1
  0
VISUALSTYLE
  5
35
102
{ACAD_REACTORS
330
2A
102
}
330
2A
100
AcDbVisualStyle
  2
Dim
 70
    11
177
     3
291
     1
 70
    58
 90
        2
176
     1
 90
        2
176
     1
 90
        0
176
     1
 90
        0
176
     1
 40
0.6
176
     1
 40
30.0
176
     1
 62
     7
420
 16777215
176
     1
 90
        1
176
     1
 90
        4
176
     1
 62
     7
176
     1
 62
   257
176
     1
 90
        1
176
     1
 90
        1
176
     1
 40
1.0
176
     1
 90
        8
176
     1
 62
     7
176
     1
 40
1.0
176
     1
 90
        1
176
     1
 90
        6
176
     1
 90
        2
176
     1
 62
     7
176
     1
 90
        5
176
     1
 90
        0
176
     1
 90
        0
176
     1
290
     0
176
     1
 90
        1
176
     1
 40
-50.0
176
     1
 90
        0
176
     1
290
     0
176
     1
290
     1
176
     1
290
     1
176
     1
290
     0
176
     1
290
     0
176
     1
290
     0
176
     1
290
     0
176
     1
290
     0
176
     1
290
     0
176
     1
 90
       50
176
     1
 40
0.0
176
     1
 40
1.0
176
     1
 90
        0
176
     1
 62
    18
420
        0
176
     1
 90
       50
176
     1
 90
        3
176
     1
 62
     5
420
      255
176
     1
290
     0
176
     1
 90
       50
176
     1
 90
       50
176
     1
 90
       50
176
     1
290
     0
176
     1
 90
       50
176
     1
 62
   256
176
     0
 40
1.0
176
     0
 90
        2
176
     1
  1
strokes_ogs.tif
176
     1
290
     0
176
     1
 40
1.0
176
     1
 40
1.0
176
     1
  0
VISUALSTYLE
  5
3D
102
{ACAD_REACTORS
330
2A
102
}
330
2A
100
AcDbVisualStyle
  2
EdgeColorOff
 70
    22
177
     3
291
     1
 70
    58
 90
        2
176
     0
 90
        2
176
     0
 90
        0
176
     0
 90
        0
176
     0
 40
0.6
176
     0
 40
30.0
176
     0
 62
     7
420
 16777215
176
     0
 90
        1
176
     0
 90
        4
176
     0
 62
     7
176
     0
 62
   257
176
     0
 90
        1
176
     0
 90
        1
176
     0
 40
1.0
176
     0
 90
        8
176
     2
 62
     7
176
     0
 40
1.0
176
     0
 90
        1
176
     0
 90
        6
176
     0
 90
        2
176
     0
 62
     7
176
     0
 90
        5
176
     0
 90
        0
176
     0
 90
        0
176
     0
290
     0
176
     0
 90
        1
176
     0
 40
0.0
176
     0
 90
        0
176
     0
290
     0
176
     0
290
     1
176
     0
290
     1
176
     0
290
     0
176
     0
290
     0
176
     0
290
     0
176
     0
290
     0
176
     0
290
     0
176
     0
290
     0
176
     0
 90
       50
176
     0
 40
0.0
176
     0
 40
1.0
176
     0
 90
        0
176
     0
 62
    18
420
        0
176
     0
 90
       50
176
     0
 90
        3
176
     0
 62
     5
420
      255
176
     0
290
     0
176
     0
 90
       50
176
     0
 90
       50
176
     0
 90
       50
176
     0
290
     0
176
     0
 90
       50
176
     0
 62
   256
176
     0
 40
1.0
176
     0
 90
        2
176
     0
  1
strokes_ogs.tif
176
     0
290
     0
176
     0
 40
1.0
176
     0
 40
1.0
176
     0
  0
VISUALSTYLE
  5
39
102
{ACAD_REACTORS
330
2A
102
}
330
2A
100
AcDbVisualStyle
  2
Facepattern
 70
    15
177
     3
291
     1
 70
    58
 90
        2
176
     1
 90
        2
176
     1
 90
        0
176
     1
 90
        0
176
     1
 40
0.6
176
     1
 40
30.0
176
     1
 62
     7
420
 16777215
176
     1
 90
        1
176
     1
 90
        4
176
     1
 62
     7
176
     1
 62
   257
176
     1
 90
        1
176
     1
 90
        1
176
     1
 40
1.0
176
     1
 90
        8
176
     1
 62
     7
176
     1
 40
1.0
176
     1
 90
        1
176
     1
 90
        6
176
     1
 90
        2
176
     1
 62
     7
176
     1
 90
        5
176
     1
 90
        0
176
     1
 90
        0
176
     1
290
     0
176
     1
 90
        1
176
     1
 40
0.0
176
     1
 90
        0
176
     1
290
     0
176
     1
290
     1
176
     1
290
     1
176
     1
290
     0
176
     1
290
     0
176
     1
290
     0
176
     1
290
     0
176
     1
290
     0
176
     1
290
     0
176
     1
 90
       50
176
     1
 40
0.0
176
     1
 40
1.0
176
     1
 90
        0
176
     1
 62
    18
420
        0
176
     1
 90
       50
176
     1
 90
        3
176
     1
 62
     5
420
      255
176
     1
290
     0
176
     1
 90
       50
176
     1
 90
       50
176
     1
 90
       50
176
     1
290
     0
176
     1
 90
       50
176
     1
 62
   256
176
     0
 40
1.0
176
     0
 90
        2
176
     1
  1
strokes_ogs.tif
176
     1
290
     0
176
     1
 40
1.0
176
     1
 40
1.0
176
     1
  0
VISUALSTYLE
  5
2B
102
{ACAD_REACTORS
330
2A
102
}
330
2A
100
AcDbVisualStyle
  2
Flat
 70
     0
177
     3
291
     1
 70
    58
 90
        2
176
     1
 90
        1
176
     1
 90
        1
176
     1
 90
        2
176
     1
 40
0.6
176
     1
 40
30.0
176
     1
 62
     7
420
 16777215
176
     1
 90
        0
176
     1
 90
        0
176
     1
 62
     7
176
     1
 62
   257
176
     1
 90
        1
176
     1
 90
        1
176
     1
 40
1.0
176
     1
 90
        8
176
     1
 62
     7
176
     1
 40
1.0
176
     1
 90
        1
176
     1
 90
        6
176
     1
 90
        2
176
     1
 62
     7
176
     1
 90
        5
176
     1
 90
        0
176
     1
 90
        0
176
     1
290
     0
176
     1
 90
       13
176
     1
 40
0.0
176
     1
 90
        0
176
     1
290
     0
176
     1
290
     1
176
     1
290
     1
176
     1
290
     0
176
     1
290
     0
176
     1
290
     0
176
     1
290
     0
176
     1
290
     0
176
     1
290
     0
176
     1
 90
       50
176
     1
 40
0.0
176
     1
 40
1.0
176
     1
 90
        0
176
     1
 62
    18
420
        0
176
     1
 90
       50
176
     1
 90
        3
176
     1
 62
     5
420
      255
176
     1
290
     0
176
     1
 90
       50
176
     1
 90
       50
176
     1
 90
       50
176
     1
290
     0
176
     1
 90
       50
176
     1
 62
   256
176
     0
 40
1.0
176
     0
 90
        2
176
     1
  1
strokes_ogs.tif
176
     1
290
     0
176
     1
 40
1.0
176
     1
 40
1.0
176
     1
  0
VISUALSTYLE
  5
2C
102
{ACAD_REACTORS
330
2A
102
}
330
2A
100
AcDbVisualStyle
  2
FlatWithEdges
 70
     1
177
     3
291
     1
 70
    58
 90
        2
176
     1
 90
        1
176
     1
 90
        1
176
     1
 90
        2
176
     1
 40
0.6
176
     1
 40
30.0
176
     1
 62
     7
420
 16777215
176
     1
 90
        1
176
     1
 90
        0
176
     1
 62
     7
176
     1
 62
   257
176
     1
 90
        1
176
     1
 90
        1
176
     1
 40
1.0
176
     1
 90
        0
176
     1
 62
   257
176
     1
 40
1.0
176
     1
 90
        1
176
     1
 90
        6
176
     1
 90
        2
176
     1
 62
     7
176
     1
 90
        5
176
     1
 90
        0
176
     1
 90
        0
176
     1
290
     0
176
     1
 90
       13
176
     1
 40
0.0
176
     1
 90
        0
176
     1
290
     0
176
     1
290
     1
176
     1
290
     1
176
     1
290
     0
176
     1
290
     0
176
     1
290
     0
176
     1
290
     0
176
     1
290
     0
176
     1
290
     0
176
     1
 90
       50
176
     1
 40
0.0
176
     1
 40
1.0
176
     1
 90
        0
176
     1
 62
    18
420
        0
176
     1
 90
       50
176
     1
 90
        3
176
     1
 62
     5
420
      255
176
     1
290
     0
176
     1
 90
       50
176
     1
 90
       50
176
     1
 90
       50
176
     1
290
     0
176
     1
 90
       50
176
     1
 62
   256
176
     0
 40
1.0
176
     0
 90
        2
176
     1
  1
strokes_ogs.tif
176
     1
290
     0
176
     1
 40
1.0
176
     1
 40
1.0
176
     1
  0
VISUALSTYLE
  5
2D
102
{ACAD_REACTORS
330
2A
102
}
330
2A
100
AcDbVisualStyle
  2
Gouraud
 70
     2
177
     3
291
     1
 70
    58
 90
        2
176
     1
 90
        2
176
     1
 90
        1
176
     1
 90
        2
176
     1
 40
0.6
176
     1
 40
30.0
176
     1
 62
     7
420
 16777215
176
     1
 90
        0
176
     1
 90
        0
176
     1
 62
     7
176
     1
 62
   257
176
     1
 90
        1
176
     1
 90
        1
176
     1
 40
1.0
176
     1
 90
        0
176
     1
 62
     7
176
     1
 40
1.0
176
     1
 90
        1
176
     1
 90
        6
176
     1
 90
        2
176
     1
 62
     7
176
     1
 90
        5
176
     1
 90
        0
176
     1
 90
        0
176
     1
290
     0
176
     1
 90
       13
176
     1
 40
0.0
176
     1
 90
        0
176
     1
290
     0
176
     1
290
     1
176
     1
290
     1
176
     1
290
     0
176
     1
290
     0
176
     1
290
     0
176
     1
290
     0
176
     1
290
     0
176
     1
290
     0
176
     1
 90
       50
176
     1
 40
0.0
176
     1
 40
1.0
176
     1
 90
        0
176
     1
 62
    18
420
        0
176
     1
 90
       50
176
     1
 90
        3
176
     1
 62
     5
420
      255
176
     1
290
     0
176
     1
 90
       50
176
     1
 90
       50
176
     1
 90
       50
176
     1
290
     0
176
     1
 90
       50
176
     1
 62
   256
176
     0
 40
1.0
176
     0
 90
        2
176
     1
  1
strokes_ogs.tif
176
     1
290
     0
176
     1
 40
1.0
176
     1
 40
1.0
176
     1
  0
VISUALSTYLE
  5
2E
102
{ACAD_REACTORS
330
2A
102
}
330
2A
100
AcDbVisualStyle
  2
GouraudWithEdges
 70
     3
177
     3
291
     1
 70
    58
 90
        2
176
     1
 90
        2
176
     1
 90
        1
176
     1
 90
        2
176
     1
 40
0.6
176
     1
 40
30.0
176
     1
 62
     7
420
 16777215
176
     1
 90
        1
176
     1
 90
        0
176
     1
 62
     7
176
     1
 62
   257
176
     1
 90
        1
176
     1
 90
        1
176
     1
 40
1.0
176
     1
 90
        0
176
     1
 62
   257
176
     1
 40
1.0
176
     1
 90
        1
176
     1
 90
        6
176
     1
 90
        2
176
     1
 62
     7
176
     1
 90
        5
176
     1
 90
        0
176
     1
 90
        0
176
     1
290
     0
176
     1
 90
       13
176
     1
 40
0.0
176
     1
 90
        0
176
     1
290
     0
176
     1
290
     1
176
     1
290
     1
176
     1
290
     0
176
     1
290
     0
176
     1
290
     0
176
     1
290
     0
176
     1
290
     0
176
     1
290
     0
176
     1
 90
       50
176
     1
 40
0.0
176
     1
 40
1.0
176
     1
 90
        0
176
     1
 62
    18
420
        0
176
     1
 90
       50
176
     1
 90
        3
176
     1
 62
     5
420
      255
176
     1
290
     0
176
     1
 90
       50
176
     1
 90
       50
176
     1
 90
       50
176
     1
290
     0
176
     1
 90
       50
176
     1
 62
   256
176
     0
 40
1.0
176
     0
 90
        2
176
     1
  1
strokes_ogs.tif
176
     1
290
     0
176
     1
 40
1.0
176
     1
 40
1.0
176
     1
  0
VISUALSTYLE
  5
31
102
{ACAD_REACTORS
330
2A
102
}
330
2A
100
AcDbVisualStyle
  2
Hidden
 70
     6
177
     3
291
     0
 70
    58
 90
        1
176
     1
 90
        2
176
     1
 90
        2
176
     1
 90
        0
176
     1
 40
0.6
176
     1
 40
30.0
176
     1
 62
     7
420
 16777215
176
     1
 90
        2
176
     1
 90
        2
176
     1
 62
     7
176
     1
 62
   257
176
     1
 90
        2
176
     1
 90
        1
176
     1
 40
40.0
176
     1
 90
        0
176
     1
 62
   257
176
     1
 40
1.0
176
     1
 90
        1
176
     1
 90
        6
176
     1
 90
        2
176
     1
 62
     7
176
     1
 90
        3
176
     1
 90
        0
176
     1
 90
        0
176
     1
290
     0
176
     1
 90
        1
176
     1
 40
0.0
176
     1
 90
        0
176
     1
290
     0
176
     1
290
     1
176
     1
290
     1
176
     1
290
     0
176
     1
290
     0
176
     1
290
     0
176
     1
290
     0
176
     1
290
     0
176
     1
290
     0
176
     1
 90
       50
176
     1
 40
0.0
176
     1
 40
1.0
176
     1
 90
        0
176
     1
 62
    18
420
        0
176
     1
 90
       50
176
     1
 90
        3
176
     1
 62
     5
420
      255
176
     1
290
     0
176
     1
 90
       50
176
     1
 90
       50
176
     1
 90
       50
176
     1
290
     0
176
     1
 90
       50
176
     1
 62
   256
176
     0
 40
1.0
176
     0
 90
        2
176
     1
  1
strokes_ogs.tif
176
     1
290
     0
176
     1
 40
1.0
176
     1
 40
1.0
176
     1
  0
VISUALSTYLE
  5
3B
102
{ACAD_REACTORS
330
2A
102
}
330
2A
100
AcDbVisualStyle
  2
JitterOff
 70
    20
177
     3
291
     1
 70
    58
 90
        2
176
     0
 90
        2
176
     0
 90
        0
176
     0
 90
        0
176
     0
 40
0.6
176
     0
 40
30.0
176
     0
 62
     7
420
 16777215
176
     0
 90
        1
176
     0
 90
        4
176
     0
 62
     7
176
     0
 62
   257
176
     0
 90
        1
176
     0
 90
        1
176
     0
 40
1.0
176
     0
 90
       10
176
     2
 62
     7
176
     0
 40
1.0
176
     0
 90
        1
176
     0
 90
        6
176
     0
 90
        2
176
     0
 62
     7
176
     0
 90
        5
176
     0
 90
        0
176
     0
 90
        0
176
     0
290
     0
176
     0
 90
        1
176
     0
 40
0.0
176
     0
 90
        0
176
     0
290
     0
176
     0
290
     1
176
     0
290
     1
176
     0
290
     0
176
     0
290
     0
176
     0
290
     0
176
     0
290
     0
176
     0
290
     0
176
     0
290
     0
176
     0
 90
       50
176
     0
 40
0.0
176
     0
 40
1.0
176
     0
 90
        0
176
     0
 62
    18
420
        0
176
     0
 90
       50
176
     0
 90
        3
176
     0
 62
     5
420
      255
176
     0
290
     0
176
     0
 90
       50
176
     0
 90
       50
176
     0
 90
       50
176
     0
290
     0
176
     0
 90
       50
176
     0
 62
   256
176
     0
 40
1.0
176
     0
 90
        2
176
     0
  1
strokes_ogs.tif
176
     0
290
     0
176
     0
 40
1.0
176
     0
 40
1.0
176
     0
  0
VISUALSTYLE
  5
38
102
{ACAD_REACTORS
330
2A
102
}
330
2A
100
AcDbVisualStyle
  2
Linepattern
 70
    14
177
     3
291
     1
 70
    58
 90
        2
176
     1
 90
        2
176
     1
 90
        0
176
     1
 90
        0
176
     1
 40
0.6
176
     1
 40
30.0
176
     1
 62
     7
420
 16777215
176
     1
 90
        1
176
     1
 90
        4
176
     1
 62
     7
176
     1
 62
   257
176
     1
 90
        7
176
     1
 90
        7
176
     1
 40
1.0
176
     1
 90
        8
176
     1
 62
     7
176
     1
 40
1.0
176
     1
 90
        1
176
     1
 90
        6
176
     1
 90
        2
176
     1
 62
     7
176
     1
 90
        5
176
     1
 90
        0
176
     1
 90
        0
176
     1
290
     0
176
     1
 90
        1
176
     1
 40
0.0
176
     1
 90
        0
176
     1
290
     0
176
     1
290
     1
176
     1
290
     1
176
     1
290
     0
176
     1
290
     0
176
     1
290
     0
176
     1
290
     0
176
     1
290
     0
176
     1
290
     0
176
     1
 90
       50
176
     1
 40
0.0
176
     1
 40
1.0
176
     1
 90
        0
176
     1
 62
    18
420
        0
176
     1
 90
       50
176
     1
 90
        3
176
     1
 62
     5
420
      255
176
     1
290
     0
176
     1
 90
       50
176
     1
 90
       50
176
     1
 90
       50
176
     1
290
     0
176
     1
 90
       50
176
     1
 62
   256
176
     0
 40
1.0
176
     0
 90
        2
176
     1
  1
strokes_ogs.tif
176
     1
290
     0
176
     1
 40
1.0
176
     1
 40
1.0
176
     1
  0
VISUALSTYLE
  5
3C
102
{ACAD_REACTORS
330
2A
102
}
330
2A
100
AcDbVisualStyle
  2
OverhangOff
 70
    21
177
     3
291
     1
 70
    58
 90
        2
176
     0
 90
        2
176
     0
 90
        0
176
     0
 90
        0
176
     0
 40
0.6
176
     0
 40
30.0
176
     0
 62
     7
420
 16777215
176
     0
 90
        1
176
     0
 90
        4
176
     0
 62
     7
176
     0
 62
   257
176
     0
 90
        1
176
     0
 90
        1
176
     0
 40
1.0
176
     0
 90
        9
176
     2
 62
     7
176
     0
 40
1.0
176
     0
 90
        1
176
     0
 90
        6
176
     0
 90
        2
176
     0
 62
     7
176
     0
 90
        5
176
     0
 90
        0
176
     0
 90
        0
176
     0
290
     0
176
     0
 90
        1
176
     0
 40
0.0
176
     0
 90
        0
176
     0
290
     0
176
     0
290
     1
176
     0
290
     1
176
     0
290
     0
176
     0
290
     0
176
     0
290
     0
176
     0
290
     0
176
     0
290
     0
176
     0
290
     0
176
     0
 90
       50
176
     0
 40
0.0
176
     0
 40
1.0
176
     0
 90
        0
176
     0
 62
    18
420
        0
176
     0
 90
       50
176
     0
 90
        3
176
     0
 62
     5
420
      255
176
     0
290
     0
176
     0
 90
       50
176
     0
 90
       50
176
     0
 90
       50
176
     0
290
     0
176
     0
 90
       50
176
     0
 62
   256
176
     0
 40
1.0
176
     0
 90
        2
176
     0
  1
strokes_ogs.tif
176
     0
290
     0
176
     0
 40
1.0
176
     0
 40
1.0
176
     0
  0
VISUALSTYLE
  5
33
102
{ACAD_REACTORS
330
2A
102
}
330
2A
100
AcDbVisualStyle
  2
Realistic
 70
     8
177
     3
291
     0
 70
    58
 90
        2
176
     1
 90
        3
176
     1
 90
        0
176
     1
 90
        2
176
     1
 40
0.6
176
     1
 40
30.0
176
     1
 62
     7
420
 16777215
176
     1
 90
        0
176
     1
 90
        0
176
     1
 62
     7
176
     1
 62
   257
176
     1
 90
        1
176
     1
 90
        1
176
     1
 40
1.0
176
     1
 90
        8
176
     1
 62
   257
176
     1
 40
1.0
176
     1
 90
        1
176
     1
 90
        6
176
     1
 90
        2
176
     1
 62
     7
176
     1
 90
        3
176
     1
 90
        0
176
     1
 90
        0
176
     1
290
     0
176
     1
 90
       13
176
     1
 40
0.0
176
     1
 90
        0
176
     1
290
     0
176
     1
290
     1
176
     1
290
     1
176
     1
290
     0
176
     1
290
     0
176
     1
290
     0
176
     1
290
     0
176
     1
290
     0
176
     1
290
     0
176
     1
 90
       50
176
     1
 40
0.0
176
     1
 40
1.0
176
     1
 90
        0
176
     1
 62
    18
420
        0
176
     1
 90
       50
176
     1
 90
        3
176
     1
 62
     5
420
      255
176
     1
290
     0
176
     1
 90
       50
176
     1
 90
       50
176
     1
 90
       50
176
     1
290
     0
176
     1
 90
       50
176
     1
 62
   256
176
     0
 40
1.0
176
     0
 90
        2
176
     1
  1
strokes_ogs.tif
176
     1
290
     0
176
     1
 40
1.0
176
     1
 40
1.0
176
     1
  0
VISUALSTYLE
  5
42
102
{ACAD_REACTORS
330
2A
102
}
330
2A
100
AcDbVisualStyle
  2
Shaded
 70
    27
177
     3
291
     0
 70
    58
 90
        2
176
     1
 90
        2
176
     1
 90
        1
176
     1
 90
        2
176
     1
 40
0.6
176
     1
 40
30.0
176
     1
 62
     7
420
 16777215
176
     1
 90
        0
176
     1
 90
        4
176
     1
 62
     7
176
     1
 62
   257
176
     1
 90
        1
176
     1
 90
        1
176
     1
 40
1.0
176
     1
 90
        8
176
     1
 62
   257
176
     1
 40
1.0
176
     1
 90
        1
176
     1
 90
        6
176
     1
 90
        2
176
     1
 62
     8
420
  7895160
176
     1
 90
        3
176
     1
 90
        0
176
     1
 90
        0
176
     1
290
     0
176
     1
 90
        5
176
     1
 40
0.0
176
     1
 90
        0
176
     1
290
     0
176
     1
290
     1
176
     1
290
     1
176
     1
290
     0
176
     1
290
     0
176
     1
290
     0
176
     1
290
     0
176
     1
290
     0
176
     1
290
     0
176
     1
 90
       50
176
     1
 40
0.0
176
     1
 40
1.0
176
     1
 90
        0
176
     1
 62
    18
420
        0
176
     1
 90
       50
176
     1
 90
        3
176
     1
 62
     5
420
      255
176
     1
290
     0
176
     1
 90
       50
176
     1
 90
       50
176
     1
 90
       50
176
     1
290
     0
176
     1
 90
       50
176
     1
 62
   256
176
     0
 40
1.0
176
     0
 90
        2
176
     1
  1
strokes_ogs.tif
176
     1
290
     0
176
     1
 40
1.0
176
     1
 40
1.0
176
     1
  0
VISUALSTYLE
  5
41
102
{ACAD_REACTORS
330
2A
102
}
330
2A
100
AcDbVisualStyle
  2
Shaded with edges
 70
    26
177
     3
291
     0
 70
    58
 90
        2
176
     1
 90
        2
176
     1
 90
        1
176
     1
 90
        2
176
     1
 40
0.6
176
     1
 40
30.0
176
     1
 62
     7
420
 16777215
176
     1
 90
        1
176
     1
 90
       10
176
     1
 62
     7
176
     1
 62
   257
176
     1
 90
        2
176
     1
 90
        1
176
     1
 40
1.0
176
     1
 90
        8
176
     1
 62
   257
176
     1
 40
1.0
176
     1
 90
        1
176
     1
 90
        6
176
     1
 90
        2
176
     1
 62
     7
176
     1
 90
        3
176
     1
 90
        0
176
     1
 90
        0
176
     1
290
     0
176
     1
 90
        5
176
     1
 40
0.0
176
     1
 90
        0
176
     1
290
     0
176
     1
290
     1
176
     1
290
     1
176
     1
290
     0
176
     1
290
     0
176
     1
290
     0
176
     1
290
     0
176
     1
290
     0
176
     1
290
     0
176
     1
 90
       50
176
     1
 40
0.0
176
     1
 40
1.0
176
     1
 90
        0
176
     1
 62
    18
420
        0
176
     1
 90
       50
176
     1
 90
        3
176
     1
 62
     5
420
      255
176
     1
290
     0
176
     1
 90
       50
176
     1
 90
       50
176
     1
 90
       50
176
     1
290
     0
176
     1
 90
       50
176
     1
 62
   256
176
     0
 40
1.0
176
     0
 90
        2
176
     1
  1
strokes_ogs.tif
176
     1
290
     0
176
     1
 40
1.0
176
     1
 40
1.0
176
     1
  0
VISUALSTYLE
  5
3E
102
{ACAD_REACTORS
330
2A
102
}
330
2A
100
AcDbVisualStyle
  2
Shades of Gray
 70
    23
177
     3
291
     0
 70
    58
 90
        2
176
     1
 90
        2
176
     1
 90
        3
176
     1
 90
        0
176
     1
 40
0.6
176
     1
 40
30.0
176
     1
 62
     7
420
 16777215
176
     1
 90
        2
176
     1
 90
        2
176
     1
 62
     7
176
     1
 62
     7
176
     1
 90
        1
176
     1
 90
        1
176
     1
 40
40.0
176
     1
 90
        8
176
     1
 62
     7
176
     1
 40
1.0
176
     1
 90
        1
176
     1
 90
        6
176
     1
 90
        2
176
     1
 62
     7
176
     1
 90
        3
176
     1
 90
        0
176
     1
 90
        0
176
     1
290
     0
176
     1
 90
        1
176
     1
 40
0.0
176
     1
 90
        0
176
     1
290
     0
176
     1
290
     1
176
     1
290
     1
176
     1
290
     0
176
     1
290
     0
176
     1
290
     0
176
     1
290
     0
176
     1
290
     0
176
     1
290
     0
176
     1
 90
       50
176
     1
 40
0.0
176
     1
 40
1.0
176
     1
 90
        0
176
     1
 62
    18
420
        0
176
     1
 90
       50
176
     1
 90
        3
176
     1
 62
     5
420
      255
176
     1
290
     0
176
     1
 90
       50
176
     1
 90
       50
176
     1
 90
       50
176
     1
290
     0
176
     1
 90
       50
176
     1
 62
   256
176
     0
 40
1.0
176
     0
 90
        2
176
     1
  1
strokes_ogs.tif
176
     1
290
     0
176
     1
 40
1.0
176
     1
 40
1.0
176
     1
  0
VISUALSTYLE
  5
3F
102
{ACAD_REACTORS
330
2A
102
}
330
2A
100
AcDbVisualStyle
  2
Sketchy
 70
    24
177
     3
291
     0
 70
    58
 90
        1
176
     1
 90
        2
176
     1
 90
        2
176
     1
 90
        0
176
     1
 40
0.6
176
     1
 40
30.0
176
     1
 62
     7
420
 16777215
176
     1
 90
        2
176
     1
 90
        2
176
     1
 62
     7
176
     1
 62
     7
176
     1
 90
        1
176
     1
 90
        1
176
     1
 40
40.0
176
     1
 90
       11
176
     1
 62
     7
176
     1
 40
1.0
176
     1
 90
        1
176
     1
 90
        6
176
     1
 90
        2
176
     1
 62
     7
176
     1
 90
        6
176
     1
 90
        0
176
     1
 90
        0
176
     1
290
     0
176
     1
 90
        1
176
     1
 40
0.0
176
     1
 90
        0
176
     1
290
     0
176
     1
290
     1
176
     1
290
     1
176
     1
290
     0
176
     1
290
     0
176
     1
290
     0
176
     1
290
     0
176
     1
290
     0
176
     1
290
     0
176
     1
 90
       50
176
     1
 40
0.0
176
     1
 40
1.0
176
     1
 90
        0
176
     1
 62
    18
420
        0
176
     1
 90
       50
176
     1
 90
        3
176
     1
 62
     5
420
      255
176
     1
290
     0
176
     1
 90
       50
176
     1
 90
       50
176
     1
 90
       50
176
     1
290
     0
176
     1
 90
       50
176
     1
 62
   256
176
     0
 40
1.0
176
     0
 90
        2
176
     1
  1
strokes_ogs.tif
176
     1
290
     0
176
     1
 40
1.0
176
     1
 40
1.0
176
     1
  0
VISUALSTYLE
  5
37
102
{ACAD_REACTORS
330
2A
102
}
330
2A
100
AcDbVisualStyle
  2
Thicken
 70
    13
177
     3
291
     1
 70
    58
 90
        2
176
     1
 90
        2
176
     1
 90
        0
176
     1
 90
        0
176
     1
 40
0.6
176
     1
 40
30.0
176
     1
 62
     7
420
 16777215
176
     1
 90
        1
176
     1
 90
        4
176
     1
 62
     7
176
     1
 62
   257
176
     1
 90
        1
176
     1
 90
        1
176
     1
 40
1.0
176
     1
 90
       12
176
     1
 62
     7
176
     1
 40
1.0
176
     1
 90
        1
176
     1
 90
        6
176
     1
 90
        2
176
     1
 62
     7
176
     1
 90
        5
176
     1
 90
        0
176
     1
 90
        0
176
     1
290
     0
176
     1
 90
        1
176
     1
 40
0.0
176
     1
 90
        0
176
     1
290
     0
176
     1
290
     1
176
     1
290
     1
176
     1
290
     0
176
     1
290
     0
176
     1
290
     0
176
     1
290
     0
176
     1
290
     0
176
     1
290
     0
176
     1
 90
       50
176
     1
 40
0.0
176
     1
 40
1.0
176
     1
 90
        0
176
     1
 62
    18
420
        0
176
     1
 90
       50
176
     1
 90
        3
176
     1
 62
     5
420
      255
176
     1
290
     0
176
     1
 90
       50
176
     1
 90
       50
176
     1
 90
       50
176
     1
290
     0
176
     1
 90
       50
176
     1
 62
   256
176
     0
 40
1.0
176
     0
 90
        2
176
     1
  1
strokes_ogs.tif
176
     1
290
     0
176
     1
 40
1.0
176
     1
 40
1.0
176
     1
  0
VISUALSTYLE
  5
30
102
{ACAD_REACTORS
330
2A
102
}
330
2A
100
AcDbVisualStyle
  2
Wireframe
 70
     5
177
     3
291
     0
 70
    58
 90
        0
176
     1
 90
        2
176
     1
 90
        0
176
     1
 90
        0
176
     1
 40
0.6
176
     1
 40
30.0
176
     1
 62
     7
420
 16777215
176
     1
 90
        1
176
     1
 90
        4
176
     1
 62
     7
176
     1
 62
   257
176
     1
 90
        1
176
     1
 90
        1
176
     1
 40
1.0
176
     1
 90
        0
176
     1
 62
   257
176
     1
 40
1.0
176
     1
 90
        1
176
     1
 90
        6
176
     1
 90
        2
176
     1
 62
     7
176
     1
 90
        3
176
     1
 90
        0
176
     1
 90
        0
176
     1
290
     0
176
     1
 90
        1
176
     1
 40
0.0
176
     1
 90
        0
176
     1
290
     0
176
     1
290
     1
176
     1
290
     1
176
     1
290
     0
176
     1
290
     0
176
     1
290
     0
176
     1
290
     0
176
     1
290
     0
176
     1
290
     0
176
     1
 90
       50
176
     1
 40
0.0
176
     1
 40
1.0
176
     1
 90
        0
176
     1
 62
    18
420
        0
176
     1
 90
       50
176
     1
 90
        3
176
     1
 62
     5
420
      255
176
     1
290
     0
176
     1
 90
       50
176
     1
 90
       50
176
     1
 90
       50
176
     1
290
     0
176
     1
 90
       50
176
     1
 62
   256
176
     0
 40
1.0
176
     0
 90
        2
176
     1
  1
strokes_ogs.tif
176
     1
290
     0
176
     1
 40
1.0
176
     1
 40
1.0
176
     1
  0
VISUALSTYLE
  5
40
102
{ACAD_REACTORS
330
2A
102
}
330
2A
100
AcDbVisualStyle
  2
X-Ray
 70
    25
177
     3
291
     0
 70
    58
 90
        2
176
     1
 90
        2
176
     1
 90
        1
176
     1
 90
        1
176
     1
 40
0.5
176
     1
 40
30.0
176
     1
 62
     7
420
 16777215
176
     1
 90
        1
176
     1
 90
        0
176
     1
 62
     7
176
     1
 62
   257
176
     1
 90
        1
176
     1
 90
        1
176
     1
 40
1.0
176
     1
 90
        8
176
     1
 62
     7
176
     1
 40
1.0
176
     1
 90
        1
176
     1
 90
        6
176
     1
 90
        2
176
     1
 62
     7
176
     1
 90
        3
176
     1
 90
        0
176
     1
 90
        0
176
     1
290
     0
176
     1
 90
       13
176
     1
 40
0.0
176
     1
 90
        0
176
     1
290
     0
176
     1
290
     1
176
     1
290
     1
176
     1
290
     0
176
     1
290
     0
176
     1
290
     0
176
     1
290
     0
176
     1
290
     0
176
     1
290
     0
176
     1
 90
       50
176
     1
 40
0.0
176
     1
 40
1.0
176
     1
 90
        0
176
     1
 62
    18
420
        0
176
     1
 90
       50
176
     1
 90
        3
176
     1
 62
     5
420
      255
176
     1
290
     0
176
     1
 90
       50
176
     1
 90
       50
176
     1
 90
       50
176
     1
290
     0
176
     1
 90
       50
176
     1
 62
   256
176
     0
 40
1.0
176
     0
 90
        2
176
     1
  1
strokes_ogs.tif
176
     1
290
     0
176
     1
 40
1.0
176
     1
 40
1.0
176
     1
  0
DICTIONARYVAR
  5
2B0
102
{ACAD_REACTORS
330
2AF
102
}
330
2AF
100
DictionaryVariables
280
     0
  1
1:1
  0
ENDSEC
  0
EOF
