  0
SECTION
  2
HEADER
  9
$ACADVER
  1
AC1027
  9
$ACADMAINTVER
 70
     8
  9
$DWGCODEPAGE
  3
ANSI_932
  9
$REQUIREDVERSIONS
160
                 0
  9
$INSBASE
 10
0.0
 20
0.0
 30
0.0
  9
$EXTMIN
 10
132.8097274222491
 20
71.82860273628467
 30
0.0
  9
$EXTMAX
 10
751.182837362654
 20
460.4620770423741
 30
0.0
  9
$LIMMIN
 10
0.0
 20
0.0
  9
$LIMMAX
 10
420.0
 20
297.0
  9
$ORTHOMODE
 70
     0
  9
$REGENMODE
 70
     1
  9
$FILLMODE
 70
     1
  9
$QTEXTMODE
 70
     0
  9
$MIRRTEXT
 70
     1
  9
$LTSCALE
 40
0.5
  9
$ATTMODE
 70
     1
  9
$TEXTSIZE
 40
5.6
  9
$TRACEWID
 40
0.05
  9
$TEXTSTYLE
  7
Standard
  9
$CLAYER
  8
0
  9
$CELTYPE
  6
ByLayer
  9
$CECOLOR
 62
   256
  9
$CELTSCALE
 40
1.0
  9
$DISPSILH
 70
     0
  9
$DIMSCALE
 40
1.0
  9
$DIMASZ
 40
1.55291427
  9
$DIMEXO
 40
2.0
  9
$DIMDLI
 40
30.0
  9
$DIMRND
 40
0.0
  9
$DIMDLE
 40
0.0
  9
$DIMEXE
 40
2.0
  9
$DIMTP
 40
0.0
  9
$DIMTM
 40
0.0
  9
$DIMTXT
 40
2.8
  9
$DIMCEN
 40
0.09
  9
$DIMTSZ
 40
0.0
  9
$DIMTOL
 70
     0
  9
$DIMLIM
 70
     0
  9
$DIMTIH
 70
     0
  9
$DIMTOH
 70
     0
  9
$DIMSE1
 70
     0
  9
$DIMSE2
 70
     0
  9
$DIMTAD
 70
     3
  9
$DIMZIN
 70
     8
  9
$DIMBLK
  1

  9
$DIMASO
 70
     1
  9
$DIMSHO
 70
     1
  9
$DIMPOST
  1

  9
$DIMAPOST
  1

  9
$DIMALT
 70
     0
  9
$DIMALTD
 70
     2
  9
$DIMALTF
 40
25.4
  9
$DIMLFAC
 40
1.0
  9
$DIMTOFL
 70
     1
  9
$DIMTVP
 40
0.7
  9
$DIMTIX
 70
     0
  9
$DIMSOXD
 70
     0
  9
$DIMSAH
 70
     0
  9
$DIMBLK1
  1

  9
$DIMBLK2
  1

  9
$DIMSTYLE
  2
Standard
  9
$DIMCLRD
 70
     0
  9
$DIMCLRE
 70
     0
  9
$DIMCLRT
 70
     0
  9
$DIMTFAC
 40
0.5
  9
$DIMGAP
 40
0.09
  9
$DIMJUST
 70
     0
  9
$DIMSD1
 70
     0
  9
$DIMSD2
 70
     0
  9
$DIMTOLJ
 70
     1
  9
$DIMTZIN
 70
     8
  9
$DIMALTZ
 70
     0
  9
$DIMALTTZ
 70
     0
  9
$DIMUPT
 70
     1
  9
$DIMDEC
 70
     2
  9
$DIMTDEC
 70
     4
  9
$DIMALTU
 70
     2
  9
$DIMALTTD
 70
     2
  9
$DIMTXSTY
  7
Standard
  9
$DIMAUNIT
 70
     0
  9
$DIMADEC
 70
     0
  9
$DIMALTRND
 40
0.0
  9
$DIMAZIN
 70
     0
  9
$DIMDSEP
 70
    46
  9
$DIMATFIT
 70
     2
  9
$DIMFRAC
 70
     0
  9
$DIMLDRBLK
  1

  9
$DIMLUNIT
 70
     2
  9
$DIMLWD
 70
    -2
  9
$DIMLWE
 70
    -2
  9
$DIMTMOVE
 70
     2
  9
$DIMFXL
 40
1.0
  9
$DIMFXLON
 70
     0
  9
$DIMJOGANG
 40
0.7853981633974483
  9
$DIMTFILL
 70
     0
  9
$DIMTFILLCLR
 70
     0
  9
$DIMARCSYM
 70
     0
  9
$DIMLTYPE
  6

  9
$DIMLTEX1
  6

  9
$DIMLTEX2
  6

  9
$DIMTXTDIRECTION
 70
     0
  9
$LUNITS
 70
     2
  9
$LUPREC
 70
     4
  9
$SKETCHINC
 40
0.1
  9
$FILLETRAD
 40
0.5
  9
$AUNITS
 70
     0
  9
$AUPREC
 70
     0
  9
$MENU
  1
.
  9
$ELEVATION
 40
0.0
  9
$PELEVATION
 40
0.0
  9
$THICKNESS
 40
0.0
  9
$LIMCHECK
 70
     0
  9
$CHAMFERA
 40
0.0
  9
$CHAMFERB
 40
0.0
  9
$CHAMFERC
 40
0.0
  9
$CHAMFERD
 40
0.0
  9
$SKPOLY
 70
     0
  9
$TDCREATE
 40
2460054.015787037
  9
$TDUCREATE
 40
2460053.640787037
  9
$TDUPDATE
 40
2460053.64079191
  9
$TDUUPDATE
 40
2460053.26579191
  9
$TDINDWG
 40
0.0000000116
  9
$TDUSRTIMER
 40
0.0000000116
  9
$USRTIMER
 70
     1
  9
$ANGBASE
 50
0.0
  9
$ANGDIR
 70
     0
  9
$PDMODE
 70
     0
  9
$PDSIZE
 40
0.0
  9
$PLINEWID
 40
0.0
  9
$SPLFRAME
 70
     0
  9
$SPLINETYPE
 70
     6
  9
$SPLINESEGS
 70
     8
  9
$HANDSEED
  5
280
  9
$SURFTAB1
 70
     6
  9
$SURFTAB2
 70
     6
  9
$SURFTYPE
 70
     6
  9
$SURFU
 70
     6
  9
$SURFV
 70
     6
  9
$UCSBASE
  2

  9
$UCSNAME
  2

  9
$UCSORG
 10
0.0
 20
0.0
 30
0.0
  9
$UCSXDIR
 10
1.0
 20
0.0
 30
0.0
  9
$UCSYDIR
 10
0.0
 20
1.0
 30
0.0
  9
$UCSORTHOREF
  2

  9
$UCSORTHOVIEW
 70
     0
  9
$UCSORGTOP
 10
0.0
 20
0.0
 30
0.0
  9
$UCSORGBOTTOM
 10
0.0
 20
0.0
 30
0.0
  9
$UCSORGLEFT
 10
0.0
 20
0.0
 30
0.0
  9
$UCSORGRIGHT
 10
0.0
 20
0.0
 30
0.0
  9
$UCSORGFRONT
 10
0.0
 20
0.0
 30
0.0
  9
$UCSORGBACK
 10
0.0
 20
0.0
 30
0.0
  9
$PUCSBASE
  2

  9
$PUCSNAME
  2

  9
$PUCSORG
 10
0.0
 20
0.0
 30
0.0
  9
$PUCSXDIR
 10
1.0
 20
0.0
 30
0.0
  9
$PUCSYDIR
 10
0.0
 20
1.0
 30
0.0
  9
$PUCSORTHOREF
  2

  9
$PUCSORTHOVIEW
 70
     0
  9
$PUCSORGTOP
 10
0.0
 20
0.0
 30
0.0
  9
$PUCSORGBOTTOM
 10
0.0
 20
0.0
 30
0.0
  9
$PUCSORGLEFT
 10
0.0
 20
0.0
 30
0.0
  9
$PUCSORGRIGHT
 10
0.0
 20
0.0
 30
0.0
  9
$PUCSORGFRONT
 10
0.0
 20
0.0
 30
0.0
  9
$PUCSORGBACK
 10
0.0
 20
0.0
 30
0.0
  9
$USERI1
 70
     0
  9
$USERI2
 70
     0
  9
$USERI3
 70
     0
  9
$USERI4
 70
     0
  9
$USERI5
 70
     0
  9
$USERR1
 40
0.0
  9
$USERR2
 40
0.0
  9
$USERR3
 40
0.0
  9
$USERR4
 40
0.0
  9
$USERR5
 40
0.0
  9
$WORLDVIEW
 70
     1
  9
$SHADEDGE
 70
     3
  9
$SHADEDIF
 70
    70
  9
$TILEMODE
 70
     1
  9
$MAXACTVP
 70
    64
  9
$PINSBASE
 10
0.0
 20
0.0
 30
0.0
  9
$PLIMCHECK
 70
     0
  9
$PEXTMIN
 10
0.0
 20
0.0
 30
0.0
  9
$PEXTMAX
 10
420.0
 20
297.0
 30
0.0
  9
$PLIMMIN
 10
0.0
 20
0.0
  9
$PLIMMAX
 10
420.0
 20
297.0
  9
$UNITMODE
 70
     0
  9
$VISRETAIN
 70
     1
  9
$PLINEGEN
 70
     0
  9
$PSLTSCALE
 70
     1
  9
$TREEDEPTH
 70
  3020
  9
$CMLSTYLE
  2
Standard
  9
$CMLJUST
 70
     0
  9
$CMLSCALE
 40
1.0
  9
$PROXYGRAPHICS
 70
     1
  9
$MEASUREMENT
 70
     1
  9
$CELWEIGHT
370
    -1
  9
$ENDCAPS
280
     0
  9
$JOINSTYLE
280
     0
  9
$LWDISPLAY
290
     0
  9
$INSUNITS
 70
     4
  9
$HYPERLINKBASE
  1

  9
$STYLESHEET
  1

  9
$XEDIT
290
     1
  9
$CEPSNTYPE
380
     0
  9
$PSTYLEMODE
290
     1
  9
$FINGERPRINTGUID
  2
{1ECB6355-A2F3-4F60-AC7F-A317F6D674FA}
  9
$VERSIONGUID
  2
{FAEB1C32-E019-11D5-929B-00C0DF256EC4}
  9
$EXTNAMES
290
     1
  9
$PSVPSCALE
 40
0.0
  9
$OLESTARTUP
290
     0
  9
$SORTENTS
280
   127
  9
$INDEXCTL
280
     0
  9
$HIDETEXT
280
     1
  9
$XCLIPFRAME
280
     2
  9
$HALOGAP
280
     0
  9
$OBSCOLOR
 70
   257
  9
$OBSLTYPE
280
     0
  9
$INTERSECTIONDISPLAY
280
     0
  9
$INTERSECTIONCOLOR
 70
   257
  9
$DIMASSOC
280
     1
  9
$PROJECTNAME
  1

  9
$CAMERADISPLAY
290
     0
  9
$LENSLENGTH
 40
50.0
  9
$CAMERAHEIGHT
 40
0.0
  9
$STEPSPERSEC
 40
2.0
  9
$STEPSIZE
 40
6.0
  9
$3DDWFPREC
 40
2.0
  9
$PSOLWIDTH
 40
0.25
  9
$PSOLHEIGHT
 40
4.0
  9
$LOFTANG1
 40
1.570796326794897
  9
$LOFTANG2
 40
1.570796326794897
  9
$LOFTMAG1
 40
0.0
  9
$LOFTMAG2
 40
0.0
  9
$LOFTPARAM
 70
     7
  9
$LOFTNORMALS
280
     1
  9
$LATITUDE
 40
37.795
  9
$LONGITUDE
 40
-122.394
  9
$NORTHDIRECTION
 40
0.0
  9
$TIMEZONE
 70
 -8000
  9
$LIGHTGLYPHDISPLAY
280
     1
  9
$TILEMODELIGHTSYNCH
280
     1
  9
$CMATERIAL
347
44
  9
$SOLIDHIST
280
     1
  9
$SHOWHIST
280
     1
  9
$DWFFRAME
280
     2
  9
$DGNFRAME
280
     2
  9
$REALWORLDSCALE
290
     1
  9
$INTERFERECOLOR
 62
   256
  9
$CSHADOW
280
     0
  9
$SHADOWPLANELOCATION
 40
0.0
  0
ENDSEC
  0
SECTION
  2
CLASSES
  0
CLASS
  1
ACDBDICTIONARYWDFLT
  2
AcDbDictionaryWithDefault
  3
ObjectDBX Classes
 90
        0
 91
        4
280
     0
281
     0
  0
CLASS
  1
VISUALSTYLE
  2
AcDbVisualStyle
  3
ObjectDBX Classes
 90
     4095
 91
        4
280
     0
281
     0
  0
CLASS
  1
MATERIAL
  2
AcDbMaterial
  3
ObjectDBX Classes
 90
     1153
 91
        4
280
     0
281
     0
  0
CLASS
  1
SCALE
  2
AcDbScale
  3
ObjectDBX Classes
 90
     1153
 91
        4
280
     0
281
     0
  0
CLASS
  1
SUN
  2
AcDbSun
  3
SCENEOE
 90
     1153
 91
        4
280
     0
281
     0
  0
CLASS
  1
DICTIONARYVAR
  2
AcDbDictionaryVar
  3
ObjectDBX Classes
 90
        0
 91
        4
280
     0
281
     0
  0
ENDSEC
  0
SECTION
  2
TABLES
  0
TABLE
  2
VPORT
  5
8
330
0
100
AcDbSymbolTable
 70
     1
  0
VPORT
  5
29
330
8
100
AcDbSymbolTableRecord
100
AcDbViewportTableRecord
  2
*Active
 70
     0
 10
0.0
 20
0.0
 11
1.0
 21
1.0
 12
10.42990654205607
 22
4.5
 13
0.0
 23
0.0
 14
0.5
 24
0.5
 15
0.5
 25
0.5
 16
0.0
 26
0.0
 36
1.0
 17
0.0
 27
0.0
 37
0.0
 40
9.0
 41
1.972972972850329
 42
50.0
 43
0.0
 44
0.0
 50
0.0
 51
0.0
 71
     0
 72
   100
 73
     1
 74
     3
 75
     0
 76
     0
 77
     0
 78
     0
281
     0
 65
     1
110
0.0
120
0.0
130
0.0
111
1.0
121
0.0
131
0.0
112
0.0
122
1.0
132
0.0
 79
     0
146
0.0
 60
     3
 61
     5
292
     1
282
     1
141
0.0
142
0.0
 63
   250
361
69
  0
ENDTAB
  0
TABLE
  2
LTYPE
  5
5
330
0
100
AcDbSymbolTable
 70
     9
  0
LTYPE
  5
14
330
5
100
AcDbSymbolTableRecord
100
AcDbLinetypeTableRecord
  2
ByBlock
 70
     0
  3

 72
    65
 73
     0
 40
0.0
  0
LTYPE
  5
15
330
5
100
AcDbSymbolTableRecord
100
AcDbLinetypeTableRecord
  2
ByLayer
 70
     0
  3

 72
    65
 73
     0
 40
0.0
  0
LTYPE
  5
16
330
5
100
AcDbSymbolTableRecord
100
AcDbLinetypeTableRecord
  2
Continuous
 70
     0
  3
Solid line
 72
    65
 73
     0
 40
0.0
  0
LTYPE
  5
B9
330
5
100
AcDbSymbolTableRecord
100
AcDbLinetypeTableRecord
  2
DOT
 70
     0
  3
DOT
 72
    65
 73
     2
 40
4.0
 49
6.0
 74
     0
 49
-2.0
 74
     0
  0
LTYPE
  5
BA
330
5
100
AcDbSymbolTableRecord
100
AcDbLinetypeTableRecord
  2
HIDDEN
 70
     0
  3
HIDDEN
 72
    65
 73
     2
 40
4.2
 49
8.4
 74
     0
 49
-4.2
 74
     0
  0
LTYPE
  5
BB
330
5
100
AcDbSymbolTableRecord
100
AcDbLinetypeTableRecord
  2
DASHDOT
 70
     0
  3
DASHDOT
 72
    65
 73
     4
 40
14.5
 49
30.0
 74
     0
 49
-9.0
 74
     0
 49
2.5
 74
     0
 49
-9.0
 74
     0
  0
LTYPE
  5
BC
330
5
100
AcDbSymbolTableRecord
100
AcDbLinetypeTableRecord
  2
PHANTOM
 70
     0
  3
PHANTOM
 72
    65
 73
     6
 40
12.0
 49
30.0
 74
     0
 49
-9.0
 74
     0
 49
2.5
 74
     0
 49
-5.0
 74
     0
 49
2.5
 74
     0
 49
-9.0
 74
     0
  0
LTYPE
  5
BD
330
5
100
AcDbSymbolTableRecord
100
AcDbLinetypeTableRecord
  2
ACAD_ISO14W100
 70
     0
  3
ACAD_ISO14W100
 72
    65
 73
     8
 40
1.5
 49
12.0
 74
     0
 49
-3.0
 74
     0
 49
0.5
 74
     0
 49
-3.0
 74
     0
 49
0.5
 74
     0
 49
-3.0
 74
     0
 49
0.5
 74
     0
 49
-3.0
 74
     0
  0
LTYPE
  5
BE
330
5
100
AcDbSymbolTableRecord
100
AcDbLinetypeTableRecord
  2
ACAD_ISO06W100
 70
     0
  3
ACAD_ISO06W100
 72
    65
 73
     8
 40
13.5
 49
24.0
 74
     0
 49
-3.0
 74
     0
 49
0.5
 74
     0
 49
-3.0
 74
     0
 49
0.5
 74
     0
 49
-3.0
 74
     0
 49
0.5
 74
     0
 49
-3.0
 74
     0
  0
LTYPE
  5
BF
330
5
100
AcDbSymbolTableRecord
100
AcDbLinetypeTableRecord
  2
ACAD_ISO11W100
 70
     0
  3
ACAD_ISO11W100
 72
    65
 73
     6
 40
15.5
 49
12.0
 74
     0
 49
-3.0
 74
     0
 49
12.0
 74
     0
 49
-3.0
 74
     0
 49
0.5
 74
     0
 49
-3.0
 74
     0
  0
LTYPE
  5
C0
330
5
100
AcDbSymbolTableRecord
100
AcDbLinetypeTableRecord
  2
ACAD_ISO13W100
 70
     0
  3
ACAD_ISO13W100
 72
    65
 73
     8
 40
13.0
 49
12.0
 74
     0
 49
-3.0
 74
     0
 49
12.0
 74
     0
 49
-3.0
 74
     0
 49
0.5
 74
     0
 49
-3.0
 74
     0
 49
0.5
 74
     0
 49
-3.0
 74
     0
  0
ENDTAB
  0
TABLE
  2
LAYER
  5
2
330
0
100
AcDbSymbolTable
 70
    12
  0
LAYER
  5
10
330
2
100
AcDbSymbolTableRecord
100
AcDbLayerTableRecord
  2
0
 70
     0
 62
     7
  6
Continuous
370
    -3
390
F
347
46
348
0
  0
LAYER
  5
C1
330
2
100
AcDbSymbolTableRecord
100
AcDbLayerTableRecord
  2
1
 70
     0
 62
     7
  6
Continuous
370
     9
390
F
347
46
348
0
  0
LAYER
  5
C2
330
2
100
AcDbSymbolTableRecord
100
AcDbLayerTableRecord
  2
2
 70
     0
 62
   151
  6
Continuous
370
    20
390
F
347
46
348
0
  0
LAYER
  5
C3
330
2
100
AcDbSymbolTableRecord
100
AcDbLayerTableRecord
  2
3
 70
     0
 62
     3
  6
HIDDEN
370
     9
390
F
347
46
348
0
  0
LAYER
  5
C4
330
2
100
AcDbSymbolTableRecord
100
AcDbLayerTableRecord
  2
4
 70
     0
 62
     1
  6
DASHDOT
370
     9
390
F
347
46
348
0
  0
LAYER
  5
C5
330
2
100
AcDbSymbolTableRecord
100
AcDbLayerTableRecord
  2
5
 70
     0
 62
     7
  6
Continuous
370
     9
390
F
347
46
348
0
  0
LAYER
  5
C6
330
2
100
AcDbSymbolTableRecord
100
AcDbLayerTableRecord
  2
6
 70
     0
 62
     1
  6
Continuous
370
    25
390
F
347
46
348
0
  0
LAYER
  5
C7
330
2
100
AcDbSymbolTableRecord
100
AcDbLayerTableRecord
  2
7
 70
     0
 62
     6
  6
Continuous
370
     9
390
F
347
46
348
0
  0
LAYER
  5
C8
330
2
100
AcDbSymbolTableRecord
100
AcDbLayerTableRecord
  2
8
 70
     0
 62
     3
  6
Continuous
370
    40
390
F
347
46
348
0
  0
LAYER
  5
C9
330
2
100
AcDbSymbolTableRecord
100
AcDbLayerTableRecord
  2
9
 70
     0
 62
     4
  6
Continuous
370
     9
390
F
347
46
348
0
  0
LAYER
  5
CA
330
2
100
AcDbSymbolTableRecord
100
AcDbLayerTableRecord
  2
10
 70
     0
 62
     7
  6
Continuous
370
    25
390
F
347
46
348
0
  0
LAYER
  5
CB
330
2
100
AcDbSymbolTableRecord
100
AcDbLayerTableRecord
  2
11
 70
     0
 62
     2
  6
Continuous
370
     9
390
F
347
46
348
0
  0
ENDTAB
  0
TABLE
  2
STYLE
  5
3
330
0
100
AcDbSymbolTable
 70
     3
  0
STYLE
  5
11
330
3
100
AcDbSymbolTableRecord
100
AcDbTextStyleTableRecord
  2
Standard
 70
     0
 40
0.0
 41
1.0
 50
0.0
 71
     0
 42
5.6
  3
txt
  4
bigfont
  0
STYLE
  5
6C
330
3
100
AcDbSymbolTableRecord
100
AcDbTextStyleTableRecord
  2
T_STANDARD
 70
     4
 40
10.0
 41
1.0
 50
0.0
 71
     0
 42
5.6
  3
txt
  4
bigfont
1001
ACAD
1000

1071
      256
  0
STYLE
  5
111
330
3
100
AcDbSymbolTableRecord
100
AcDbTextStyleTableRecord
  2
ＭＳ ゴシック
 70
     0
 40
0.0
 41
1.0
 50
0.0
 71
     0
 42
5.6
  3

  4

1001
ACAD
1000
ＭＳ ゴシック
1071
      256
  0
ENDTAB
  0
TABLE
  2
VIEW
  5
6
330
0
100
AcDbSymbolTable
 70
     0
  0
ENDTAB
  0
TABLE
  2
UCS
  5
7
330
0
100
AcDbSymbolTable
 70
     0
  0
ENDTAB
  0
TABLE
  2
APPID
  5
9
330
0
100
AcDbSymbolTable
 70
     2
  0
APPID
  5
12
330
9
100
AcDbSymbolTableRecord
100
AcDbRegAppTableRecord
  2
ACAD
 70
     0
  0
APPID
  5
6B
330
9
100
AcDbSymbolTableRecord
100
AcDbRegAppTableRecord
  2
ODA
 70
     0
  0
ENDTAB
  0
TABLE
  2
DIMSTYLE
  5
A
330
0
100
AcDbSymbolTable
 70
     1
100
AcDbDimStyleTable
  0
DIMSTYLE
105
27
102
{ACAD_REACTORS
330
11B
330
19C
330
206
330
219
330
223
330
22D
330
237
330
241
330
24B
330
255
330
25F
330
267
330
26F
330
279
102
}
330
A
100
AcDbSymbolTableRecord
100
AcDbDimStyleTableRecord
  2
Standard
 70
     0
178
     0
340
11
  0
ENDTAB
  0
TABLE
  2
BLOCK_RECORD
  5
1
330
0
100
AcDbSymbolTable
 70
    30
  0
BLOCK_RECORD
  5
1F
330
1
100
AcDbSymbolTableRecord
100
AcDbBlockTableRecord
  2
*Model_Space
340
22
 70
     0
280
     1
281
     0
  0
BLOCK_RECORD
  5
1B
330
1
100
AcDbSymbolTableRecord
100
AcDbBlockTableRecord
  2
*Paper_Space
340
1E
 70
     0
280
     1
281
     0
  0
BLOCK_RECORD
  5
23
330
1
100
AcDbSymbolTableRecord
100
AcDbBlockTableRecord
  2
*Paper_Space0
340
26
 70
     0
280
     1
281
     0
  0
BLOCK_RECORD
  5
6D
330
1
100
AcDbSymbolTableRecord
100
AcDbBlockTableRecord
  2
_ORIGIN
340
0
 70
     0
280
     1
281
     0
  0
BLOCK_RECORD
  5
72
330
1
100
AcDbSymbolTableRecord
100
AcDbBlockTableRecord
  2
_DOTBLANK
340
0
 70
     0
280
     1
281
     0
  0
BLOCK_RECORD
  5
77
330
1
100
AcDbSymbolTableRecord
100
AcDbBlockTableRecord
  2
_DOT
340
0
 70
     0
280
     1
281
     0
  0
BLOCK_RECORD
  5
7C
330
1
100
AcDbSymbolTableRecord
100
AcDbBlockTableRecord
  2
_OPEN
340
0
102
{BLKREFS
331
209
102
}
 70
     0
280
     1
281
     0
  0
BLOCK_RECORD
  5
82
330
1
100
AcDbSymbolTableRecord
100
AcDbBlockTableRecord
  2
_CLOSED
340
0
 70
     0
280
     1
281
     0
  0
BLOCK_RECORD
  5
89
330
1
100
AcDbSymbolTableRecord
100
AcDbBlockTableRecord
  2
_CLOSEDBLANK
340
0
 70
     0
280
     1
281
     0
  0
BLOCK_RECORD
  5
8F
330
1
100
AcDbSymbolTableRecord
100
AcDbBlockTableRecord
  2
_ARROWFILLED
340
0
102
{BLKREFS
331
119
331
11A
331
19A
331
19B
331
204
331
205
331
217
331
218
331
221
331
222
331
22B
331
22C
331
235
331
236
331
23F
331
240
331
249
331
24A
331
253
331
254
331
25D
331
25E
331
265
331
266
331
26D
331
26E
331
277
331
278
102
}
 70
     0
280
     1
281
     0
  0
BLOCK_RECORD
  5
93
330
1
100
AcDbSymbolTableRecord
100
AcDbBlockTableRecord
  2
_BOXBLANK
340
0
 70
     0
280
     1
281
     0
  0
BLOCK_RECORD
  5
9B
330
1
100
AcDbSymbolTableRecord
100
AcDbBlockTableRecord
  2
_BOXFILLED
340
0
 70
     0
280
     1
281
     0
  0
BLOCK_RECORD
  5
A0
330
1
100
AcDbSymbolTableRecord
100
AcDbBlockTableRecord
  2
_INTEGRAL
340
0
 70
     0
280
     1
281
     0
  0
BLOCK_RECORD
  5
A5
330
1
100
AcDbSymbolTableRecord
100
AcDbBlockTableRecord
  2
_OBLIQUE
340
0
 70
     0
280
     1
281
     0
  0
BLOCK_RECORD
  5
A9
330
1
100
AcDbSymbolTableRecord
100
AcDbBlockTableRecord
  2
_NONE
340
0
 70
     0
280
     1
281
     0
  0
BLOCK_RECORD
  5
AC
330
1
100
AcDbSymbolTableRecord
100
AcDbBlockTableRecord
  2
MARK_OPEN
340
0
 70
     0
280
     1
281
     0
  0
BLOCK_RECORD
  5
B1
330
1
100
AcDbSymbolTableRecord
100
AcDbBlockTableRecord
  2
MARK_ORIGIN
340
0
 70
     0
280
     1
281
     0
  0
BLOCK_RECORD
  5
B5
330
1
100
AcDbSymbolTableRecord
100
AcDbBlockTableRecord
  2
MARK_DOT
340
0
 70
     0
280
     1
281
     0
  0
BLOCK_RECORD
  5
112
330
1
100
AcDbSymbolTableRecord
100
AcDbBlockTableRecord
  2
Dim1
340
0
 70
     0
280
     1
281
     0
  0
BLOCK_RECORD
  5
193
330
1
100
AcDbSymbolTableRecord
100
AcDbBlockTableRecord
  2
Dim2
340
0
 70
     0
280
     1
281
     0
  0
BLOCK_RECORD
  5
1FD
330
1
100
AcDbSymbolTableRecord
100
AcDbBlockTableRecord
  2
Dim3
340
0
 70
     0
280
     1
281
     0
  0
BLOCK_RECORD
  5
210
330
1
100
AcDbSymbolTableRecord
100
AcDbBlockTableRecord
  2
Dim4
340
0
 70
     0
280
     1
281
     0
  0
BLOCK_RECORD
  5
21A
330
1
100
AcDbSymbolTableRecord
100
AcDbBlockTableRecord
  2
Dim5
340
0
 70
     0
280
     1
281
     0
  0
BLOCK_RECORD
  5
224
330
1
100
AcDbSymbolTableRecord
100
AcDbBlockTableRecord
  2
Dim6
340
0
 70
     0
280
     1
281
     0
  0
BLOCK_RECORD
  5
22E
330
1
100
AcDbSymbolTableRecord
100
AcDbBlockTableRecord
  2
Dim7
340
0
 70
     0
280
     1
281
     0
  0
BLOCK_RECORD
  5
238
330
1
100
AcDbSymbolTableRecord
100
AcDbBlockTableRecord
  2
Dim8
340
0
 70
     0
280
     1
281
     0
  0
BLOCK_RECORD
  5
242
330
1
100
AcDbSymbolTableRecord
100
AcDbBlockTableRecord
  2
Dim9
340
0
 70
     0
280
     1
281
     0
  0
BLOCK_RECORD
  5
24C
330
1
100
AcDbSymbolTableRecord
100
AcDbBlockTableRecord
  2
Dim10
340
0
 70
     0
280
     1
281
     0
  0
BLOCK_RECORD
  5
256
330
1
100
AcDbSymbolTableRecord
100
AcDbBlockTableRecord
  2
Dim11
340
0
 70
     0
280
     1
281
     0
  0
BLOCK_RECORD
  5
260
330
1
100
AcDbSymbolTableRecord
100
AcDbBlockTableRecord
  2
Dim12
340
0
 70
     0
280
     1
281
     0
  0
BLOCK_RECORD
  5
268
330
1
100
AcDbSymbolTableRecord
100
AcDbBlockTableRecord
  2
Dim13
340
0
 70
     0
280
     1
281
     0
  0
BLOCK_RECORD
  5
270
330
1
100
AcDbSymbolTableRecord
100
AcDbBlockTableRecord
  2
Dim14
340
0
 70
     0
280
     1
281
     0
  0
ENDTAB
  0
ENDSEC
  0
SECTION
  2
BLOCKS
  0
BLOCK
  5
20
330
1F
100
AcDbEntity
  8
0
100
AcDbBlockBegin
  2
*Model_Space
 70
     0
 10
0.0
 20
0.0
 30
0.0
  3
*Model_Space
  1
*Model_Space
  0
ENDBLK
  5
21
330
1F
100
AcDbEntity
  8
0
100
AcDbBlockEnd
  0
BLOCK
  5
1C
330
1B
100
AcDbEntity
 67
     1
  8
0
100
AcDbBlockBegin
  2
*Paper_Space
 70
     0
 10
0.0
 20
0.0
 30
0.0
  3
*Paper_Space
  1
*Paper_Space
  0
ENDBLK
  5
1D
330
1B
100
AcDbEntity
 67
     1
  8
0
100
AcDbBlockEnd
  0
BLOCK
  5
24
330
23
100
AcDbEntity
  8
0
100
AcDbBlockBegin
  2
*Paper_Space0
 70
     0
 10
0.0
 20
0.0
 30
0.0
  3
*Paper_Space0
  1
*Paper_Space0
  0
ENDBLK
  5
25
330
23
100
AcDbEntity
  8
0
100
AcDbBlockEnd
  0
BLOCK
  5
70
330
6D
100
AcDbEntity
  8
0
100
AcDbBlockBegin
  2
_ORIGIN
 70
     0
 10
0.0
 20
0.0
 30
0.0
  3
_ORIGIN
  1
_ORIGIN
  0
CIRCLE
  5
6E
330
6D
100
AcDbEntity
  8
0
 62
     0
100
AcDbCircle
 10
0.0
 20
0.0
 30
0.0
 40
0.5
  0
LINE
  5
6F
330
6D
100
AcDbEntity
  8
0
 62
     0
100
AcDbLine
 10
0.0
 20
0.0
 30
0.0
 11
-1.0
 21
0.0
 31
0.0
  0
ENDBLK
  5
71
330
6D
100
AcDbEntity
  8
0
100
AcDbBlockEnd
  0
BLOCK
  5
75
330
72
100
AcDbEntity
  8
0
100
AcDbBlockBegin
  2
_DOTBLANK
 70
     0
 10
0.0
 20
0.0
 30
0.0
  3
_DOTBLANK
  1
_DOTBLANK
  0
CIRCLE
  5
73
330
72
100
AcDbEntity
  8
0
 62
     0
100
AcDbCircle
 10
0.0
 20
0.0
 30
0.0
 40
0.5
  0
LINE
  5
74
330
72
100
AcDbEntity
  8
0
 62
     0
100
AcDbLine
 10
-0.5
 20
0.0
 30
0.0
 11
-1.0
 21
0.0
 31
0.0
  0
ENDBLK
  5
76
330
72
100
AcDbEntity
  8
0
100
AcDbBlockEnd
  0
BLOCK
  5
7A
330
77
100
AcDbEntity
  8
0
100
AcDbBlockBegin
  2
_DOT
 70
     0
 10
0.0
 20
0.0
 30
0.0
  3
_DOT
  1
_DOT
  0
LWPOLYLINE
  5
78
330
77
100
AcDbEntity
  8
0
 62
     0
100
AcDbPolyline
 90
        2
 70
     1
 43
0.5
 10
-0.25
 20
0.0
 42
1.0
 10
0.25
 20
0.0
 42
1.0
  0
LINE
  5
79
330
77
100
AcDbEntity
  8
0
 62
     0
100
AcDbLine
 10
-0.5
 20
0.0
 30
0.0
 11
-1.0
 21
0.0
 31
0.0
  0
ENDBLK
  5
7B
330
77
100
AcDbEntity
  8
0
100
AcDbBlockEnd
  0
BLOCK
  5
80
330
7C
100
AcDbEntity
  8
0
100
AcDbBlockBegin
  2
_OPEN
 70
     0
 10
0.0
 20
0.0
 30
0.0
  3
_OPEN
  1
_OPEN
  0
LINE
  5
7D
330
7C
100
AcDbEntity
  8
0
 62
     0
100
AcDbLine
 10
0.0
 20
0.0
 30
0.0
 11
-1.0
 21
0.1666666666666667
 31
0.0
  0
LINE
  5
7E
330
7C
100
AcDbEntity
  8
0
 62
     0
100
AcDbLine
 10
0.0
 20
0.0
 30
0.0
 11
-1.0
 21
-0.1666666666666667
 31
0.0
  0
LINE
  5
7F
330
7C
100
AcDbEntity
  8
0
 62
     0
100
AcDbLine
 10
0.0
 20
0.0
 30
0.0
 11
-1.0
 21
0.0
 31
0.0
  0
ENDBLK
  5
81
330
7C
100
AcDbEntity
  8
0
100
AcDbBlockEnd
  0
BLOCK
  5
87
330
82
100
AcDbEntity
  8
0
100
AcDbBlockBegin
  2
_CLOSED
 70
     0
 10
0.0
 20
0.0
 30
0.0
  3
_CLOSED
  1
_CLOSED
  0
LINE
  5
83
330
82
100
AcDbEntity
  8
0
 62
     0
100
AcDbLine
 10
0.0
 20
0.0
 30
0.0
 11
-1.0
 21
0.1666666666666667
 31
0.0
  0
LINE
  5
84
330
82
100
AcDbEntity
  8
0
 62
     0
100
AcDbLine
 10
0.0
 20
0.0
 30
0.0
 11
-1.0
 21
-0.1666666666666667
 31
0.0
  0
LINE
  5
85
330
82
100
AcDbEntity
  8
0
 62
     0
100
AcDbLine
 10
-1.0
 20
0.1666666666666667
 30
0.0
 11
-1.0
 21
-0.1666666666666667
 31
0.0
  0
LINE
  5
86
330
82
100
AcDbEntity
  8
0
 62
     0
100
AcDbLine
 10
0.0
 20
0.0
 30
0.0
 11
-1.0
 21
0.0
 31
0.0
  0
ENDBLK
  5
88
330
82
100
AcDbEntity
  8
0
100
AcDbBlockEnd
  0
BLOCK
  5
8D
330
89
100
AcDbEntity
  8
0
100
AcDbBlockBegin
  2
_CLOSEDBLANK
 70
     0
 10
0.0
 20
0.0
 30
0.0
  3
_CLOSEDBLANK
  1
_CLOSEDBLANK
  0
LINE
  5
8A
330
89
100
AcDbEntity
  8
0
 62
     0
100
AcDbLine
 10
0.0
 20
0.0
 30
0.0
 11
-1.0
 21
0.1666666666666667
 31
0.0
  0
LINE
  5
8B
330
89
100
AcDbEntity
  8
0
 62
     0
100
AcDbLine
 10
0.0
 20
0.0
 30
0.0
 11
-1.0
 21
-0.1666666666666667
 31
0.0
  0
LINE
  5
8C
330
89
100
AcDbEntity
  8
0
 62
     0
100
AcDbLine
 10
-1.0
 20
0.1666666666666667
 30
0.0
 11
-1.0
 21
-0.1666666666666667
 31
0.0
  0
ENDBLK
  5
8E
330
89
100
AcDbEntity
  8
0
100
AcDbBlockEnd
  0
BLOCK
  5
91
330
8F
100
AcDbEntity
  8
0
100
AcDbBlockBegin
  2
_ARROWFILLED
 70
     0
 10
0.0
 20
0.0
 30
0.0
  3
_ARROWFILLED
  1
_ARROWFILLED
  0
SOLID
  5
90
330
8F
100
AcDbEntity
  8
0
 62
     0
100
AcDbTrace
 10
0.0
 20
0.0
 30
0.0
 11
-1.0
 21
-0.1666666666666667
 31
0.0
 12
-1.0
 22
0.1666666666666667
 32
0.0
 13
0.0
 23
0.0
 33
0.0
  0
ENDBLK
  5
92
330
8F
100
AcDbEntity
  8
0
100
AcDbBlockEnd
  0
BLOCK
  5
99
330
93
100
AcDbEntity
  8
0
100
AcDbBlockBegin
  2
_BOXBLANK
 70
     0
 10
0.0
 20
0.0
 30
0.0
  3
_BOXBLANK
  1
_BOXBLANK
  0
LINE
  5
94
330
93
100
AcDbEntity
  8
0
 62
     0
100
AcDbLine
 10
-0.5
 20
-0.5
 30
0.0
 11
0.5
 21
-0.5
 31
0.0
  0
LINE
  5
95
330
93
100
AcDbEntity
  8
0
 62
     0
100
AcDbLine
 10
0.5
 20
-0.5
 30
0.0
 11
0.5
 21
0.5
 31
0.0
  0
LINE
  5
96
330
93
100
AcDbEntity
  8
0
 62
     0
100
AcDbLine
 10
0.5
 20
0.5
 30
0.0
 11
-0.5
 21
0.5
 31
0.0
  0
LINE
  5
97
330
93
100
AcDbEntity
  8
0
 62
     0
100
AcDbLine
 10
-0.5
 20
0.5
 30
0.0
 11
-0.5
 21
-0.5
 31
0.0
  0
LINE
  5
98
330
93
100
AcDbEntity
  8
0
 62
     0
100
AcDbLine
 10
-0.5
 20
0.0
 30
0.0
 11
-1.0
 21
0.0
 31
0.0
  0
ENDBLK
  5
9A
330
93
100
AcDbEntity
  8
0
100
AcDbBlockEnd
  0
BLOCK
  5
9E
330
9B
100
AcDbEntity
  8
0
100
AcDbBlockBegin
  2
_BOXFILLED
 70
     0
 10
0.0
 20
0.0
 30
0.0
  3
_BOXFILLED
  1
_BOXFILLED
  0
SOLID
  5
9C
330
9B
100
AcDbEntity
  8
0
 62
     0
100
AcDbTrace
 10
-0.5
 20
0.5
 30
0.0
 11
0.5
 21
0.5
 31
0.0
 12
-0.5
 22
-0.5
 32
0.0
 13
0.5
 23
-0.5
 33
0.0
  0
LINE
  5
9D
330
9B
100
AcDbEntity
  8
0
 62
     0
100
AcDbLine
 10
-0.5
 20
0.0
 30
0.0
 11
-1.0
 21
0.0
 31
0.0
  0
ENDBLK
  5
9F
330
9B
100
AcDbEntity
  8
0
100
AcDbBlockEnd
  0
BLOCK
  5
A3
330
A0
100
AcDbEntity
  8
0
100
AcDbBlockBegin
  2
_INTEGRAL
 70
     0
 10
0.0
 20
0.0
 30
0.0
  3
_INTEGRAL
  1
_INTEGRAL
  0
ARC
  5
A1
330
A0
100
AcDbEntity
  8
0
 62
     0
100
AcDbCircle
 10
0.444888
 20
-0.0913346
 30
0.0
 40
0.4541666
100
AcDbArc
 50
101.9999999999999
 51
167.9999999999998
  0
ARC
  5
A2
330
A0
100
AcDbEntity
  8
0
 62
     0
100
AcDbCircle
 10
-0.444888
 20
0.0913346
 30
0.0
 40
0.4541666
100
AcDbArc
 50
281.9999999999997
 51
347.9999999999997
  0
ENDBLK
  5
A4
330
A0
100
AcDbEntity
  8
0
100
AcDbBlockEnd
  0
BLOCK
  5
A7
330
A5
100
AcDbEntity
  8
0
100
AcDbBlockBegin
  2
_OBLIQUE
 70
     0
 10
0.0
 20
0.0
 30
0.0
  3
_OBLIQUE
  1
_OBLIQUE
  0
LINE
  5
A6
330
A5
100
AcDbEntity
  8
0
 62
     0
100
AcDbLine
 10
-0.5
 20
-0.5
 30
0.0
 11
0.5
 21
0.5
 31
0.0
  0
ENDBLK
  5
A8
330
A5
100
AcDbEntity
  8
0
100
AcDbBlockEnd
  0
BLOCK
  5
AA
330
A9
100
AcDbEntity
  8
0
100
AcDbBlockBegin
  2
_NONE
 70
     0
 10
0.0
 20
0.0
 30
0.0
  3
_NONE
  1
_NONE
  0
ENDBLK
  5
AB
330
A9
100
AcDbEntity
  8
0
100
AcDbBlockEnd
  0
BLOCK
  5
AF
330
AC
100
AcDbEntity
  8
0
100
AcDbBlockBegin
  2
MARK_OPEN
 70
     0
 10
0.0
 20
0.0
 30
0.0
  3
MARK_OPEN
  1
MARK_OPEN
  0
LINE
  5
AD
330
AC
100
AcDbEntity
  8
0
 62
     0
100
AcDbLine
 10
0.0
 20
0.0
 30
0.0
 11
-1.0
 21
0.1666666666666667
 31
0.0
  0
LINE
  5
AE
330
AC
100
AcDbEntity
  8
0
 62
     0
100
AcDbLine
 10
0.0
 20
0.0
 30
0.0
 11
-1.0
 21
-0.1666666666666667
 31
0.0
  0
ENDBLK
  5
B0
330
AC
100
AcDbEntity
  8
0
100
AcDbBlockEnd
  0
BLOCK
  5
B3
330
B1
100
AcDbEntity
  8
0
100
AcDbBlockBegin
  2
MARK_ORIGIN
 70
     0
 10
0.0
 20
0.0
 30
0.0
  3
MARK_ORIGIN
  1
MARK_ORIGIN
  0
CIRCLE
  5
B2
330
B1
100
AcDbEntity
  8
0
 62
     0
100
AcDbCircle
 10
0.0
 20
0.0
 30
0.0
 40
0.5
  0
ENDBLK
  5
B4
330
B1
100
AcDbEntity
  8
0
100
AcDbBlockEnd
  0
BLOCK
  5
B7
330
B5
100
AcDbEntity
  8
0
100
AcDbBlockBegin
  2
MARK_DOT
 70
     0
 10
0.0
 20
0.0
 30
0.0
  3
MARK_DOT
  1
MARK_DOT
  0
LWPOLYLINE
  5
B6
330
B5
100
AcDbEntity
  8
0
 62
     0
100
AcDbPolyline
 90
        2
 70
     1
 43
0.5
 10
-0.25
 20
0.0
 42
1.0
 10
0.25
 20
0.0
 42
1.0
  0
ENDBLK
  5
B8
330
B5
100
AcDbEntity
  8
0
100
AcDbBlockEnd
  0
BLOCK
  5
113
330
112
100
AcDbEntity
  8
0
100
AcDbBlockBegin
  2
Dim1
 70
     0
 10
0.0
 20
0.0
 30
0.0
  3
Dim1
  1
Dim1
  0
LINE
  5
115
330
112
100
AcDbEntity
  8
9
  6
Continuous
 62
     4
370
     9
100
AcDbLine
 10
557.1145325053731
 20
181.8018772179075
 30
0.0
 11
557.1145325053728
 21
71.82860273628467
 31
0.0
  0
LINE
  5
116
330
112
100
AcDbEntity
  8
9
  6
Continuous
 62
     4
370
     9
100
AcDbLine
 10
575.1145325053649
 20
294.3018772179112
 30
0.0
 11
575.1145325053645
 21
71.82860273628467
 31
0.0
  0
LINE
  5
117
330
112
100
AcDbEntity
  8
9
  6
Continuous
 62
     4
370
     9
100
AcDbLine
 10
557.1145325053728
 20
74.82860273628467
 30
0.0
 11
595.1145325053649
 21
74.82860273628467
 31
0.0
  0
MTEXT
  5
118
330
112
100
AcDbEntity
  8
9
  6
Continuous
 62
     4
370
     9
100
AcDbMText
 10
589.1145325053649
 20
80.82860273628467
 30
0.0
 40
6.0
 41
85.71428571428571
 46
6.0
 71
     5
 72
     1
  1
(18)
  7
ＭＳ ゴシック
 73
     1
 44
1.0
1001
ACAD
1000
ACAD_MTEXT_DEFINED_HEIGHT_BEGIN
1070
    46
1040
6.0
1000
ACAD_MTEXT_DEFINED_HEIGHT_END
  0
INSERT
  5
119
330
112
100
AcDbEntity
  8
9
  6
Continuous
 62
     4
370
     9
100
AcDbBlockReference
  2
_ARROWFILLED
 10
557.1145325053728
 20
74.82860273628467
 30
0.0
 41
4.0
 42
4.0
 43
4.0
 50
179.9999999999998
  0
INSERT
  5
11A
330
112
100
AcDbEntity
  8
9
  6
Continuous
 62
     4
370
     9
100
AcDbBlockReference
  2
_ARROWFILLED
 10
575.1145325053645
 20
74.82860273628467
 30
0.0
 41
4.0
 42
4.0
 43
4.0
 50
359.9999999999997
  0
ENDBLK
  5
114
330
112
100
AcDbEntity
  8
0
100
AcDbBlockEnd
  0
BLOCK
  5
194
330
193
100
AcDbEntity
  8
0
100
AcDbBlockBegin
  2
Dim2
 70
     0
 10
0.0
 20
0.0
 30
0.0
  3
Dim2
  1
Dim2
  0
LINE
  5
196
330
193
100
AcDbEntity
  8
9
  6
Continuous
 62
     4
370
     9
100
AcDbLine
 10
723.682837362654
 20
166.8018772179112
 30
0.0
 11
723.682837362654
 21
140.3670662418281
 31
0.0
  0
LINE
  5
197
330
193
100
AcDbEntity
  8
9
  6
Continuous
 62
     4
370
     9
100
AcDbLine
 10
722.6828373626522
 20
166.8018772179112
 30
0.0
 11
722.6828373626522
 21
140.3670662418281
 31
0.0
  0
LINE
  5
198
330
193
100
AcDbEntity
  8
9
  6
Continuous
 62
     4
370
     9
100
AcDbLine
 10
733.182837362654
 20
143.3670662418281
 30
0.0
 11
714.6828373626522
 21
143.3670662418281
 31
0.0
  0
MTEXT
  5
199
330
193
100
AcDbEntity
  8
9
  6
Continuous
 62
     4
370
     9
100
AcDbMText
 10
733.182837362654
 20
143.3670662418281
 30
0.0
 40
6.0
 41
7.142857142857143
 46
6.0
 71
     4
 72
     1
  1
1
  7
ＭＳ ゴシック
 73
     1
 44
1.0
1001
ACAD
1000
ACAD_MTEXT_DEFINED_HEIGHT_BEGIN
1070
    46
1040
6.0
1000
ACAD_MTEXT_DEFINED_HEIGHT_END
  0
INSERT
  5
19A
330
193
100
AcDbEntity
  8
9
  6
Continuous
 62
     4
370
     9
100
AcDbBlockReference
  2
_ARROWFILLED
 10
723.682837362654
 20
143.3670662418281
 30
0.0
 41
4.0
 42
4.0
 43
4.0
 50
179.9999999999995
  0
INSERT
  5
19B
330
193
100
AcDbEntity
  8
9
  6
Continuous
 62
     4
370
     9
100
AcDbBlockReference
  2
_ARROWFILLED
 10
722.6828373626522
 20
143.3670662418281
 30
0.0
 41
4.0
 42
4.0
 43
4.0
 50
359.9999999999997
  0
ENDBLK
  5
195
330
193
100
AcDbEntity
  8
0
100
AcDbBlockEnd
  0
BLOCK
  5
1FE
330
1FD
100
AcDbEntity
  8
0
100
AcDbBlockBegin
  2
Dim3
 70
     0
 10
0.0
 20
0.0
 30
0.0
  3
Dim3
  1
Dim3
  0
LINE
  5
200
330
1FD
100
AcDbEntity
  8
9
  6
Continuous
 62
     4
370
     9
100
AcDbLine
 10
703.2546341323705
 20
296.8018772179112
 30
0.0
 11
703.2546341323701
 21
116.9526574721804
 31
0.0
  0
LINE
  5
201
330
1FD
100
AcDbEntity
  8
9
  6
Continuous
 62
     4
370
     9
100
AcDbLine
 10
723.682837362654
 20
166.8018772179112
 30
0.0
 11
723.6828373626539
 21
116.9526574721804
 31
0.0
  0
LINE
  5
202
330
1FD
100
AcDbEntity
  8
9
  6
Continuous
 62
     4
370
     9
100
AcDbLine
 10
703.2546341323701
 20
119.9526574721804
 30
0.0
 11
751.182837362654
 21
119.9526574721804
 31
0.0
  0
MTEXT
  5
203
330
1FD
100
AcDbEntity
  8
9
  6
Continuous
 62
     4
370
     9
100
AcDbMText
 10
742.182837362654
 20
125.9526574721804
 30
0.0
 40
6.0
 41
128.5714285714286
 46
6.0
 71
     5
 72
     1
  1
(20.5)
  7
ＭＳ ゴシック
 73
     1
 44
1.0
1001
ACAD
1000
ACAD_MTEXT_DEFINED_HEIGHT_BEGIN
1070
    46
1040
6.0
1000
ACAD_MTEXT_DEFINED_HEIGHT_END
  0
INSERT
  5
204
330
1FD
100
AcDbEntity
  8
9
  6
Continuous
 62
     4
370
     9
100
AcDbBlockReference
  2
_ARROWFILLED
 10
703.2546341323701
 20
119.9526574721804
 30
0.0
 41
4.0
 42
4.0
 43
4.0
 50
179.9999999999998
  0
INSERT
  5
205
330
1FD
100
AcDbEntity
  8
9
  6
Continuous
 62
     4
370
     9
100
AcDbBlockReference
  2
_ARROWFILLED
 10
723.6828373626539
 20
119.9526574721804
 30
0.0
 41
4.0
 42
4.0
 43
4.0
 50
359.9999999999997
  0
ENDBLK
  5
1FF
330
1FD
100
AcDbEntity
  8
0
100
AcDbBlockEnd
  0
BLOCK
  5
211
330
210
100
AcDbEntity
  8
0
100
AcDbBlockBegin
  2
Dim4
 70
     0
 10
0.0
 20
0.0
 30
0.0
  3
Dim4
  1
Dim4
  0
LINE
  5
213
330
210
100
AcDbEntity
  8
9
  6
Continuous
 62
     4
370
     9
100
AcDbLine
 10
242.1145325053731
 20
196.8018772179075
 30
0.0
 11
242.1145325053729
 21
95.66736800559192
 31
0.0
  0
LINE
  5
214
330
210
100
AcDbEntity
  8
9
  6
Continuous
 62
     4
370
     9
100
AcDbLine
 10
542.1145325053731
 20
196.8018772179075
 30
0.0
 11
542.114532505373
 21
95.66736800559192
 31
0.0
  0
LINE
  5
215
330
210
100
AcDbEntity
  8
9
  6
Continuous
 62
     4
370
     9
100
AcDbLine
 10
242.1145325053729
 20
98.66736800559192
 30
0.0
 11
542.114532505373
 21
98.66736800559192
 31
0.0
  0
MTEXT
  5
216
330
210
100
AcDbEntity
  8
9
  6
Continuous
 62
     4
370
     9
100
AcDbMText
 10
392.1145325053731
 20
98.66736800559192
 30
0.0
 40
6.0
 41
205.7142857142857
 46
6.0
 71
     8
 72
     1
  1
300（発光面）
  7
ＭＳ ゴシック
 73
     1
 44
1.0
1001
ACAD
1000
ACAD_MTEXT_DEFINED_HEIGHT_BEGIN
1070
    46
1040
6.0
1000
ACAD_MTEXT_DEFINED_HEIGHT_END
  0
INSERT
  5
217
330
210
100
AcDbEntity
  8
9
  6
Continuous
 62
     4
370
     9
100
AcDbBlockReference
  2
_ARROWFILLED
 10
242.1145325053729
 20
98.66736800559192
 30
0.0
 41
4.0
 42
4.0
 43
4.0
 50
179.9999999999998
  0
INSERT
  5
218
330
210
100
AcDbEntity
  8
9
  6
Continuous
 62
     4
370
     9
100
AcDbBlockReference
  2
_ARROWFILLED
 10
542.114532505373
 20
98.66736800559192
 30
0.0
 41
4.0
 42
4.0
 43
4.0
 50
359.9999999999997
  0
ENDBLK
  5
212
330
210
100
AcDbEntity
  8
0
100
AcDbBlockEnd
  0
BLOCK
  5
21B
330
21A
100
AcDbEntity
  8
0
100
AcDbBlockBegin
  2
Dim5
 70
     0
 10
0.0
 20
0.0
 30
0.0
  3
Dim5
  1
Dim5
  0
LINE
  5
21D
330
21A
100
AcDbEntity
  8
9
  6
Continuous
 62
     4
370
     9
100
AcDbLine
 10
227.1145325053731
 20
181.8018772179057
 30
0.0
 11
227.1145325053729
 21
71.82860273628467
 31
0.0
  0
LINE
  5
21E
330
21A
100
AcDbEntity
  8
9
  6
Continuous
 62
     4
370
     9
100
AcDbLine
 10
557.1145325053731
 20
181.8018772179075
 30
0.0
 11
557.1145325053728
 21
71.82860273628467
 31
0.0
  0
LINE
  5
21F
330
21A
100
AcDbEntity
  8
9
  6
Continuous
 62
     4
370
     9
100
AcDbLine
 10
227.1145325053729
 20
74.82860273628467
 30
0.0
 11
557.1145325053728
 21
74.82860273628467
 31
0.0
  0
MTEXT
  5
220
330
21A
100
AcDbEntity
  8
9
  6
Continuous
 62
     4
370
     9
100
AcDbMText
 10
392.1145325053731
 20
74.82860273628467
 30
0.0
 40
6.0
 41
77.14285714285714
 46
6.0
 71
     8
 72
     1
  1
330
  7
ＭＳ ゴシック
 73
     1
 44
1.0
1001
ACAD
1000
ACAD_MTEXT_DEFINED_HEIGHT_BEGIN
1070
    46
1040
6.0
1000
ACAD_MTEXT_DEFINED_HEIGHT_END
  0
INSERT
  5
221
330
21A
100
AcDbEntity
  8
9
  6
Continuous
 62
     4
370
     9
100
AcDbBlockReference
  2
_ARROWFILLED
 10
227.1145325053729
 20
74.82860273628467
 30
0.0
 41
4.0
 42
4.0
 43
4.0
 50
179.9999999999998
  0
INSERT
  5
222
330
21A
100
AcDbEntity
  8
9
  6
Continuous
 62
     4
370
     9
100
AcDbBlockReference
  2
_ARROWFILLED
 10
557.1145325053728
 20
74.82860273628467
 30
0.0
 41
4.0
 42
4.0
 43
4.0
 50
359.9999999999997
  0
ENDBLK
  5
21C
330
21A
100
AcDbEntity
  8
0
100
AcDbBlockEnd
  0
BLOCK
  5
225
330
224
100
AcDbEntity
  8
0
100
AcDbBlockBegin
  2
Dim6
 70
     0
 10
0.0
 20
0.0
 30
0.0
  3
Dim6
  1
Dim6
  0
LINE
  5
227
330
224
100
AcDbEntity
  8
9
  6
Continuous
 62
     4
370
     9
100
AcDbLine
 10
240.1145325053731
 20
198.8018772179075
 30
0.0
 11
199.8132192765079
 21
198.8018772179076
 31
0.0
  0
LINE
  5
228
330
224
100
AcDbEntity
  8
9
  6
Continuous
 62
     4
370
     9
100
AcDbLine
 10
240.1145325053731
 20
398.801877217908
 30
0.0
 11
199.8132192765079
 21
398.8018772179081
 31
0.0
  0
LINE
  5
229
330
224
100
AcDbEntity
  8
9
  6
Continuous
 62
     4
370
     9
100
AcDbLine
 10
202.8132192765079
 20
198.8018772179076
 30
0.0
 11
202.8132192765079
 21
398.8018772179081
 31
0.0
  0
MTEXT
  5
22A
330
224
100
AcDbEntity
  8
9
  6
Continuous
 62
     4
370
     9
100
AcDbMText
 10
202.8132192765079
 20
298.8018772179079
 30
0.0
 40
6.0
 41
205.7142857142857
 46
6.0
 71
     8
 72
     1
  1
200（発光面）
  7
ＭＳ ゴシック
 11
1.615544574432587E-15
 21
1.0
 31
0.0
 73
     1
 44
1.0
1001
ACAD
1000
ACAD_MTEXT_DEFINED_HEIGHT_BEGIN
1070
    46
1040
6.0
1000
ACAD_MTEXT_DEFINED_HEIGHT_END
  0
INSERT
  5
22B
330
224
100
AcDbEntity
  8
9
  6
Continuous
 62
     4
370
     9
100
AcDbBlockReference
  2
_ARROWFILLED
 10
202.8132192765079
 20
198.8018772179076
 30
0.0
 41
4.0
 42
4.0
 43
4.0
 50
269.9999999999998
  0
INSERT
  5
22C
330
224
100
AcDbEntity
  8
9
  6
Continuous
 62
     4
370
     9
100
AcDbBlockReference
  2
_ARROWFILLED
 10
202.8132192765079
 20
398.8018772179081
 30
0.0
 41
4.0
 42
4.0
 43
4.0
 50
89.99999999999991
  0
ENDBLK
  5
226
330
224
100
AcDbEntity
  8
0
100
AcDbBlockEnd
  0
BLOCK
  5
22F
330
22E
100
AcDbEntity
  8
0
100
AcDbBlockBegin
  2
Dim7
 70
     0
 10
0.0
 20
0.0
 30
0.0
  3
Dim7
  1
Dim7
  0
LINE
  5
231
330
22E
100
AcDbEntity
  8
9
  6
Continuous
 62
     4
370
     9
100
AcDbLine
 10
225.1145325053731
 20
183.8018772179075
 30
0.0
 11
178.323450922122
 21
183.8018772179076
 31
0.0
  0
LINE
  5
232
330
22E
100
AcDbEntity
  8
9
  6
Continuous
 62
     4
370
     9
100
AcDbLine
 10
225.1145325053731
 20
413.801877217908
 30
0.0
 11
178.323450922122
 21
413.8018772179082
 31
0.0
  0
LINE
  5
233
330
22E
100
AcDbEntity
  8
9
  6
Continuous
 62
     4
370
     9
100
AcDbLine
 10
181.323450922122
 20
183.8018772179076
 30
0.0
 11
181.323450922122
 21
413.8018772179082
 31
0.0
  0
MTEXT
  5
234
330
22E
100
AcDbEntity
  8
9
  6
Continuous
 62
     4
370
     9
100
AcDbMText
 10
181.323450922122
 20
298.8018772179075
 30
0.0
 40
6.0
 41
77.14285714285714
 46
6.0
 71
     8
 72
     1
  1
230
  7
ＭＳ ゴシック
 11
1.615544574432587E-15
 21
1.0
 31
0.0
 73
     1
 44
1.0
1001
ACAD
1000
ACAD_MTEXT_DEFINED_HEIGHT_BEGIN
1070
    46
1040
6.0
1000
ACAD_MTEXT_DEFINED_HEIGHT_END
  0
INSERT
  5
235
330
22E
100
AcDbEntity
  8
9
  6
Continuous
 62
     4
370
     9
100
AcDbBlockReference
  2
_ARROWFILLED
 10
181.323450922122
 20
183.8018772179076
 30
0.0
 41
4.0
 42
4.0
 43
4.0
 50
269.9999999999998
  0
INSERT
  5
236
330
22E
100
AcDbEntity
  8
9
  6
Continuous
 62
     4
370
     9
100
AcDbBlockReference
  2
_ARROWFILLED
 10
181.323450922122
 20
413.8018772179082
 30
0.0
 41
4.0
 42
4.0
 43
4.0
 50
89.99999999999991
  0
ENDBLK
  5
230
330
22E
100
AcDbEntity
  8
0
100
AcDbBlockEnd
  0
BLOCK
  5
239
330
238
100
AcDbEntity
  8
0
100
AcDbBlockBegin
  2
Dim8
 70
     0
 10
0.0
 20
0.0
 30
0.0
  3
Dim8
  1
Dim8
  0
LINE
  5
23B
330
238
100
AcDbEntity
  8
9
  6
Continuous
 62
     4
370
     9
100
AcDbLine
 10
258.5145325053732
 20
175.8018772179075
 30
0.0
 11
156.6805649437083
 21
175.8018772179078
 31
0.0
  0
LINE
  5
23C
330
238
100
AcDbEntity
  8
9
  6
Continuous
 62
     4
370
     9
100
AcDbLine
 10
258.5145325053732
 20
421.801877217908
 30
0.0
 11
156.6805649437083
 21
421.8018772179083
 31
0.0
  0
LINE
  5
23D
330
238
100
AcDbEntity
  8
9
  6
Continuous
 62
     4
370
     9
100
AcDbLine
 10
159.6805649437083
 20
175.8018772179078
 30
0.0
 11
159.6805649437083
 21
421.8018772179083
 31
0.0
  0
MTEXT
  5
23E
330
238
100
AcDbEntity
  8
9
  6
Continuous
 62
     4
370
     9
100
AcDbMText
 10
159.6805649437083
 20
298.8018772179075
 30
0.0
 40
6.0
 41
77.14285714285714
 46
6.0
 71
     8
 72
     1
  1
246
  7
ＭＳ ゴシック
 11
1.615544574432587E-15
 21
1.0
 31
0.0
 73
     1
 44
1.0
1001
ACAD
1000
ACAD_MTEXT_DEFINED_HEIGHT_BEGIN
1070
    46
1040
6.0
1000
ACAD_MTEXT_DEFINED_HEIGHT_END
  0
INSERT
  5
23F
330
238
100
AcDbEntity
  8
9
  6
Continuous
 62
     4
370
     9
100
AcDbBlockReference
  2
_ARROWFILLED
 10
159.6805649437083
 20
175.8018772179078
 30
0.0
 41
4.0
 42
4.0
 43
4.0
 50
269.9999999999998
  0
INSERT
  5
240
330
238
100
AcDbEntity
  8
9
  6
Continuous
 62
     4
370
     9
100
AcDbBlockReference
  2
_ARROWFILLED
 10
159.6805649437083
 20
421.8018772179083
 30
0.0
 41
4.0
 42
4.0
 43
4.0
 50
89.99999999999991
  0
ENDBLK
  5
23A
330
238
100
AcDbEntity
  8
0
100
AcDbBlockEnd
  0
BLOCK
  5
243
330
242
100
AcDbEntity
  8
0
100
AcDbBlockBegin
  2
Dim9
 70
     0
 10
0.0
 20
0.0
 30
0.0
  3
Dim9
  1
Dim9
  0
LINE
  5
245
330
242
100
AcDbEntity
  8
9
  6
Continuous
 62
     4
370
     9
100
AcDbLine
 10
245.1145325053722
 20
428.801877217908
 30
0.0
 11
135.8097274222491
 21
428.8018772179083
 31
0.0
  0
LINE
  5
246
330
242
100
AcDbEntity
  8
9
  6
Continuous
 62
     4
370
     9
100
AcDbLine
 10
245.1145325053722
 20
168.8018772179075
 30
0.0
 11
135.8097274222491
 21
168.8018772179078
 31
0.0
  0
LINE
  5
247
330
242
100
AcDbEntity
  8
9
  6
Continuous
 62
     4
370
     9
100
AcDbLine
 10
138.8097274222491
 20
428.8018772179083
 30
0.0
 11
138.8097274222491
 21
168.8018772179078
 31
0.0
  0
MTEXT
  5
248
330
242
100
AcDbEntity
  8
9
  6
Continuous
 62
     4
370
     9
100
AcDbMText
 10
138.8097274222491
 20
298.8018772179074
 30
0.0
 40
6.0
 41
77.14285714285714
 46
6.0
 71
     8
 72
     1
  1
260
  7
ＭＳ ゴシック
 11
1.615544574432587E-15
 21
1.0
 31
0.0
 73
     1
 44
1.0
1001
ACAD
1000
ACAD_MTEXT_DEFINED_HEIGHT_BEGIN
1070
    46
1040
6.0
1000
ACAD_MTEXT_DEFINED_HEIGHT_END
  0
INSERT
  5
249
330
242
100
AcDbEntity
  8
9
  6
Continuous
 62
     4
370
     9
100
AcDbBlockReference
  2
_ARROWFILLED
 10
138.8097274222491
 20
428.8018772179083
 30
0.0
 41
4.0
 42
4.0
 43
4.0
 50
89.99999999999991
  0
INSERT
  5
24A
330
242
100
AcDbEntity
  8
9
  6
Continuous
 62
     4
370
     9
100
AcDbBlockReference
  2
_ARROWFILLED
 10
138.8097274222491
 20
168.8018772179078
 30
0.0
 41
4.0
 42
4.0
 43
4.0
 50
269.9999999999998
  0
ENDBLK
  5
244
330
242
100
AcDbEntity
  8
0
100
AcDbBlockEnd
  0
BLOCK
  5
24D
330
24C
100
AcDbEntity
  8
0
100
AcDbBlockBegin
  2
Dim10
 70
     0
 10
0.0
 20
0.0
 30
0.0
  3
Dim10
  1
Dim10
  0
LINE
  5
24F
330
24C
100
AcDbEntity
  8
9
  6
Continuous
 62
     4
370
     9
100
AcDbLine
 10
329.6145325053731
 20
167.2018772179072
 30
0.0
 11
329.6145325053731
 21
140.3670662418244
 31
0.0
  0
LINE
  5
250
330
24C
100
AcDbEntity
  8
9
  6
Continuous
 62
     4
370
     9
100
AcDbLine
 10
454.6145325053731
 20
167.2018772179072
 30
0.0
 11
454.6145325053731
 21
140.3670662418244
 31
0.0
  0
LINE
  5
251
330
24C
100
AcDbEntity
  8
9
  6
Continuous
 62
     4
370
     9
100
AcDbLine
 10
329.6145325053731
 20
143.3670662418244
 30
0.0
 11
454.6145325053731
 21
143.3670662418244
 31
0.0
  0
MTEXT
  5
252
330
24C
100
AcDbEntity
  8
9
  6
Continuous
 62
     4
370
     9
100
AcDbMText
 10
392.1145325053731
 20
143.3670662418244
 30
0.0
 40
6.0
 41
72.85714285714286
 46
6.0
 71
     8
 72
     1
  1
125
  7
ＭＳ ゴシック
 73
     1
 44
1.0
1001
ACAD
1000
ACAD_MTEXT_DEFINED_HEIGHT_BEGIN
1070
    46
1040
6.0
1000
ACAD_MTEXT_DEFINED_HEIGHT_END
  0
INSERT
  5
253
330
24C
100
AcDbEntity
  8
9
  6
Continuous
 62
     4
370
     9
100
AcDbBlockReference
  2
_ARROWFILLED
 10
329.6145325053731
 20
143.3670662418244
 30
0.0
 41
4.0
 42
4.0
 43
4.0
 50
179.9999999999998
  0
INSERT
  5
254
330
24C
100
AcDbEntity
  8
9
  6
Continuous
 62
     4
370
     9
100
AcDbBlockReference
  2
_ARROWFILLED
 10
454.6145325053731
 20
143.3670662418244
 30
0.0
 41
4.0
 42
4.0
 43
4.0
 50
359.9999999999997
  0
ENDBLK
  5
24E
330
24C
100
AcDbEntity
  8
0
100
AcDbBlockEnd
  0
BLOCK
  5
257
330
256
100
AcDbEntity
  8
0
100
AcDbBlockBegin
  2
Dim11
 70
     0
 10
0.0
 20
0.0
 30
0.0
  3
Dim11
  1
Dim11
  0
LINE
  5
259
330
256
100
AcDbEntity
  8
9
  6
Continuous
 62
     4
370
     9
100
AcDbLine
 10
517.1145325053731
 20
167.2018772179072
 30
0.0
 11
517.114532505373
 21
116.9526574721767
 31
0.0
  0
LINE
  5
25A
330
256
100
AcDbEntity
  8
9
  6
Continuous
 62
     4
370
     9
100
AcDbLine
 10
267.1145325053731
 20
167.2018772179072
 30
0.0
 11
267.1145325053731
 21
116.9526574721767
 31
0.0
  0
LINE
  5
25B
330
256
100
AcDbEntity
  8
9
  6
Continuous
 62
     4
370
     9
100
AcDbLine
 10
517.114532505373
 20
119.9526574721767
 30
0.0
 11
267.1145325053731
 21
119.9526574721767
 31
0.0
  0
MTEXT
  5
25C
330
256
100
AcDbEntity
  8
9
  6
Continuous
 62
     4
370
     9
100
AcDbMText
 10
392.1145325053731
 20
119.9526574721767
 30
0.0
 40
6.0
 41
77.14285714285714
 46
6.0
 71
     8
 72
     1
  1
250
  7
ＭＳ ゴシック
 73
     1
 44
1.0
1001
ACAD
1000
ACAD_MTEXT_DEFINED_HEIGHT_BEGIN
1070
    46
1040
6.0
1000
ACAD_MTEXT_DEFINED_HEIGHT_END
  0
INSERT
  5
25D
330
256
100
AcDbEntity
  8
9
  6
Continuous
 62
     4
370
     9
100
AcDbBlockReference
  2
_ARROWFILLED
 10
517.114532505373
 20
119.9526574721767
 30
0.0
 41
4.0
 42
4.0
 43
4.0
 50
359.9999999999997
  0
INSERT
  5
25E
330
256
100
AcDbEntity
  8
9
  6
Continuous
 62
     4
370
     9
100
AcDbBlockReference
  2
_ARROWFILLED
 10
267.1145325053731
 20
119.9526574721767
 30
0.0
 41
4.0
 42
4.0
 43
4.0
 50
179.9999999999998
  0
ENDBLK
  5
258
330
256
100
AcDbEntity
  8
0
100
AcDbBlockEnd
  0
BLOCK
  5
261
330
260
100
AcDbEntity
  8
0
100
AcDbBlockBegin
  2
Dim12
 70
     0
 10
0.0
 20
0.0
 30
0.0
  3
Dim12
  1
Dim12
  0
LINE
  5
263
330
260
100
AcDbEntity
  8
9
  6
Continuous
 62
     4
370
     9
100
AcDbLine
 10
378.796441174491
 20
277.0561088180011
 30
0.0
 11
489.2033445939591
 21
457.328408493933
 31
0.0
  0
MTEXT
  5
264
330
260
100
AcDbEntity
  8
9
  6
Continuous
 62
     4
370
     9
100
AcDbMText
 10
484.5028417712975
 20
449.6534314116121
 30
0.0
 40
6.0
 41
75.71428571428571
 46
6.0
 71
     7
 72
     1
  1
∅35
  7
ＭＳ ゴシック
 11
0.5222780914068506
 21
0.85277523136898
 31
0.0
 73
     1
 44
1.0
1001
ACAD
1000
ACAD_MTEXT_DEFINED_HEIGHT_BEGIN
1070
    46
1040
6.0
1000
ACAD_MTEXT_DEFINED_HEIGHT_END
  0
INSERT
  5
265
330
260
100
AcDbEntity
  8
9
  6
Continuous
 62
     4
370
     9
100
AcDbBlockReference
  2
_ARROWFILLED
 10
382.9746659057458
 20
283.8783106689529
 30
0.0
 41
4.0
 42
4.0
 43
4.0
 50
58.51481420898109
  0
INSERT
  5
266
330
260
100
AcDbEntity
  8
9
  6
Continuous
 62
     4
370
     9
100
AcDbBlockReference
  2
_ARROWFILLED
 10
401.2543991049858
 20
313.7254437668676
 30
0.0
 41
4.0
 42
4.0
 43
4.0
 50
238.5148142089811
  0
ENDBLK
  5
262
330
260
100
AcDbEntity
  8
0
100
AcDbBlockEnd
  0
BLOCK
  5
269
330
268
100
AcDbEntity
  8
0
100
AcDbBlockBegin
  2
Dim13
 70
     0
 10
0.0
 20
0.0
 30
0.0
  3
Dim13
  1
Dim13
  0
LINE
  5
26B
330
268
100
AcDbEntity
  8
9
  6
Continuous
 62
     4
370
     9
100
AcDbLine
 10
371.9374588488233
 20
275.929717314253
 30
0.0
 11
530.7010135803113
 21
455.8995916629351
 31
0.0
  0
MTEXT
  5
26C
330
268
100
AcDbEntity
  8
9
  6
Continuous
 62
     4
370
     9
100
AcDbMText
 10
524.7471229931352
 20
449.1504297241507
 30
0.0
 40
6.0
 41
75.71428571428571
 46
6.0
 71
     7
 72
     1
  1
∅45
  7
ＭＳ ゴシック
 11
0.6615433985751176
 21
0.7499068820871582
 31
0.0
 73
     1
 44
1.0
1001
ACAD
1000
ACAD_MTEXT_DEFINED_HEIGHT_BEGIN
1070
    46
1040
6.0
1000
ACAD_MTEXT_DEFINED_HEIGHT_END
  0
INSERT
  5
26D
330
268
100
AcDbEntity
  8
9
  6
Continuous
 62
     4
370
     9
100
AcDbBlockReference
  2
_ARROWFILLED
 10
377.2298060374242
 20
281.9289723709502
 30
0.0
 41
4.0
 42
4.0
 43
4.0
 50
48.58231237432108
  0
INSERT
  5
26E
330
268
100
AcDbEntity
  8
9
  6
Continuous
 62
     4
370
     9
100
AcDbBlockReference
  2
_ARROWFILLED
 10
406.9992589733038
 20
315.6747820648716
 30
0.0
 41
4.0
 42
4.0
 43
4.0
 50
228.582312374321
  0
ENDBLK
  5
26A
330
268
100
AcDbEntity
  8
0
100
AcDbBlockEnd
  0
BLOCK
  5
271
330
270
100
AcDbEntity
  8
0
100
AcDbBlockBegin
  2
Dim14
 70
     0
 10
0.0
 20
0.0
 30
0.0
  3
Dim14
  1
Dim14
  0
LINE
  5
273
330
270
100
AcDbEntity
  8
9
  6
Continuous
 62
     4
370
     9
100
AcDbLine
 10
678.682837362654
 20
181.8018772179112
 30
0.0
 11
678.6828373626539
 21
95.66736800559556
 31
0.0
  0
LINE
  5
274
330
270
100
AcDbEntity
  8
9
  6
Continuous
 62
     4
370
     9
100
AcDbLine
 10
723.682837362654
 20
166.8018772179112
 30
0.0
 11
723.6828373626539
 21
95.66736800559556
 31
0.0
  0
LINE
  5
275
330
270
100
AcDbEntity
  8
9
  6
Continuous
 62
     4
370
     9
100
AcDbLine
 10
678.6828373626539
 20
98.66736800559556
 30
0.0
 11
723.6828373626539
 21
98.66736800559556
 31
0.0
  0
MTEXT
  5
276
330
270
100
AcDbEntity
  8
9
  6
Continuous
 62
     4
370
     9
100
AcDbMText
 10
701.182837362654
 20
98.66736800559556
 30
0.0
 40
6.0
 41
48.57142857142856
 46
6.0
 71
     8
 72
     1
  1
45
  7
ＭＳ ゴシック
 73
     1
 44
1.0
1001
ACAD
1000
ACAD_MTEXT_DEFINED_HEIGHT_BEGIN
1070
    46
1040
6.0
1000
ACAD_MTEXT_DEFINED_HEIGHT_END
  0
INSERT
  5
277
330
270
100
AcDbEntity
  8
9
  6
Continuous
 62
     4
370
     9
100
AcDbBlockReference
  2
_ARROWFILLED
 10
678.6828373626539
 20
98.66736800559556
 30
0.0
 41
4.0
 42
4.0
 43
4.0
 50
179.9999999999998
  0
INSERT
  5
278
330
270
100
AcDbEntity
  8
9
  6
Continuous
 62
     4
370
     9
100
AcDbBlockReference
  2
_ARROWFILLED
 10
723.6828373626539
 20
98.66736800559556
 30
0.0
 41
4.0
 42
4.0
 43
4.0
 50
359.9999999999997
  0
ENDBLK
  5
272
330
270
100
AcDbEntity
  8
0
100
AcDbBlockEnd
  0
ENDSEC
  0
SECTION
  2
ENTITIES
  0
LINE
  5
CC
330
1F
100
AcDbEntity
  8
10
  6
Continuous
 62
     7
370
    25
100
AcDbLine
 10
542.1145325053731
 20
198.8018772179075
 30
0.0
 11
542.1145325053731
 21
398.801877217908
 31
0.0
  0
LINE
  5
CD
330
1F
100
AcDbEntity
  8
10
  6
Continuous
 62
     7
370
    25
100
AcDbLine
 10
542.1145325053731
 20
398.801877217908
 30
0.0
 11
242.1145325053726
 21
398.801877217908
 31
0.0
  0
LINE
  5
CE
330
1F
100
AcDbEntity
  8
10
  6
Continuous
 62
     7
370
    25
100
AcDbLine
 10
242.1145325053731
 20
398.801877217908
 30
0.0
 11
242.1145325053731
 21
198.8018772179075
 31
0.0
  0
LINE
  5
CF
330
1F
100
AcDbEntity
  8
4
  6
DASHDOT
 62
     1
370
     9
100
AcDbLine
 10
392.1145325053735
 20
438.801877217908
 30
0.0
 11
392.1145325053731
 21
158.8018772179075
 31
0.0
  0
LINE
  5
D0
330
1F
100
AcDbEntity
  8
10
  6
Continuous
 62
     7
370
    25
100
AcDbLine
 10
242.1145325053726
 20
198.8018772179075
 30
0.0
 11
542.1145325053731
 21
198.8018772179075
 31
0.0
  0
LINE
  5
D1
330
1F
100
AcDbEntity
  8
10
  6
Continuous
 62
     7
370
    25
100
AcDbLine
 10
557.1145325053731
 20
183.8018772179075
 30
0.0
 11
227.1145325053731
 21
183.8018772179057
 31
0.0
  0
LINE
  5
D2
330
1F
100
AcDbEntity
  8
10
  6
Continuous
 62
     7
370
    25
100
AcDbLine
 10
557.1145325053731
 20
413.801877217908
 30
0.0
 11
227.1145325053731
 21
413.801877217908
 31
0.0
  0
LINE
  5
D3
330
1F
100
AcDbEntity
  8
10
  6
Continuous
 62
     7
370
    25
100
AcDbLine
 10
227.1145325053731
 20
413.801877217908
 30
0.0
 11
227.1145325053731
 21
183.8018772179075
 31
0.0
  0
LINE
  5
D4
330
1F
100
AcDbEntity
  8
10
  6
Continuous
 62
     7
370
    25
100
AcDbLine
 10
542.1145325053731
 20
173.8018772179075
 30
0.0
 11
542.1145325053731
 21
183.8018772179075
 31
0.0
  0
ARC
  5
D5
330
1F
100
AcDbEntity
  8
10
  6
Continuous
 62
     7
370
    25
100
AcDbCircle
 10
537.114532505374
 20
173.8018772179075
 30
0.0
 40
5.0
100
AcDbArc
 50
269.9999999999998
 51
0.0
  0
LINE
  5
D6
330
1F
100
AcDbEntity
  8
10
  6
Continuous
 62
     7
370
    25
100
AcDbLine
 10
247.1145325053722
 20
168.8018772179075
 30
0.0
 11
537.114532505374
 21
168.8018772179075
 31
0.0
  0
LINE
  5
D7
330
1F
100
AcDbEntity
  8
10
  6
Continuous
 62
     7
370
    25
100
AcDbLine
 10
242.1145325053731
 20
173.8018772179075
 30
0.0
 11
242.1145325053731
 21
183.8018772179075
 31
0.0
  0
ARC
  5
D8
330
1F
100
AcDbEntity
  8
10
  6
Continuous
 62
     7
370
    25
100
AcDbCircle
 10
247.1145325053722
 20
173.8018772179075
 30
0.0
 40
5.0
100
AcDbArc
 50
179.9999999999998
 51
269.9999999999998
  0
LINE
  5
D9
330
1F
100
AcDbEntity
  8
10
  6
Continuous
 62
     7
370
    25
100
AcDbLine
 10
542.1145325053731
 20
423.801877217908
 30
0.0
 11
542.1145325053731
 21
413.801877217908
 31
0.0
  0
ARC
  5
DA
330
1F
100
AcDbEntity
  8
10
  6
Continuous
 62
     7
370
    25
100
AcDbCircle
 10
537.114532505374
 20
423.801877217908
 30
0.0
 40
5.0
100
AcDbArc
 50
0.0
 51
89.99999999999991
  0
LINE
  5
DB
330
1F
100
AcDbEntity
  8
10
  6
Continuous
 62
     7
370
    25
100
AcDbLine
 10
247.1145325053731
 20
428.801877217908
 30
0.0
 11
537.114532505374
 21
428.801877217908
 31
0.0
  0
LINE
  5
DC
330
1F
100
AcDbEntity
  8
10
  6
Continuous
 62
     7
370
    25
100
AcDbLine
 10
242.1145325053731
 20
423.801877217908
 30
0.0
 11
242.1145325053731
 21
413.801877217908
 31
0.0
  0
ARC
  5
DD
330
1F
100
AcDbEntity
  8
10
  6
Continuous
 62
     7
370
    25
100
AcDbCircle
 10
247.1145325053722
 20
423.801877217908
 30
0.0
 40
5.0
100
AcDbArc
 50
89.99999999999991
 51
179.9999999999998
  0
LINE
  5
DE
330
1F
100
AcDbEntity
  8
10
  6
Continuous
 62
     7
370
    25
100
AcDbLine
 10
240.5645325053747
 20
183.4852105512418
 30
0.0
 11
233.6645325053751
 21
183.4852105512418
 31
0.0
  0
ARC
  5
DF
330
1F
100
AcDbEntity
  8
10
  6
Continuous
 62
     7
370
    25
100
AcDbCircle
 10
237.1145325053749
 20
186.4522280951005
 30
0.0
 40
4.550350877192983
100
AcDbArc
 50
220.6956985253369
 51
319.3043014746624
  0
LINE
  5
E0
330
1F
100
AcDbEntity
  8
10
  6
Continuous
 62
     7
370
    25
100
AcDbLine
 10
240.5645325053747
 20
183.8018772179075
 30
0.0
 11
240.5645325053747
 21
183.4852105512418
 31
0.0
  0
LINE
  5
E1
330
1F
100
AcDbEntity
  8
10
  6
Continuous
 62
     7
370
    25
100
AcDbLine
 10
233.6645325053751
 20
183.8018772179075
 30
0.0
 11
233.6645325053751
 21
183.4852105512418
 31
0.0
  0
LINE
  5
E2
330
1F
100
AcDbEntity
  8
10
  6
Continuous
 62
     7
370
    25
100
AcDbLine
 10
262.0645325053747
 20
183.4852105512418
 30
0.0
 11
255.1645325053742
 21
183.4852105512418
 31
0.0
  0
ARC
  5
E3
330
1F
100
AcDbEntity
  8
10
  6
Continuous
 62
     7
370
    25
100
AcDbCircle
 10
258.6145325053749
 20
186.4522280951005
 30
0.0
 40
4.550350877192955
100
AcDbArc
 50
220.6956985253369
 51
319.3043014746624
  0
LINE
  5
E4
330
1F
100
AcDbEntity
  8
10
  6
Continuous
 62
     7
370
    25
100
AcDbLine
 10
262.0645325053747
 20
183.8018772179075
 30
0.0
 11
262.0645325053747
 21
183.4852105512418
 31
0.0
  0
LINE
  5
E5
330
1F
100
AcDbEntity
  8
10
  6
Continuous
 62
     7
370
    25
100
AcDbLine
 10
255.1645325053742
 20
183.8018772179075
 30
0.0
 11
255.1645325053742
 21
183.4852105512418
 31
0.0
  0
LINE
  5
E6
330
1F
100
AcDbEntity
  8
10
  6
Continuous
 62
     7
370
    25
100
AcDbLine
 10
240.5645325053747
 20
414.1185438845755
 30
0.0
 11
233.6645325053751
 21
414.1185438845755
 31
0.0
  0
ARC
  5
E7
330
1F
100
AcDbEntity
  8
10
  6
Continuous
 62
     7
370
    25
100
AcDbCircle
 10
237.1145325053749
 20
411.151526340715
 30
0.0
 40
4.550350877192983
100
AcDbArc
 50
40.69569852533728
 51
139.3043014746627
  0
LINE
  5
E8
330
1F
100
AcDbEntity
  8
10
  6
Continuous
 62
     7
370
    25
100
AcDbLine
 10
240.5645325053747
 20
413.801877217908
 30
0.0
 11
240.5645325053747
 21
414.1185438845755
 31
0.0
  0
LINE
  5
E9
330
1F
100
AcDbEntity
  8
10
  6
Continuous
 62
     7
370
    25
100
AcDbLine
 10
233.6645325053751
 20
413.801877217908
 30
0.0
 11
233.6645325053751
 21
414.1185438845755
 31
0.0
  0
LINE
  5
EA
330
1F
100
AcDbEntity
  8
10
  6
Continuous
 62
     7
370
    25
100
AcDbLine
 10
262.0645325053747
 20
414.1185438845755
 30
0.0
 11
255.1645325053742
 21
414.1185438845755
 31
0.0
  0
ARC
  5
EB
330
1F
100
AcDbEntity
  8
10
  6
Continuous
 62
     7
370
    25
100
AcDbCircle
 10
258.6145325053749
 20
411.151526340715
 30
0.0
 40
4.550350877192955
100
AcDbArc
 50
40.69569852533728
 51
139.3043014746627
  0
LINE
  5
EC
330
1F
100
AcDbEntity
  8
10
  6
Continuous
 62
     7
370
    25
100
AcDbLine
 10
262.0645325053747
 20
413.801877217908
 30
0.0
 11
262.0645325053747
 21
414.1185438845755
 31
0.0
  0
LINE
  5
ED
330
1F
100
AcDbEntity
  8
10
  6
Continuous
 62
     7
370
    25
100
AcDbLine
 10
255.1645325053742
 20
413.801877217908
 30
0.0
 11
255.1645325053742
 21
414.1185438845755
 31
0.0
  0
LINE
  5
EE
330
1F
100
AcDbEntity
  8
10
  6
Continuous
 62
     7
370
    25
100
AcDbLine
 10
543.6645325053714
 20
414.1185438845737
 30
0.0
 11
550.564532505372
 21
414.1185438845737
 31
0.0
  0
ARC
  5
EF
330
1F
100
AcDbEntity
  8
10
  6
Continuous
 62
     7
370
    25
100
AcDbCircle
 10
547.1145325053712
 20
411.151526340715
 30
0.0
 40
4.550350877192955
100
AcDbArc
 50
40.69569852533728
 51
139.3043014746627
  0
LINE
  5
F0
330
1F
100
AcDbEntity
  8
10
  6
Continuous
 62
     7
370
    25
100
AcDbLine
 10
543.6645325053714
 20
413.801877217908
 30
0.0
 11
543.6645325053714
 21
414.1185438845737
 31
0.0
  0
LINE
  5
F1
330
1F
100
AcDbEntity
  8
10
  6
Continuous
 62
     7
370
    25
100
AcDbLine
 10
550.564532505372
 20
413.801877217908
 30
0.0
 11
550.564532505372
 21
414.1185438845737
 31
0.0
  0
LINE
  5
F2
330
1F
100
AcDbEntity
  8
10
  6
Continuous
 62
     7
370
    25
100
AcDbLine
 10
522.1645325053723
 20
414.1185438845737
 30
0.0
 11
529.064532505372
 21
414.1185438845737
 31
0.0
  0
ARC
  5
F3
330
1F
100
AcDbEntity
  8
10
  6
Continuous
 62
     7
370
    25
100
AcDbCircle
 10
525.6145325053722
 20
411.151526340715
 30
0.0
 40
4.550350877192955
100
AcDbArc
 50
40.69569852533728
 51
139.3043014746627
  0
LINE
  5
F4
330
1F
100
AcDbEntity
  8
10
  6
Continuous
 62
     7
370
    25
100
AcDbLine
 10
522.1645325053723
 20
413.801877217908
 30
0.0
 11
522.1645325053723
 21
414.1185438845737
 31
0.0
  0
LINE
  5
F5
330
1F
100
AcDbEntity
  8
10
  6
Continuous
 62
     7
370
    25
100
AcDbLine
 10
529.064532505372
 20
413.801877217908
 30
0.0
 11
529.064532505372
 21
414.1185438845737
 31
0.0
  0
LINE
  5
F6
330
1F
100
AcDbEntity
  8
10
  6
Continuous
 62
     7
370
    25
100
AcDbLine
 10
543.6645325053714
 20
183.4852105512418
 30
0.0
 11
550.564532505372
 21
183.4852105512418
 31
0.0
  0
ARC
  5
F7
330
1F
100
AcDbEntity
  8
10
  6
Continuous
 62
     7
370
    25
100
AcDbCircle
 10
547.1145325053712
 20
186.4522280951005
 30
0.0
 40
4.550350877192955
100
AcDbArc
 50
220.6956985253369
 51
319.3043014746624
  0
LINE
  5
F8
330
1F
100
AcDbEntity
  8
10
  6
Continuous
 62
     7
370
    25
100
AcDbLine
 10
543.6645325053714
 20
183.8018772179075
 30
0.0
 11
543.6645325053714
 21
183.4852105512418
 31
0.0
  0
LINE
  5
F9
330
1F
100
AcDbEntity
  8
10
  6
Continuous
 62
     7
370
    25
100
AcDbLine
 10
550.564532505372
 20
183.8018772179075
 30
0.0
 11
550.564532505372
 21
183.4852105512418
 31
0.0
  0
LINE
  5
FA
330
1F
100
AcDbEntity
  8
10
  6
Continuous
 62
     7
370
    25
100
AcDbLine
 10
522.1645325053723
 20
183.4852105512418
 30
0.0
 11
529.064532505372
 21
183.4852105512418
 31
0.0
  0
ARC
  5
FB
330
1F
100
AcDbEntity
  8
10
  6
Continuous
 62
     7
370
    25
100
AcDbCircle
 10
525.6145325053722
 20
186.4522280951005
 30
0.0
 40
4.550350877192955
100
AcDbArc
 50
220.6956985253369
 51
319.3043014746624
  0
LINE
  5
FC
330
1F
100
AcDbEntity
  8
10
  6
Continuous
 62
     7
370
    25
100
AcDbLine
 10
522.1645325053723
 20
183.8018772179075
 30
0.0
 11
522.1645325053723
 21
183.4852105512418
 31
0.0
  0
LINE
  5
FD
330
1F
100
AcDbEntity
  8
10
  6
Continuous
 62
     7
370
    25
100
AcDbLine
 10
529.064532505372
 20
183.8018772179075
 30
0.0
 11
529.064532505372
 21
183.4852105512418
 31
0.0
  0
LINE
  5
FE
330
1F
100
AcDbEntity
  8
10
  6
Continuous
 62
     7
370
    25
100
AcDbLine
 10
226.7978658387055
 20
302.2518772179064
 30
0.0
 11
226.7978658387055
 21
295.3518772179068
 31
0.0
  0
ARC
  5
FF
330
1F
100
AcDbEntity
  8
10
  6
Continuous
 62
     7
370
    25
100
AcDbCircle
 10
229.764883382566
 20
298.8018772179075
 30
0.0
 40
4.550350877192983
100
AcDbArc
 50
130.6956985253535
 51
229.3043014746461
  0
LINE
  5
100
330
1F
100
AcDbEntity
  8
10
  6
Continuous
 62
     7
370
    25
100
AcDbLine
 10
227.1145325053731
 20
302.2518772179064
 30
0.0
 11
226.7978658387055
 21
302.2518772179064
 31
0.0
  0
LINE
  5
101
330
1F
100
AcDbEntity
  8
10
  6
Continuous
 62
     7
370
    25
100
AcDbLine
 10
227.1145325053731
 20
295.3518772179068
 30
0.0
 11
226.7978658387055
 21
295.3518772179068
 31
0.0
  0
LINE
  5
102
330
1F
100
AcDbEntity
  8
4
  6
DASHDOT
 62
     1
370
     9
100
AcDbLine
 10
567.1145325053731
 20
298.8018772179075
 30
0.0
 11
217.1145325053731
 21
298.8018772179075
 31
0.0
  0
LINE
  5
103
330
1F
100
AcDbEntity
  8
4
  6
DASHDOT
 62
     1
370
     9
100
AcDbLine
 10
260.5145325053732
 20
175.8018772179075
 30
0.0
 11
273.714532505373
 21
175.8018772179075
 31
0.0
  0
LINE
  5
104
330
1F
100
AcDbEntity
  8
4
  6
DASHDOT
 62
     1
370
     9
100
AcDbLine
 10
267.1145325053731
 20
182.4018772179079
 30
0.0
 11
267.1145325053731
 21
169.2018772179072
 31
0.0
  0
LINE
  5
105
330
1F
100
AcDbEntity
  8
4
  6
DASHDOT
 62
     1
370
     9
100
AcDbLine
 10
510.5145325053727
 20
175.8018772179075
 30
0.0
 11
523.7145325053734
 21
175.8018772179075
 31
0.0
  0
LINE
  5
106
330
1F
100
AcDbEntity
  8
4
  6
DASHDOT
 62
     1
370
     9
100
AcDbLine
 10
517.1145325053731
 20
182.4018772179079
 30
0.0
 11
517.1145325053731
 21
169.2018772179072
 31
0.0
  0
LINE
  5
107
330
1F
100
AcDbEntity
  8
10
  6
Continuous
 62
     7
370
    25
100
AcDbLine
 10
395.5645325053747
 20
183.48521055124
 30
0.0
 11
388.6645325053742
 21
183.48521055124
 31
0.0
  0
ARC
  5
108
330
1F
100
AcDbEntity
  8
10
  6
Continuous
 62
     7
370
    25
100
AcDbCircle
 10
392.1145325053749
 20
186.4522280951005
 30
0.0
 40
4.550350877192955
100
AcDbArc
 50
220.6956985253369
 51
319.3043014746624
  0
LINE
  5
109
330
1F
100
AcDbEntity
  8
10
  6
Continuous
 62
     7
370
    25
100
AcDbLine
 10
395.5645325053747
 20
183.8018772179075
 30
0.0
 11
395.5645325053747
 21
183.48521055124
 31
0.0
  0
LINE
  5
10A
330
1F
100
AcDbEntity
  8
10
  6
Continuous
 62
     7
370
    25
100
AcDbLine
 10
388.6645325053742
 20
183.8018772179075
 30
0.0
 11
388.6645325053742
 21
183.48521055124
 31
0.0
  0
LINE
  5
10B
330
1F
100
AcDbEntity
  8
4
  6
DASHDOT
 62
     1
370
     9
100
AcDbLine
 10
461.2145325053725
 20
175.8018772179075
 30
0.0
 11
448.0145325053727
 21
175.8018772179075
 31
0.0
  0
LINE
  5
10C
330
1F
100
AcDbEntity
  8
4
  6
DASHDOT
 62
     1
370
     9
100
AcDbLine
 10
454.6145325053731
 20
182.4018772179079
 30
0.0
 11
454.6145325053731
 21
169.2018772179072
 31
0.0
  0
LINE
  5
10D
330
1F
100
AcDbEntity
  8
4
  6
DASHDOT
 62
     1
370
     9
100
AcDbLine
 10
260.5145325053732
 20
421.801877217908
 30
0.0
 11
273.714532505373
 21
421.801877217908
 31
0.0
  0
LINE
  5
10E
330
1F
100
AcDbEntity
  8
4
  6
DASHDOT
 62
     1
370
     9
100
AcDbLine
 10
267.1145325053731
 20
415.2018772179076
 30
0.0
 11
267.1145325053731
 21
428.4018772179083
 31
0.0
  0
LINE
  5
10F
330
1F
100
AcDbEntity
  8
4
  6
DASHDOT
 62
     1
370
     9
100
AcDbLine
 10
510.5145325053727
 20
421.801877217908
 30
0.0
 11
523.7145325053734
 21
421.801877217908
 31
0.0
  0
LINE
  5
110
330
1F
100
AcDbEntity
  8
4
  6
DASHDOT
 62
     1
370
     9
100
AcDbLine
 10
517.1145325053731
 20
415.2018772179076
 30
0.0
 11
517.1145325053731
 21
428.4018772179083
 31
0.0
  0
DIMENSION
  5
11B
330
1F
100
AcDbEntity
  8
9
  6
Continuous
 62
     4
370
     9
100
AcDbDimension
280
     0
  2
Dim1
 10
575.1145325053645
 20
74.82860273628467
 30
0.0
 11
589.1145325053649
 21
80.82860273628467
 31
0.0
 70
   160
  1
(<>
 71
     5
 42
-1.0
 73
     0
 74
     0
 75
     0
  3
Standard
100
AcDbAlignedDimension
 13
557.1145325053731
 23
183.8018772179075
 33
0.0
 14
575.1145325053649
 24
296.3018772179112
 34
0.0
100
AcDbRotatedDimension
1001
ACAD
1000
DSTYLE
1002
{
1070
   279
1070
     2
1070
   340
1005
111
1070
   140
1040
6.0
1070
    40
1040
1.0
1070
   147
1040
0.0
1070
    76
1070
     0
1070
    75
1070
     0
1070
   344
1005
0
1070
   343
1005
0
1070
   173
1070
     1
1070
   289
1070
     2
1070
   288
1070
     1
1070
    77
1070
     1
1070
   172
1070
     1
1070
   174
1070
     0
1070
    74
1070
     0
1070
    73
1070
     0
1070
   284
1070
     8
1070
    78
1070
     8
1070
    42
1040
2.0
1070
    44
1040
3.0
1070
    43
1040
30.0
1070
   271
1070
     2
1070
    41
1040
4.0
1002
}
  0
CIRCLE
  5
11C
330
1F
100
AcDbEntity
  8
10
  6
Continuous
 62
     7
370
    25
100
AcDbCircle
 10
267.1145325053731
 20
421.801877217908
 30
0.0
 40
3.100000000000023
  0
CIRCLE
  5
11D
330
1F
100
AcDbEntity
  8
10
  6
Continuous
 62
     7
370
    25
100
AcDbCircle
 10
517.1145325053731
 20
421.801877217908
 30
0.0
 40
3.100000000000023
  0
CIRCLE
  5
11E
330
1F
100
AcDbEntity
  8
10
  6
Continuous
 62
     7
370
    25
100
AcDbCircle
 10
267.1145325053731
 20
175.8018772179075
 30
0.0
 40
3.100000000000023
  0
CIRCLE
  5
11F
330
1F
100
AcDbEntity
  8
10
  6
Continuous
 62
     7
370
    25
100
AcDbCircle
 10
454.6145325053731
 20
175.8018772179075
 30
0.0
 40
3.100000000000023
  0
CIRCLE
  5
120
330
1F
100
AcDbEntity
  8
10
  6
Continuous
 62
     7
370
    25
100
AcDbCircle
 10
517.1145325053731
 20
175.8018772179075
 30
0.0
 40
3.100000000000023
  0
LINE
  5
121
330
1F
100
AcDbEntity
  8
10
  6
Continuous
 62
     7
370
    25
100
AcDbLine
 10
395.5645325053747
 20
414.1185438845755
 30
0.0
 11
388.6645325053742
 21
414.1185438845755
 31
0.0
  0
ARC
  5
122
330
1F
100
AcDbEntity
  8
10
  6
Continuous
 62
     7
370
    25
100
AcDbCircle
 10
392.1145325053749
 20
411.151526340715
 30
0.0
 40
4.550350877192955
100
AcDbArc
 50
40.69569852533728
 51
139.3043014746627
  0
LINE
  5
123
330
1F
100
AcDbEntity
  8
10
  6
Continuous
 62
     7
370
    25
100
AcDbLine
 10
395.5645325053747
 20
413.801877217908
 30
0.0
 11
395.5645325053747
 21
414.1185438845755
 31
0.0
  0
LINE
  5
124
330
1F
100
AcDbEntity
  8
10
  6
Continuous
 62
     7
370
    25
100
AcDbLine
 10
388.6645325053742
 20
413.801877217908
 30
0.0
 11
388.6645325053742
 21
414.1185438845755
 31
0.0
  0
LINE
  5
125
330
1F
100
AcDbEntity
  8
4
  6
DASHDOT
 62
     1
370
     9
100
AcDbLine
 10
323.0145325053732
 20
175.8018772179075
 30
0.0
 11
336.214532505373
 21
175.8018772179075
 31
0.0
  0
LINE
  5
126
330
1F
100
AcDbEntity
  8
4
  6
DASHDOT
 62
     1
370
     9
100
AcDbLine
 10
329.6145325053731
 20
182.4018772179079
 30
0.0
 11
329.6145325053731
 21
169.2018772179072
 31
0.0
  0
CIRCLE
  5
127
330
1F
100
AcDbEntity
  8
10
  6
Continuous
 62
     7
370
    25
100
AcDbCircle
 10
329.6145325053731
 20
175.8018772179075
 30
0.0
 40
3.100000000000023
  0
LINE
  5
128
330
1F
100
AcDbEntity
  8
4
  6
DASHDOT
 62
     1
370
     9
100
AcDbLine
 10
461.2145325053725
 20
421.801877217908
 30
0.0
 11
448.0145325053727
 21
421.801877217908
 31
0.0
  0
LINE
  5
129
330
1F
100
AcDbEntity
  8
4
  6
DASHDOT
 62
     1
370
     9
100
AcDbLine
 10
454.6145325053731
 20
415.2018772179076
 30
0.0
 11
454.6145325053731
 21
428.4018772179083
 31
0.0
  0
CIRCLE
  5
12A
330
1F
100
AcDbEntity
  8
10
  6
Continuous
 62
     7
370
    25
100
AcDbCircle
 10
454.6145325053731
 20
421.801877217908
 30
0.0
 40
3.100000000000023
  0
LINE
  5
12B
330
1F
100
AcDbEntity
  8
4
  6
DASHDOT
 62
     1
370
     9
100
AcDbLine
 10
323.0145325053732
 20
421.801877217908
 30
0.0
 11
336.214532505373
 21
421.801877217908
 31
0.0
  0
LINE
  5
12C
330
1F
100
AcDbEntity
  8
4
  6
DASHDOT
 62
     1
370
     9
100
AcDbLine
 10
329.6145325053731
 20
415.2018772179076
 30
0.0
 11
329.6145325053731
 21
428.4018772179083
 31
0.0
  0
CIRCLE
  5
12D
330
1F
100
AcDbEntity
  8
10
  6
Continuous
 62
     7
370
    25
100
AcDbCircle
 10
329.6145325053731
 20
421.801877217908
 30
0.0
 40
3.100000000000023
  0
CIRCLE
  5
12E
330
1F
100
AcDbEntity
  8
10
  6
Continuous
 62
     7
370
    25
100
AcDbCircle
 10
392.1145325053653
 20
298.8018772179103
 30
0.0
 40
17.5
  0
CIRCLE
  5
12F
330
1F
100
AcDbEntity
  8
3
  6
HIDDEN
 62
     3
370
     9
100
AcDbCircle
 10
392.1145325053653
 20
298.8018772179103
 30
0.0
 40
22.5
  0
HATCH
  5
130
330
1F
100
AcDbEntity
  8
11
  6
Continuous
 62
     2
370
     9
100
AcDbHatch
 10
0.0
 20
0.0
 30
0.0
210
0.0
220
0.0
230
1.0
  2

 70
     0
 71
     0
 91
        4
 92
        0
 93
        5
 72
     1
 10
392.1145325053735
 20
398.801877217908
 11
242.1145325053731
 21
398.801877217908
 72
     1
 10
242.1145325053731
 20
398.801877217908
 11
242.1145325053731
 21
298.8018772179075
 72
     1
 10
242.1145325053731
 20
298.8018772179075
 11
369.6145325053653
 21
298.8018772179075
 72
     2
 10
392.1145325053652
 20
298.8018772179106
 40
22.49999999999994
 50
89.99999999999986
 51
180.0000000000076
 73
     1
 72
     1
 10
392.1145325053735
 20
321.3018772179103
 11
392.1145325053735
 21
398.801877217908
 97
        0
 92
        0
 93
        5
 72
     1
 10
542.1145325053731
 20
398.801877217908
 11
392.1145325053735
 21
398.801877217908
 72
     1
 10
392.1145325053735
 20
398.801877217908
 11
392.1145325053735
 21
321.3018772179103
 72
     2
 10
392.1145325053638
 20
298.8018772179087
 40
22.50000000000159
 50
359.9999999999964
 51
449.9999999999998
 73
     1
 72
     1
 10
414.6145325053649
 20
298.8018772179075
 11
542.1145325053731
 21
298.8018772179075
 72
     1
 10
542.1145325053731
 20
298.8018772179075
 11
542.1145325053731
 21
398.801877217908
 97
        0
 92
        0
 93
        5
 72
     1
 10
542.1145325053731
 20
298.8018772179075
 11
414.6145325053649
 21
298.8018772179075
 72
     2
 10
392.1145325053641
 20
298.8018772179117
 40
22.5000000000008
 50
269.9999999999997
 51
359.9999999999889
 73
     1
 72
     1
 10
392.1145325053731
 20
276.3018772179103
 11
392.1145325053731
 21
198.8018772179075
 72
     1
 10
392.1145325053731
 20
198.8018772179075
 11
542.1145325053731
 21
198.8018772179075
 72
     1
 10
542.1145325053731
 20
198.8018772179075
 11
542.1145325053731
 21
298.8018772179075
 97
        0
 92
        0
 93
        5
 72
     2
 10
392.1145325053642
 20
298.8018772179097
 40
22.49999999999943
 50
180.0000000000053
 51
269.9999999999997
 73
     1
 72
     1
 10
392.1145325053731
 20
276.3018772179103
 11
392.1145325053731
 21
198.8018772179075
 72
     1
 10
392.1145325053731
 20
198.8018772179075
 11
242.1145325053731
 21
198.8018772179075
 72
     1
 10
242.1145325053731
 20
198.8018772179075
 11
242.1145325053731
 21
298.8018772179075
 72
     1
 10
242.1145325053731
 20
298.8018772179075
 11
369.6145325053653
 21
298.8018772179075
 97
        0
 75
     0
 76
     2
 52
0.0
 41
0.5
 77
     0
 78
     2
 53
45.0
 43
-3699.559753911371
 44
4437.460011067429
 45
-6.735192090801775
 46
6.735192090802229
 79
     0
 53
135.0
 43
-3699.559753911371
 44
4437.460011067429
 45
-6.735192090802229
 46
-6.735192090802229
 79
     0
 98
        0
  0
LINE
  5
131
330
1F
100
AcDbEntity
  8
10
  6
Continuous
 62
     7
370
    25
100
AcDbLine
 10
557.1145325053649
 20
413.8018772179112
 30
0.0
 11
557.1145325053649
 21
183.8018772179112
 31
0.0
  0
LINE
  5
132
330
1F
100
AcDbEntity
  8
10
  6
Continuous
 62
     7
370
    25
100
AcDbLine
 10
557.4311991720324
 20
307.3518772179104
 30
0.0
 11
557.4311991720324
 21
314.2518772179119
 31
0.0
  0
ARC
  5
133
330
1F
100
AcDbEntity
  8
10
  6
Continuous
 62
     7
370
    25
100
AcDbCircle
 10
554.4641816281719
 20
310.8018772179112
 30
0.0
 40
4.550350877192955
100
AcDbArc
 50
310.6956985254262
 51
49.30430147457344
  0
LINE
  5
134
330
1F
100
AcDbEntity
  8
10
  6
Continuous
 62
     7
370
    25
100
AcDbLine
 10
557.1145325053649
 20
307.3518772179104
 30
0.0
 11
557.4311991720324
 21
307.3518772179104
 31
0.0
  0
LINE
  5
135
330
1F
100
AcDbEntity
  8
10
  6
Continuous
 62
     7
370
    25
100
AcDbLine
 10
557.1145325053649
 20
314.2518772179119
 30
0.0
 11
557.4311991720324
 21
314.2518772179119
 31
0.0
  0
LINE
  5
136
330
1F
100
AcDbEntity
  8
10
  6
Continuous
 62
     7
370
    25
100
AcDbLine
 10
557.4311991720324
 20
237.2518772179101
 30
0.0
 11
557.4311991720324
 21
230.3518772179104
 31
0.0
  0
ARC
  5
137
330
1F
100
AcDbEntity
  8
10
  6
Continuous
 62
     7
370
    25
100
AcDbCircle
 10
554.4641816281719
 20
233.8018772179112
 30
0.0
 40
4.550350877192955
100
AcDbArc
 50
310.6956985254259
 51
49.30430147457368
  0
LINE
  5
138
330
1F
100
AcDbEntity
  8
10
  6
Continuous
 62
     7
370
    25
100
AcDbLine
 10
557.1145325053649
 20
237.2518772179101
 30
0.0
 11
557.4311991720324
 21
237.2518772179101
 31
0.0
  0
LINE
  5
139
330
1F
100
AcDbEntity
  8
10
  6
Continuous
 62
     7
370
    25
100
AcDbLine
 10
557.1145325053649
 20
230.3518772179104
 30
0.0
 11
557.4311991720324
 21
230.3518772179104
 31
0.0
  0
LINE
  5
13A
330
1F
100
AcDbEntity
  8
10
  6
Continuous
 62
     7
370
    25
100
AcDbLine
 10
564.1145325053649
 20
304.8018772179112
 30
0.0
 11
564.1145325053649
 21
298.8018772179112
 31
0.0
  0
LINE
  5
13B
330
1F
100
AcDbEntity
  8
10
  6
Continuous
 62
     7
370
    25
100
AcDbLine
 10
575.1145325053649
 20
301.3018772179112
 30
0.0
 11
575.1145325053649
 21
296.3018772179112
 31
0.0
  0
ARC
  5
13C
330
1F
100
AcDbEntity
  8
10
  6
Continuous
 62
     7
370
    25
100
AcDbCircle
 10
572.1145325053649
 20
301.3018772179112
 30
0.0
 40
3.0
100
AcDbArc
 50
0.0
 51
89.99999999999991
  0
LINE
  5
13D
330
1F
100
AcDbEntity
  8
10
  6
Continuous
 62
     7
370
    25
100
AcDbLine
 10
572.1145325053649
 20
304.8018772179112
 30
0.0
 11
572.1145325053649
 21
292.8018772179112
 31
0.0
  0
LINE
  5
13E
330
1F
100
AcDbEntity
  8
10
  6
Continuous
 62
     7
370
    25
100
AcDbLine
 10
564.1145325053649
 20
304.8018772179112
 30
0.0
 11
572.1145325053649
 21
304.8018772179112
 31
0.0
  0
LINE
  5
13F
330
1F
100
AcDbEntity
  8
10
  6
Continuous
 62
     7
370
    25
100
AcDbLine
 10
562.2145325053634
 20
303.8018772179112
 30
0.0
 11
564.1145325053649
 21
303.8018772179112
 31
0.0
  0
LINE
  5
140
330
1F
100
AcDbEntity
  8
10
  6
Continuous
 62
     7
370
    25
100
AcDbLine
 10
564.1145325053649
 20
292.8018772179112
 30
0.0
 11
564.1145325053649
 21
298.8018772179112
 31
0.0
  0
LINE
  5
141
330
1F
100
AcDbEntity
  8
10
  6
Continuous
 62
     7
370
    25
100
AcDbLine
 10
564.1145325053649
 20
298.8018772179112
 30
0.0
 11
572.1145325053649
 21
298.8018772179112
 31
0.0
  0
LINE
  5
142
330
1F
100
AcDbEntity
  8
10
  6
Continuous
 62
     7
370
    25
100
AcDbLine
 10
562.2145325053634
 20
293.8018772179112
 30
0.0
 11
564.1145325053649
 21
293.8018772179112
 31
0.0
  0
ARC
  5
143
330
1F
100
AcDbEntity
  8
10
  6
Continuous
 62
     7
370
    25
100
AcDbCircle
 10
572.1145325053649
 20
296.3018772179112
 30
0.0
 40
3.0
100
AcDbArc
 50
269.9999999999998
 51
0.0
  0
LINE
  5
144
330
1F
100
AcDbEntity
  8
10
  6
Continuous
 62
     7
370
    25
100
AcDbLine
 10
564.1145325053649
 20
292.8018772179112
 30
0.0
 11
572.1145325053649
 21
292.8018772179112
 31
0.0
  0
LINE
  5
145
330
1F
100
AcDbEntity
  8
6
  6
Continuous
 62
     1
370
    25
100
AcDbLine
 10
575.1145325053649
 20
300.6518772179097
 30
0.0
 11
593.8384410156441
 21
300.6518656697262
 31
0.0
  0
ARC
  5
146
330
1F
100
AcDbEntity
  8
6
  6
Continuous
 62
     1
370
    25
100
AcDbCircle
 10
594.872358413726
 20
299.7268715340451
 30
0.0
 40
1.387299296151127
100
AcDbArc
 50
138.1825956443432
 51
221.8174143556818
  0
ARC
  5
147
330
1F
100
AcDbEntity
  8
6
  6
Continuous
 62
     1
370
    25
100
AcDbCircle
 10
592.8042391389881
 20
297.8768772179101
 30
0.0
 40
1.387515353286972
100
AcDbArc
 50
318.1902521645857
 51
41.80974783544226
  0
ARC
  5
148
330
1F
100
AcDbEntity
  8
6
  6
Continuous
 62
     1
370
    25
100
AcDbCircle
 10
592.8042544922955
 20
299.7268713535686
 30
0.0
 40
1.387500000000045
100
AcDbArc
 50
318.1900099999348
 51
41.80999999999249
  0
LINE
  5
149
330
1F
100
AcDbEntity
  8
6
  6
Continuous
 62
     1
370
    25
100
AcDbLine
 10
575.1145325053649
 20
296.9518772179099
 30
0.0
 11
593.8384411770858
 21
296.9518772179099
 31
0.0
  0
LINE
  5
14A
330
1F
100
AcDbEntity
  8
10
  6
Continuous
 62
     7
370
    25
100
AcDbLine
 10
557.6145325053649
 20
305.0518772179112
 30
0.0
 11
557.1145325053649
 21
305.0518772179112
 31
0.0
  0
LINE
  5
14B
330
1F
100
AcDbEntity
  8
10
  6
Continuous
 62
     7
370
    25
100
AcDbLine
 10
557.6145325053649
 20
305.8018772179112
 30
0.0
 11
562.2145325053643
 21
305.8018772179112
 31
0.0
  0
LINE
  5
14C
330
1F
100
AcDbEntity
  8
10
  6
Continuous
 62
     7
370
    25
100
AcDbLine
 10
557.6145325053649
 20
302.3018772179112
 30
0.0
 11
562.2145325053643
 21
302.3018772179112
 31
0.0
  0
LINE
  5
14D
330
1F
100
AcDbEntity
  8
10
  6
Continuous
 62
     7
370
    25
100
AcDbLine
 10
557.6145325053649
 20
291.8018772179094
 30
0.0
 11
562.2145325053643
 21
291.8018772179112
 31
0.0
  0
LINE
  5
14E
330
1F
100
AcDbEntity
  8
10
  6
Continuous
 62
     7
370
    25
100
AcDbLine
 10
557.614532505364
 20
295.3018772179112
 30
0.0
 11
562.2145325053643
 21
295.3018772179112
 31
0.0
  0
LINE
  5
14F
330
1F
100
AcDbEntity
  8
10
  6
Continuous
 62
     7
370
    25
100
AcDbLine
 10
562.2145325053643
 20
305.8018772179112
 30
0.0
 11
562.2145325053643
 21
298.8018772179112
 31
0.0
  0
LINE
  5
150
330
1F
100
AcDbEntity
  8
10
  6
Continuous
 62
     7
370
    25
100
AcDbLine
 10
562.2145325053643
 20
291.8018772179112
 30
0.0
 11
562.2145325053643
 21
298.8018772179112
 31
0.0
  0
LINE
  5
151
330
1F
100
AcDbEntity
  8
10
  6
Continuous
 62
     7
370
    25
100
AcDbLine
 10
557.6145325053649
 20
305.8018772179112
 30
0.0
 11
557.614532505364
 21
291.8018772179094
 31
0.0
  0
LINE
  5
152
330
1F
100
AcDbEntity
  8
10
  6
Continuous
 62
     7
370
    25
100
AcDbLine
 10
557.6145325053649
 20
292.5518772179112
 30
0.0
 11
557.1145325053649
 21
292.5518772179112
 31
0.0
  0
LINE
  5
153
330
1F
100
AcDbEntity
  8
10
  6
Continuous
 62
     7
370
    25
100
AcDbLine
 10
557.1145325053649
 20
305.0518772179112
 30
0.0
 11
557.1145325053649
 21
292.5518772179112
 31
0.0
  0
ARC
  5
154
330
1F
100
AcDbEntity
  8
6
  6
Continuous
 62
     1
370
    25
100
AcDbCircle
 10
596.2709116591841
 20
297.9000882888286
 30
0.0
 40
1.387515022395519
100
AcDbArc
 50
138.1902399436109
 51
221.8097600563605
  0
ARC
  5
155
330
1F
100
AcDbEntity
  8
6
  6
Continuous
 62
     1
370
    25
100
AcDbCircle
 10
594.2027923843534
 20
297.900094080951
 30
0.0
 40
1.387299627082371
100
AcDbArc
 50
318.182597871094
 51
41.81739912890934
  0
LINE
  5
156
330
1F
100
AcDbEntity
  8
6
  6
Continuous
 62
     1
370
    25
100
AcDbLine
 10
595.2367100650181
 20
296.9750882888293
 30
0.0
 11
602.5941373655442
 21
296.9750882888284
 31
0.0
  0
ARC
  5
157
330
1F
100
AcDbEntity
  8
6
  6
Continuous
 62
     1
370
    25
100
AcDbCircle
 10
596.2708966367991
 20
299.7500825508378
 30
0.0
 40
1.387500000000045
100
AcDbArc
 50
138.1900000000075
 51
221.809997000065
  0
LINE
  5
158
330
1F
100
AcDbEntity
  8
6
  6
Continuous
 62
     1
370
    25
100
AcDbLine
 10
595.2367101134514
 20
300.6750768669954
 30
0.0
 11
602.5941373655442
 21
300.6750768669945
 31
0.0
  0
MTEXT
  5
159
330
1F
100
AcDbEntity
  8
9
  6
Continuous
 62
     4
370
     9
100
AcDbMText
 10
590.7805205295354
 20
289.4415499420948
 30
0.0
 40
6.0
 41
38.99793999408
 46
6.0
 71
     1
 72
     1
  1
{\fＭＳ ゴシック;\T1.555898;L=500}
 73
     1
 44
1.0
1001
ACAD
1000
ACAD_MTEXT_DEFINED_HEIGHT_BEGIN
1070
    46
1040
6.0
1000
ACAD_MTEXT_DEFINED_HEIGHT_END
  0
LINE
  5
15A
330
1F
100
AcDbEntity
  8
6
  6
Continuous
 62
     1
370
    25
100
AcDbLine
 10
619.5466896530506
 20
303.325118288828
 30
0.0
 11
611.7119361766945
 21
303.325118288828
 31
0.0
  0
LINE
  5
15B
330
1F
100
AcDbEntity
  8
6
  6
Continuous
 62
     1
370
    25
100
AcDbLine
 10
628.546666653051
 20
300.8250982888276
 30
0.0
 11
615.5466576530507
 21
300.8250982888276
 31
0.0
  0
LINE
  5
15C
330
1F
100
AcDbEntity
  8
6
  6
Continuous
 62
     1
370
    25
100
AcDbLine
 10
625.5466626530506
 20
299.2250982888281
 30
0.0
 11
616.5466616530512
 21
299.2250982888281
 31
0.0
  0
LINE
  5
15D
330
1F
100
AcDbEntity
  8
6
  6
Continuous
 62
     1
370
    25
100
AcDbLine
 10
625.5466626530506
 20
297.6251082888284
 30
0.0
 11
616.5466616530512
 21
297.6251082888284
 31
0.0
  0
LINE
  5
15E
330
1F
100
AcDbEntity
  8
6
  6
Continuous
 62
     1
370
    25
100
AcDbLine
 10
625.5466626530506
 20
298.4250782888284
 30
0.0
 11
616.5466616530512
 21
298.4250782888284
 31
0.0
  0
LINE
  5
15F
330
1F
100
AcDbEntity
  8
6
  6
Continuous
 62
     1
370
    25
100
AcDbLine
 10
625.5466626530506
 20
300.0250782888279
 30
0.0
 11
616.5466616530512
 21
300.0250782888279
 31
0.0
  0
LINE
  5
160
330
1F
100
AcDbEntity
  8
6
  6
Continuous
 62
     1
370
    25
100
AcDbLine
 10
619.5466896530506
 20
294.3250582888277
 30
0.0
 11
611.7119361766945
 21
294.3250582888277
 31
0.0
  0
LINE
  5
161
330
1F
100
AcDbEntity
  8
6
  6
Continuous
 62
     1
370
    25
100
AcDbLine
 10
628.546666653051
 20
296.8250882888287
 30
0.0
 11
615.5466576530507
 21
296.8250882888287
 31
0.0
  0
LINE
  5
162
330
1F
100
AcDbEntity
  8
6
  6
Continuous
 62
     1
370
    25
100
AcDbLine
 10
608.8911660979893
 20
302.3153480780829
 30
0.0
 11
602.5941373655451
 21
302.3153480780829
 31
0.0
  0
LINE
  5
163
330
1F
100
AcDbEntity
  8
6
  6
Continuous
 62
     1
370
    25
100
AcDbLine
 10
608.8911660979893
 20
295.3348284995755
 30
0.0
 11
602.5941373655442
 21
295.3348284995755
 31
0.0
  0
LINE
  5
164
330
1F
100
AcDbEntity
  8
6
  6
Continuous
 62
     1
370
    25
100
AcDbLine
 10
602.5941373655451
 20
295.3348284995755
 30
0.0
 11
602.5941373655442
 21
302.3153480780829
 31
0.0
  0
ARC
  5
165
330
1F
100
AcDbEntity
  8
6
  6
Continuous
 62
     1
370
    25
100
AcDbCircle
 10
611.7119361766945
 20
301.325118288828
 30
0.0
 40
2.0
100
AcDbArc
 50
89.99999999999991
 51
120.0000000000333
  0
ARC
  5
166
330
1F
100
AcDbEntity
  8
6
  6
Continuous
 62
     1
370
    25
100
AcDbCircle
 10
608.8911660979893
 20
304.3153480780811
 30
0.0
 40
2.0
100
AcDbArc
 50
269.9999999999998
 51
300.0000000000329
  0
LINE
  5
167
330
1F
100
AcDbEntity
  8
6
  6
Continuous
 62
     1
370
    25
100
AcDbLine
 10
610.7119361766945
 20
303.057169096397
 30
0.0
 11
609.8911660979893
 21
302.5832972705139
 31
0.0
  0
ARC
  5
168
330
1F
100
AcDbEntity
  8
6
  6
Continuous
 62
     1
370
    25
100
AcDbCircle
 10
611.7119361766945
 20
296.3250582888277
 30
0.0
 40
2.0
100
AcDbArc
 50
240.0000000000028
 51
269.9999999999736
  0
ARC
  5
169
330
1F
100
AcDbEntity
  8
6
  6
Continuous
 62
     1
370
    25
100
AcDbCircle
 10
608.8911660979893
 20
293.3348284995745
 30
0.0
 40
2.0
100
AcDbArc
 50
59.99999999996675
 51
89.99999999999991
  0
LINE
  5
16A
330
1F
100
AcDbEntity
  8
6
  6
Continuous
 62
     1
370
    25
100
AcDbLine
 10
610.7119361766945
 20
294.5930074812595
 30
0.0
 11
609.8911660979893
 21
295.0668793071427
 31
0.0
  0
LINE
  5
16B
330
1F
100
AcDbEntity
  8
6
  6
Continuous
 62
     1
370
    25
100
AcDbLine
 10
615.5466576530507
 20
296.8250882888287
 30
0.0
 11
615.5466576530507
 21
300.8250982888276
 31
0.0
  0
LINE
  5
16C
330
1F
100
AcDbEntity
  8
6
  6
Continuous
 62
     1
370
    25
100
AcDbLine
 10
616.5466616530512
 20
296.8250882888287
 30
0.0
 11
616.5466616530512
 21
300.8250982888276
 31
0.0
  0
LINE
  5
16D
330
1F
100
AcDbEntity
  8
6
  6
Continuous
 62
     1
370
    25
100
AcDbLine
 10
628.546666653051
 20
298.8250882888287
 30
0.0
 11
628.546666653051
 21
304.0750982888276
 31
0.0
  0
ARC
  5
16E
330
1F
100
AcDbEntity
  8
6
  6
Continuous
 62
     1
370
    25
100
AcDbCircle
 10
621.5466656530507
 20
303.0750982888276
 30
0.0
 40
1.0
100
AcDbArc
 50
89.99999999999991
 51
179.9999999999998
  0
LINE
  5
16F
330
1F
100
AcDbEntity
  8
6
  6
Continuous
 62
     1
370
    25
100
AcDbLine
 10
619.5466896530506
 20
302.8251082888282
 30
0.0
 11
620.5466616530512
 21
302.8251082888282
 31
0.0
  0
LINE
  5
170
330
1F
100
AcDbEntity
  8
6
  6
Continuous
 62
     1
370
    25
100
AcDbLine
 10
619.5466896530506
 20
303.325118288828
 30
0.0
 11
619.5466896530506
 21
300.8250982888285
 31
0.0
  0
LINE
  5
171
330
1F
100
AcDbEntity
  8
6
  6
Continuous
 62
     1
370
    25
100
AcDbLine
 10
620.5466616530512
 20
303.0750982888276
 30
0.0
 11
620.5466616530512
 21
300.8250982888276
 31
0.0
  0
LINE
  5
172
330
1F
100
AcDbEntity
  8
6
  6
Continuous
 62
     1
370
    25
100
AcDbLine
 10
620.5466616530512
 20
302.8251082888282
 30
0.0
 11
620.5466616530512
 21
300.8250982888276
 31
0.0
  0
LINE
  5
173
330
1F
100
AcDbEntity
  8
6
  6
Continuous
 62
     1
370
    25
100
AcDbLine
 10
621.5466656530507
 20
293.5750782888281
 30
0.0
 11
628.546666653051
 21
293.5750782888281
 31
0.0
  0
LINE
  5
174
330
1F
100
AcDbEntity
  8
6
  6
Continuous
 62
     1
370
    25
100
AcDbLine
 10
620.5466616530512
 20
294.8250682888283
 30
0.0
 11
619.5466896530506
 21
294.8250682888283
 31
0.0
  0
LINE
  5
175
330
1F
100
AcDbEntity
  8
6
  6
Continuous
 62
     1
370
    25
100
AcDbLine
 10
619.5466896530506
 20
294.3250582888277
 30
0.0
 11
619.5466896530506
 21
296.8250782888281
 31
0.0
  0
LINE
  5
176
330
1F
100
AcDbEntity
  8
6
  6
Continuous
 62
     1
370
    25
100
AcDbLine
 10
620.5466616530512
 20
294.5750782888281
 30
0.0
 11
620.5466616530512
 21
296.8250882888287
 31
0.0
  0
LINE
  5
177
330
1F
100
AcDbEntity
  8
6
  6
Continuous
 62
     1
370
    25
100
AcDbLine
 10
620.5466616530512
 20
296.8250882888287
 30
0.0
 11
620.5466616530512
 21
294.8250682888283
 31
0.0
  0
ARC
  5
178
330
1F
100
AcDbEntity
  8
6
  6
Continuous
 62
     1
370
    25
100
AcDbCircle
 10
621.5466656530507
 20
294.5750782888281
 30
0.0
 40
1.0
100
AcDbArc
 50
179.9999999999998
 51
269.9999999999998
  0
LINE
  5
179
330
1F
100
AcDbEntity
  8
6
  6
Continuous
 62
     1
370
    25
100
AcDbLine
 10
625.5466626530506
 20
300.8250982888276
 30
0.0
 11
625.5466626530506
 21
296.8250882888287
 31
0.0
  0
LINE
  5
17A
330
1F
100
AcDbEntity
  8
6
  6
Continuous
 62
     1
370
    25
100
AcDbLine
 10
628.546666653051
 20
298.8250882888287
 30
0.0
 11
628.546666653051
 21
293.5750782888281
 31
0.0
  0
LINE
  5
17B
330
1F
100
AcDbEntity
  8
6
  6
Continuous
 62
     1
370
    25
100
AcDbLine
 10
627.5466576530507
 20
300.8250982888276
 30
0.0
 11
627.5466576530507
 21
296.8250882888287
 31
0.0
  0
LINE
  5
17C
330
1F
100
AcDbEntity
  8
6
  6
Continuous
 62
     1
370
    25
100
AcDbLine
 10
621.5466656530507
 20
304.0750982888276
 30
0.0
 11
628.546666653051
 21
304.0750982888276
 31
0.0
  0
LINE
  5
17D
330
1F
100
AcDbEntity
  8
10
  6
Continuous
 62
     7
370
    25
100
AcDbLine
 10
557.4311991720324
 20
290.2518772179119
 30
0.0
 11
557.4311991720324
 21
283.3518772179104
 31
0.0
  0
ARC
  5
17E
330
1F
100
AcDbEntity
  8
10
  6
Continuous
 62
     7
370
    25
100
AcDbCircle
 10
554.4641816281719
 20
286.8018772179112
 30
0.0
 40
4.550350877192955
100
AcDbArc
 50
310.6956985254262
 51
49.30430147457344
  0
LINE
  5
17F
330
1F
100
AcDbEntity
  8
10
  6
Continuous
 62
     7
370
    25
100
AcDbLine
 10
557.1145325053649
 20
290.2518772179119
 30
0.0
 11
557.4311991720324
 21
290.2518772179119
 31
0.0
  0
LINE
  5
180
330
1F
100
AcDbEntity
  8
10
  6
Continuous
 62
     7
370
    25
100
AcDbLine
 10
557.1145325053649
 20
283.3518772179104
 30
0.0
 11
557.4311991720324
 21
283.3518772179104
 31
0.0
  0
LINE
  5
181
330
1F
100
AcDbEntity
  8
10
  6
Continuous
 62
     7
370
    25
100
AcDbLine
 10
557.4311991720324
 20
360.3518772179123
 30
0.0
 11
557.4311991720324
 21
367.2518772179119
 31
0.0
  0
ARC
  5
182
330
1F
100
AcDbEntity
  8
10
  6
Continuous
 62
     7
370
    25
100
AcDbCircle
 10
554.4641816281719
 20
363.8018772179112
 30
0.0
 40
4.550350877192955
100
AcDbArc
 50
310.6956985254262
 51
49.30430147457344
  0
LINE
  5
183
330
1F
100
AcDbEntity
  8
10
  6
Continuous
 62
     7
370
    25
100
AcDbLine
 10
557.1145325053649
 20
360.3518772179123
 30
0.0
 11
557.4311991720324
 21
360.3518772179123
 31
0.0
  0
LINE
  5
184
330
1F
100
AcDbEntity
  8
10
  6
Continuous
 62
     7
370
    25
100
AcDbLine
 10
557.1145325053649
 20
367.2518772179119
 30
0.0
 11
557.4311991720324
 21
367.2518772179119
 31
0.0
  0
LINE
  5
185
330
1F
100
AcDbEntity
  8
10
  6
Continuous
 62
     7
370
    25
100
AcDbLine
 10
717.1328373626538
 20
183.4852105512455
 30
0.0
 11
710.2328373626533
 21
183.4852105512455
 31
0.0
  0
ARC
  5
186
330
1F
100
AcDbEntity
  8
10
  6
Continuous
 62
     7
370
    25
100
AcDbCircle
 10
713.682837362654
 20
186.4522280951041
 30
0.0
 40
4.550350877192955
100
AcDbArc
 50
220.6956985253369
 51
319.3043014746624
  0
LINE
  5
187
330
1F
100
AcDbEntity
  8
10
  6
Continuous
 62
     7
370
    25
100
AcDbLine
 10
717.1328373626538
 20
183.8018772179112
 30
0.0
 11
717.1328373626538
 21
183.4852105512455
 31
0.0
  0
LINE
  5
188
330
1F
100
AcDbEntity
  8
10
  6
Continuous
 62
     7
370
    25
100
AcDbLine
 10
710.2328373626533
 20
183.8018772179112
 30
0.0
 11
710.2328373626533
 21
183.4852105512455
 31
0.0
  0
LINE
  5
189
330
1F
100
AcDbEntity
  8
10
  6
Continuous
 62
     7
370
    25
100
AcDbLine
 10
678.682837362654
 20
413.8018772179112
 30
0.0
 11
678.682837362654
 21
183.8018772179112
 31
0.0
  0
LINE
  5
18A
330
1F
100
AcDbEntity
  8
10
  6
Continuous
 62
     7
370
    25
100
AcDbLine
 10
723.682837362654
 20
428.8018772179112
 30
0.0
 11
723.682837362654
 21
168.8018772179112
 31
0.0
  0
LINE
  5
18B
330
1F
100
AcDbEntity
  8
10
  6
Continuous
 62
     7
370
    25
100
AcDbLine
 10
722.682837362654
 20
428.8018772179112
 30
0.0
 11
722.6828373626531
 21
306.3018772179112
 31
0.0
  0
LINE
  5
18C
330
1F
100
AcDbEntity
  8
10
  6
Continuous
 62
     7
370
    25
100
AcDbLine
 10
722.6828373626531
 20
291.3018772179139
 30
0.0
 11
722.6828373626522
 21
168.8018772179112
 31
0.0
  0
LINE
  5
18D
330
1F
100
AcDbEntity
  8
10
  6
Continuous
 62
     7
370
    25
100
AcDbLine
 10
678.682837362654
 20
413.8018772179112
 30
0.0
 11
722.682837362654
 21
413.8018772179094
 31
0.0
  0
LINE
  5
18E
330
1F
100
AcDbEntity
  8
10
  6
Continuous
 62
     7
370
    25
100
AcDbLine
 10
722.682837362654
 20
412.8018772179094
 30
0.0
 11
723.682837362654
 21
412.8018772179094
 31
0.0
  0
LINE
  5
18F
330
1F
100
AcDbEntity
  8
10
  6
Continuous
 62
     7
370
    25
100
AcDbLine
 10
722.682837362654
 20
428.8018772179112
 30
0.0
 11
723.682837362654
 21
428.8018772179112
 31
0.0
  0
LINE
  5
190
330
1F
100
AcDbEntity
  8
10
  6
Continuous
 62
     7
370
    25
100
AcDbLine
 10
678.682837362654
 20
183.8018772179112
 30
0.0
 11
722.6828373626522
 21
183.8018772179112
 31
0.0
  0
LINE
  5
191
330
1F
100
AcDbEntity
  8
10
  6
Continuous
 62
     7
370
    25
100
AcDbLine
 10
722.6828373626522
 20
184.8018772179112
 30
0.0
 11
723.682837362654
 21
184.8018772179112
 31
0.0
  0
LINE
  5
192
330
1F
100
AcDbEntity
  8
10
  6
Continuous
 62
     7
370
    25
100
AcDbLine
 10
722.682837362654
 20
168.8018772179112
 30
0.0
 11
723.682837362654
 21
168.8018772179112
 31
0.0
  0
DIMENSION
  5
19C
330
1F
100
AcDbEntity
  8
9
  6
Continuous
 62
     4
370
     9
100
AcDbDimension
280
     0
  2
Dim2
 10
722.6828373626522
 20
143.3670662418281
 30
0.0
 11
734.682837362654
 21
143.3670662418281
 31
0.0
 70
   160
  1
<>
 71
     5
 42
-1.0
 73
     0
 74
     0
 75
     0
  3
Standard
100
AcDbAlignedDimension
 13
723.682837362654
 23
168.8018772179112
 33
0.0
 14
722.6828373626522
 24
168.8018772179112
 34
0.0
 50
179.9999999999998
100
AcDbRotatedDimension
1001
ACAD
1000
DSTYLE
1002
{
1070
   279
1070
     2
1070
   340
1005
111
1070
   140
1040
6.0
1070
    40
1040
1.0
1070
   147
1040
0.0
1070
    76
1070
     0
1070
    75
1070
     0
1070
   344
1005
0
1070
   343
1005
0
1070
   173
1070
     1
1070
   289
1070
     2
1070
   288
1070
     1
1070
    77
1070
     1
1070
   172
1070
     1
1070
   174
1070
     0
1070
    74
1070
     0
1070
    73
1070
     0
1070
   284
1070
     8
1070
    78
1070
     8
1070
    42
1040
2.0
1070
    44
1040
3.0
1070
    43
1040
30.0
1070
   271
1070
     2
1070
    41
1040
4.0
1002
}
  0
LINE
  5
19D
330
1F
100
AcDbEntity
  8
4
  6
DASHDOT
 62
     1
370
     9
100
AcDbLine
 10
668.682837362654
 20
298.8018772179112
 30
0.0
 11
733.682837362654
 21
298.8018772179112
 31
0.0
  0
LINE
  5
19E
330
1F
100
AcDbEntity
  8
4
  6
DASHDOT
 62
     1
370
     9
100
AcDbLine
 10
720.6828373626522
 20
175.8018772179112
 30
0.0
 11
725.682837362654
 21
175.8018772179112
 31
0.0
  0
LINE
  5
19F
330
1F
100
AcDbEntity
  8
4
  6
DASHDOT
 62
     1
370
     9
100
AcDbLine
 10
720.6828373626522
 20
421.8018772179112
 30
0.0
 11
725.682837362654
 21
421.8018772179112
 31
0.0
  0
ARC
  5
1A0
330
1F
100
AcDbEntity
  8
10
  6
Continuous
 62
     7
370
    25
100
AcDbCircle
 10
712.8828373626538
 20
310.0018772179119
 30
0.0
 40
0.5
100
AcDbArc
 50
0.0
 51
89.99999999999991
  0
ARC
  5
1A1
330
1F
100
AcDbEntity
  8
10
  6
Continuous
 62
     7
370
    25
100
AcDbCircle
 10
714.4828373626542
 20
310.0018772179119
 30
0.0
 40
0.5
100
AcDbArc
 50
89.99999999999991
 51
179.9999999999998
  0
CIRCLE
  5
1A2
330
1F
100
AcDbEntity
  8
10
  6
Continuous
 62
     7
370
    25
100
AcDbCircle
 10
713.682837362654
 20
310.8018772179112
 30
0.0
 40
3.450000000000045
  0
LINE
  5
1A3
330
1F
100
AcDbEntity
  8
10
  6
Continuous
 62
     7
370
    25
100
AcDbLine
 10
713.3828373626538
 20
310.0018772179119
 30
0.0
 11
713.3828373626538
 21
309.3518772179104
 31
0.0
  0
LINE
  5
1A4
330
1F
100
AcDbEntity
  8
10
  6
Continuous
 62
     7
370
    25
100
AcDbLine
 10
713.9828373626542
 20
310.0018772179119
 30
0.0
 11
713.9828373626542
 21
309.3518772179104
 31
0.0
  0
LINE
  5
1A5
330
1F
100
AcDbEntity
  8
10
  6
Continuous
 62
     7
370
    25
100
AcDbLine
 10
713.3828373626538
 20
309.3518772179104
 30
0.0
 11
713.9828373626542
 21
309.3518772179104
 31
0.0
  0
LINE
  5
1A6
330
1F
100
AcDbEntity
  8
10
  6
Continuous
 62
     7
370
    25
100
AcDbLine
 10
712.8828373626538
 20
311.1018772179104
 30
0.0
 11
712.2328373626542
 21
311.1018772179104
 31
0.0
  0
LINE
  5
1A7
330
1F
100
AcDbEntity
  8
10
  6
Continuous
 62
     7
370
    25
100
AcDbLine
 10
712.8828373626538
 20
310.5018772179119
 30
0.0
 11
712.2328373626542
 21
310.5018772179119
 31
0.0
  0
ARC
  5
1A8
330
1F
100
AcDbEntity
  8
10
  6
Continuous
 62
     7
370
    25
100
AcDbCircle
 10
714.4828373626542
 20
311.6018772179104
 30
0.0
 40
0.5
100
AcDbArc
 50
179.9999999999998
 51
269.9999999999998
  0
ARC
  5
1A9
330
1F
100
AcDbEntity
  8
10
  6
Continuous
 62
     7
370
    25
100
AcDbCircle
 10
712.8828373626538
 20
311.6018772179104
 30
0.0
 40
0.5
100
AcDbArc
 50
269.9999999999998
 51
0.0
  0
LINE
  5
1AA
330
1F
100
AcDbEntity
  8
10
  6
Continuous
 62
     7
370
    25
100
AcDbLine
 10
713.9828373626542
 20
311.6018772179104
 30
0.0
 11
713.9828373626542
 21
312.2518772179119
 31
0.0
  0
LINE
  5
1AB
330
1F
100
AcDbEntity
  8
10
  6
Continuous
 62
     7
370
    25
100
AcDbLine
 10
713.3828373626538
 20
311.6018772179104
 30
0.0
 11
713.3828373626538
 21
312.2518772179119
 31
0.0
  0
LINE
  5
1AC
330
1F
100
AcDbEntity
  8
10
  6
Continuous
 62
     7
370
    25
100
AcDbLine
 10
714.4828373626542
 20
311.1018772179104
 30
0.0
 11
715.1328373626538
 21
311.1018772179104
 31
0.0
  0
LINE
  5
1AD
330
1F
100
AcDbEntity
  8
10
  6
Continuous
 62
     7
370
    25
100
AcDbLine
 10
714.4828373626542
 20
310.5018772179119
 30
0.0
 11
715.1328373626538
 21
310.5018772179119
 31
0.0
  0
LINE
  5
1AE
330
1F
100
AcDbEntity
  8
10
  6
Continuous
 62
     7
370
    25
100
AcDbLine
 10
715.1328373626538
 20
310.5018772179119
 30
0.0
 11
715.1328373626538
 21
311.1018772179104
 31
0.0
  0
LINE
  5
1AF
330
1F
100
AcDbEntity
  8
10
  6
Continuous
 62
     7
370
    25
100
AcDbLine
 10
713.9828373626542
 20
312.2518772179119
 30
0.0
 11
713.3828373626538
 21
312.2518772179119
 31
0.0
  0
LINE
  5
1B0
330
1F
100
AcDbEntity
  8
10
  6
Continuous
 62
     7
370
    25
100
AcDbLine
 10
712.2328373626542
 20
311.1018772179104
 30
0.0
 11
712.2328373626542
 21
310.5018772179119
 31
0.0
  0
LINE
  5
1B1
330
1F
100
AcDbEntity
  8
10
  6
Continuous
 62
     7
370
    25
100
AcDbLine
 10
717.1328373626538
 20
414.1185438845769
 30
0.0
 11
710.2328373626533
 21
414.1185438845769
 31
0.0
  0
ARC
  5
1B2
330
1F
100
AcDbEntity
  8
10
  6
Continuous
 62
     7
370
    25
100
AcDbCircle
 10
713.682837362654
 20
411.1515263407182
 30
0.0
 40
4.550350877192955
100
AcDbArc
 50
40.69569852535304
 51
139.304301474647
  0
LINE
  5
1B3
330
1F
100
AcDbEntity
  8
10
  6
Continuous
 62
     7
370
    25
100
AcDbLine
 10
717.1328373626538
 20
413.8018772179112
 30
0.0
 11
717.1328373626538
 21
414.1185438845769
 31
0.0
  0
LINE
  5
1B4
330
1F
100
AcDbEntity
  8
10
  6
Continuous
 62
     7
370
    25
100
AcDbLine
 10
710.2328373626533
 20
413.8018772179112
 30
0.0
 11
710.2328373626533
 21
414.1185438845769
 31
0.0
  0
LINE
  5
1B5
330
1F
100
AcDbEntity
  8
3
  6
HIDDEN
 62
     3
370
     9
100
AcDbLine
 10
679.682837362654
 20
410.8018772179121
 30
0.0
 11
679.682837362654
 21
186.8018772179121
 31
0.0
  0
LINE
  5
1B6
330
1F
100
AcDbEntity
  8
3
  6
HIDDEN
 62
     3
370
     9
100
AcDbLine
 10
684.682837362654
 20
410.8018772179121
 30
0.0
 11
684.682837362654
 21
186.8018772179121
 31
0.0
  0
LINE
  5
1B7
330
1F
100
AcDbEntity
  8
3
  6
HIDDEN
 62
     3
370
     9
100
AcDbLine
 10
679.682837362654
 20
410.8018772179121
 30
0.0
 11
684.682837362654
 21
410.8018772179121
 31
0.0
  0
LINE
  5
1B8
330
1F
100
AcDbEntity
  8
3
  6
HIDDEN
 62
     3
370
     9
100
AcDbLine
 10
679.682837362654
 20
186.8018772179121
 30
0.0
 11
684.682837362654
 21
186.8018772179121
 31
0.0
  0
LINE
  5
1B9
330
1F
100
AcDbEntity
  8
4
  6
DASHDOT
 62
     1
370
     9
100
AcDbLine
 10
668.682837362654
 20
298.8018772179112
 30
0.0
 11
733.682837362654
 21
298.8018772179112
 31
0.0
  0
LINE
  5
1BA
330
1F
100
AcDbEntity
  8
3
  6
HIDDEN
 62
     3
370
     9
100
AcDbLine
 10
723.682837362654
 20
281.3018772179103
 30
0.0
 11
678.682837362654
 21
281.3018772179103
 31
0.0
  0
LINE
  5
1BB
330
1F
100
AcDbEntity
  8
3
  6
HIDDEN
 62
     3
370
     9
100
AcDbLine
 10
722.6828373626531
 20
276.3018772179103
 30
0.0
 11
684.682837362654
 21
276.3018772179103
 31
0.0
  0
POLYLINE
  5
1BC
330
1F
100
AcDbEntity
  8
10
  6
Continuous
 62
     7
370
    25
100
AcDb2dPolyline
 66
     1
 10
0.0
 20
0.0
 30
0.0
  0
VERTEX
  5
1BD
330
1BC
100
AcDbEntity
  8
10
  6
Continuous
 62
     7
370
    25
100
AcDbVertex
100
AcDb2dVertex
 10
713.6469389777831
 20
304.8018772179112
 30
0.0
  0
VERTEX
  5
1BE
330
1BC
100
AcDbEntity
  8
10
  6
Continuous
 62
     7
370
    25
100
AcDbVertex
100
AcDb2dVertex
 10
717.1110405929212
 20
298.8018772179112
 30
0.0
  0
VERTEX
  5
1BF
330
1BC
100
AcDbEntity
  8
10
  6
Continuous
 62
     7
370
    25
100
AcDbVertex
100
AcDb2dVertex
 10
713.6469389777831
 20
292.8018772179112
 30
0.0
  0
VERTEX
  5
1C0
330
1BC
100
AcDbEntity
  8
10
  6
Continuous
 62
     7
370
    25
100
AcDbVertex
100
AcDb2dVertex
 10
706.7187357475077
 20
292.8018772179112
 30
0.0
  0
VERTEX
  5
1C1
330
1BC
100
AcDbEntity
  8
10
  6
Continuous
 62
     7
370
    25
100
AcDbVertex
100
AcDb2dVertex
 10
703.2546341323705
 20
298.8018772179112
 30
0.0
  0
VERTEX
  5
1C2
330
1BC
100
AcDbEntity
  8
10
  6
Continuous
 62
     7
370
    25
100
AcDbVertex
100
AcDb2dVertex
 10
706.7187357475077
 20
304.8018772179112
 30
0.0
  0
VERTEX
  5
1C3
330
1BC
100
AcDbEntity
  8
10
  6
Continuous
 62
     7
370
    25
100
AcDbVertex
100
AcDb2dVertex
 10
713.6469389777831
 20
304.8018772179112
 30
0.0
  0
SEQEND
  5
1C4
330
1BC
100
AcDbEntity
  8
10
  6
Continuous
 62
     7
370
    25
  0
CIRCLE
  5
1C5
330
1F
100
AcDbEntity
  8
10
  6
Continuous
 62
     7
370
    25
100
AcDbCircle
 10
710.1828373626449
 20
298.8018772179112
 30
0.0
 40
1.849999999990359
  0
CIRCLE
  5
1C6
330
1F
100
AcDbEntity
  8
10
  6
Continuous
 62
     7
370
    25
100
AcDbCircle
 10
710.1828373626449
 20
298.8018772179112
 30
0.0
 40
5.0
  0
LINE
  5
1C7
330
1F
100
AcDbEntity
  8
10
  6
Continuous
 62
     7
370
    25
100
AcDbLine
 10
722.6828373626531
 20
306.3018772179112
 30
0.0
 11
710.1828373626449
 21
306.3018772179112
 31
0.0
  0
LINE
  5
1C8
330
1F
100
AcDbEntity
  8
10
  6
Continuous
 62
     7
370
    25
100
AcDbLine
 10
722.6828373626531
 20
291.3018772179139
 30
0.0
 11
710.1828373626468
 21
291.3018772179112
 31
0.0
  0
ARC
  5
1C9
330
1F
100
AcDbEntity
  8
10
  6
Continuous
 62
     7
370
    25
100
AcDbCircle
 10
710.1828373626449
 20
298.8018772179112
 30
0.0
 40
7.5
100
AcDbArc
 50
89.99999999999991
 51
270.0000000000274
  0
ARC
  5
1CA
330
1F
100
AcDbEntity
  8
10
  6
Continuous
 62
     7
370
    25
100
AcDbCircle
 10
712.8828373626538
 20
287.6018772179104
 30
0.0
 40
0.5
100
AcDbArc
 50
269.9999999999998
 51
0.0
  0
ARC
  5
1CB
330
1F
100
AcDbEntity
  8
10
  6
Continuous
 62
     7
370
    25
100
AcDbCircle
 10
714.4828373626542
 20
287.6018772179104
 30
0.0
 40
0.5
100
AcDbArc
 50
179.9999999999998
 51
269.9999999999998
  0
CIRCLE
  5
1CC
330
1F
100
AcDbEntity
  8
10
  6
Continuous
 62
     7
370
    25
100
AcDbCircle
 10
713.682837362654
 20
286.8018772179112
 30
0.0
 40
3.450000000000045
  0
LINE
  5
1CD
330
1F
100
AcDbEntity
  8
10
  6
Continuous
 62
     7
370
    25
100
AcDbLine
 10
713.3828373626538
 20
287.6018772179104
 30
0.0
 11
713.3828373626538
 21
288.2518772179119
 31
0.0
  0
LINE
  5
1CE
330
1F
100
AcDbEntity
  8
10
  6
Continuous
 62
     7
370
    25
100
AcDbLine
 10
713.9828373626542
 20
287.6018772179104
 30
0.0
 11
713.9828373626542
 21
288.2518772179119
 31
0.0
  0
LINE
  5
1CF
330
1F
100
AcDbEntity
  8
10
  6
Continuous
 62
     7
370
    25
100
AcDbLine
 10
713.3828373626538
 20
288.2518772179119
 30
0.0
 11
713.9828373626542
 21
288.2518772179119
 31
0.0
  0
LINE
  5
1D0
330
1F
100
AcDbEntity
  8
10
  6
Continuous
 62
     7
370
    25
100
AcDbLine
 10
712.8828373626538
 20
286.5018772179119
 30
0.0
 11
712.2328373626542
 21
286.5018772179119
 31
0.0
  0
LINE
  5
1D1
330
1F
100
AcDbEntity
  8
10
  6
Continuous
 62
     7
370
    25
100
AcDbLine
 10
712.8828373626538
 20
287.1018772179104
 30
0.0
 11
712.2328373626542
 21
287.1018772179104
 31
0.0
  0
ARC
  5
1D2
330
1F
100
AcDbEntity
  8
10
  6
Continuous
 62
     7
370
    25
100
AcDbCircle
 10
714.4828373626542
 20
286.0018772179119
 30
0.0
 40
0.5
100
AcDbArc
 50
89.99999999999991
 51
179.9999999999998
  0
ARC
  5
1D3
330
1F
100
AcDbEntity
  8
10
  6
Continuous
 62
     7
370
    25
100
AcDbCircle
 10
712.8828373626538
 20
286.0018772179119
 30
0.0
 40
0.5
100
AcDbArc
 50
0.0
 51
89.99999999999991
  0
LINE
  5
1D4
330
1F
100
AcDbEntity
  8
10
  6
Continuous
 62
     7
370
    25
100
AcDbLine
 10
713.9828373626542
 20
286.0018772179119
 30
0.0
 11
713.9828373626542
 21
285.3518772179104
 31
0.0
  0
LINE
  5
1D5
330
1F
100
AcDbEntity
  8
10
  6
Continuous
 62
     7
370
    25
100
AcDbLine
 10
713.3828373626538
 20
286.0018772179119
 30
0.0
 11
713.3828373626538
 21
285.3518772179104
 31
0.0
  0
LINE
  5
1D6
330
1F
100
AcDbEntity
  8
10
  6
Continuous
 62
     7
370
    25
100
AcDbLine
 10
714.4828373626542
 20
286.5018772179119
 30
0.0
 11
715.1328373626538
 21
286.5018772179119
 31
0.0
  0
LINE
  5
1D7
330
1F
100
AcDbEntity
  8
10
  6
Continuous
 62
     7
370
    25
100
AcDbLine
 10
714.4828373626542
 20
287.1018772179104
 30
0.0
 11
715.1328373626538
 21
287.1018772179104
 31
0.0
  0
LINE
  5
1D8
330
1F
100
AcDbEntity
  8
10
  6
Continuous
 62
     7
370
    25
100
AcDbLine
 10
715.1328373626538
 20
287.1018772179104
 30
0.0
 11
715.1328373626538
 21
286.5018772179119
 31
0.0
  0
LINE
  5
1D9
330
1F
100
AcDbEntity
  8
10
  6
Continuous
 62
     7
370
    25
100
AcDbLine
 10
713.9828373626542
 20
285.3518772179104
 30
0.0
 11
713.3828373626538
 21
285.3518772179104
 31
0.0
  0
LINE
  5
1DA
330
1F
100
AcDbEntity
  8
10
  6
Continuous
 62
     7
370
    25
100
AcDbLine
 10
712.2328373626542
 20
286.5018772179119
 30
0.0
 11
712.2328373626542
 21
287.1018772179104
 31
0.0
  0
ARC
  5
1DB
330
1F
100
AcDbEntity
  8
10
  6
Continuous
 62
     7
370
    25
100
AcDbCircle
 10
712.8828373626538
 20
234.6018772179104
 30
0.0
 40
0.5
100
AcDbArc
 50
269.9999999999998
 51
0.0
  0
ARC
  5
1DC
330
1F
100
AcDbEntity
  8
10
  6
Continuous
 62
     7
370
    25
100
AcDbCircle
 10
714.4828373626542
 20
234.6018772179104
 30
0.0
 40
0.5
100
AcDbArc
 50
179.9999999999998
 51
269.9999999999998
  0
CIRCLE
  5
1DD
330
1F
100
AcDbEntity
  8
10
  6
Continuous
 62
     7
370
    25
100
AcDbCircle
 10
713.682837362654
 20
233.8018772179112
 30
0.0
 40
3.450000000000045
  0
LINE
  5
1DE
330
1F
100
AcDbEntity
  8
10
  6
Continuous
 62
     7
370
    25
100
AcDbLine
 10
713.3828373626538
 20
234.6018772179104
 30
0.0
 11
713.3828373626538
 21
235.2518772179119
 31
0.0
  0
LINE
  5
1DF
330
1F
100
AcDbEntity
  8
10
  6
Continuous
 62
     7
370
    25
100
AcDbLine
 10
713.9828373626542
 20
234.6018772179104
 30
0.0
 11
713.9828373626542
 21
235.2518772179119
 31
0.0
  0
LINE
  5
1E0
330
1F
100
AcDbEntity
  8
10
  6
Continuous
 62
     7
370
    25
100
AcDbLine
 10
713.3828373626538
 20
235.2518772179119
 30
0.0
 11
713.9828373626542
 21
235.2518772179119
 31
0.0
  0
LINE
  5
1E1
330
1F
100
AcDbEntity
  8
10
  6
Continuous
 62
     7
370
    25
100
AcDbLine
 10
712.8828373626538
 20
233.5018772179119
 30
0.0
 11
712.2328373626542
 21
233.5018772179119
 31
0.0
  0
LINE
  5
1E2
330
1F
100
AcDbEntity
  8
10
  6
Continuous
 62
     7
370
    25
100
AcDbLine
 10
712.8828373626538
 20
234.1018772179104
 30
0.0
 11
712.2328373626542
 21
234.1018772179104
 31
0.0
  0
ARC
  5
1E3
330
1F
100
AcDbEntity
  8
10
  6
Continuous
 62
     7
370
    25
100
AcDbCircle
 10
714.4828373626542
 20
233.0018772179119
 30
0.0
 40
0.5
100
AcDbArc
 50
89.99999999999991
 51
179.9999999999998
  0
ARC
  5
1E4
330
1F
100
AcDbEntity
  8
10
  6
Continuous
 62
     7
370
    25
100
AcDbCircle
 10
712.8828373626538
 20
233.0018772179119
 30
0.0
 40
0.5
100
AcDbArc
 50
0.0
 51
89.99999999999991
  0
LINE
  5
1E5
330
1F
100
AcDbEntity
  8
10
  6
Continuous
 62
     7
370
    25
100
AcDbLine
 10
713.9828373626542
 20
233.0018772179119
 30
0.0
 11
713.9828373626542
 21
232.3518772179104
 31
0.0
  0
LINE
  5
1E6
330
1F
100
AcDbEntity
  8
10
  6
Continuous
 62
     7
370
    25
100
AcDbLine
 10
713.3828373626538
 20
233.0018772179119
 30
0.0
 11
713.3828373626538
 21
232.3518772179104
 31
0.0
  0
LINE
  5
1E7
330
1F
100
AcDbEntity
  8
10
  6
Continuous
 62
     7
370
    25
100
AcDbLine
 10
714.4828373626542
 20
233.5018772179119
 30
0.0
 11
715.1328373626538
 21
233.5018772179119
 31
0.0
  0
LINE
  5
1E8
330
1F
100
AcDbEntity
  8
10
  6
Continuous
 62
     7
370
    25
100
AcDbLine
 10
714.4828373626542
 20
234.1018772179104
 30
0.0
 11
715.1328373626538
 21
234.1018772179104
 31
0.0
  0
LINE
  5
1E9
330
1F
100
AcDbEntity
  8
10
  6
Continuous
 62
     7
370
    25
100
AcDbLine
 10
715.1328373626538
 20
234.1018772179104
 30
0.0
 11
715.1328373626538
 21
233.5018772179119
 31
0.0
  0
LINE
  5
1EA
330
1F
100
AcDbEntity
  8
10
  6
Continuous
 62
     7
370
    25
100
AcDbLine
 10
713.9828373626542
 20
232.3518772179104
 30
0.0
 11
713.3828373626538
 21
232.3518772179104
 31
0.0
  0
LINE
  5
1EB
330
1F
100
AcDbEntity
  8
10
  6
Continuous
 62
     7
370
    25
100
AcDbLine
 10
712.2328373626542
 20
233.5018772179119
 30
0.0
 11
712.2328373626542
 21
234.1018772179104
 31
0.0
  0
ARC
  5
1EC
330
1F
100
AcDbEntity
  8
10
  6
Continuous
 62
     7
370
    25
100
AcDbCircle
 10
712.8828373626538
 20
363.0018772179119
 30
0.0
 40
0.5
100
AcDbArc
 50
0.0
 51
89.99999999999991
  0
ARC
  5
1ED
330
1F
100
AcDbEntity
  8
10
  6
Continuous
 62
     7
370
    25
100
AcDbCircle
 10
714.4828373626542
 20
363.0018772179119
 30
0.0
 40
0.5
100
AcDbArc
 50
89.99999999999991
 51
179.9999999999998
  0
CIRCLE
  5
1EE
330
1F
100
AcDbEntity
  8
10
  6
Continuous
 62
     7
370
    25
100
AcDbCircle
 10
713.682837362654
 20
363.8018772179112
 30
0.0
 40
3.450000000000045
  0
LINE
  5
1EF
330
1F
100
AcDbEntity
  8
10
  6
Continuous
 62
     7
370
    25
100
AcDbLine
 10
713.3828373626538
 20
363.0018772179119
 30
0.0
 11
713.3828373626538
 21
362.3518772179104
 31
0.0
  0
LINE
  5
1F0
330
1F
100
AcDbEntity
  8
10
  6
Continuous
 62
     7
370
    25
100
AcDbLine
 10
713.9828373626542
 20
363.0018772179119
 30
0.0
 11
713.9828373626542
 21
362.3518772179104
 31
0.0
  0
LINE
  5
1F1
330
1F
100
AcDbEntity
  8
10
  6
Continuous
 62
     7
370
    25
100
AcDbLine
 10
713.3828373626538
 20
362.3518772179104
 30
0.0
 11
713.9828373626542
 21
362.3518772179104
 31
0.0
  0
LINE
  5
1F2
330
1F
100
AcDbEntity
  8
10
  6
Continuous
 62
     7
370
    25
100
AcDbLine
 10
712.8828373626538
 20
364.1018772179104
 30
0.0
 11
712.2328373626542
 21
364.1018772179104
 31
0.0
  0
LINE
  5
1F3
330
1F
100
AcDbEntity
  8
10
  6
Continuous
 62
     7
370
    25
100
AcDbLine
 10
712.8828373626538
 20
363.5018772179119
 30
0.0
 11
712.2328373626542
 21
363.5018772179119
 31
0.0
  0
ARC
  5
1F4
330
1F
100
AcDbEntity
  8
10
  6
Continuous
 62
     7
370
    25
100
AcDbCircle
 10
714.4828373626542
 20
364.6018772179104
 30
0.0
 40
0.5
100
AcDbArc
 50
179.9999999999998
 51
269.9999999999998
  0
ARC
  5
1F5
330
1F
100
AcDbEntity
  8
10
  6
Continuous
 62
     7
370
    25
100
AcDbCircle
 10
712.8828373626538
 20
364.6018772179104
 30
0.0
 40
0.5
100
AcDbArc
 50
269.9999999999998
 51
0.0
  0
LINE
  5
1F6
330
1F
100
AcDbEntity
  8
10
  6
Continuous
 62
     7
370
    25
100
AcDbLine
 10
713.9828373626542
 20
364.6018772179104
 30
0.0
 11
713.9828373626542
 21
365.2518772179119
 31
0.0
  0
LINE
  5
1F7
330
1F
100
AcDbEntity
  8
10
  6
Continuous
 62
     7
370
    25
100
AcDbLine
 10
713.3828373626538
 20
364.6018772179104
 30
0.0
 11
713.3828373626538
 21
365.2518772179119
 31
0.0
  0
LINE
  5
1F8
330
1F
100
AcDbEntity
  8
10
  6
Continuous
 62
     7
370
    25
100
AcDbLine
 10
714.4828373626542
 20
364.1018772179104
 30
0.0
 11
715.1328373626538
 21
364.1018772179104
 31
0.0
  0
LINE
  5
1F9
330
1F
100
AcDbEntity
  8
10
  6
Continuous
 62
     7
370
    25
100
AcDbLine
 10
714.4828373626542
 20
363.5018772179119
 30
0.0
 11
715.1328373626538
 21
363.5018772179119
 31
0.0
  0
LINE
  5
1FA
330
1F
100
AcDbEntity
  8
10
  6
Continuous
 62
     7
370
    25
100
AcDbLine
 10
715.1328373626538
 20
363.5018772179119
 30
0.0
 11
715.1328373626538
 21
364.1018772179104
 31
0.0
  0
LINE
  5
1FB
330
1F
100
AcDbEntity
  8
10
  6
Continuous
 62
     7
370
    25
100
AcDbLine
 10
713.9828373626542
 20
365.2518772179119
 30
0.0
 11
713.3828373626538
 21
365.2518772179119
 31
0.0
  0
LINE
  5
1FC
330
1F
100
AcDbEntity
  8
10
  6
Continuous
 62
     7
370
    25
100
AcDbLine
 10
712.2328373626542
 20
364.1018772179104
 30
0.0
 11
712.2328373626542
 21
363.5018772179119
 31
0.0
  0
DIMENSION
  5
206
330
1F
100
AcDbEntity
  8
9
  6
Continuous
 62
     4
370
     9
100
AcDbDimension
280
     0
  2
Dim3
 10
723.6828373626539
 20
119.9526574721804
 30
0.0
 11
742.182837362654
 21
125.9526574721804
 31
0.0
 70
   160
  1
(<>
 71
     5
 42
-1.0
 73
     0
 74
     0
 75
     0
  3
Standard
100
AcDbAlignedDimension
 13
703.2546341323705
 23
298.8018772179112
 33
0.0
 14
723.682837362654
 24
168.8018772179112
 34
0.0
100
AcDbRotatedDimension
1001
ACAD
1000
DSTYLE
1002
{
1070
   279
1070
     2
1070
   340
1005
111
1070
   140
1040
6.0
1070
    40
1040
1.0
1070
   147
1040
0.0
1070
    76
1070
     0
1070
    75
1070
     0
1070
   344
1005
0
1070
   343
1005
0
1070
   173
1070
     1
1070
   289
1070
     2
1070
   288
1070
     1
1070
    77
1070
     1
1070
   172
1070
     1
1070
   174
1070
     0
1070
    74
1070
     0
1070
    73
1070
     0
1070
   284
1070
     8
1070
    78
1070
     8
1070
    42
1040
2.0
1070
    44
1040
3.0
1070
    43
1040
30.0
1070
   271
1070
     2
1070
    41
1040
4.0
1002
}
  0
LINE
  5
207
330
1F
100
AcDbEntity
  8
3
  6
HIDDEN
 62
     3
370
     9
100
AcDbLine
 10
723.682837362654
 20
316.3018772179121
 30
0.0
 11
678.682837362654
 21
316.3018772179121
 31
0.0
  0
LINE
  5
208
330
1F
100
AcDbEntity
  8
3
  6
HIDDEN
 62
     3
370
     9
100
AcDbLine
 10
722.6828373626531
 20
321.3018772179121
 30
0.0
 11
684.682837362654
 21
321.3018772179121
 31
0.0
  0
INSERT
  5
209
330
1F
100
AcDbEntity
  8
9
  6
Continuous
 62
     4
370
     9
100
AcDbBlockReference
  2
_OPEN
 10
268.6645325053732
 20
424.4865559696395
 30
0.0
 41
8.0
 42
8.0
 43
8.0
 50
239.9999999999999
  0
POLYLINE
  5
20A
330
1F
100
AcDbEntity
  8
9
  6
Continuous
 62
     4
370
     9
100
AcDb2dPolyline
 66
     1
 10
0.0
 20
0.0
 30
0.0
  0
VERTEX
  5
20B
330
20A
100
AcDbEntity
  8
9
  6
Continuous
 62
     4
370
     9
100
AcDbVertex
100
AcDb2dVertex
 10
268.6645325053732
 20
424.4865559696395
 30
0.0
  0
VERTEX
  5
20C
330
20A
100
AcDbEntity
  8
9
  6
Continuous
 62
     4
370
     9
100
AcDbVertex
100
AcDb2dVertex
 10
284.0045742103867
 20
451.0562875929485
 30
0.0
  0
VERTEX
  5
20D
330
20A
100
AcDbEntity
  8
9
  6
Continuous
 62
     4
370
     9
100
AcDbVertex
100
AcDb2dVertex
 10
311.7245742103868
 20
451.0562875929485
 30
0.0
  0
SEQEND
  5
20E
330
20A
100
AcDbEntity
  8
9
  6
Continuous
 62
     4
370
     9
  0
MTEXT
  5
20F
330
1F
100
AcDbEntity
  8
9
  6
Continuous
 62
     4
370
     9
100
AcDbMText
 10
288.7245742103867
 20
458.2562875929485
 30
0.0
 40
6.0
 41
32.587333062
 46
6.0
 71
     1
 72
     1
  1
{\fＭＳ ゴシック;\T1.016260;8-Ø6.2}
 73
     1
 44
1.0
1001
ACAD
1000
ACAD_MTEXT_DEFINED_HEIGHT_BEGIN
1070
    46
1040
6.0
1000
ACAD_MTEXT_DEFINED_HEIGHT_END
  0
DIMENSION
  5
219
330
1F
100
AcDbEntity
  8
9
  6
Continuous
 62
     4
370
     9
100
AcDbDimension
280
     0
  2
Dim4
 10
542.114532505373
 20
98.66736800559192
 30
0.0
 11
392.1145325053731
 21
98.66736800559192
 31
0.0
 70
   160
  1
<>
 71
     8
 42
-1.0
 73
     0
 74
     0
 75
     0
  3
Standard
100
AcDbAlignedDimension
 13
242.1145325053731
 23
198.8018772179075
 33
0.0
 14
542.1145325053731
 24
198.8018772179075
 34
0.0
100
AcDbRotatedDimension
1001
ACAD
1000
DSTYLE
1002
{
1070
   279
1070
     1
1070
   340
1005
111
1070
   140
1040
6.0
1070
    40
1040
1.0
1070
   147
1040
0.0
1070
    76
1070
     0
1070
    75
1070
     0
1070
   344
1005
0
1070
   343
1005
0
1070
   173
1070
     1
1070
   289
1070
     2
1070
   288
1070
     1
1070
    77
1070
     1
1070
   172
1070
     1
1070
   174
1070
     0
1070
    74
1070
     0
1070
    73
1070
     0
1070
   284
1070
     8
1070
    78
1070
     8
1070
    42
1040
2.0
1070
    44
1040
3.0
1070
    43
1040
30.0
1070
   271
1070
     2
1070
    41
1040
4.0
1002
}
  0
DIMENSION
  5
223
330
1F
100
AcDbEntity
  8
9
  6
Continuous
 62
     4
370
     9
100
AcDbDimension
280
     0
  2
Dim5
 10
557.1145325053728
 20
74.82860273628467
 30
0.0
 11
392.1145325053731
 21
74.82860273628467
 31
0.0
 70
   160
  1
<>
 71
     8
 42
-1.0
 73
     0
 74
     0
 75
     0
  3
Standard
100
AcDbAlignedDimension
 13
227.1145325053731
 23
183.8018772179057
 33
0.0
 14
557.1145325053731
 24
183.8018772179075
 34
0.0
100
AcDbRotatedDimension
1001
ACAD
1000
DSTYLE
1002
{
1070
   279
1070
     1
1070
   340
1005
111
1070
   140
1040
6.0
1070
    40
1040
1.0
1070
   147
1040
0.0
1070
    76
1070
     0
1070
    75
1070
     0
1070
   344
1005
0
1070
   343
1005
0
1070
   173
1070
     1
1070
   289
1070
     2
1070
   288
1070
     1
1070
    77
1070
     1
1070
   172
1070
     1
1070
   174
1070
     0
1070
    74
1070
     0
1070
    73
1070
     0
1070
   284
1070
     8
1070
    78
1070
     8
1070
    42
1040
2.0
1070
    44
1040
3.0
1070
    43
1040
30.0
1070
   271
1070
     2
1070
    41
1040
4.0
1002
}
  0
DIMENSION
  5
22D
330
1F
100
AcDbEntity
  8
9
  6
Continuous
 62
     4
370
     9
100
AcDbDimension
280
     0
  2
Dim6
 10
202.8132192765079
 20
398.8018772179081
 30
0.0
 11
202.8132192765079
 21
298.8018772179079
 31
0.0
 70
   160
  1
<>
 71
     8
 42
-1.0
 73
     0
 74
     0
 75
     0
  3
Standard
100
AcDbAlignedDimension
 13
242.1145325053731
 23
198.8018772179075
 33
0.0
 14
242.1145325053731
 24
398.801877217908
 34
0.0
 50
89.99999999999991
100
AcDbRotatedDimension
1001
ACAD
1000
DSTYLE
1002
{
1070
   279
1070
     1
1070
   340
1005
111
1070
   140
1040
6.0
1070
    40
1040
1.0
1070
   147
1040
0.0
1070
    76
1070
     0
1070
    75
1070
     0
1070
   344
1005
0
1070
   343
1005
0
1070
   173
1070
     1
1070
   289
1070
     2
1070
   288
1070
     1
1070
    77
1070
     1
1070
   172
1070
     1
1070
   174
1070
     0
1070
    74
1070
     0
1070
    73
1070
     0
1070
   284
1070
     8
1070
    78
1070
     8
1070
    42
1040
2.0
1070
    44
1040
3.0
1070
    43
1040
30.0
1070
   271
1070
     2
1070
    41
1040
4.0
1002
}
  0
DIMENSION
  5
237
330
1F
100
AcDbEntity
  8
9
  6
Continuous
 62
     4
370
     9
100
AcDbDimension
280
     0
  2
Dim7
 10
181.323450922122
 20
413.8018772179082
 30
0.0
 11
181.323450922122
 21
298.8018772179075
 31
0.0
 70
   160
  1
<>
 71
     8
 42
-1.0
 73
     0
 74
     0
 75
     0
  3
Standard
100
AcDbAlignedDimension
 13
227.1145325053731
 23
183.8018772179075
 33
0.0
 14
227.1145325053731
 24
413.801877217908
 34
0.0
 50
89.99999999999991
100
AcDbRotatedDimension
1001
ACAD
1000
DSTYLE
1002
{
1070
   279
1070
     1
1070
   340
1005
111
1070
   140
1040
6.0
1070
    40
1040
1.0
1070
   147
1040
0.0
1070
    76
1070
     0
1070
    75
1070
     0
1070
   344
1005
0
1070
   343
1005
0
1070
   173
1070
     1
1070
   289
1070
     2
1070
   288
1070
     1
1070
    77
1070
     1
1070
   172
1070
     1
1070
   174
1070
     0
1070
    74
1070
     0
1070
    73
1070
     0
1070
   284
1070
     8
1070
    78
1070
     8
1070
    42
1040
2.0
1070
    44
1040
3.0
1070
    43
1040
30.0
1070
   271
1070
     2
1070
    41
1040
4.0
1002
}
  0
DIMENSION
  5
241
330
1F
100
AcDbEntity
  8
9
  6
Continuous
 62
     4
370
     9
100
AcDbDimension
280
     0
  2
Dim8
 10
159.6805649437083
 20
421.8018772179083
 30
0.0
 11
159.6805649437083
 21
298.8018772179075
 31
0.0
 70
   160
  1
<>
 71
     8
 42
-1.0
 73
     0
 74
     0
 75
     0
  3
Standard
100
AcDbAlignedDimension
 13
260.5145325053732
 23
175.8018772179075
 33
0.0
 14
260.5145325053732
 24
421.801877217908
 34
0.0
 50
89.99999999999991
100
AcDbRotatedDimension
1001
ACAD
1000
DSTYLE
1002
{
1070
   279
1070
     1
1070
   340
1005
111
1070
   140
1040
6.0
1070
    40
1040
1.0
1070
   147
1040
0.0
1070
    76
1070
     0
1070
    75
1070
     0
1070
   344
1005
0
1070
   343
1005
0
1070
   173
1070
     1
1070
   289
1070
     2
1070
   288
1070
     1
1070
    77
1070
     1
1070
   172
1070
     1
1070
   174
1070
     0
1070
    74
1070
     0
1070
    73
1070
     0
1070
   284
1070
     8
1070
    78
1070
     8
1070
    42
1040
2.0
1070
    44
1040
3.0
1070
    43
1040
30.0
1070
   271
1070
     2
1070
    41
1040
4.0
1002
}
  0
DIMENSION
  5
24B
330
1F
100
AcDbEntity
  8
9
  6
Continuous
 62
     4
370
     9
100
AcDbDimension
280
     0
  2
Dim9
 10
138.8097274222491
 20
168.8018772179078
 30
0.0
 11
138.8097274222491
 21
298.8018772179074
 31
0.0
 70
   160
  1
<>
 71
     8
 42
-1.0
 73
     0
 74
     0
 75
     0
 53
89.99999999999991
  3
Standard
100
AcDbAlignedDimension
 13
247.1145325053722
 23
428.801877217908
 33
0.0
 14
247.1145325053722
 24
168.8018772179075
 34
0.0
 50
-89.99999999999991
100
AcDbRotatedDimension
1001
ACAD
1000
DSTYLE
1002
{
1070
   279
1070
     1
1070
   340
1005
111
1070
   140
1040
6.0
1070
    40
1040
1.0
1070
   147
1040
0.0
1070
    76
1070
     0
1070
    75
1070
     0
1070
   344
1005
0
1070
   343
1005
0
1070
   173
1070
     1
1070
   289
1070
     2
1070
   288
1070
     1
1070
    77
1070
     1
1070
   172
1070
     1
1070
   174
1070
     0
1070
    74
1070
     0
1070
    73
1070
     0
1070
   284
1070
     8
1070
    78
1070
     8
1070
    42
1040
2.0
1070
    44
1040
3.0
1070
    43
1040
30.0
1070
   271
1070
     2
1070
    41
1040
4.0
1002
}
  0
DIMENSION
  5
255
330
1F
100
AcDbEntity
  8
9
  6
Continuous
 62
     4
370
     9
100
AcDbDimension
280
     0
  2
Dim10
 10
454.6145325053731
 20
143.3670662418244
 30
0.0
 11
392.1145325053731
 21
143.3670662418244
 31
0.0
 70
   160
  1
<>
 71
     8
 42
-1.0
 73
     0
 74
     0
 75
     0
  3
Standard
100
AcDbAlignedDimension
 13
329.6145325053731
 23
169.2018772179072
 33
0.0
 14
454.6145325053731
 24
169.2018772179072
 34
0.0
100
AcDbRotatedDimension
1001
ACAD
1000
DSTYLE
1002
{
1070
   279
1070
     1
1070
   340
1005
111
1070
   140
1040
6.0
1070
    40
1040
1.0
1070
   147
1040
0.0
1070
    76
1070
     0
1070
    75
1070
     0
1070
   344
1005
0
1070
   343
1005
0
1070
   173
1070
     1
1070
   289
1070
     2
1070
   288
1070
     1
1070
    77
1070
     1
1070
   172
1070
     1
1070
   174
1070
     0
1070
    74
1070
     0
1070
    73
1070
     0
1070
   284
1070
     8
1070
    78
1070
     8
1070
    42
1040
2.0
1070
    44
1040
3.0
1070
    43
1040
30.0
1070
   271
1070
     2
1070
    41
1040
4.0
1002
}
  0
DIMENSION
  5
25F
330
1F
100
AcDbEntity
  8
9
  6
Continuous
 62
     4
370
     9
100
AcDbDimension
280
     0
  2
Dim11
 10
267.1145325053731
 20
119.9526574721767
 30
0.0
 11
392.1145325053731
 21
119.9526574721767
 31
0.0
 70
   160
  1
<>
 71
     8
 42
-1.0
 73
     0
 74
     0
 75
     0
  3
Standard
100
AcDbAlignedDimension
 13
517.1145325053731
 23
169.2018772179072
 33
0.0
 14
267.1145325053731
 24
169.2018772179072
 34
0.0
 50
179.9999999999998
100
AcDbRotatedDimension
1001
ACAD
1000
DSTYLE
1002
{
1070
   279
1070
     1
1070
   340
1005
111
1070
   140
1040
6.0
1070
    40
1040
1.0
1070
   147
1040
0.0
1070
    76
1070
     0
1070
    75
1070
     0
1070
   344
1005
0
1070
   343
1005
0
1070
   173
1070
     1
1070
   289
1070
     2
1070
   288
1070
     1
1070
    77
1070
     1
1070
   172
1070
     1
1070
   174
1070
     0
1070
    74
1070
     0
1070
    73
1070
     0
1070
   284
1070
     8
1070
    78
1070
     8
1070
    42
1040
2.0
1070
    44
1040
3.0
1070
    43
1040
30.0
1070
   271
1070
     2
1070
    41
1040
4.0
1002
}
  0
DIMENSION
  5
267
330
1F
100
AcDbEntity
  8
9
  6
Continuous
 62
     4
370
     9
100
AcDbDimension
280
     0
  2
Dim12
 10
382.9746659057458
 20
283.8783106689529
 30
0.0
 11
484.2947674885214
 21
455.0577542269931
 31
0.0
 70
   163
  1
∅<>
 71
     5
 42
-1.0
 73
     0
 74
     0
 75
     0
  3
Standard
100
AcDbDiametricDimension
 15
401.2543991049858
 25
313.7254437668676
 35
0.0
 40
0.0
1001
ACAD
1000
DSTYLE
1002
{
1070
   340
1005
111
1070
   140
1040
6.0
1070
    40
1040
1.0
1070
   147
1040
0.0
1070
    76
1070
     0
1070
    75
1070
     0
1070
   344
1005
0
1070
   343
1005
0
1070
   173
1070
     1
1070
   289
1070
     2
1070
   288
1070
     1
1070
    77
1070
     1
1070
   172
1070
     1
1070
   174
1070
     0
1070
    74
1070
     0
1070
    73
1070
     0
1070
   284
1070
     8
1070
    78
1070
     8
1070
    42
1040
2.0
1070
    44
1040
3.0
1070
    43
1040
30.0
1070
   271
1070
     2
1070
    41
1040
4.0
1002
}
  0
DIMENSION
  5
26F
330
1F
100
AcDbEntity
  8
9
  6
Continuous
 62
     4
370
     9
100
AcDbDimension
280
     0
  2
Dim13
 10
377.2298060374242
 20
281.9289723709502
 30
0.0
 11
525.4743476404618
 21
454.5096408892683
 31
0.0
 70
   163
  1
∅<>
 71
     5
 42
-1.0
 73
     0
 74
     0
 75
     0
  3
Standard
100
AcDbDiametricDimension
 15
406.9992589733038
 25
315.6747820648716
 35
0.0
 40
0.0
1001
ACAD
1000
DSTYLE
1002
{
1070
   340
1005
111
1070
   140
1040
6.0
1070
    40
1040
1.0
1070
   147
1040
0.0
1070
    76
1070
     0
1070
    75
1070
     0
1070
   344
1005
0
1070
   343
1005
0
1070
   173
1070
     1
1070
   289
1070
     2
1070
   288
1070
     1
1070
    77
1070
     1
1070
   172
1070
     1
1070
   174
1070
     0
1070
    74
1070
     0
1070
    73
1070
     0
1070
   284
1070
     8
1070
    78
1070
     8
1070
    42
1040
2.0
1070
    44
1040
3.0
1070
    43
1040
30.0
1070
   271
1070
     2
1070
    41
1040
4.0
1002
}
  0
DIMENSION
  5
279
330
1F
100
AcDbEntity
  8
9
  6
Continuous
 62
     4
370
     9
100
AcDbDimension
280
     0
  2
Dim14
 10
723.6828373626539
 20
98.66736800559556
 30
0.0
 11
701.182837362654
 21
98.66736800559556
 31
0.0
 70
   160
  1
<>
 71
     8
 42
-1.0
 73
     0
 74
     0
 75
     0
  3
Standard
100
AcDbAlignedDimension
 13
678.682837362654
 23
183.8018772179112
 33
0.0
 14
723.682837362654
 24
168.8018772179112
 34
0.0
100
AcDbRotatedDimension
1001
ACAD
1000
DSTYLE
1002
{
1070
   279
1070
     1
1070
   340
1005
111
1070
   140
1040
6.0
1070
    40
1040
1.0
1070
   147
1040
0.0
1070
    76
1070
     0
1070
    75
1070
     0
1070
   344
1005
0
1070
   343
1005
0
1070
   173
1070
     1
1070
   289
1070
     2
1070
   288
1070
     1
1070
    77
1070
     1
1070
   172
1070
     1
1070
   174
1070
     0
1070
    74
1070
     0
1070
    73
1070
     0
1070
   284
1070
     8
1070
    78
1070
     8
1070
    42
1040
2.0
1070
    44
1040
3.0
1070
    43
1040
30.0
1070
   271
1070
     2
1070
    41
1040
4.0
1002
}
  0
VIEWPORT
  5
6A
330
1B
100
AcDbEntity
 67
     1
  8
0
100
AcDbViewport
 10
420.0
 20
297.0
 30
0.0
 40
840.0
 41
594.0
 68
     1
 69
     1
 12
420.0
 22
297.0
 13
0.0
 23
0.0
 14
0.5
 24
0.5
 15
0.5
 25
0.5
 16
0.0
 26
0.0
 36
1.0
 17
0.0
 27
0.0
 37
0.0
 42
50.0
 43
0.0
 44
0.0
 45
9.0
 50
0.0
 51
0.0
 72
   100
 90
   557152
  1

281
     0
 71
     1
 74
     0
110
0.0
120
0.0
130
0.0
111
1.0
121
0.0
131
0.0
112
0.0
122
1.0
132
0.0
 79
     0
146
0.0
170
     0
 61
     5
292
     1
282
     1
141
0.0
142
0.0
 63
   256
  0
ENDSEC
  0
SECTION
  2
OBJECTS
  0
DICTIONARY
  5
C
330
0
100
AcDbDictionary
281
     1
  3
ACAD_DETAILVIEWSTYLE
350
27E
  3
ACAD_GROUP
350
D
  3
ACAD_LAYOUT
350
1A
  3
ACAD_MATERIAL
350
43
  3
ACAD_MLEADERSTYLE
350
27D
  3
ACAD_MLINESTYLE
350
17
  3
ACAD_PLOTSETTINGS
350
19
  3
ACAD_PLOTSTYLENAME
350
E
  3
ACAD_SCALELIST
350
47
  3
ACAD_SECTIONVIEWSTYLE
350
27F
  3
ACAD_TABLESTYLE
350
27C
  3
ACAD_VISUALSTYLE
350
2A
  3
AcDbVariableDictionary
350
27A
  0
SUN
  5
69
330
29
100
AcDbSun
 90
        1
290
     0
 63
     7
421
 16777215
 40
1.0
291
     1
 91
  2455826
 92
 54000000
292
     0
 70
     2
 71
   256
280
     1
  0
DICTIONARY
  5
27E
102
{ACAD_REACTORS
330
C
102
}
330
C
100
AcDbDictionary
281
     1
  0
DICTIONARY
  5
D
102
{ACAD_REACTORS
330
C
102
}
330
C
100
AcDbDictionary
281
     1
  0
DICTIONARY
  5
1A
102
{ACAD_REACTORS
330
C
102
}
330
C
100
AcDbDictionary
281
     1
  3
Layout1
350
1E
  3
Layout2
350
26
  3
Model
350
22
  0
DICTIONARY
  5
43
102
{ACAD_REACTORS
330
C
102
}
330
C
100
AcDbDictionary
281
     1
  3
ByBlock
350
45
  3
ByLayer
350
44
  3
Global
350
46
  0
DICTIONARY
  5
27D
102
{ACAD_REACTORS
330
C
102
}
330
C
100
AcDbDictionary
281
     1
  0
DICTIONARY
  5
17
102
{ACAD_REACTORS
330
C
102
}
330
C
100
AcDbDictionary
281
     1
  3
Standard
350
18
  0
DICTIONARY
  5
19
102
{ACAD_REACTORS
330
C
102
}
330
C
100
AcDbDictionary
281
     1
  0
ACDBDICTIONARYWDFLT
  5
E
102
{ACAD_REACTORS
330
C
102
}
330
C
100
AcDbDictionary
281
     1
  3
Normal
350
F
100
AcDbDictionaryWithDefault
340
F
  0
DICTIONARY
  5
47
102
{ACAD_REACTORS
330
C
102
}
330
C
100
AcDbDictionary
281
     1
  3
A0
350
48
  3
A1
350
49
  3
A2
350
4A
  3
A3
350
4B
  3
A4
350
4C
  3
A5
350
4D
  3
A6
350
4E
  3
A7
350
4F
  3
A8
350
50
  3
A9
350
51
  3
B0
350
52
  3
B1
350
53
  3
B2
350
54
  3
B3
350
55
  3
B4
350
56
  3
B5
350
57
  3
B6
350
58
  3
B7
350
59
  3
B8
350
5A
  3
B9
350
5B
  3
C0
350
5C
  3
C1
350
5D
  3
C2
350
5E
  3
C3
350
5F
  3
C4
350
60
  3
C5
350
61
  3
C6
350
62
  3
C7
350
63
  3
C8
350
64
  3
C9
350
65
  3
D0
350
66
  3
D1
350
67
  3
D2
350
68
  0
DICTIONARY
  5
27F
102
{ACAD_REACTORS
330
C
102
}
330
C
100
AcDbDictionary
281
     1
  0
DICTIONARY
  5
27C
102
{ACAD_REACTORS
330
C
102
}
330
C
100
AcDbDictionary
281
     1
  0
DICTIONARY
  5
2A
102
{ACAD_REACTORS
330
C
102
}
330
C
100
AcDbDictionary
281
     1
  3
2dWireframe
350
2F
  3
Basic
350
32
  3
Brighten
350
36
  3
ColorChange
350
3A
  3
Conceptual
350
34
  3
Dim
350
35
  3
EdgeColorOff
350
3D
  3
Facepattern
350
39
  3
Flat
350
2B
  3
FlatWithEdges
350
2C
  3
Gouraud
350
2D
  3
GouraudWithEdges
350
2E
  3
Hidden
350
31
  3
JitterOff
350
3B
  3
Linepattern
350
38
  3
OverhangOff
350
3C
  3
Realistic
350
33
  3
Shaded
350
42
  3
Shaded with edges
350
41
  3
Shades of Gray
350
3E
  3
Sketchy
350
3F
  3
Thicken
350
37
  3
Wireframe
350
30
  3
X-Ray
350
40
  0
DICTIONARY
  5
27A
102
{ACAD_REACTORS
330
C
102
}
330
C
100
AcDbDictionary
281
     1
  3
CANNOSCALE
350
27B
  0
LAYOUT
  5
1E
102
{ACAD_REACTORS
330
1A
102
}
330
1A
100
AcDbPlotSettings
  1

  2
none_device
  4

  6

 40
0.0
 41
0.0
 42
0.0
 43
0.0
 44
0.0
 45
0.0
 46
0.0
 47
0.0
 48
0.0
 49
0.0
140
0.0
141
0.0
142
1.0
143
1.0
 70
   688
 72
     0
 73
     0
 74
     5
  7

 75
    16
 76
     0
 77
     2
 78
   300
147
1.0
148
0.0
149
0.0
100
AcDbLayout
  1
Layout1
 70
     1
 71
     1
 10
0.0
 20
0.0
 11
420.0
 21
297.0
 12
0.0
 22
0.0
 32
0.0
 14
0.0
 24
0.0
 34
0.0
 15
420.0
 25
297.0
 35
0.0
146
0.0
 13
0.0
 23
0.0
 33
0.0
 16
1.0
 26
0.0
 36
0.0
 17
0.0
 27
1.0
 37
0.0
 76
     0
330
1B
331
6A
  0
LAYOUT
  5
26
102
{ACAD_REACTORS
330
1A
102
}
330
1A
100
AcDbPlotSettings
  1

  2
none_device
  4

  6

 40
0.0
 41
0.0
 42
0.0
 43
0.0
 44
0.0
 45
0.0
 46
0.0
 47
0.0
 48
0.0
 49
0.0
140
0.0
141
0.0
142
1.0
143
1.0
 70
   688
 72
     0
 73
     0
 74
     5
  7

 75
    16
 76
     0
 77
     2
 78
   300
147
1.0
148
0.0
149
0.0
100
AcDbLayout
  1
Layout2
 70
     1
 71
     2
 10
0.0
 20
0.0
 11
0.0
 21
0.0
 12
0.0
 22
0.0
 32
0.0
 14
0.0
 24
0.0
 34
0.0
 15
0.0
 25
0.0
 35
0.0
146
0.0
 13
0.0
 23
0.0
 33
0.0
 16
1.0
 26
0.0
 36
0.0
 17
0.0
 27
1.0
 37
0.0
 76
     0
330
23
  0
LAYOUT
  5
22
102
{ACAD_REACTORS
330
1A
102
}
330
1A
100
AcDbPlotSettings
  1

  2
none_device
  4
Letter_(8.50_x_11.00_Inches)
  6

 40
6.35
 41
6.35
 42
6.35000508
 43
6.35000508
 44
215.9
 45
279.4
 46
0.0
 47
0.0
 48
0.0
 49
0.0
140
0.0
141
0.0
142
1.0
143
1.0
 70
  1712
 72
     0
 73
     0
 74
     0
  7

 75
     0
 76
     0
 77
     2
 78
   300
147
1.0
148
0.0
149
0.0
100
AcDbLayout
  1
Model
 70
     1
 71
     0
 10
0.0
 20
0.0
 11
420.0
 21
297.0
 12
0.0
 22
0.0
 32
0.0
 14
132.8097274222491
 24
71.82860273628467
 34
0.0
 15
751.182837362654
 25
460.4620770423741
 35
0.0
146
0.0
 13
0.0
 23
0.0
 33
0.0
 16
1.0
 26
0.0
 36
0.0
 17
0.0
 27
1.0
 37
0.0
 76
     0
330
1F
331
29
  0
MATERIAL
  5
45
102
{ACAD_REACTORS
330
43
102
}
330
43
100
AcDbMaterial
  1
ByBlock
 72
     1
 94
      127
  0
MATERIAL
  5
44
102
{ACAD_REACTORS
330
43
102
}
330
43
100
AcDbMaterial
  1
ByLayer
 72
     1
 94
      127
  0
MATERIAL
  5
46
102
{ACAD_REACTORS
330
43
102
}
330
43
100
AcDbMaterial
  1
Global
 72
     1
 94
      127
  0
MLINESTYLE
  5
18
102
{ACAD_REACTORS
330
17
102
}
330
17
100
AcDbMlineStyle
  2
Standard
 70
     0
  3

 62
   256
 51
90.0
 52
90.0
 71
     2
 49
0.5
 62
   256
  6
BYLAYER
 49
-0.5
 62
   256
  6
BYLAYER
  0
ACDBPLACEHOLDER
  5
F
102
{ACAD_REACTORS
330
E
102
}
330
E
  0
SCALE
  5
48
102
{ACAD_REACTORS
330
47
102
}
330
47
100
AcDbScale
 70
     0
300
1:1
140
1.0
141
1.0
290
     1
  0
SCALE
  5
49
102
{ACAD_REACTORS
330
47
102
}
330
47
100
AcDbScale
 70
     0
300
1:2
140
1.0
141
2.0
290
     0
  0
SCALE
  5
4A
102
{ACAD_REACTORS
330
47
102
}
330
47
100
AcDbScale
 70
     0
300
1:4
140
1.0
141
4.0
290
     0
  0
SCALE
  5
4B
102
{ACAD_REACTORS
330
47
102
}
330
47
100
AcDbScale
 70
     0
300
1:5
140
1.0
141
5.0
290
     0
  0
SCALE
  5
4C
102
{ACAD_REACTORS
330
47
102
}
330
47
100
AcDbScale
 70
     0
300
1:8
140
1.0
141
8.0
290
     0
  0
SCALE
  5
4D
102
{ACAD_REACTORS
330
47
102
}
330
47
100
AcDbScale
 70
     0
300
1:10
140
1.0
141
10.0
290
     0
  0
SCALE
  5
4E
102
{ACAD_REACTORS
330
47
102
}
330
47
100
AcDbScale
 70
     0
300
1:16
140
1.0
141
16.0
290
     0
  0
SCALE
  5
4F
102
{ACAD_REACTORS
330
47
102
}
330
47
100
AcDbScale
 70
     0
300
1:20
140
1.0
141
20.0
290
     0
  0
SCALE
  5
50
102
{ACAD_REACTORS
330
47
102
}
330
47
100
AcDbScale
 70
     0
300
1:30
140
1.0
141
30.0
290
     0
  0
SCALE
  5
51
102
{ACAD_REACTORS
330
47
102
}
330
47
100
AcDbScale
 70
     0
300
1:40
140
1.0
141
40.0
290
     0
  0
SCALE
  5
52
102
{ACAD_REACTORS
330
47
102
}
330
47
100
AcDbScale
 70
     0
300
1:50
140
1.0
141
50.0
290
     0
  0
SCALE
  5
53
102
{ACAD_REACTORS
330
47
102
}
330
47
100
AcDbScale
 70
     0
300
1:100
140
1.0
141
100.0
290
     0
  0
SCALE
  5
54
102
{ACAD_REACTORS
330
47
102
}
330
47
100
AcDbScale
 70
     0
300
2:1
140
2.0
141
1.0
290
     0
  0
SCALE
  5
55
102
{ACAD_REACTORS
330
47
102
}
330
47
100
AcDbScale
 70
     0
300
4:1
140
4.0
141
1.0
290
     0
  0
SCALE
  5
56
102
{ACAD_REACTORS
330
47
102
}
330
47
100
AcDbScale
 70
     0
300
8:1
140
8.0
141
1.0
290
     0
  0
SCALE
  5
57
102
{ACAD_REACTORS
330
47
102
}
330
47
100
AcDbScale
 70
     0
300
10:1
140
10.0
141
1.0
290
     0
  0
SCALE
  5
58
102
{ACAD_REACTORS
330
47
102
}
330
47
100
AcDbScale
 70
     0
300
100:1
140
100.0
141
1.0
290
     0
  0
SCALE
  5
59
102
{ACAD_REACTORS
330
47
102
}
330
47
100
AcDbScale
 70
     0
300
1/128" = 1'-0"
140
0.0078125
141
12.0
290
     0
  0
SCALE
  5
5A
102
{ACAD_REACTORS
330
47
102
}
330
47
100
AcDbScale
 70
     0
300
1/64" = 1'-0"
140
0.015625
141
12.0
290
     0
  0
SCALE
  5
5B
102
{ACAD_REACTORS
330
47
102
}
330
47
100
AcDbScale
 70
     0
300
1/32" = 1'-0"
140
0.03125
141
12.0
290
     0
  0
SCALE
  5
5C
102
{ACAD_REACTORS
330
47
102
}
330
47
100
AcDbScale
 70
     0
300
1/16" = 1'-0"
140
0.0625
141
12.0
290
     0
  0
SCALE
  5
5D
102
{ACAD_REACTORS
330
47
102
}
330
47
100
AcDbScale
 70
     0
300
3/32" = 1'-0"
140
0.09375
141
12.0
290
     0
  0
SCALE
  5
5E
102
{ACAD_REACTORS
330
47
102
}
330
47
100
AcDbScale
 70
     0
300
1/8" = 1'-0"
140
0.125
141
12.0
290
     0
  0
SCALE
  5
5F
102
{ACAD_REACTORS
330
47
102
}
330
47
100
AcDbScale
 70
     0
300
3/16" = 1'-0"
140
0.1875
141
12.0
290
     0
  0
SCALE
  5
60
102
{ACAD_REACTORS
330
47
102
}
330
47
100
AcDbScale
 70
     0
300
1/4" = 1'-0"
140
0.25
141
12.0
290
     0
  0
SCALE
  5
61
102
{ACAD_REACTORS
330
47
102
}
330
47
100
AcDbScale
 70
     0
300
3/8" = 1'-0"
140
0.375
141
12.0
290
     0
  0
SCALE
  5
62
102
{ACAD_REACTORS
330
47
102
}
330
47
100
AcDbScale
 70
     0
300
1/2" = 1'-0"
140
0.5
141
12.0
290
     0
  0
SCALE
  5
63
102
{ACAD_REACTORS
330
47
102
}
330
47
100
AcDbScale
 70
     0
300
3/4" = 1'-0"
140
0.75
141
12.0
290
     0
  0
SCALE
  5
64
102
{ACAD_REACTORS
330
47
102
}
330
47
100
AcDbScale
 70
     0
300
1" = 1'-0"
140
1.0
141
12.0
290
     0
  0
SCALE
  5
65
102
{ACAD_REACTORS
330
47
102
}
330
47
100
AcDbScale
 70
     0
300
1-1/2" = 1'-0"
140
1.5
141
12.0
290
     0
  0
SCALE
  5
66
102
{ACAD_REACTORS
330
47
102
}
330
47
100
AcDbScale
 70
     0
300
3" = 1'-0"
140
3.0
141
12.0
290
     0
  0
SCALE
  5
67
102
{ACAD_REACTORS
330
47
102
}
330
47
100
AcDbScale
 70
     0
300
6" = 1'-0"
140
6.0
141
12.0
290
     0
  0
SCALE
  5
68
102
{ACAD_REACTORS
330
47
102
}
330
47
100
AcDbScale
 70
     0
300
1'-0" = 1'-0"
140
12.0
141
12.0
290
     0
  0
VISUALSTYLE
  5
2F
102
{ACAD_REACTORS
330
2A
102
}
330
2A
100
AcDbVisualStyle
  2
2dWireframe
 70
     4
177
     3
291
     0
 70
    58
 90
        0
176
     1
 90
        2
176
     1
 90
        0
176
     1
 90
        0
176
     1
 40
0.6
176
     1
 40
30.0
176
     1
 62
     7
420
 16777215
176
     1
 90
        1
176
     1
 90
        4
176
     1
 62
     7
176
     1
 62
   257
176
     1
 90
        1
176
     1
 90
        1
176
     1
 40
1.0
176
     1
 90
        0
176
     1
 62
   257
176
     1
 40
1.0
176
     1
 90
        1
176
     1
 90
        6
176
     1
 90
        2
176
     1
 62
     7
176
     1
 90
        5
176
     1
 90
        0
176
     1
 90
        0
176
     1
290
     0
176
     1
 90
        1
176
     1
 40
0.0
176
     1
 90
        0
176
     1
290
     1
176
     1
290
     1
176
     1
290
     0
176
     1
290
     0
176
     1
290
     0
176
     1
290
     0
176
     1
290
     0
176
     1
290
     0
176
     1
290
     0
176
     1
 90
       50
176
     1
 40
0.0
176
     1
 40
1.0
176
     1
 90
        0
176
     1
 62
    18
420
        0
176
     1
 90
       50
176
     1
 90
        3
176
     1
 62
     5
420
      255
176
     1
290
     0
176
     1
 90
       50
176
     1
 90
       50
176
     1
 90
       50
176
     1
290
     0
176
     1
 90
       50
176
     1
 62
   256
176
     0
 40
1.0
176
     0
 90
        2
176
     1
  1
strokes_ogs.tif
176
     1
290
     0
176
     1
 40
1.0
176
     1
 40
1.0
176
     1
  0
VISUALSTYLE
  5
32
102
{ACAD_REACTORS
330
2A
102
}
330
2A
100
AcDbVisualStyle
  2
Basic
 70
     7
177
     3
291
     1
 70
    58
 90
        1
176
     1
 90
        0
176
     1
 90
        1
176
     1
 90
        0
176
     1
 40
0.6
176
     1
 40
30.0
176
     1
 62
     7
420
 16777215
176
     1
 90
        0
176
     1
 90
        4
176
     1
 62
     7
176
     1
 62
   257
176
     1
 90
        1
176
     1
 90
        1
176
     1
 40
1.0
176
     1
 90
        8
176
     1
 62
     7
176
     1
 40
1.0
176
     1
 90
        1
176
     1
 90
        6
176
     1
 90
        2
176
     1
 62
     7
176
     1
 90
        5
176
     1
 90
        0
176
     1
 90
        0
176
     1
290
     0
176
     1
 90
        1
176
     1
 40
0.0
176
     1
 90
        0
176
     1
290
     0
176
     1
290
     1
176
     1
290
     1
176
     1
290
     0
176
     1
290
     0
176
     1
290
     0
176
     1
290
     0
176
     1
290
     0
176
     1
290
     0
176
     1
 90
       50
176
     1
 40
0.0
176
     1
 40
1.0
176
     1
 90
        0
176
     1
 62
    18
420
        0
176
     1
 90
       50
176
     1
 90
        3
176
     1
 62
     5
420
      255
176
     1
290
     0
176
     1
 90
       50
176
     1
 90
       50
176
     1
 90
       50
176
     1
290
     0
176
     1
 90
       50
176
     1
 62
   256
176
     0
 40
1.0
176
     0
 90
        2
176
     1
  1
strokes_ogs.tif
176
     1
290
     0
176
     1
 40
1.0
176
     1
 40
1.0
176
     1
  0
VISUALSTYLE
  5
36
102
{ACAD_REACTORS
330
2A
102
}
330
2A
100
AcDbVisualStyle
  2
Brighten
 70
    12
177
     3
291
     1
 70
    58
 90
        2
176
     1
 90
        2
176
     1
 90
        0
176
     1
 90
        0
176
     1
 40
0.6
176
     1
 40
30.0
176
     1
 62
     7
420
 16777215
176
     1
 90
        1
176
     1
 90
        4
176
     1
 62
     7
176
     1
 62
   257
176
     1
 90
        1
176
     1
 90
        1
176
     1
 40
1.0
176
     1
 90
        8
176
     1
 62
     7
176
     1
 40
1.0
176
     1
 90
        1
176
     1
 90
        6
176
     1
 90
        2
176
     1
 62
     7
176
     1
 90
        5
176
     1
 90
        0
176
     1
 90
        0
176
     1
290
     0
176
     1
 90
        1
176
     1
 40
50.0
176
     1
 90
        0
176
     1
290
     0
176
     1
290
     1
176
     1
290
     1
176
     1
290
     0
176
     1
290
     0
176
     1
290
     0
176
     1
290
     0
176
     1
290
     0
176
     1
290
     0
176
     1
 90
       50
176
     1
 40
0.0
176
     1
 40
1.0
176
     1
 90
        0
176
     1
 62
    18
420
        0
176
     1
 90
       50
176
     1
 90
        3
176
     1
 62
     5
420
      255
176
     1
290
     0
176
     1
 90
       50
176
     1
 90
       50
176
     1
 90
       50
176
     1
290
     0
176
     1
 90
       50
176
     1
 62
   256
176
     0
 40
1.0
176
     0
 90
        2
176
     1
  1
strokes_ogs.tif
176
     1
290
     0
176
     1
 40
1.0
176
     1
 40
1.0
176
     1
  0
VISUALSTYLE
  5
3A
102
{ACAD_REACTORS
330
2A
102
}
330
2A
100
AcDbVisualStyle
  2
ColorChange
 70
    16
177
     3
291
     1
 70
    58
 90
        2
176
     1
 90
        2
176
     1
 90
        3
176
     1
 90
        0
176
     1
 40
0.6
176
     1
 40
30.0
176
     1
 62
     8
420
  8421504
176
     1
 90
        1
176
     1
 90
        4
176
     1
 62
     7
176
     1
 62
   257
176
     1
 90
        1
176
     1
 90
        1
176
     1
 40
1.0
176
     1
 90
        8
176
     1
 62
     8
420
  8421504
176
     1
 40
1.0
176
     1
 90
        1
176
     1
 90
        6
176
     1
 90
        2
176
     1
 62
     7
176
     1
 90
        5
176
     1
 90
        0
176
     1
 90
        0
176
     1
290
     0
176
     1
 90
        1
176
     1
 40
0.0
176
     1
 90
        0
176
     1
290
     0
176
     1
290
     1
176
     1
290
     1
176
     1
290
     0
176
     1
290
     0
176
     1
290
     0
176
     1
290
     0
176
     1
290
     0
176
     1
290
     0
176
     1
 90
       50
176
     1
 40
0.0
176
     1
 40
1.0
176
     1
 90
        0
176
     1
 62
    18
420
        0
176
     1
 90
       50
176
     1
 90
        3
176
     1
 62
     5
420
      255
176
     1
290
     0
176
     1
 90
       50
176
     1
 90
       50
176
     1
 90
       50
176
     1
290
     0
176
     1
 90
       50
176
     1
 62
   256
176
     0
 40
1.0
176
     0
 90
        2
176
     1
  1
strokes_ogs.tif
176
     1
290
     0
176
     1
 40
1.0
176
     1
 40
1.0
176
     1
  0
VISUALSTYLE
  5
34
102
{ACAD_REACTORS
330
2A
102
}
330
2A
100
AcDbVisualStyle
  2
Conceptual
 70
     9
177
     3
291
     0
 70
    58
 90
        3
176
     1
 90
        2
176
     1
 90
        0
176
     1
 90
        0
176
     1
 40
0.6
176
     1
 40
30.0
176
     1
 62
     7
420
 16777215
176
     1
 90
        2
176
     1
 90
        2
176
     1
 62
     7
176
     1
 62
   257
176
     1
 90
        1
176
     1
 90
        1
176
     1
 40
179.0
176
     1
 90
        8
176
     1
 62
     7
176
     1
 40
1.0
176
     1
 90
        1
176
     1
 90
        6
176
     1
 90
        2
176
     1
 62
     7
176
     1
 90
        3
176
     1
 90
        0
176
     1
 90
        0
176
     1
290
     0
176
     1
 90
        1
176
     1
 40
0.0
176
     1
 90
        0
176
     1
290
     0
176
     1
290
     1
176
     1
290
     1
176
     1
290
     0
176
     1
290
     0
176
     1
290
     0
176
     1
290
     0
176
     1
290
     0
176
     1
290
     0
176
     1
 90
       50
176
     1
 40
0.0
176
     1
 40
1.0
176
     1
 90
        0
176
     1
 62
    18
420
        0
176
     1
 90
       50
176
     1
 90
        3
176
     1
 62
     5
420
      255
176
     1
290
     0
176
     1
 90
       50
176
     1
 90
       50
176
     1
 90
       50
176
     1
290
     0
176
     1
 90
       50
176
     1
 62
   256
176
     0
 40
1.0
176
     0
 90
        2
176
     1
  1
strokes_ogs.tif
176
     1
290
     0
176
     1
 40
1.0
176
     1
 40
1.0
176
     1
  0
VISUALSTYLE
  5
35
102
{ACAD_REACTORS
330
2A
102
}
330
2A
100
AcDbVisualStyle
  2
Dim
 70
    11
177
     3
291
     1
 70
    58
 90
        2
176
     1
 90
        2
176
     1
 90
        0
176
     1
 90
        0
176
     1
 40
0.6
176
     1
 40
30.0
176
     1
 62
     7
420
 16777215
176
     1
 90
        1
176
     1
 90
        4
176
     1
 62
     7
176
     1
 62
   257
176
     1
 90
        1
176
     1
 90
        1
176
     1
 40
1.0
176
     1
 90
        8
176
     1
 62
     7
176
     1
 40
1.0
176
     1
 90
        1
176
     1
 90
        6
176
     1
 90
        2
176
     1
 62
     7
176
     1
 90
        5
176
     1
 90
        0
176
     1
 90
        0
176
     1
290
     0
176
     1
 90
        1
176
     1
 40
-50.0
176
     1
 90
        0
176
     1
290
     0
176
     1
290
     1
176
     1
290
     1
176
     1
290
     0
176
     1
290
     0
176
     1
290
     0
176
     1
290
     0
176
     1
290
     0
176
     1
290
     0
176
     1
 90
       50
176
     1
 40
0.0
176
     1
 40
1.0
176
     1
 90
        0
176
     1
 62
    18
420
        0
176
     1
 90
       50
176
     1
 90
        3
176
     1
 62
     5
420
      255
176
     1
290
     0
176
     1
 90
       50
176
     1
 90
       50
176
     1
 90
       50
176
     1
290
     0
176
     1
 90
       50
176
     1
 62
   256
176
     0
 40
1.0
176
     0
 90
        2
176
     1
  1
strokes_ogs.tif
176
     1
290
     0
176
     1
 40
1.0
176
     1
 40
1.0
176
     1
  0
VISUALSTYLE
  5
3D
102
{ACAD_REACTORS
330
2A
102
}
330
2A
100
AcDbVisualStyle
  2
EdgeColorOff
 70
    22
177
     3
291
     1
 70
    58
 90
        2
176
     0
 90
        2
176
     0
 90
        0
176
     0
 90
        0
176
     0
 40
0.6
176
     0
 40
30.0
176
     0
 62
     7
420
 16777215
176
     0
 90
        1
176
     0
 90
        4
176
     0
 62
     7
176
     0
 62
   257
176
     0
 90
        1
176
     0
 90
        1
176
     0
 40
1.0
176
     0
 90
        8
176
     2
 62
     7
176
     0
 40
1.0
176
     0
 90
        1
176
     0
 90
        6
176
     0
 90
        2
176
     0
 62
     7
176
     0
 90
        5
176
     0
 90
        0
176
     0
 90
        0
176
     0
290
     0
176
     0
 90
        1
176
     0
 40
0.0
176
     0
 90
        0
176
     0
290
     0
176
     0
290
     1
176
     0
290
     1
176
     0
290
     0
176
     0
290
     0
176
     0
290
     0
176
     0
290
     0
176
     0
290
     0
176
     0
290
     0
176
     0
 90
       50
176
     0
 40
0.0
176
     0
 40
1.0
176
     0
 90
        0
176
     0
 62
    18
420
        0
176
     0
 90
       50
176
     0
 90
        3
176
     0
 62
     5
420
      255
176
     0
290
     0
176
     0
 90
       50
176
     0
 90
       50
176
     0
 90
       50
176
     0
290
     0
176
     0
 90
       50
176
     0
 62
   256
176
     0
 40
1.0
176
     0
 90
        2
176
     0
  1
strokes_ogs.tif
176
     0
290
     0
176
     0
 40
1.0
176
     0
 40
1.0
176
     0
  0
VISUALSTYLE
  5
39
102
{ACAD_REACTORS
330
2A
102
}
330
2A
100
AcDbVisualStyle
  2
Facepattern
 70
    15
177
     3
291
     1
 70
    58
 90
        2
176
     1
 90
        2
176
     1
 90
        0
176
     1
 90
        0
176
     1
 40
0.6
176
     1
 40
30.0
176
     1
 62
     7
420
 16777215
176
     1
 90
        1
176
     1
 90
        4
176
     1
 62
     7
176
     1
 62
   257
176
     1
 90
        1
176
     1
 90
        1
176
     1
 40
1.0
176
     1
 90
        8
176
     1
 62
     7
176
     1
 40
1.0
176
     1
 90
        1
176
     1
 90
        6
176
     1
 90
        2
176
     1
 62
     7
176
     1
 90
        5
176
     1
 90
        0
176
     1
 90
        0
176
     1
290
     0
176
     1
 90
        1
176
     1
 40
0.0
176
     1
 90
        0
176
     1
290
     0
176
     1
290
     1
176
     1
290
     1
176
     1
290
     0
176
     1
290
     0
176
     1
290
     0
176
     1
290
     0
176
     1
290
     0
176
     1
290
     0
176
     1
 90
       50
176
     1
 40
0.0
176
     1
 40
1.0
176
     1
 90
        0
176
     1
 62
    18
420
        0
176
     1
 90
       50
176
     1
 90
        3
176
     1
 62
     5
420
      255
176
     1
290
     0
176
     1
 90
       50
176
     1
 90
       50
176
     1
 90
       50
176
     1
290
     0
176
     1
 90
       50
176
     1
 62
   256
176
     0
 40
1.0
176
     0
 90
        2
176
     1
  1
strokes_ogs.tif
176
     1
290
     0
176
     1
 40
1.0
176
     1
 40
1.0
176
     1
  0
VISUALSTYLE
  5
2B
102
{ACAD_REACTORS
330
2A
102
}
330
2A
100
AcDbVisualStyle
  2
Flat
 70
     0
177
     3
291
     1
 70
    58
 90
        2
176
     1
 90
        1
176
     1
 90
        1
176
     1
 90
        2
176
     1
 40
0.6
176
     1
 40
30.0
176
     1
 62
     7
420
 16777215
176
     1
 90
        0
176
     1
 90
        0
176
     1
 62
     7
176
     1
 62
   257
176
     1
 90
        1
176
     1
 90
        1
176
     1
 40
1.0
176
     1
 90
        8
176
     1
 62
     7
176
     1
 40
1.0
176
     1
 90
        1
176
     1
 90
        6
176
     1
 90
        2
176
     1
 62
     7
176
     1
 90
        5
176
     1
 90
        0
176
     1
 90
        0
176
     1
290
     0
176
     1
 90
       13
176
     1
 40
0.0
176
     1
 90
        0
176
     1
290
     0
176
     1
290
     1
176
     1
290
     1
176
     1
290
     0
176
     1
290
     0
176
     1
290
     0
176
     1
290
     0
176
     1
290
     0
176
     1
290
     0
176
     1
 90
       50
176
     1
 40
0.0
176
     1
 40
1.0
176
     1
 90
        0
176
     1
 62
    18
420
        0
176
     1
 90
       50
176
     1
 90
        3
176
     1
 62
     5
420
      255
176
     1
290
     0
176
     1
 90
       50
176
     1
 90
       50
176
     1
 90
       50
176
     1
290
     0
176
     1
 90
       50
176
     1
 62
   256
176
     0
 40
1.0
176
     0
 90
        2
176
     1
  1
strokes_ogs.tif
176
     1
290
     0
176
     1
 40
1.0
176
     1
 40
1.0
176
     1
  0
VISUALSTYLE
  5
2C
102
{ACAD_REACTORS
330
2A
102
}
330
2A
100
AcDbVisualStyle
  2
FlatWithEdges
 70
     1
177
     3
291
     1
 70
    58
 90
        2
176
     1
 90
        1
176
     1
 90
        1
176
     1
 90
        2
176
     1
 40
0.6
176
     1
 40
30.0
176
     1
 62
     7
420
 16777215
176
     1
 90
        1
176
     1
 90
        0
176
     1
 62
     7
176
     1
 62
   257
176
     1
 90
        1
176
     1
 90
        1
176
     1
 40
1.0
176
     1
 90
        0
176
     1
 62
   257
176
     1
 40
1.0
176
     1
 90
        1
176
     1
 90
        6
176
     1
 90
        2
176
     1
 62
     7
176
     1
 90
        5
176
     1
 90
        0
176
     1
 90
        0
176
     1
290
     0
176
     1
 90
       13
176
     1
 40
0.0
176
     1
 90
        0
176
     1
290
     0
176
     1
290
     1
176
     1
290
     1
176
     1
290
     0
176
     1
290
     0
176
     1
290
     0
176
     1
290
     0
176
     1
290
     0
176
     1
290
     0
176
     1
 90
       50
176
     1
 40
0.0
176
     1
 40
1.0
176
     1
 90
        0
176
     1
 62
    18
420
        0
176
     1
 90
       50
176
     1
 90
        3
176
     1
 62
     5
420
      255
176
     1
290
     0
176
     1
 90
       50
176
     1
 90
       50
176
     1
 90
       50
176
     1
290
     0
176
     1
 90
       50
176
     1
 62
   256
176
     0
 40
1.0
176
     0
 90
        2
176
     1
  1
strokes_ogs.tif
176
     1
290
     0
176
     1
 40
1.0
176
     1
 40
1.0
176
     1
  0
VISUALSTYLE
  5
2D
102
{ACAD_REACTORS
330
2A
102
}
330
2A
100
AcDbVisualStyle
  2
Gouraud
 70
     2
177
     3
291
     1
 70
    58
 90
        2
176
     1
 90
        2
176
     1
 90
        1
176
     1
 90
        2
176
     1
 40
0.6
176
     1
 40
30.0
176
     1
 62
     7
420
 16777215
176
     1
 90
        0
176
     1
 90
        0
176
     1
 62
     7
176
     1
 62
   257
176
     1
 90
        1
176
     1
 90
        1
176
     1
 40
1.0
176
     1
 90
        0
176
     1
 62
     7
176
     1
 40
1.0
176
     1
 90
        1
176
     1
 90
        6
176
     1
 90
        2
176
     1
 62
     7
176
     1
 90
        5
176
     1
 90
        0
176
     1
 90
        0
176
     1
290
     0
176
     1
 90
       13
176
     1
 40
0.0
176
     1
 90
        0
176
     1
290
     0
176
     1
290
     1
176
     1
290
     1
176
     1
290
     0
176
     1
290
     0
176
     1
290
     0
176
     1
290
     0
176
     1
290
     0
176
     1
290
     0
176
     1
 90
       50
176
     1
 40
0.0
176
     1
 40
1.0
176
     1
 90
        0
176
     1
 62
    18
420
        0
176
     1
 90
       50
176
     1
 90
        3
176
     1
 62
     5
420
      255
176
     1
290
     0
176
     1
 90
       50
176
     1
 90
       50
176
     1
 90
       50
176
     1
290
     0
176
     1
 90
       50
176
     1
 62
   256
176
     0
 40
1.0
176
     0
 90
        2
176
     1
  1
strokes_ogs.tif
176
     1
290
     0
176
     1
 40
1.0
176
     1
 40
1.0
176
     1
  0
VISUALSTYLE
  5
2E
102
{ACAD_REACTORS
330
2A
102
}
330
2A
100
AcDbVisualStyle
  2
GouraudWithEdges
 70
     3
177
     3
291
     1
 70
    58
 90
        2
176
     1
 90
        2
176
     1
 90
        1
176
     1
 90
        2
176
     1
 40
0.6
176
     1
 40
30.0
176
     1
 62
     7
420
 16777215
176
     1
 90
        1
176
     1
 90
        0
176
     1
 62
     7
176
     1
 62
   257
176
     1
 90
        1
176
     1
 90
        1
176
     1
 40
1.0
176
     1
 90
        0
176
     1
 62
   257
176
     1
 40
1.0
176
     1
 90
        1
176
     1
 90
        6
176
     1
 90
        2
176
     1
 62
     7
176
     1
 90
        5
176
     1
 90
        0
176
     1
 90
        0
176
     1
290
     0
176
     1
 90
       13
176
     1
 40
0.0
176
     1
 90
        0
176
     1
290
     0
176
     1
290
     1
176
     1
290
     1
176
     1
290
     0
176
     1
290
     0
176
     1
290
     0
176
     1
290
     0
176
     1
290
     0
176
     1
290
     0
176
     1
 90
       50
176
     1
 40
0.0
176
     1
 40
1.0
176
     1
 90
        0
176
     1
 62
    18
420
        0
176
     1
 90
       50
176
     1
 90
        3
176
     1
 62
     5
420
      255
176
     1
290
     0
176
     1
 90
       50
176
     1
 90
       50
176
     1
 90
       50
176
     1
290
     0
176
     1
 90
       50
176
     1
 62
   256
176
     0
 40
1.0
176
     0
 90
        2
176
     1
  1
strokes_ogs.tif
176
     1
290
     0
176
     1
 40
1.0
176
     1
 40
1.0
176
     1
  0
VISUALSTYLE
  5
31
102
{ACAD_REACTORS
330
2A
102
}
330
2A
100
AcDbVisualStyle
  2
Hidden
 70
     6
177
     3
291
     0
 70
    58
 90
        1
176
     1
 90
        2
176
     1
 90
        2
176
     1
 90
        0
176
     1
 40
0.6
176
     1
 40
30.0
176
     1
 62
     7
420
 16777215
176
     1
 90
        2
176
     1
 90
        2
176
     1
 62
     7
176
     1
 62
   257
176
     1
 90
        2
176
     1
 90
        1
176
     1
 40
40.0
176
     1
 90
        0
176
     1
 62
   257
176
     1
 40
1.0
176
     1
 90
        1
176
     1
 90
        6
176
     1
 90
        2
176
     1
 62
     7
176
     1
 90
        3
176
     1
 90
        0
176
     1
 90
        0
176
     1
290
     0
176
     1
 90
        1
176
     1
 40
0.0
176
     1
 90
        0
176
     1
290
     0
176
     1
290
     1
176
     1
290
     1
176
     1
290
     0
176
     1
290
     0
176
     1
290
     0
176
     1
290
     0
176
     1
290
     0
176
     1
290
     0
176
     1
 90
       50
176
     1
 40
0.0
176
     1
 40
1.0
176
     1
 90
        0
176
     1
 62
    18
420
        0
176
     1
 90
       50
176
     1
 90
        3
176
     1
 62
     5
420
      255
176
     1
290
     0
176
     1
 90
       50
176
     1
 90
       50
176
     1
 90
       50
176
     1
290
     0
176
     1
 90
       50
176
     1
 62
   256
176
     0
 40
1.0
176
     0
 90
        2
176
     1
  1
strokes_ogs.tif
176
     1
290
     0
176
     1
 40
1.0
176
     1
 40
1.0
176
     1
  0
VISUALSTYLE
  5
3B
102
{ACAD_REACTORS
330
2A
102
}
330
2A
100
AcDbVisualStyle
  2
JitterOff
 70
    20
177
     3
291
     1
 70
    58
 90
        2
176
     0
 90
        2
176
     0
 90
        0
176
     0
 90
        0
176
     0
 40
0.6
176
     0
 40
30.0
176
     0
 62
     7
420
 16777215
176
     0
 90
        1
176
     0
 90
        4
176
     0
 62
     7
176
     0
 62
   257
176
     0
 90
        1
176
     0
 90
        1
176
     0
 40
1.0
176
     0
 90
       10
176
     2
 62
     7
176
     0
 40
1.0
176
     0
 90
        1
176
     0
 90
        6
176
     0
 90
        2
176
     0
 62
     7
176
     0
 90
        5
176
     0
 90
        0
176
     0
 90
        0
176
     0
290
     0
176
     0
 90
        1
176
     0
 40
0.0
176
     0
 90
        0
176
     0
290
     0
176
     0
290
     1
176
     0
290
     1
176
     0
290
     0
176
     0
290
     0
176
     0
290
     0
176
     0
290
     0
176
     0
290
     0
176
     0
290
     0
176
     0
 90
       50
176
     0
 40
0.0
176
     0
 40
1.0
176
     0
 90
        0
176
     0
 62
    18
420
        0
176
     0
 90
       50
176
     0
 90
        3
176
     0
 62
     5
420
      255
176
     0
290
     0
176
     0
 90
       50
176
     0
 90
       50
176
     0
 90
       50
176
     0
290
     0
176
     0
 90
       50
176
     0
 62
   256
176
     0
 40
1.0
176
     0
 90
        2
176
     0
  1
strokes_ogs.tif
176
     0
290
     0
176
     0
 40
1.0
176
     0
 40
1.0
176
     0
  0
VISUALSTYLE
  5
38
102
{ACAD_REACTORS
330
2A
102
}
330
2A
100
AcDbVisualStyle
  2
Linepattern
 70
    14
177
     3
291
     1
 70
    58
 90
        2
176
     1
 90
        2
176
     1
 90
        0
176
     1
 90
        0
176
     1
 40
0.6
176
     1
 40
30.0
176
     1
 62
     7
420
 16777215
176
     1
 90
        1
176
     1
 90
        4
176
     1
 62
     7
176
     1
 62
   257
176
     1
 90
        7
176
     1
 90
        7
176
     1
 40
1.0
176
     1
 90
        8
176
     1
 62
     7
176
     1
 40
1.0
176
     1
 90
        1
176
     1
 90
        6
176
     1
 90
        2
176
     1
 62
     7
176
     1
 90
        5
176
     1
 90
        0
176
     1
 90
        0
176
     1
290
     0
176
     1
 90
        1
176
     1
 40
0.0
176
     1
 90
        0
176
     1
290
     0
176
     1
290
     1
176
     1
290
     1
176
     1
290
     0
176
     1
290
     0
176
     1
290
     0
176
     1
290
     0
176
     1
290
     0
176
     1
290
     0
176
     1
 90
       50
176
     1
 40
0.0
176
     1
 40
1.0
176
     1
 90
        0
176
     1
 62
    18
420
        0
176
     1
 90
       50
176
     1
 90
        3
176
     1
 62
     5
420
      255
176
     1
290
     0
176
     1
 90
       50
176
     1
 90
       50
176
     1
 90
       50
176
     1
290
     0
176
     1
 90
       50
176
     1
 62
   256
176
     0
 40
1.0
176
     0
 90
        2
176
     1
  1
strokes_ogs.tif
176
     1
290
     0
176
     1
 40
1.0
176
     1
 40
1.0
176
     1
  0
VISUALSTYLE
  5
3C
102
{ACAD_REACTORS
330
2A
102
}
330
2A
100
AcDbVisualStyle
  2
OverhangOff
 70
    21
177
     3
291
     1
 70
    58
 90
        2
176
     0
 90
        2
176
     0
 90
        0
176
     0
 90
        0
176
     0
 40
0.6
176
     0
 40
30.0
176
     0
 62
     7
420
 16777215
176
     0
 90
        1
176
     0
 90
        4
176
     0
 62
     7
176
     0
 62
   257
176
     0
 90
        1
176
     0
 90
        1
176
     0
 40
1.0
176
     0
 90
        9
176
     2
 62
     7
176
     0
 40
1.0
176
     0
 90
        1
176
     0
 90
        6
176
     0
 90
        2
176
     0
 62
     7
176
     0
 90
        5
176
     0
 90
        0
176
     0
 90
        0
176
     0
290
     0
176
     0
 90
        1
176
     0
 40
0.0
176
     0
 90
        0
176
     0
290
     0
176
     0
290
     1
176
     0
290
     1
176
     0
290
     0
176
     0
290
     0
176
     0
290
     0
176
     0
290
     0
176
     0
290
     0
176
     0
290
     0
176
     0
 90
       50
176
     0
 40
0.0
176
     0
 40
1.0
176
     0
 90
        0
176
     0
 62
    18
420
        0
176
     0
 90
       50
176
     0
 90
        3
176
     0
 62
     5
420
      255
176
     0
290
     0
176
     0
 90
       50
176
     0
 90
       50
176
     0
 90
       50
176
     0
290
     0
176
     0
 90
       50
176
     0
 62
   256
176
     0
 40
1.0
176
     0
 90
        2
176
     0
  1
strokes_ogs.tif
176
     0
290
     0
176
     0
 40
1.0
176
     0
 40
1.0
176
     0
  0
VISUALSTYLE
  5
33
102
{ACAD_REACTORS
330
2A
102
}
330
2A
100
AcDbVisualStyle
  2
Realistic
 70
     8
177
     3
291
     0
 70
    58
 90
        2
176
     1
 90
        3
176
     1
 90
        0
176
     1
 90
        2
176
     1
 40
0.6
176
     1
 40
30.0
176
     1
 62
     7
420
 16777215
176
     1
 90
        0
176
     1
 90
        0
176
     1
 62
     7
176
     1
 62
   257
176
     1
 90
        1
176
     1
 90
        1
176
     1
 40
1.0
176
     1
 90
        8
176
     1
 62
   257
176
     1
 40
1.0
176
     1
 90
        1
176
     1
 90
        6
176
     1
 90
        2
176
     1
 62
     7
176
     1
 90
        3
176
     1
 90
        0
176
     1
 90
        0
176
     1
290
     0
176
     1
 90
       13
176
     1
 40
0.0
176
     1
 90
        0
176
     1
290
     0
176
     1
290
     1
176
     1
290
     1
176
     1
290
     0
176
     1
290
     0
176
     1
290
     0
176
     1
290
     0
176
     1
290
     0
176
     1
290
     0
176
     1
 90
       50
176
     1
 40
0.0
176
     1
 40
1.0
176
     1
 90
        0
176
     1
 62
    18
420
        0
176
     1
 90
       50
176
     1
 90
        3
176
     1
 62
     5
420
      255
176
     1
290
     0
176
     1
 90
       50
176
     1
 90
       50
176
     1
 90
       50
176
     1
290
     0
176
     1
 90
       50
176
     1
 62
   256
176
     0
 40
1.0
176
     0
 90
        2
176
     1
  1
strokes_ogs.tif
176
     1
290
     0
176
     1
 40
1.0
176
     1
 40
1.0
176
     1
  0
VISUALSTYLE
  5
42
102
{ACAD_REACTORS
330
2A
102
}
330
2A
100
AcDbVisualStyle
  2
Shaded
 70
    27
177
     3
291
     0
 70
    58
 90
        2
176
     1
 90
        2
176
     1
 90
        1
176
     1
 90
        2
176
     1
 40
0.6
176
     1
 40
30.0
176
     1
 62
     7
420
 16777215
176
     1
 90
        0
176
     1
 90
        4
176
     1
 62
     7
176
     1
 62
   257
176
     1
 90
        1
176
     1
 90
        1
176
     1
 40
1.0
176
     1
 90
        8
176
     1
 62
   257
176
     1
 40
1.0
176
     1
 90
        1
176
     1
 90
        6
176
     1
 90
        2
176
     1
 62
     8
420
  7895160
176
     1
 90
        3
176
     1
 90
        0
176
     1
 90
        0
176
     1
290
     0
176
     1
 90
        5
176
     1
 40
0.0
176
     1
 90
        0
176
     1
290
     0
176
     1
290
     1
176
     1
290
     1
176
     1
290
     0
176
     1
290
     0
176
     1
290
     0
176
     1
290
     0
176
     1
290
     0
176
     1
290
     0
176
     1
 90
       50
176
     1
 40
0.0
176
     1
 40
1.0
176
     1
 90
        0
176
     1
 62
    18
420
        0
176
     1
 90
       50
176
     1
 90
        3
176
     1
 62
     5
420
      255
176
     1
290
     0
176
     1
 90
       50
176
     1
 90
       50
176
     1
 90
       50
176
     1
290
     0
176
     1
 90
       50
176
     1
 62
   256
176
     0
 40
1.0
176
     0
 90
        2
176
     1
  1
strokes_ogs.tif
176
     1
290
     0
176
     1
 40
1.0
176
     1
 40
1.0
176
     1
  0
VISUALSTYLE
  5
41
102
{ACAD_REACTORS
330
2A
102
}
330
2A
100
AcDbVisualStyle
  2
Shaded with edges
 70
    26
177
     3
291
     0
 70
    58
 90
        2
176
     1
 90
        2
176
     1
 90
        1
176
     1
 90
        2
176
     1
 40
0.6
176
     1
 40
30.0
176
     1
 62
     7
420
 16777215
176
     1
 90
        1
176
     1
 90
       10
176
     1
 62
     7
176
     1
 62
   257
176
     1
 90
        2
176
     1
 90
        1
176
     1
 40
1.0
176
     1
 90
        8
176
     1
 62
   257
176
     1
 40
1.0
176
     1
 90
        1
176
     1
 90
        6
176
     1
 90
        2
176
     1
 62
     7
176
     1
 90
        3
176
     1
 90
        0
176
     1
 90
        0
176
     1
290
     0
176
     1
 90
        5
176
     1
 40
0.0
176
     1
 90
        0
176
     1
290
     0
176
     1
290
     1
176
     1
290
     1
176
     1
290
     0
176
     1
290
     0
176
     1
290
     0
176
     1
290
     0
176
     1
290
     0
176
     1
290
     0
176
     1
 90
       50
176
     1
 40
0.0
176
     1
 40
1.0
176
     1
 90
        0
176
     1
 62
    18
420
        0
176
     1
 90
       50
176
     1
 90
        3
176
     1
 62
     5
420
      255
176
     1
290
     0
176
     1
 90
       50
176
     1
 90
       50
176
     1
 90
       50
176
     1
290
     0
176
     1
 90
       50
176
     1
 62
   256
176
     0
 40
1.0
176
     0
 90
        2
176
     1
  1
strokes_ogs.tif
176
     1
290
     0
176
     1
 40
1.0
176
     1
 40
1.0
176
     1
  0
VISUALSTYLE
  5
3E
102
{ACAD_REACTORS
330
2A
102
}
330
2A
100
AcDbVisualStyle
  2
Shades of Gray
 70
    23
177
     3
291
     0
 70
    58
 90
        2
176
     1
 90
        2
176
     1
 90
        3
176
     1
 90
        0
176
     1
 40
0.6
176
     1
 40
30.0
176
     1
 62
     7
420
 16777215
176
     1
 90
        2
176
     1
 90
        2
176
     1
 62
     7
176
     1
 62
     7
176
     1
 90
        1
176
     1
 90
        1
176
     1
 40
40.0
176
     1
 90
        8
176
     1
 62
     7
176
     1
 40
1.0
176
     1
 90
        1
176
     1
 90
        6
176
     1
 90
        2
176
     1
 62
     7
176
     1
 90
        3
176
     1
 90
        0
176
     1
 90
        0
176
     1
290
     0
176
     1
 90
        1
176
     1
 40
0.0
176
     1
 90
        0
176
     1
290
     0
176
     1
290
     1
176
     1
290
     1
176
     1
290
     0
176
     1
290
     0
176
     1
290
     0
176
     1
290
     0
176
     1
290
     0
176
     1
290
     0
176
     1
 90
       50
176
     1
 40
0.0
176
     1
 40
1.0
176
     1
 90
        0
176
     1
 62
    18
420
        0
176
     1
 90
       50
176
     1
 90
        3
176
     1
 62
     5
420
      255
176
     1
290
     0
176
     1
 90
       50
176
     1
 90
       50
176
     1
 90
       50
176
     1
290
     0
176
     1
 90
       50
176
     1
 62
   256
176
     0
 40
1.0
176
     0
 90
        2
176
     1
  1
strokes_ogs.tif
176
     1
290
     0
176
     1
 40
1.0
176
     1
 40
1.0
176
     1
  0
VISUALSTYLE
  5
3F
102
{ACAD_REACTORS
330
2A
102
}
330
2A
100
AcDbVisualStyle
  2
Sketchy
 70
    24
177
     3
291
     0
 70
    58
 90
        1
176
     1
 90
        2
176
     1
 90
        2
176
     1
 90
        0
176
     1
 40
0.6
176
     1
 40
30.0
176
     1
 62
     7
420
 16777215
176
     1
 90
        2
176
     1
 90
        2
176
     1
 62
     7
176
     1
 62
     7
176
     1
 90
        1
176
     1
 90
        1
176
     1
 40
40.0
176
     1
 90
       11
176
     1
 62
     7
176
     1
 40
1.0
176
     1
 90
        1
176
     1
 90
        6
176
     1
 90
        2
176
     1
 62
     7
176
     1
 90
        6
176
     1
 90
        0
176
     1
 90
        0
176
     1
290
     0
176
     1
 90
        1
176
     1
 40
0.0
176
     1
 90
        0
176
     1
290
     0
176
     1
290
     1
176
     1
290
     1
176
     1
290
     0
176
     1
290
     0
176
     1
290
     0
176
     1
290
     0
176
     1
290
     0
176
     1
290
     0
176
     1
 90
       50
176
     1
 40
0.0
176
     1
 40
1.0
176
     1
 90
        0
176
     1
 62
    18
420
        0
176
     1
 90
       50
176
     1
 90
        3
176
     1
 62
     5
420
      255
176
     1
290
     0
176
     1
 90
       50
176
     1
 90
       50
176
     1
 90
       50
176
     1
290
     0
176
     1
 90
       50
176
     1
 62
   256
176
     0
 40
1.0
176
     0
 90
        2
176
     1
  1
strokes_ogs.tif
176
     1
290
     0
176
     1
 40
1.0
176
     1
 40
1.0
176
     1
  0
VISUALSTYLE
  5
37
102
{ACAD_REACTORS
330
2A
102
}
330
2A
100
AcDbVisualStyle
  2
Thicken
 70
    13
177
     3
291
     1
 70
    58
 90
        2
176
     1
 90
        2
176
     1
 90
        0
176
     1
 90
        0
176
     1
 40
0.6
176
     1
 40
30.0
176
     1
 62
     7
420
 16777215
176
     1
 90
        1
176
     1
 90
        4
176
     1
 62
     7
176
     1
 62
   257
176
     1
 90
        1
176
     1
 90
        1
176
     1
 40
1.0
176
     1
 90
       12
176
     1
 62
     7
176
     1
 40
1.0
176
     1
 90
        1
176
     1
 90
        6
176
     1
 90
        2
176
     1
 62
     7
176
     1
 90
        5
176
     1
 90
        0
176
     1
 90
        0
176
     1
290
     0
176
     1
 90
        1
176
     1
 40
0.0
176
     1
 90
        0
176
     1
290
     0
176
     1
290
     1
176
     1
290
     1
176
     1
290
     0
176
     1
290
     0
176
     1
290
     0
176
     1
290
     0
176
     1
290
     0
176
     1
290
     0
176
     1
 90
       50
176
     1
 40
0.0
176
     1
 40
1.0
176
     1
 90
        0
176
     1
 62
    18
420
        0
176
     1
 90
       50
176
     1
 90
        3
176
     1
 62
     5
420
      255
176
     1
290
     0
176
     1
 90
       50
176
     1
 90
       50
176
     1
 90
       50
176
     1
290
     0
176
     1
 90
       50
176
     1
 62
   256
176
     0
 40
1.0
176
     0
 90
        2
176
     1
  1
strokes_ogs.tif
176
     1
290
     0
176
     1
 40
1.0
176
     1
 40
1.0
176
     1
  0
VISUALSTYLE
  5
30
102
{ACAD_REACTORS
330
2A
102
}
330
2A
100
AcDbVisualStyle
  2
Wireframe
 70
     5
177
     3
291
     0
 70
    58
 90
        0
176
     1
 90
        2
176
     1
 90
        0
176
     1
 90
        0
176
     1
 40
0.6
176
     1
 40
30.0
176
     1
 62
     7
420
 16777215
176
     1
 90
        1
176
     1
 90
        4
176
     1
 62
     7
176
     1
 62
   257
176
     1
 90
        1
176
     1
 90
        1
176
     1
 40
1.0
176
     1
 90
        0
176
     1
 62
   257
176
     1
 40
1.0
176
     1
 90
        1
176
     1
 90
        6
176
     1
 90
        2
176
     1
 62
     7
176
     1
 90
        3
176
     1
 90
        0
176
     1
 90
        0
176
     1
290
     0
176
     1
 90
        1
176
     1
 40
0.0
176
     1
 90
        0
176
     1
290
     0
176
     1
290
     1
176
     1
290
     1
176
     1
290
     0
176
     1
290
     0
176
     1
290
     0
176
     1
290
     0
176
     1
290
     0
176
     1
290
     0
176
     1
 90
       50
176
     1
 40
0.0
176
     1
 40
1.0
176
     1
 90
        0
176
     1
 62
    18
420
        0
176
     1
 90
       50
176
     1
 90
        3
176
     1
 62
     5
420
      255
176
     1
290
     0
176
     1
 90
       50
176
     1
 90
       50
176
     1
 90
       50
176
     1
290
     0
176
     1
 90
       50
176
     1
 62
   256
176
     0
 40
1.0
176
     0
 90
        2
176
     1
  1
strokes_ogs.tif
176
     1
290
     0
176
     1
 40
1.0
176
     1
 40
1.0
176
     1
  0
VISUALSTYLE
  5
40
102
{ACAD_REACTORS
330
2A
102
}
330
2A
100
AcDbVisualStyle
  2
X-Ray
 70
    25
177
     3
291
     0
 70
    58
 90
        2
176
     1
 90
        2
176
     1
 90
        1
176
     1
 90
        1
176
     1
 40
0.5
176
     1
 40
30.0
176
     1
 62
     7
420
 16777215
176
     1
 90
        1
176
     1
 90
        0
176
     1
 62
     7
176
     1
 62
   257
176
     1
 90
        1
176
     1
 90
        1
176
     1
 40
1.0
176
     1
 90
        8
176
     1
 62
     7
176
     1
 40
1.0
176
     1
 90
        1
176
     1
 90
        6
176
     1
 90
        2
176
     1
 62
     7
176
     1
 90
        3
176
     1
 90
        0
176
     1
 90
        0
176
     1
290
     0
176
     1
 90
       13
176
     1
 40
0.0
176
     1
 90
        0
176
     1
290
     0
176
     1
290
     1
176
     1
290
     1
176
     1
290
     0
176
     1
290
     0
176
     1
290
     0
176
     1
290
     0
176
     1
290
     0
176
     1
290
     0
176
     1
 90
       50
176
     1
 40
0.0
176
     1
 40
1.0
176
     1
 90
        0
176
     1
 62
    18
420
        0
176
     1
 90
       50
176
     1
 90
        3
176
     1
 62
     5
420
      255
176
     1
290
     0
176
     1
 90
       50
176
     1
 90
       50
176
     1
 90
       50
176
     1
290
     0
176
     1
 90
       50
176
     1
 62
   256
176
     0
 40
1.0
176
     0
 90
        2
176
     1
  1
strokes_ogs.tif
176
     1
290
     0
176
     1
 40
1.0
176
     1
 40
1.0
176
     1
  0
DICTIONARYVAR
  5
27B
102
{ACAD_REACTORS
330
27A
102
}
330
27A
100
DictionaryVariables
280
     0
  1
1:1
  0
ENDSEC
  0
EOF
