  0
SECTION
  2
HEADER
  9
$ACADVER
  1
AC1014
  9
$ACADMAINTVER
 70
     9
  9
$DWGCODEPAGE
  3
ANSI_932
  9
$INSBASE
 10
0.0
 20
0.0
 30
0.0
  9
$EXTMIN
 10
82.36843905263049
 20
81.61623528207136
 30
0.0
  9
$EXTMAX
 10
778.1666024970673
 20
503.6539178544204
 30
0.0
  9
$LIMMIN
 10
0.0
 20
0.0
  9
$LIMMAX
 10
420.0
 20
297.0
  9
$ORTHOMODE
 70
     0
  9
$REGENMODE
 70
     1
  9
$FILLMODE
 70
     1
  9
$QTEXTMODE
 70
     0
  9
$MIRRTEXT
 70
     1
  9
$DRAGMODE
 70
     2
  9
$LTSCALE
 40
0.5
  9
$OSMODE
 70
    37
  9
$ATTMODE
 70
     1
  9
$TEXTSIZE
 40
5.6
  9
$TRACEWID
 40
0.05
  9
$TEXTSTYLE
  7
STANDARD
  9
$CLAYER
  8
0
  9
$CELTYPE
  6
BYLAYER
  9
$CECOLOR
 62
   256
  9
$CELTSCALE
 40
1.0
  9
$DELOBJ
 70
     1
  9
$DISPSILH
 70
     0
  9
$DIMSCALE
 40
1.0
  9
$DIMASZ
 40
1.55291427
  9
$DIMEXO
 40
2.0
  9
$DIMDLI
 40
30.0
  9
$DIMRND
 40
0.0
  9
$DIMDLE
 40
0.0
  9
$DIMEXE
 40
2.0
  9
$DIMTP
 40
0.0
  9
$DIMTM
 40
0.0
  9
$DIMTXT
 40
2.8
  9
$DIMCEN
 40
0.09
  9
$DIMTSZ
 40
0.0
  9
$DIMTOL
 70
     0
  9
$DIMLIM
 70
     0
  9
$DIMTIH
 70
     0
  9
$DIMTOH
 70
     0
  9
$DIMSE1
 70
     0
  9
$DIMSE2
 70
     0
  9
$DIMTAD
 70
     3
  9
$DIMZIN
 70
     8
  9
$DIMBLK
  1

  9
$DIMASO
 70
     1
  9
$DIMSHO
 70
     1
  9
$DIMPOST
  1

  9
$DIMAPOST
  1

  9
$DIMALT
 70
     0
  9
$DIMALTD
 70
     2
  9
$DIMALTF
 40
25.4
  9
$DIMLFAC
 40
1.0
  9
$DIMTOFL
 70
     1
  9
$DIMTVP
 40
0.7
  9
$DIMTIX
 70
     0
  9
$DIMSOXD
 70
     0
  9
$DIMSAH
 70
     0
  9
$DIMBLK1
  1

  9
$DIMBLK2
  1

  9
$DIMSTYLE
  2
STANDARD
  9
$DIMCLRD
 70
     0
  9
$DIMCLRE
 70
     0
  9
$DIMCLRT
 70
     0
  9
$DIMTFAC
 40
0.5
  9
$DIMGAP
 40
0.09
  9
$DIMJUST
 70
     0
  9
$DIMSD1
 70
     0
  9
$DIMSD2
 70
     0
  9
$DIMTOLJ
 70
     1
  9
$DIMTZIN
 70
     8
  9
$DIMALTZ
 70
     0
  9
$DIMALTTZ
 70
     0
  9
$DIMFIT
 70
     5
  9
$DIMUPT
 70
     1
  9
$DIMUNIT
 70
     2
  9
$DIMDEC
 70
     2
  9
$DIMTDEC
 70
     4
  9
$DIMALTU
 70
     2
  9
$DIMALTTD
 70
     2
  9
$DIMTXSTY
  7
STANDARD
  9
$DIMAUNIT
 70
     0
  9
$LUNITS
 70
     2
  9
$LUPREC
 70
     4
  9
$SKETCHINC
 40
0.1
  9
$FILLETRAD
 40
0.5
  9
$AUNITS
 70
     0
  9
$AUPREC
 70
     0
  9
$MENU
  1
.
  9
$ELEVATION
 40
0.0
  9
$PELEVATION
 40
0.0
  9
$THICKNESS
 40
0.0
  9
$LIMCHECK
 70
     0
  9
$CHAMFERA
 40
0.5
  9
$CHAMFERB
 40
0.5
  9
$CHAMFERC
 40
1.0
  9
$CHAMFERD
 40
0.0
  9
$SKPOLY
 70
     0
  9
$TDCREATE
 40
2460098.000324074
  9
$TDUPDATE
 40
2460097.625326065
  9
$TDINDWG
 40
0.0000000116
  9
$TDUSRTIMER
 40
0.0000000116
  9
$USRTIMER
 70
     1
  9
$ANGBASE
 50
0.0
  9
$ANGDIR
 70
     0
  9
$PDMODE
 70
     0
  9
$PDSIZE
 40
0.0
  9
$PLINEWID
 40
0.0
  9
$COORDS
 70
     1
  9
$SPLFRAME
 70
     0
  9
$SPLINETYPE
 70
     6
  9
$SPLINESEGS
 70
     8
  9
$ATTDIA
 70
     0
  9
$ATTREQ
 70
     1
  9
$HANDLING
 70
     1
  9
$HANDSEED
  5
314
  9
$SURFTAB1
 70
     6
  9
$SURFTAB2
 70
     6
  9
$SURFTYPE
 70
     6
  9
$SURFU
 70
     6
  9
$SURFV
 70
     6
  9
$UCSNAME
  2

  9
$UCSORG
 10
0.0
 20
0.0
 30
0.0
  9
$UCSXDIR
 10
1.0
 20
0.0
 30
0.0
  9
$UCSYDIR
 10
0.0
 20
1.0
 30
0.0
  9
$PUCSNAME
  2

  9
$PUCSORG
 10
0.0
 20
0.0
 30
0.0
  9
$PUCSXDIR
 10
1.0
 20
0.0
 30
0.0
  9
$PUCSYDIR
 10
0.0
 20
1.0
 30
0.0
  9
$USERI1
 70
     0
  9
$USERI2
 70
     0
  9
$USERI3
 70
     0
  9
$USERI4
 70
     0
  9
$USERI5
 70
     0
  9
$USERR1
 40
0.0
  9
$USERR2
 40
0.0
  9
$USERR3
 40
0.0
  9
$USERR4
 40
0.0
  9
$USERR5
 40
0.0
  9
$WORLDVIEW
 70
     1
  9
$SHADEDGE
 70
     3
  9
$SHADEDIF
 70
    70
  9
$TILEMODE
 70
     1
  9
$MAXACTVP
 70
    64
  9
$PINSBASE
 10
0.0
 20
0.0
 30
0.0
  9
$PLIMCHECK
 70
     0
  9
$PEXTMIN
 10
0.0
 20
0.0
 30
0.0
  9
$PEXTMAX
 10
420.0
 20
297.0
 30
0.0
  9
$PLIMMIN
 10
0.0
 20
0.0
  9
$PLIMMAX
 10
420.0
 20
297.0
  9
$UNITMODE
 70
     0
  9
$VISRETAIN
 70
     1
  9
$PLINEGEN
 70
     0
  9
$PSLTSCALE
 70
     1
  9
$TREEDEPTH
 70
  3020
  9
$PICKSTYLE
 70
     1
  9
$CMLSTYLE
  2
STANDARD
  9
$CMLJUST
 70
     0
  9
$CMLSCALE
 40
1.0
  9
$PROXYGRAPHICS
 70
     1
  9
$MEASUREMENT
 70
     1
  0
ENDSEC
  0
SECTION
  2
CLASSES
  0
CLASS
  1
ACDBDICTIONARYWDFLT
  2
AcDbDictionaryWithDefault
  3
ObjectDBX Classes
 90
        0
280
     0
281
     0
  0
CLASS
  1
VISUALSTYLE
  2
AcDbVisualStyle
  3
ObjectDBX Classes
 90
     4095
280
     0
281
     0
  0
CLASS
  1
MATERIAL
  2
AcDbMaterial
  3
ObjectDBX Classes
 90
     1153
280
     0
281
     0
  0
CLASS
  1
DICTIONARYVAR
  2
AcDbDictionaryVar
  3
ObjectDBX Classes
 90
        0
280
     0
281
     0
  0
CLASS
  1
XRECORD
  2
AcDbXrecord
  3
AutoCAD 2000
 90
        0
280
     0
281
     0
  0
CLASS
  1
LWPOLYLINE
  2
AcDbPolyline
  3
AutoCAD 2000
 90
        0
280
     0
281
     1
  0
CLASS
  1
HATCH
  2
AcDbHatch
  3
AutoCAD 2000
 90
        0
280
     0
281
     1
  0
CLASS
  1
ACDBPLACEHOLDER
  2
AcDbPlaceHolder
  3
ObjectDBX Classes
 90
        0
280
     0
281
     0
  0
CLASS
  1
LAYOUT
  2
AcDbLayout
  3
ObjectDBX Classes
 90
        0
280
     0
281
     0
  0
ENDSEC
  0
SECTION
  2
TABLES
  0
TABLE
  2
VPORT
  5
8
330
0
100
AcDbSymbolTable
 70
     1
  0
VPORT
  5
29
330
8
100
AcDbSymbolTableRecord
100
AcDbViewportTableRecord
  2
*ACTIVE
 70
     0
 10
0.0
 20
0.0
 11
1.0
 21
1.0
 12
10.42990654205607
 22
4.5
 13
0.0
 23
0.0
 14
0.5
 24
0.5
 15
0.5
 25
0.5
 16
0.0
 26
0.0
 36
1.0
 17
0.0
 27
0.0
 37
0.0
 40
9.0
 41
1.972972972850329
 42
50.0
 43
0.0
 44
0.0
 50
0.0
 51
0.0
 71
     0
 72
   100
 73
     1
 74
     3
 75
     0
 76
     0
 77
     0
 78
     0
  0
ENDTAB
  0
TABLE
  2
LTYPE
  5
5
330
0
100
AcDbSymbolTable
 70
     9
  0
LTYPE
  5
14
330
5
100
AcDbSymbolTableRecord
100
AcDbLinetypeTableRecord
  2
BYBLOCK
 70
     0
  3

 72
    65
 73
     0
 40
0.0
  0
LTYPE
  5
15
330
5
100
AcDbSymbolTableRecord
100
AcDbLinetypeTableRecord
  2
BYLAYER
 70
     0
  3

 72
    65
 73
     0
 40
0.0
  0
LTYPE
  5
16
330
5
100
AcDbSymbolTableRecord
100
AcDbLinetypeTableRecord
  2
CONTINUOUS
 70
     0
  3
Solid line
 72
    65
 73
     0
 40
0.0
  0
LTYPE
  5
8E
330
5
100
AcDbSymbolTableRecord
100
AcDbLinetypeTableRecord
  2
DOT
 70
     0
  3
DOT
 72
    65
 73
     2
 40
4.0
 49
6.0
 74
     0
 49
-2.0
 74
     0
  0
LTYPE
  5
8F
330
5
100
AcDbSymbolTableRecord
100
AcDbLinetypeTableRecord
  2
HIDDEN
 70
     0
  3
HIDDEN
 72
    65
 73
     2
 40
4.2
 49
8.4
 74
     0
 49
-4.2
 74
     0
  0
LTYPE
  5
90
330
5
100
AcDbSymbolTableRecord
100
AcDbLinetypeTableRecord
  2
DASHDOT
 70
     0
  3
DASHDOT
 72
    65
 73
     4
 40
14.5
 49
30.0
 74
     0
 49
-9.0
 74
     0
 49
2.5
 74
     0
 49
-9.0
 74
     0
  0
LTYPE
  5
91
330
5
100
AcDbSymbolTableRecord
100
AcDbLinetypeTableRecord
  2
PHANTOM
 70
     0
  3
PHANTOM
 72
    65
 73
     6
 40
12.0
 49
30.0
 74
     0
 49
-9.0
 74
     0
 49
2.5
 74
     0
 49
-5.0
 74
     0
 49
2.5
 74
     0
 49
-9.0
 74
     0
  0
LTYPE
  5
92
330
5
100
AcDbSymbolTableRecord
100
AcDbLinetypeTableRecord
  2
ACAD_ISO14W100
 70
     0
  3
ACAD_ISO14W100
 72
    65
 73
     8
 40
1.5
 49
12.0
 74
     0
 49
-3.0
 74
     0
 49
0.5
 74
     0
 49
-3.0
 74
     0
 49
0.5
 74
     0
 49
-3.0
 74
     0
 49
0.5
 74
     0
 49
-3.0
 74
     0
  0
LTYPE
  5
93
330
5
100
AcDbSymbolTableRecord
100
AcDbLinetypeTableRecord
  2
ACAD_ISO06W100
 70
     0
  3
ACAD_ISO06W100
 72
    65
 73
     8
 40
13.5
 49
24.0
 74
     0
 49
-3.0
 74
     0
 49
0.5
 74
     0
 49
-3.0
 74
     0
 49
0.5
 74
     0
 49
-3.0
 74
     0
 49
0.5
 74
     0
 49
-3.0
 74
     0
  0
LTYPE
  5
94
330
5
100
AcDbSymbolTableRecord
100
AcDbLinetypeTableRecord
  2
ACAD_ISO11W100
 70
     0
  3
ACAD_ISO11W100
 72
    65
 73
     6
 40
15.5
 49
12.0
 74
     0
 49
-3.0
 74
     0
 49
12.0
 74
     0
 49
-3.0
 74
     0
 49
0.5
 74
     0
 49
-3.0
 74
     0
  0
LTYPE
  5
95
330
5
100
AcDbSymbolTableRecord
100
AcDbLinetypeTableRecord
  2
ACAD_ISO13W100
 70
     0
  3
ACAD_ISO13W100
 72
    65
 73
     8
 40
13.0
 49
12.0
 74
     0
 49
-3.0
 74
     0
 49
12.0
 74
     0
 49
-3.0
 74
     0
 49
0.5
 74
     0
 49
-3.0
 74
     0
 49
0.5
 74
     0
 49
-3.0
 74
     0
  0
ENDTAB
  0
TABLE
  2
LAYER
  5
2
330
0
100
AcDbSymbolTable
 70
    13
  0
LAYER
  5
10
330
2
100
AcDbSymbolTableRecord
100
AcDbLayerTableRecord
  2
0
 70
     0
 62
     7
  6
CONTINUOUS
  0
LAYER
  5
96
330
2
100
AcDbSymbolTableRecord
100
AcDbLayerTableRecord
  2
1
 70
     0
 62
     7
  6
CONTINUOUS
  0
LAYER
  5
97
330
2
100
AcDbSymbolTableRecord
100
AcDbLayerTableRecord
  2
2
 70
     0
 62
   151
  6
CONTINUOUS
  0
LAYER
  5
98
330
2
100
AcDbSymbolTableRecord
100
AcDbLayerTableRecord
  2
3
 70
     0
 62
     3
  6
HIDDEN
  0
LAYER
  5
99
330
2
100
AcDbSymbolTableRecord
100
AcDbLayerTableRecord
  2
4
 70
     0
 62
     1
  6
DASHDOT
  0
LAYER
  5
9A
330
2
100
AcDbSymbolTableRecord
100
AcDbLayerTableRecord
  2
5
 70
     0
 62
     7
  6
CONTINUOUS
  0
LAYER
  5
9B
330
2
100
AcDbSymbolTableRecord
100
AcDbLayerTableRecord
  2
6
 70
     0
 62
     1
  6
CONTINUOUS
  0
LAYER
  5
9C
330
2
100
AcDbSymbolTableRecord
100
AcDbLayerTableRecord
  2
7
 70
     0
 62
     6
  6
CONTINUOUS
  0
LAYER
  5
9D
330
2
100
AcDbSymbolTableRecord
100
AcDbLayerTableRecord
  2
8
 70
     0
 62
     3
  6
CONTINUOUS
  0
LAYER
  5
9E
330
2
100
AcDbSymbolTableRecord
100
AcDbLayerTableRecord
  2
9
 70
     0
 62
     4
  6
CONTINUOUS
  0
LAYER
  5
9F
330
2
100
AcDbSymbolTableRecord
100
AcDbLayerTableRecord
  2
10
 70
     0
 62
     7
  6
CONTINUOUS
  0
LAYER
  5
A0
330
2
100
AcDbSymbolTableRecord
100
AcDbLayerTableRecord
  2
11
 70
     0
 62
     2
  6
CONTINUOUS
  0
LAYER
  5
A1
330
2
100
AcDbSymbolTableRecord
100
AcDbLayerTableRecord
  2
12
 70
     0
 62
    94
  6
CONTINUOUS
  0
ENDTAB
  0
TABLE
  2
STYLE
  5
3
330
0
100
AcDbSymbolTable
 70
     3
  0
STYLE
  5
11
330
3
100
AcDbSymbolTableRecord
100
AcDbTextStyleTableRecord
  2
STANDARD
 70
     0
 40
0.0
 41
1.0
 50
0.0
 71
     0
 42
5.6
  3
txt
  4
bigfont
  0
STYLE
  5
41
330
3
100
AcDbSymbolTableRecord
100
AcDbTextStyleTableRecord
  2
T_STANDARD
 70
     4
 40
10.0
 41
1.0
 50
0.0
 71
     0
 42
10.0
  3
txt
  4
bigfont
  0
STYLE
  5
247
330
3
100
AcDbSymbolTableRecord
100
AcDbTextStyleTableRecord
  2
ＭＳ_ゴシック
 70
     0
 40
0.0
 41
1.0
 50
0.0
 71
     0
 42
0.0
  3

  4

1001
ACAD
1000
ＭＳ ゴシック
1071
      256
  0
ENDTAB
  0
TABLE
  2
VIEW
  5
6
330
0
100
AcDbSymbolTable
 70
     0
  0
ENDTAB
  0
TABLE
  2
UCS
  5
7
330
0
100
AcDbSymbolTable
 70
     0
  0
ENDTAB
  0
TABLE
  2
APPID
  5
9
330
0
100
AcDbSymbolTable
 70
     2
  0
APPID
  5
12
330
9
100
AcDbSymbolTableRecord
100
AcDbRegAppTableRecord
  2
ACAD
 70
     0
  0
APPID
  5
40
330
9
100
AcDbSymbolTableRecord
100
AcDbRegAppTableRecord
  2
ODA
 70
     0
  0
ENDTAB
  0
TABLE
  2
DIMSTYLE
  5
A
330
0
100
AcDbSymbolTable
 70
     1
  0
DIMSTYLE
105
27
102
{ACAD_REACTORS
330
251
330
25B
330
265
330
26F
330
279
330
283
330
28D
330
297
330
2A1
330
2AB
330
2B5
330
2BF
330
2D9
330
2E1
102
}
330
A
100
AcDbSymbolTableRecord
100
AcDbDimStyleTableRecord
  2
STANDARD
 70
     0
  3

  4

  5

  6

  7

 40
1.0
 41
0.18
 42
0.0625
 43
0.38
 44
0.18
 45
0.0
 46
0.0
 47
0.0
 48
0.0
140
0.18
141
0.09
142
0.0
143
25.4
144
1.0
145
0.0
146
1.0
147
0.09
 71
     0
 72
     0
 73
     1
 74
     1
 75
     0
 76
     0
 77
     0
 78
     0
170
     0
171
     2
172
     0
173
     0
174
     0
175
     0
176
     0
177
     0
178
     0
270
     2
271
     4
272
     4
273
     2
274
     2
340
11
275
     0
280
     0
281
     0
282
     0
283
     1
284
     0
285
     0
286
     0
287
     3
288
     0
  0
ENDTAB
  0
TABLE
  2
BLOCK_RECORD
  5
1
330
0
100
AcDbSymbolTable
 70
    31
  0
BLOCK_RECORD
  5
1F
330
1
100
AcDbSymbolTableRecord
100
AcDbBlockTableRecord
  2
*MODEL_SPACE
  0
BLOCK_RECORD
  5
1B
330
1
100
AcDbSymbolTableRecord
100
AcDbBlockTableRecord
  2
*PAPER_SPACE
  0
BLOCK_RECORD
  5
42
330
1
100
AcDbSymbolTableRecord
100
AcDbBlockTableRecord
  2
_ORIGIN
  0
BLOCK_RECORD
  5
47
330
1
100
AcDbSymbolTableRecord
100
AcDbBlockTableRecord
  2
_DOTBLANK
  0
BLOCK_RECORD
  5
4C
330
1
100
AcDbSymbolTableRecord
100
AcDbBlockTableRecord
  2
_DOT
  0
BLOCK_RECORD
  5
51
330
1
100
AcDbSymbolTableRecord
100
AcDbBlockTableRecord
  2
_OPEN
  0
BLOCK_RECORD
  5
57
330
1
100
AcDbSymbolTableRecord
100
AcDbBlockTableRecord
  2
_CLOSED
  0
BLOCK_RECORD
  5
5E
330
1
100
AcDbSymbolTableRecord
100
AcDbBlockTableRecord
  2
_CLOSEDBLANK
  0
BLOCK_RECORD
  5
64
330
1
100
AcDbSymbolTableRecord
100
AcDbBlockTableRecord
  2
_ARROWFILLED
  0
BLOCK_RECORD
  5
68
330
1
100
AcDbSymbolTableRecord
100
AcDbBlockTableRecord
  2
_BOXBLANK
  0
BLOCK_RECORD
  5
70
330
1
100
AcDbSymbolTableRecord
100
AcDbBlockTableRecord
  2
_BOXFILLED
  0
BLOCK_RECORD
  5
75
330
1
100
AcDbSymbolTableRecord
100
AcDbBlockTableRecord
  2
_INTEGRAL
  0
BLOCK_RECORD
  5
7A
330
1
100
AcDbSymbolTableRecord
100
AcDbBlockTableRecord
  2
_OBLIQUE
  0
BLOCK_RECORD
  5
7E
330
1
100
AcDbSymbolTableRecord
100
AcDbBlockTableRecord
  2
_NONE
  0
BLOCK_RECORD
  5
81
330
1
100
AcDbSymbolTableRecord
100
AcDbBlockTableRecord
  2
MARK_OPEN
  0
BLOCK_RECORD
  5
86
330
1
100
AcDbSymbolTableRecord
100
AcDbBlockTableRecord
  2
MARK_ORIGIN
  0
BLOCK_RECORD
  5
8A
330
1
100
AcDbSymbolTableRecord
100
AcDbBlockTableRecord
  2
MARK_DOT
  0
BLOCK_RECORD
  5
248
330
1
100
AcDbSymbolTableRecord
100
AcDbBlockTableRecord
  2
DIM1
  0
BLOCK_RECORD
  5
252
330
1
100
AcDbSymbolTableRecord
100
AcDbBlockTableRecord
  2
DIM2
  0
BLOCK_RECORD
  5
25C
330
1
100
AcDbSymbolTableRecord
100
AcDbBlockTableRecord
  2
DIM3
  0
BLOCK_RECORD
  5
266
330
1
100
AcDbSymbolTableRecord
100
AcDbBlockTableRecord
  2
DIM4
  0
BLOCK_RECORD
  5
270
330
1
100
AcDbSymbolTableRecord
100
AcDbBlockTableRecord
  2
DIM5
  0
BLOCK_RECORD
  5
27A
330
1
100
AcDbSymbolTableRecord
100
AcDbBlockTableRecord
  2
DIM6
  0
BLOCK_RECORD
  5
284
330
1
100
AcDbSymbolTableRecord
100
AcDbBlockTableRecord
  2
DIM7
  0
BLOCK_RECORD
  5
28E
330
1
100
AcDbSymbolTableRecord
100
AcDbBlockTableRecord
  2
DIM8
  0
BLOCK_RECORD
  5
298
330
1
100
AcDbSymbolTableRecord
100
AcDbBlockTableRecord
  2
DIM9
  0
BLOCK_RECORD
  5
2A2
330
1
100
AcDbSymbolTableRecord
100
AcDbBlockTableRecord
  2
DIM10
  0
BLOCK_RECORD
  5
2AC
330
1
100
AcDbSymbolTableRecord
100
AcDbBlockTableRecord
  2
DIM11
  0
BLOCK_RECORD
  5
2B6
330
1
100
AcDbSymbolTableRecord
100
AcDbBlockTableRecord
  2
DIM12
  0
BLOCK_RECORD
  5
2C9
330
1
100
AcDbSymbolTableRecord
100
AcDbBlockTableRecord
  2
*G28
  0
BLOCK_RECORD
  5
2D2
330
1
100
AcDbSymbolTableRecord
100
AcDbBlockTableRecord
  2
DIM13
  0
BLOCK_RECORD
  5
2DA
330
1
100
AcDbSymbolTableRecord
100
AcDbBlockTableRecord
  2
DIM14
  0
ENDTAB
  0
ENDSEC
  0
SECTION
  2
BLOCKS
  0
BLOCK
  5
20
330
1F
100
AcDbEntity
  8
0
100
AcDbBlockBegin
  2
*MODEL_SPACE
 70
     0
 10
0.0
 20
0.0
 30
0.0
  3
*MODEL_SPACE
  1

  0
ENDBLK
  5
21
330
1F
100
AcDbEntity
  8
0
100
AcDbBlockEnd
  0
BLOCK
  5
1C
330
1B
100
AcDbEntity
 67
     1
  8
0
100
AcDbBlockBegin
  2
*PAPER_SPACE
 70
     0
 10
0.0
 20
0.0
 30
0.0
  3
*PAPER_SPACE
  1

  0
ENDBLK
  5
1D
330
1B
100
AcDbEntity
 67
     1
  8
0
100
AcDbBlockEnd
  0
BLOCK
  5
45
330
42
100
AcDbEntity
  8
0
100
AcDbBlockBegin
  2
_ORIGIN
 70
     0
 10
0.0
 20
0.0
 30
0.0
  3
_ORIGIN
  1

  0
CIRCLE
  5
43
330
42
100
AcDbEntity
  8
0
 62
     0
100
AcDbCircle
 10
0.0
 20
0.0
 30
0.0
 40
0.5
  0
LINE
  5
44
330
42
100
AcDbEntity
  8
0
 62
     0
100
AcDbLine
 10
0.0
 20
0.0
 30
0.0
 11
-1.0
 21
0.0
 31
0.0
  0
ENDBLK
  5
46
330
42
100
AcDbEntity
  8
0
100
AcDbBlockEnd
  0
BLOCK
  5
4A
330
47
100
AcDbEntity
  8
0
100
AcDbBlockBegin
  2
_DOTBLANK
 70
     0
 10
0.0
 20
0.0
 30
0.0
  3
_DOTBLANK
  1

  0
CIRCLE
  5
48
330
47
100
AcDbEntity
  8
0
 62
     0
100
AcDbCircle
 10
0.0
 20
0.0
 30
0.0
 40
0.5
  0
LINE
  5
49
330
47
100
AcDbEntity
  8
0
 62
     0
100
AcDbLine
 10
-0.5
 20
0.0
 30
0.0
 11
-1.0
 21
0.0
 31
0.0
  0
ENDBLK
  5
4B
330
47
100
AcDbEntity
  8
0
100
AcDbBlockEnd
  0
BLOCK
  5
4F
330
4C
100
AcDbEntity
  8
0
100
AcDbBlockBegin
  2
_DOT
 70
     0
 10
0.0
 20
0.0
 30
0.0
  3
_DOT
  1

  0
LWPOLYLINE
  5
4D
330
4C
100
AcDbEntity
  8
0
 62
     0
100
AcDbPolyline
 90
        2
 70
     1
 43
0.5
 10
-0.25
 20
0.0
 42
1.0
 10
0.25
 20
0.0
 42
1.0
  0
LINE
  5
4E
330
4C
100
AcDbEntity
  8
0
 62
     0
100
AcDbLine
 10
-0.5
 20
0.0
 30
0.0
 11
-1.0
 21
0.0
 31
0.0
  0
ENDBLK
  5
50
330
4C
100
AcDbEntity
  8
0
100
AcDbBlockEnd
  0
BLOCK
  5
55
330
51
100
AcDbEntity
  8
0
100
AcDbBlockBegin
  2
_OPEN
 70
     0
 10
0.0
 20
0.0
 30
0.0
  3
_OPEN
  1

  0
LINE
  5
52
330
51
100
AcDbEntity
  8
0
 62
     0
100
AcDbLine
 10
0.0
 20
0.0
 30
0.0
 11
-1.0
 21
0.1666666666666667
 31
0.0
  0
LINE
  5
53
330
51
100
AcDbEntity
  8
0
 62
     0
100
AcDbLine
 10
0.0
 20
0.0
 30
0.0
 11
-1.0
 21
-0.1666666666666667
 31
0.0
  0
LINE
  5
54
330
51
100
AcDbEntity
  8
0
 62
     0
100
AcDbLine
 10
0.0
 20
0.0
 30
0.0
 11
-1.0
 21
0.0
 31
0.0
  0
ENDBLK
  5
56
330
51
100
AcDbEntity
  8
0
100
AcDbBlockEnd
  0
BLOCK
  5
5C
330
57
100
AcDbEntity
  8
0
100
AcDbBlockBegin
  2
_CLOSED
 70
     0
 10
0.0
 20
0.0
 30
0.0
  3
_CLOSED
  1

  0
LINE
  5
58
330
57
100
AcDbEntity
  8
0
 62
     0
100
AcDbLine
 10
0.0
 20
0.0
 30
0.0
 11
-1.0
 21
0.1666666666666667
 31
0.0
  0
LINE
  5
59
330
57
100
AcDbEntity
  8
0
 62
     0
100
AcDbLine
 10
0.0
 20
0.0
 30
0.0
 11
-1.0
 21
-0.1666666666666667
 31
0.0
  0
LINE
  5
5A
330
57
100
AcDbEntity
  8
0
 62
     0
100
AcDbLine
 10
-1.0
 20
0.1666666666666667
 30
0.0
 11
-1.0
 21
-0.1666666666666667
 31
0.0
  0
LINE
  5
5B
330
57
100
AcDbEntity
  8
0
 62
     0
100
AcDbLine
 10
0.0
 20
0.0
 30
0.0
 11
-1.0
 21
0.0
 31
0.0
  0
ENDBLK
  5
5D
330
57
100
AcDbEntity
  8
0
100
AcDbBlockEnd
  0
BLOCK
  5
62
330
5E
100
AcDbEntity
  8
0
100
AcDbBlockBegin
  2
_CLOSEDBLANK
 70
     0
 10
0.0
 20
0.0
 30
0.0
  3
_CLOSEDBLANK
  1

  0
LINE
  5
5F
330
5E
100
AcDbEntity
  8
0
 62
     0
100
AcDbLine
 10
0.0
 20
0.0
 30
0.0
 11
-1.0
 21
0.1666666666666667
 31
0.0
  0
LINE
  5
60
330
5E
100
AcDbEntity
  8
0
 62
     0
100
AcDbLine
 10
0.0
 20
0.0
 30
0.0
 11
-1.0
 21
-0.1666666666666667
 31
0.0
  0
LINE
  5
61
330
5E
100
AcDbEntity
  8
0
 62
     0
100
AcDbLine
 10
-1.0
 20
0.1666666666666667
 30
0.0
 11
-1.0
 21
-0.1666666666666667
 31
0.0
  0
ENDBLK
  5
63
330
5E
100
AcDbEntity
  8
0
100
AcDbBlockEnd
  0
BLOCK
  5
66
330
64
100
AcDbEntity
  8
0
100
AcDbBlockBegin
  2
_ARROWFILLED
 70
     0
 10
0.0
 20
0.0
 30
0.0
  3
_ARROWFILLED
  1

  0
SOLID
  5
65
330
64
100
AcDbEntity
  8
0
 62
     0
100
AcDbTrace
 10
0.0
 20
0.0
 30
0.0
 11
-1.0
 21
-0.1666666666666667
 31
0.0
 12
-1.0
 22
0.1666666666666667
 32
0.0
 13
0.0
 23
0.0
 33
0.0
  0
ENDBLK
  5
67
330
64
100
AcDbEntity
  8
0
100
AcDbBlockEnd
  0
BLOCK
  5
6E
330
68
100
AcDbEntity
  8
0
100
AcDbBlockBegin
  2
_BOXBLANK
 70
     0
 10
0.0
 20
0.0
 30
0.0
  3
_BOXBLANK
  1

  0
LINE
  5
69
330
68
100
AcDbEntity
  8
0
 62
     0
100
AcDbLine
 10
-0.5
 20
-0.5
 30
0.0
 11
0.5
 21
-0.5
 31
0.0
  0
LINE
  5
6A
330
68
100
AcDbEntity
  8
0
 62
     0
100
AcDbLine
 10
0.5
 20
-0.5
 30
0.0
 11
0.5
 21
0.5
 31
0.0
  0
LINE
  5
6B
330
68
100
AcDbEntity
  8
0
 62
     0
100
AcDbLine
 10
0.5
 20
0.5
 30
0.0
 11
-0.5
 21
0.5
 31
0.0
  0
LINE
  5
6C
330
68
100
AcDbEntity
  8
0
 62
     0
100
AcDbLine
 10
-0.5
 20
0.5
 30
0.0
 11
-0.5
 21
-0.5
 31
0.0
  0
LINE
  5
6D
330
68
100
AcDbEntity
  8
0
 62
     0
100
AcDbLine
 10
-0.5
 20
0.0
 30
0.0
 11
-1.0
 21
0.0
 31
0.0
  0
ENDBLK
  5
6F
330
68
100
AcDbEntity
  8
0
100
AcDbBlockEnd
  0
BLOCK
  5
73
330
70
100
AcDbEntity
  8
0
100
AcDbBlockBegin
  2
_BOXFILLED
 70
     0
 10
0.0
 20
0.0
 30
0.0
  3
_BOXFILLED
  1

  0
SOLID
  5
71
330
70
100
AcDbEntity
  8
0
 62
     0
100
AcDbTrace
 10
-0.5
 20
0.5
 30
0.0
 11
0.5
 21
0.5
 31
0.0
 12
-0.5
 22
-0.5
 32
0.0
 13
0.5
 23
-0.5
 33
0.0
  0
LINE
  5
72
330
70
100
AcDbEntity
  8
0
 62
     0
100
AcDbLine
 10
-0.5
 20
0.0
 30
0.0
 11
-1.0
 21
0.0
 31
0.0
  0
ENDBLK
  5
74
330
70
100
AcDbEntity
  8
0
100
AcDbBlockEnd
  0
BLOCK
  5
78
330
75
100
AcDbEntity
  8
0
100
AcDbBlockBegin
  2
_INTEGRAL
 70
     0
 10
0.0
 20
0.0
 30
0.0
  3
_INTEGRAL
  1

  0
ARC
  5
76
330
75
100
AcDbEntity
  8
0
 62
     0
100
AcDbCircle
 10
0.444888
 20
-0.0913346
 30
0.0
 40
0.4541666
100
AcDbArc
 50
101.9999999999999
 51
167.9999999999998
  0
ARC
  5
77
330
75
100
AcDbEntity
  8
0
 62
     0
100
AcDbCircle
 10
-0.444888
 20
0.0913346
 30
0.0
 40
0.4541666
100
AcDbArc
 50
281.9999999999997
 51
347.9999999999997
  0
ENDBLK
  5
79
330
75
100
AcDbEntity
  8
0
100
AcDbBlockEnd
  0
BLOCK
  5
7C
330
7A
100
AcDbEntity
  8
0
100
AcDbBlockBegin
  2
_OBLIQUE
 70
     0
 10
0.0
 20
0.0
 30
0.0
  3
_OBLIQUE
  1

  0
LINE
  5
7B
330
7A
100
AcDbEntity
  8
0
 62
     0
100
AcDbLine
 10
-0.5
 20
-0.5
 30
0.0
 11
0.5
 21
0.5
 31
0.0
  0
ENDBLK
  5
7D
330
7A
100
AcDbEntity
  8
0
100
AcDbBlockEnd
  0
BLOCK
  5
7F
330
7E
100
AcDbEntity
  8
0
100
AcDbBlockBegin
  2
_NONE
 70
     0
 10
0.0
 20
0.0
 30
0.0
  3
_NONE
  1

  0
ENDBLK
  5
80
330
7E
100
AcDbEntity
  8
0
100
AcDbBlockEnd
  0
BLOCK
  5
84
330
81
100
AcDbEntity
  8
0
100
AcDbBlockBegin
  2
MARK_OPEN
 70
     0
 10
0.0
 20
0.0
 30
0.0
  3
MARK_OPEN
  1

  0
LINE
  5
82
330
81
100
AcDbEntity
  8
0
 62
     0
100
AcDbLine
 10
0.0
 20
0.0
 30
0.0
 11
-1.0
 21
0.1666666666666667
 31
0.0
  0
LINE
  5
83
330
81
100
AcDbEntity
  8
0
 62
     0
100
AcDbLine
 10
0.0
 20
0.0
 30
0.0
 11
-1.0
 21
-0.1666666666666667
 31
0.0
  0
ENDBLK
  5
85
330
81
100
AcDbEntity
  8
0
100
AcDbBlockEnd
  0
BLOCK
  5
88
330
86
100
AcDbEntity
  8
0
100
AcDbBlockBegin
  2
MARK_ORIGIN
 70
     0
 10
0.0
 20
0.0
 30
0.0
  3
MARK_ORIGIN
  1

  0
CIRCLE
  5
87
330
86
100
AcDbEntity
  8
0
 62
     0
100
AcDbCircle
 10
0.0
 20
0.0
 30
0.0
 40
0.5
  0
ENDBLK
  5
89
330
86
100
AcDbEntity
  8
0
100
AcDbBlockEnd
  0
BLOCK
  5
8C
330
8A
100
AcDbEntity
  8
0
100
AcDbBlockBegin
  2
MARK_DOT
 70
     0
 10
0.0
 20
0.0
 30
0.0
  3
MARK_DOT
  1

  0
LWPOLYLINE
  5
8B
330
8A
100
AcDbEntity
  8
0
 62
     0
100
AcDbPolyline
 90
        2
 70
     1
 43
0.5
 10
-0.25
 20
0.0
 42
1.0
 10
0.25
 20
0.0
 42
1.0
  0
ENDBLK
  5
8D
330
8A
100
AcDbEntity
  8
0
100
AcDbBlockEnd
  0
BLOCK
  5
249
330
248
100
AcDbEntity
  8
0
100
AcDbBlockBegin
  2
DIM1
 70
     0
 10
0.0
 20
0.0
 30
0.0
  3
DIM1
  1

  0
LINE
  5
24B
330
248
100
AcDbEntity
  8
9
  6
CONTINUOUS
 62
     4
100
AcDbLine
 10
269.0982976397781
 20
238.4181124999789
 30
0.0
 11
269.098297639778
 21
137.2836032876633
 31
0.0
  0
LINE
  5
24C
330
248
100
AcDbEntity
  8
9
  6
CONTINUOUS
 62
     4
100
AcDbLine
 10
569.0982976397781
 20
238.4181124999789
 30
0.0
 11
569.098297639778
 21
137.2836032876633
 31
0.0
  0
LINE
  5
24D
330
248
100
AcDbEntity
  8
9
  6
CONTINUOUS
 62
     4
100
AcDbLine
 10
269.098297639778
 20
140.2836032876633
 30
0.0
 11
569.098297639778
 21
140.2836032876633
 31
0.0
  0
MTEXT
  5
24E
330
248
100
AcDbEntity
  8
9
  6
CONTINUOUS
 62
     4
100
AcDbMText
 10
419.0982976397782
 20
140.2836032876633
 30
0.0
 40
6.0
 41
205.7142857142857
 71
     8
 72
     1
  1
300（発光面）
  7
ＭＳ_ゴシック
1001
ACAD
1000
ACAD_MTEXT_DEFINED_HEIGHT_BEGIN
1070
    46
1040
6.0
1000
ACAD_MTEXT_DEFINED_HEIGHT_END
  0
INSERT
  5
24F
330
248
100
AcDbEntity
  8
9
  6
CONTINUOUS
 62
     4
100
AcDbBlockReference
  2
_ARROWFILLED
 10
269.098297639778
 20
140.2836032876633
 30
0.0
 41
4.0
 42
4.0
 43
4.0
 50
179.9999999999998
  0
INSERT
  5
250
330
248
100
AcDbEntity
  8
9
  6
CONTINUOUS
 62
     4
100
AcDbBlockReference
  2
_ARROWFILLED
 10
569.098297639778
 20
140.2836032876633
 30
0.0
 41
4.0
 42
4.0
 43
4.0
 50
359.9999999999997
  0
ENDBLK
  5
24A
330
248
100
AcDbEntity
  8
0
100
AcDbBlockEnd
  0
BLOCK
  5
253
330
252
100
AcDbEntity
  8
0
100
AcDbBlockBegin
  2
DIM2
 70
     0
 10
0.0
 20
0.0
 30
0.0
  3
DIM2
  1

  0
LINE
  5
255
330
252
100
AcDbEntity
  8
9
  6
CONTINUOUS
 62
     4
100
AcDbLine
 10
254.0982976397781
 20
223.4181124999771
 30
0.0
 11
254.098297639778
 21
113.444838018356
 31
0.0
  0
LINE
  5
256
330
252
100
AcDbEntity
  8
9
  6
CONTINUOUS
 62
     4
100
AcDbLine
 10
584.0982976397781
 20
223.4181124999789
 30
0.0
 11
584.0982976397779
 21
113.444838018356
 31
0.0
  0
LINE
  5
257
330
252
100
AcDbEntity
  8
9
  6
CONTINUOUS
 62
     4
100
AcDbLine
 10
254.098297639778
 20
116.444838018356
 30
0.0
 11
584.0982976397779
 21
116.444838018356
 31
0.0
  0
MTEXT
  5
258
330
252
100
AcDbEntity
  8
9
  6
CONTINUOUS
 62
     4
100
AcDbMText
 10
419.0982976397782
 20
116.444838018356
 30
0.0
 40
6.0
 41
77.14285714285714
 71
     8
 72
     1
  1
330
  7
ＭＳ_ゴシック
1001
ACAD
1000
ACAD_MTEXT_DEFINED_HEIGHT_BEGIN
1070
    46
1040
6.0
1000
ACAD_MTEXT_DEFINED_HEIGHT_END
  0
INSERT
  5
259
330
252
100
AcDbEntity
  8
9
  6
CONTINUOUS
 62
     4
100
AcDbBlockReference
  2
_ARROWFILLED
 10
254.098297639778
 20
116.444838018356
 30
0.0
 41
4.0
 42
4.0
 43
4.0
 50
179.9999999999998
  0
INSERT
  5
25A
330
252
100
AcDbEntity
  8
9
  6
CONTINUOUS
 62
     4
100
AcDbBlockReference
  2
_ARROWFILLED
 10
584.0982976397779
 20
116.444838018356
 30
0.0
 41
4.0
 42
4.0
 43
4.0
 50
359.9999999999997
  0
ENDBLK
  5
254
330
252
100
AcDbEntity
  8
0
100
AcDbBlockEnd
  0
BLOCK
  5
25D
330
25C
100
AcDbEntity
  8
0
100
AcDbBlockBegin
  2
DIM3
 70
     0
 10
0.0
 20
0.0
 30
0.0
  3
DIM3
  1

  0
LINE
  5
25F
330
25C
100
AcDbEntity
  8
9
  6
CONTINUOUS
 62
     4
100
AcDbLine
 10
705.6666024970673
 20
223.4181124999789
 30
0.0
 11
705.6666024970672
 21
137.2836032876633
 31
0.0
  0
LINE
  5
260
330
25C
100
AcDbEntity
  8
9
  6
CONTINUOUS
 62
     4
100
AcDbLine
 10
750.6666024970673
 20
208.4181124999789
 30
0.0
 11
750.6666024970672
 21
137.2836032876633
 31
0.0
  0
LINE
  5
261
330
25C
100
AcDbEntity
  8
9
  6
CONTINUOUS
 62
     4
100
AcDbLine
 10
705.6666024970672
 20
140.2836032876633
 30
0.0
 11
750.6666024970672
 21
140.2836032876633
 31
0.0
  0
MTEXT
  5
262
330
25C
100
AcDbEntity
  8
9
  6
CONTINUOUS
 62
     4
100
AcDbMText
 10
728.1666024970673
 20
140.2836032876633
 30
0.0
 40
6.0
 41
48.57142857142856
 71
     8
 72
     1
  1
45
  7
ＭＳ_ゴシック
1001
ACAD
1000
ACAD_MTEXT_DEFINED_HEIGHT_BEGIN
1070
    46
1040
6.0
1000
ACAD_MTEXT_DEFINED_HEIGHT_END
  0
INSERT
  5
263
330
25C
100
AcDbEntity
  8
9
  6
CONTINUOUS
 62
     4
100
AcDbBlockReference
  2
_ARROWFILLED
 10
705.6666024970672
 20
140.2836032876633
 30
0.0
 41
4.0
 42
4.0
 43
4.0
 50
179.9999999999998
  0
INSERT
  5
264
330
25C
100
AcDbEntity
  8
9
  6
CONTINUOUS
 62
     4
100
AcDbBlockReference
  2
_ARROWFILLED
 10
750.6666024970672
 20
140.2836032876633
 30
0.0
 41
4.0
 42
4.0
 43
4.0
 50
359.9999999999997
  0
ENDBLK
  5
25E
330
25C
100
AcDbEntity
  8
0
100
AcDbBlockEnd
  0
BLOCK
  5
267
330
266
100
AcDbEntity
  8
0
100
AcDbBlockBegin
  2
DIM4
 70
     0
 10
0.0
 20
0.0
 30
0.0
  3
DIM4
  1

  0
LINE
  5
269
330
266
100
AcDbEntity
  8
9
  6
CONTINUOUS
 62
     4
100
AcDbLine
 10
750.6666024970673
 20
208.4181124999789
 30
0.0
 11
750.6666024970673
 21
181.9833015238958
 31
0.0
  0
LINE
  5
26A
330
266
100
AcDbEntity
  8
9
  6
CONTINUOUS
 62
     4
100
AcDbLine
 10
749.6666024970655
 20
208.4181124999789
 30
0.0
 11
749.6666024970655
 21
181.9833015238958
 31
0.0
  0
LINE
  5
26B
330
266
100
AcDbEntity
  8
9
  6
CONTINUOUS
 62
     4
100
AcDbLine
 10
763.1666024970673
 20
184.9833015238958
 30
0.0
 11
741.6666024970655
 21
184.9833015238958
 31
0.0
  0
MTEXT
  5
26C
330
266
100
AcDbEntity
  8
9
  6
CONTINUOUS
 62
     4
100
AcDbMText
 10
760.1666024970673
 20
184.9833015238958
 30
0.0
 40
6.0
 41
7.142857142857143
 71
     7
 72
     1
  1
1
  7
ＭＳ_ゴシック
1001
ACAD
1000
ACAD_MTEXT_DEFINED_HEIGHT_BEGIN
1070
    46
1040
6.0
1000
ACAD_MTEXT_DEFINED_HEIGHT_END
  0
INSERT
  5
26D
330
266
100
AcDbEntity
  8
9
  6
CONTINUOUS
 62
     4
100
AcDbBlockReference
  2
_ARROWFILLED
 10
750.6666024970673
 20
184.9833015238958
 30
0.0
 41
4.0
 42
4.0
 43
4.0
 50
179.9999999999995
  0
INSERT
  5
26E
330
266
100
AcDbEntity
  8
9
  6
CONTINUOUS
 62
     4
100
AcDbBlockReference
  2
_ARROWFILLED
 10
749.6666024970655
 20
184.9833015238958
 30
0.0
 41
4.0
 42
4.0
 43
4.0
 50
359.9999999999997
  0
ENDBLK
  5
268
330
266
100
AcDbEntity
  8
0
100
AcDbBlockEnd
  0
BLOCK
  5
271
330
270
100
AcDbEntity
  8
0
100
AcDbBlockBegin
  2
DIM5
 70
     0
 10
0.0
 20
0.0
 30
0.0
  3
DIM5
  1

  0
LINE
  5
273
330
270
100
AcDbEntity
  8
9
  6
CONTINUOUS
 62
     4
100
AcDbLine
 10
267.0982976397781
 20
240.4181124999789
 30
0.0
 11
226.796984410913
 21
240.418112499979
 31
0.0
  0
LINE
  5
274
330
270
100
AcDbEntity
  8
9
  6
CONTINUOUS
 62
     4
100
AcDbLine
 10
267.0982976397781
 20
440.4181124999789
 30
0.0
 11
226.796984410913
 21
440.418112499979
 31
0.0
  0
LINE
  5
275
330
270
100
AcDbEntity
  8
9
  6
CONTINUOUS
 62
     4
100
AcDbLine
 10
229.796984410913
 20
240.418112499979
 30
0.0
 11
229.796984410913
 21
440.418112499979
 31
0.0
  0
MTEXT
  5
276
330
270
100
AcDbEntity
  8
9
  6
CONTINUOUS
 62
     4
100
AcDbMText
 10
229.796984410913
 20
340.4181124999789
 30
0.0
 40
6.0
 41
205.7142857142857
 71
     8
 72
     1
  1
200（発光面）
  7
ＭＳ_ゴシック
 11
1.615544574432587E-15
 21
1.0
 31
0.0
1001
ACAD
1000
ACAD_MTEXT_DEFINED_HEIGHT_BEGIN
1070
    46
1040
6.0
1000
ACAD_MTEXT_DEFINED_HEIGHT_END
  0
INSERT
  5
277
330
270
100
AcDbEntity
  8
9
  6
CONTINUOUS
 62
     4
100
AcDbBlockReference
  2
_ARROWFILLED
 10
229.796984410913
 20
240.418112499979
 30
0.0
 41
4.0
 42
4.0
 43
4.0
 50
269.9999999999998
  0
INSERT
  5
278
330
270
100
AcDbEntity
  8
9
  6
CONTINUOUS
 62
     4
100
AcDbBlockReference
  2
_ARROWFILLED
 10
229.796984410913
 20
440.418112499979
 30
0.0
 41
4.0
 42
4.0
 43
4.0
 50
89.99999999999991
  0
ENDBLK
  5
272
330
270
100
AcDbEntity
  8
0
100
AcDbBlockEnd
  0
BLOCK
  5
27B
330
27A
100
AcDbEntity
  8
0
100
AcDbBlockBegin
  2
DIM6
 70
     0
 10
0.0
 20
0.0
 30
0.0
  3
DIM6
  1

  0
LINE
  5
27D
330
27A
100
AcDbEntity
  8
9
  6
CONTINUOUS
 62
     4
100
AcDbLine
 10
252.0982976397781
 20
225.4181124999789
 30
0.0
 11
205.3072160565271
 21
225.418112499979
 31
0.0
  0
LINE
  5
27E
330
27A
100
AcDbEntity
  8
9
  6
CONTINUOUS
 62
     4
100
AcDbLine
 10
252.0982976397781
 20
455.4181124999789
 30
0.0
 11
205.3072160565271
 21
455.418112499979
 31
0.0
  0
LINE
  5
27F
330
27A
100
AcDbEntity
  8
9
  6
CONTINUOUS
 62
     4
100
AcDbLine
 10
208.3072160565271
 20
225.418112499979
 30
0.0
 11
208.3072160565271
 21
455.418112499979
 31
0.0
  0
MTEXT
  5
280
330
27A
100
AcDbEntity
  8
9
  6
CONTINUOUS
 62
     4
100
AcDbMText
 10
208.3072160565271
 20
340.4181124999789
 30
0.0
 40
6.0
 41
77.14285714285714
 71
     8
 72
     1
  1
230
  7
ＭＳ_ゴシック
 11
1.615544574432587E-15
 21
1.0
 31
0.0
1001
ACAD
1000
ACAD_MTEXT_DEFINED_HEIGHT_BEGIN
1070
    46
1040
6.0
1000
ACAD_MTEXT_DEFINED_HEIGHT_END
  0
INSERT
  5
281
330
27A
100
AcDbEntity
  8
9
  6
CONTINUOUS
 62
     4
100
AcDbBlockReference
  2
_ARROWFILLED
 10
208.3072160565271
 20
225.418112499979
 30
0.0
 41
4.0
 42
4.0
 43
4.0
 50
269.9999999999998
  0
INSERT
  5
282
330
27A
100
AcDbEntity
  8
9
  6
CONTINUOUS
 62
     4
100
AcDbBlockReference
  2
_ARROWFILLED
 10
208.3072160565271
 20
455.418112499979
 30
0.0
 41
4.0
 42
4.0
 43
4.0
 50
89.99999999999991
  0
ENDBLK
  5
27C
330
27A
100
AcDbEntity
  8
0
100
AcDbBlockEnd
  0
BLOCK
  5
285
330
284
100
AcDbEntity
  8
0
100
AcDbBlockBegin
  2
DIM7
 70
     0
 10
0.0
 20
0.0
 30
0.0
  3
DIM7
  1

  0
LINE
  5
287
330
284
100
AcDbEntity
  8
9
  6
CONTINUOUS
 62
     4
100
AcDbLine
 10
292.0982976397781
 20
217.4181124999789
 30
0.0
 11
183.6643300781134
 21
217.4181124999792
 31
0.0
  0
LINE
  5
288
330
284
100
AcDbEntity
  8
9
  6
CONTINUOUS
 62
     4
100
AcDbLine
 10
285.4982976397778
 20
463.4181124999789
 30
0.0
 11
183.6643300781134
 21
463.4181124999792
 31
0.0
  0
LINE
  5
289
330
284
100
AcDbEntity
  8
9
  6
CONTINUOUS
 62
     4
100
AcDbLine
 10
186.6643300781134
 20
217.4181124999792
 30
0.0
 11
186.6643300781134
 21
463.4181124999792
 31
0.0
  0
MTEXT
  5
28A
330
284
100
AcDbEntity
  8
9
  6
CONTINUOUS
 62
     4
100
AcDbMText
 10
186.6643300781134
 20
340.4181124999789
 30
0.0
 40
6.0
 41
77.14285714285714
 71
     8
 72
     1
  1
246
  7
ＭＳ_ゴシック
 11
1.615544574432587E-15
 21
1.0
 31
0.0
1001
ACAD
1000
ACAD_MTEXT_DEFINED_HEIGHT_BEGIN
1070
    46
1040
6.0
1000
ACAD_MTEXT_DEFINED_HEIGHT_END
  0
INSERT
  5
28B
330
284
100
AcDbEntity
  8
9
  6
CONTINUOUS
 62
     4
100
AcDbBlockReference
  2
_ARROWFILLED
 10
186.6643300781134
 20
217.4181124999792
 30
0.0
 41
4.0
 42
4.0
 43
4.0
 50
269.9999999999998
  0
INSERT
  5
28C
330
284
100
AcDbEntity
  8
9
  6
CONTINUOUS
 62
     4
100
AcDbBlockReference
  2
_ARROWFILLED
 10
186.6643300781134
 20
463.4181124999792
 30
0.0
 41
4.0
 42
4.0
 43
4.0
 50
89.99999999999991
  0
ENDBLK
  5
286
330
284
100
AcDbEntity
  8
0
100
AcDbBlockEnd
  0
BLOCK
  5
28F
330
28E
100
AcDbEntity
  8
0
100
AcDbBlockBegin
  2
DIM8
 70
     0
 10
0.0
 20
0.0
 30
0.0
  3
DIM8
  1

  0
LINE
  5
291
330
28E
100
AcDbEntity
  8
9
  6
CONTINUOUS
 62
     4
100
AcDbLine
 10
272.0982976397773
 20
470.4181124999789
 30
0.0
 11
162.7934925566542
 21
470.4181124999791
 31
0.0
  0
LINE
  5
292
330
28E
100
AcDbEntity
  8
9
  6
CONTINUOUS
 62
     4
100
AcDbLine
 10
272.0982976397773
 20
210.4181124999789
 30
0.0
 11
162.7934925566542
 21
210.4181124999792
 31
0.0
  0
LINE
  5
293
330
28E
100
AcDbEntity
  8
9
  6
CONTINUOUS
 62
     4
100
AcDbLine
 10
165.7934925566542
 20
470.4181124999791
 30
0.0
 11
165.7934925566542
 21
210.4181124999792
 31
0.0
  0
MTEXT
  5
294
330
28E
100
AcDbEntity
  8
9
  6
CONTINUOUS
 62
     4
100
AcDbMText
 10
165.7934925566542
 20
340.4181124999787
 30
0.0
 40
6.0
 41
77.14285714285714
 71
     8
 72
     1
  1
260
  7
ＭＳ_ゴシック
 11
1.615544574432587E-15
 21
1.0
 31
0.0
1001
ACAD
1000
ACAD_MTEXT_DEFINED_HEIGHT_BEGIN
1070
    46
1040
6.0
1000
ACAD_MTEXT_DEFINED_HEIGHT_END
  0
INSERT
  5
295
330
28E
100
AcDbEntity
  8
9
  6
CONTINUOUS
 62
     4
100
AcDbBlockReference
  2
_ARROWFILLED
 10
165.7934925566542
 20
470.4181124999791
 30
0.0
 41
4.0
 42
4.0
 43
4.0
 50
89.99999999999991
  0
INSERT
  5
296
330
28E
100
AcDbEntity
  8
9
  6
CONTINUOUS
 62
     4
100
AcDbBlockReference
  2
_ARROWFILLED
 10
165.7934925566542
 20
210.4181124999792
 30
0.0
 41
4.0
 42
4.0
 43
4.0
 50
269.9999999999998
  0
ENDBLK
  5
290
330
28E
100
AcDbEntity
  8
0
100
AcDbBlockEnd
  0
BLOCK
  5
299
330
298
100
AcDbEntity
  8
0
100
AcDbBlockBegin
  2
DIM9
 70
     0
 10
0.0
 20
0.0
 30
0.0
  3
DIM9
  1

  0
LINE
  5
29B
330
298
100
AcDbEntity
  8
9
  6
CONTINUOUS
 62
     4
100
AcDbLine
 10
356.5982976397782
 20
208.8181124999786
 30
0.0
 11
356.5982976397781
 21
181.9833015238958
 31
0.0
  0
LINE
  5
29C
330
298
100
AcDbEntity
  8
9
  6
CONTINUOUS
 62
     4
100
AcDbLine
 10
481.5982976397782
 20
208.8181124999786
 30
0.0
 11
481.5982976397781
 21
181.9833015238958
 31
0.0
  0
LINE
  5
29D
330
298
100
AcDbEntity
  8
9
  6
CONTINUOUS
 62
     4
100
AcDbLine
 10
356.5982976397781
 20
184.9833015238958
 30
0.0
 11
481.5982976397781
 21
184.9833015238958
 31
0.0
  0
MTEXT
  5
29E
330
298
100
AcDbEntity
  8
9
  6
CONTINUOUS
 62
     4
100
AcDbMText
 10
419.0982976397781
 20
184.9833015238958
 30
0.0
 40
6.0
 41
72.85714285714286
 71
     8
 72
     1
  1
125
  7
ＭＳ_ゴシック
1001
ACAD
1000
ACAD_MTEXT_DEFINED_HEIGHT_BEGIN
1070
    46
1040
6.0
1000
ACAD_MTEXT_DEFINED_HEIGHT_END
  0
INSERT
  5
29F
330
298
100
AcDbEntity
  8
9
  6
CONTINUOUS
 62
     4
100
AcDbBlockReference
  2
_ARROWFILLED
 10
356.5982976397781
 20
184.9833015238958
 30
0.0
 41
4.0
 42
4.0
 43
4.0
 50
179.9999999999998
  0
INSERT
  5
2A0
330
298
100
AcDbEntity
  8
9
  6
CONTINUOUS
 62
     4
100
AcDbBlockReference
  2
_ARROWFILLED
 10
481.5982976397781
 20
184.9833015238958
 30
0.0
 41
4.0
 42
4.0
 43
4.0
 50
359.9999999999997
  0
ENDBLK
  5
29A
330
298
100
AcDbEntity
  8
0
100
AcDbBlockEnd
  0
BLOCK
  5
2A3
330
2A2
100
AcDbEntity
  8
0
100
AcDbBlockBegin
  2
DIM10
 70
     0
 10
0.0
 20
0.0
 30
0.0
  3
DIM10
  1

  0
LINE
  5
2A5
330
2A2
100
AcDbEntity
  8
9
  6
CONTINUOUS
 62
     4
100
AcDbLine
 10
544.0982976397781
 20
208.8181124999786
 30
0.0
 11
544.0982976397781
 21
158.5688927542481
 31
0.0
  0
LINE
  5
2A6
330
2A2
100
AcDbEntity
  8
9
  6
CONTINUOUS
 62
     4
100
AcDbLine
 10
294.0982976397781
 20
208.8181124999786
 30
0.0
 11
294.0982976397781
 21
158.5688927542481
 31
0.0
  0
LINE
  5
2A7
330
2A2
100
AcDbEntity
  8
9
  6
CONTINUOUS
 62
     4
100
AcDbLine
 10
544.0982976397781
 20
161.5688927542481
 30
0.0
 11
294.0982976397781
 21
161.5688927542481
 31
0.0
  0
MTEXT
  5
2A8
330
2A2
100
AcDbEntity
  8
9
  6
CONTINUOUS
 62
     4
100
AcDbMText
 10
419.0982976397781
 20
161.5688927542481
 30
0.0
 40
6.0
 41
77.14285714285714
 71
     8
 72
     1
  1
250
  7
ＭＳ_ゴシック
1001
ACAD
1000
ACAD_MTEXT_DEFINED_HEIGHT_BEGIN
1070
    46
1040
6.0
1000
ACAD_MTEXT_DEFINED_HEIGHT_END
  0
INSERT
  5
2A9
330
2A2
100
AcDbEntity
  8
9
  6
CONTINUOUS
 62
     4
100
AcDbBlockReference
  2
_ARROWFILLED
 10
544.0982976397781
 20
161.5688927542481
 30
0.0
 41
4.0
 42
4.0
 43
4.0
 50
359.9999999999997
  0
INSERT
  5
2AA
330
2A2
100
AcDbEntity
  8
9
  6
CONTINUOUS
 62
     4
100
AcDbBlockReference
  2
_ARROWFILLED
 10
294.0982976397781
 20
161.5688927542481
 30
0.0
 41
4.0
 42
4.0
 43
4.0
 50
179.9999999999998
  0
ENDBLK
  5
2A4
330
2A2
100
AcDbEntity
  8
0
100
AcDbBlockEnd
  0
BLOCK
  5
2AD
330
2AC
100
AcDbEntity
  8
0
100
AcDbBlockBegin
  2
DIM11
 70
     0
 10
0.0
 20
0.0
 30
0.0
  3
DIM11
  1

  0
LINE
  5
2AF
330
2AC
100
AcDbEntity
  8
9
  6
CONTINUOUS
 62
     4
100
AcDbLine
 10
584.0982976397781
 20
223.4181124999789
 30
0.0
 11
584.0982976397779
 21
113.444838018356
 31
0.0
  0
LINE
  5
2B0
330
2AC
100
AcDbEntity
  8
9
  6
CONTINUOUS
 62
     4
100
AcDbLine
 10
602.0982976397781
 20
335.9181124999789
 30
0.0
 11
602.0982976397778
 21
113.444838018356
 31
0.0
  0
LINE
  5
2B1
330
2AC
100
AcDbEntity
  8
9
  6
CONTINUOUS
 62
     4
100
AcDbLine
 10
584.0982976397779
 20
116.444838018356
 30
0.0
 11
622.0982976397781
 21
116.444838018356
 31
0.0
  0
MTEXT
  5
2B2
330
2AC
100
AcDbEntity
  8
9
  6
CONTINUOUS
 62
     4
100
AcDbMText
 10
610.0982976397781
 20
116.444838018356
 30
0.0
 40
6.0
 41
85.71428571428571
 71
     7
 72
     1
  1
(18)
  7
ＭＳ_ゴシック
1001
ACAD
1000
ACAD_MTEXT_DEFINED_HEIGHT_BEGIN
1070
    46
1040
6.0
1000
ACAD_MTEXT_DEFINED_HEIGHT_END
  0
INSERT
  5
2B3
330
2AC
100
AcDbEntity
  8
9
  6
CONTINUOUS
 62
     4
100
AcDbBlockReference
  2
_ARROWFILLED
 10
584.0982976397779
 20
116.444838018356
 30
0.0
 41
4.0
 42
4.0
 43
4.0
 50
179.9999999999998
  0
INSERT
  5
2B4
330
2AC
100
AcDbEntity
  8
9
  6
CONTINUOUS
 62
     4
100
AcDbBlockReference
  2
_ARROWFILLED
 10
602.0982976397778
 20
116.444838018356
 30
0.0
 41
4.0
 42
4.0
 43
4.0
 50
359.9999999999997
  0
ENDBLK
  5
2AE
330
2AC
100
AcDbEntity
  8
0
100
AcDbBlockEnd
  0
BLOCK
  5
2B7
330
2B6
100
AcDbEntity
  8
0
100
AcDbBlockBegin
  2
DIM12
 70
     0
 10
0.0
 20
0.0
 30
0.0
  3
DIM12
  1

  0
LINE
  5
2B9
330
2B6
100
AcDbEntity
  8
9
  6
CONTINUOUS
 62
     4
100
AcDbLine
 10
730.2383992667837
 20
338.4181124999789
 30
0.0
 11
730.2383992667834
 21
158.5688927542481
 31
0.0
  0
LINE
  5
2BA
330
2B6
100
AcDbEntity
  8
9
  6
CONTINUOUS
 62
     4
100
AcDbLine
 10
750.6666024970673
 20
208.4181124999789
 30
0.0
 11
750.6666024970672
 21
158.5688927542481
 31
0.0
  0
LINE
  5
2BB
330
2B6
100
AcDbEntity
  8
9
  6
CONTINUOUS
 62
     4
100
AcDbLine
 10
730.2383992667834
 20
161.5688927542481
 30
0.0
 11
778.1666024970673
 21
161.5688927542481
 31
0.0
  0
MTEXT
  5
2BC
330
2B6
100
AcDbEntity
  8
9
  6
CONTINUOUS
 62
     4
100
AcDbMText
 10
760.1666024970673
 20
161.5688927542481
 30
0.0
 40
6.0
 41
128.5714285714286
 71
     7
 72
     1
  1
(20.5)
  7
ＭＳ_ゴシック
1001
ACAD
1000
ACAD_MTEXT_DEFINED_HEIGHT_BEGIN
1070
    46
1040
6.0
1000
ACAD_MTEXT_DEFINED_HEIGHT_END
  0
INSERT
  5
2BD
330
2B6
100
AcDbEntity
  8
9
  6
CONTINUOUS
 62
     4
100
AcDbBlockReference
  2
_ARROWFILLED
 10
730.2383992667834
 20
161.5688927542481
 30
0.0
 41
4.0
 42
4.0
 43
4.0
 50
179.9999999999998
  0
INSERT
  5
2BE
330
2B6
100
AcDbEntity
  8
9
  6
CONTINUOUS
 62
     4
100
AcDbBlockReference
  2
_ARROWFILLED
 10
750.6666024970672
 20
161.5688927542481
 30
0.0
 41
4.0
 42
4.0
 43
4.0
 50
359.9999999999997
  0
ENDBLK
  5
2B8
330
2B6
100
AcDbEntity
  8
0
100
AcDbBlockEnd
  0
BLOCK
  5
2CA
330
2C9
100
AcDbEntity
  8
0
100
AcDbBlockBegin
  2
*G28
 70
     1
 10
0.0
 20
0.0
 30
0.0
  3
*G28
  1

  0
MTEXT
  5
2CC
330
2C9
100
AcDbEntity
  8
2
  6
CONTINUOUS
 62
   151
100
AcDbMText
 10
169.092351360524
 20
131.3295019487372
 30
0.0
 40
0.96
 41
0.0
 71
     4
 72
     1
  1
{\fＭＳ ゴシック;\T0.750000; }
1001
ACAD
1000
ACAD_MTEXT_DEFINED_HEIGHT_BEGIN
1070
    46
1040
0.96
1000
ACAD_MTEXT_DEFINED_HEIGHT_END
  0
MTEXT
  5
2CD
330
2C9
100
AcDbEntity
  8
2
  6
CONTINUOUS
 62
   151
100
AcDbMText
 10
169.092351360524
 20
132.4494859487372
 30
0.0
 40
3.199968
 41
6.758683637959744
 71
     4
 72
     1
  1
{\fＭＳ ゴシック;\T0.769362;1 +}
1001
ACAD
1000
ACAD_MTEXT_DEFINED_HEIGHT_BEGIN
1070
    46
1040
3.199968
1000
ACAD_MTEXT_DEFINED_HEIGHT_END
  0
MTEXT
  5
2CE
330
2C9
100
AcDbEntity
  8
2
  6
CONTINUOUS
 62
   151
100
AcDbMText
 10
169.092351360524
 20
131.2494979487372
 30
0.0
 40
0.7999919999999999
 41
0.0
 71
     4
 72
     1
  1
{\fＭＳ ゴシック;\T0.750000; }
1001
ACAD
1000
ACAD_MTEXT_DEFINED_HEIGHT_BEGIN
1070
    46
1040
0.7999919999999999
1000
ACAD_MTEXT_DEFINED_HEIGHT_END
  0
MTEXT
  5
2CF
330
2C9
100
AcDbEntity
  8
2
  6
CONTINUOUS
 62
   151
100
AcDbMText
 10
169.092351360524
 20
127.1161952820705
 30
0.0
 40
3.199968
 41
9.13732462584
 71
     4
 72
     1
  1
{\fＭＳ ゴシック;\T0.750000;2 NC}
1001
ACAD
1000
ACAD_MTEXT_DEFINED_HEIGHT_BEGIN
1070
    46
1040
3.199968
1000
ACAD_MTEXT_DEFINED_HEIGHT_END
  0
MTEXT
  5
2D0
330
2C9
100
AcDbEntity
  8
2
  6
CONTINUOUS
 62
   151
100
AcDbMText
 10
169.092351360524
 20
121.7829046154039
 30
0.0
 40
3.199968
 41
6.94429855632
 71
     4
 72
     1
  1
{\fＭＳ ゴシック;\T0.750000;3 -}
1001
ACAD
1000
ACAD_MTEXT_DEFINED_HEIGHT_BEGIN
1070
    46
1040
3.199968
1000
ACAD_MTEXT_DEFINED_HEIGHT_END
  0
ENDBLK
  5
2CB
330
2C9
100
AcDbEntity
  8
0
100
AcDbBlockEnd
  0
BLOCK
  5
2D3
330
2D2
100
AcDbEntity
  8
0
100
AcDbBlockBegin
  2
DIM13
 70
     0
 10
0.0
 20
0.0
 30
0.0
  3
DIM13
  1

  0
LINE
  5
2D5
330
2D2
100
AcDbEntity
  8
9
  6
CONTINUOUS
 62
     4
100
AcDbLine
 10
400.5230707207617
 20
310.1656589646533
 30
0.0
 11
517.3986111095063
 21
500.5144428821931
 31
0.0
  0
MTEXT
  5
2D6
330
2D2
100
AcDbEntity
  8
9
  6
CONTINUOUS
 62
     4
100
AcDbMText
 10
512.6893986511654
 20
492.8448067746449
 30
0.0
 40
6.0
 41
75.71428571428571
 71
     7
 72
     1
  1
\U+220555
  7
ＭＳ_ゴシック
 11
0.5232458287046305
 21
0.8521817897275231
 31
0.0
1001
ACAD
1000
ACAD_MTEXT_DEFINED_HEIGHT_BEGIN
1070
    46
1040
6.0
1000
ACAD_MTEXT_DEFINED_HEIGHT_END
  0
INSERT
  5
2D7
330
2D2
100
AcDbEntity
  8
9
  6
CONTINUOUS
 62
     4
100
AcDbBlockReference
  2
_ARROWFILLED
 10
404.7090373503988
 20
316.9831132824735
 30
0.0
 41
4.0
 42
4.0
 43
4.0
 50
58.44977179887972
  0
INSERT
  5
2D8
330
2D2
100
AcDbEntity
  8
9
  6
CONTINUOUS
 62
     4
100
AcDbBlockReference
  2
_ARROWFILLED
 10
433.4875579291534
 20
363.8531117174871
 30
0.0
 41
4.0
 42
4.0
 43
4.0
 50
238.4497717988798
  0
ENDBLK
  5
2D4
330
2D2
100
AcDbEntity
  8
0
100
AcDbBlockEnd
  0
BLOCK
  5
2DB
330
2DA
100
AcDbEntity
  8
0
100
AcDbBlockBegin
  2
DIM14
 70
     0
 10
0.0
 20
0.0
 30
0.0
  3
DIM14
  1

  0
LINE
  5
2DD
330
2DA
100
AcDbEntity
  8
9
  6
CONTINUOUS
 62
     4
100
AcDbLine
 10
392.4018425481996
 20
309.9624186884213
 30
0.0
 11
556.9745356795447
 21
497.7092762602698
 31
0.0
  0
MTEXT
  5
2DE
330
2DA
100
AcDbEntity
  8
9
  6
CONTINUOUS
 62
     4
100
AcDbMText
 10
551.0419901036485
 20
490.9413443021371
 30
0.0
 40
6.0
 41
75.71428571428571
 71
     7
 72
     1
  1
\U+220565
  7
ＭＳ_ゴシック
 11
0.6591717306562441
 21
0.7519924397915527
 31
0.0
1001
ACAD
1000
ACAD_MTEXT_DEFINED_HEIGHT_BEGIN
1070
    46
1040
6.0
1000
ACAD_MTEXT_DEFINED_HEIGHT_END
  0
INSERT
  5
2DF
330
2DA
100
AcDbEntity
  8
9
  6
CONTINUOUS
 62
     4
100
AcDbBlockReference
  2
_ARROWFILLED
 10
397.6752163934495
 20
315.9783582067537
 30
0.0
 41
4.0
 42
4.0
 43
4.0
 50
48.76326518151653
  0
INSERT
  5
2E0
330
2DA
100
AcDbEntity
  8
9
  6
CONTINUOUS
 62
     4
100
AcDbBlockReference
  2
_ARROWFILLED
 10
440.5213788861049
 20
364.857866793204
 30
0.0
 41
4.0
 42
4.0
 43
4.0
 50
228.7632651815165
  0
ENDBLK
  5
2DC
330
2DA
100
AcDbEntity
  8
0
100
AcDbBlockEnd
  0
ENDSEC
  0
SECTION
  2
ENTITIES
  0
LINE
  5
A2
330
1F
100
AcDbEntity
  8
6
  6
CONTINUOUS
 62
     1
100
AcDbLine
 10
559.7298765871465
 20
300.6518772179061
 30
0.0
 11
578.4537850974257
 21
300.6518656697226
 31
0.0
  0
ARC
  5
A3
330
1F
100
AcDbEntity
  8
6
  6
CONTINUOUS
 62
     1
100
AcDbCircle
 10
579.4877024955076
 20
299.7268715340415
 30
0.0
 40
1.387299296151127
100
AcDbArc
 50
138.1825956443432
 51
221.8174143556818
  0
ARC
  5
A4
330
1F
100
AcDbEntity
  8
6
  6
CONTINUOUS
 62
     1
100
AcDbCircle
 10
577.4195832207697
 20
297.8768772179064
 30
0.0
 40
1.387515353286972
100
AcDbArc
 50
318.1902521645857
 51
41.80974783544226
  0
ARC
  5
A5
330
1F
100
AcDbEntity
  8
6
  6
CONTINUOUS
 62
     1
100
AcDbCircle
 10
577.4195985740771
 20
299.726871353565
 30
0.0
 40
1.387500000000045
100
AcDbArc
 50
318.1900099999582
 51
41.80999999999249
  0
LINE
  5
A6
330
1F
100
AcDbEntity
  8
6
  6
CONTINUOUS
 62
     1
100
AcDbLine
 10
559.7298765871465
 20
296.9518772179063
 30
0.0
 11
578.4537852588674
 21
296.9518772179063
 31
0.0
  0
ARC
  5
A7
330
1F
100
AcDbEntity
  8
6
  6
CONTINUOUS
 62
     1
100
AcDbCircle
 10
580.8862557409657
 20
297.9000882888249
 30
0.0
 40
1.387515022395519
100
AcDbArc
 50
138.1902399436109
 51
221.8097600563605
  0
ARC
  5
A8
330
1F
100
AcDbEntity
  8
6
  6
CONTINUOUS
 62
     1
100
AcDbCircle
 10
578.818136466135
 20
297.9000940809474
 30
0.0
 40
1.387299627082371
100
AcDbArc
 50
318.182597871094
 51
41.81739912890934
  0
LINE
  5
A9
330
1F
100
AcDbEntity
  8
6
  6
CONTINUOUS
 62
     1
100
AcDbLine
 10
579.8520541467997
 20
296.9750882888256
 30
0.0
 11
587.2094814473257
 21
296.9750882888247
 31
0.0
  0
ARC
  5
AA
330
1F
100
AcDbEntity
  8
6
  6
CONTINUOUS
 62
     1
100
AcDbCircle
 10
580.8862407185807
 20
299.7500825508341
 30
0.0
 40
1.387500000000045
100
AcDbArc
 50
138.1900000000075
 51
221.809997000065
  0
LINE
  5
AB
330
1F
100
AcDbEntity
  8
6
  6
CONTINUOUS
 62
     1
100
AcDbLine
 10
579.852054195233
 20
300.6750768669917
 30
0.0
 11
587.2094814473257
 21
300.6750768669908
 31
0.0
  0
LINE
  5
AC
330
1F
100
AcDbEntity
  8
6
  6
CONTINUOUS
 62
     1
100
AcDbLine
 10
604.1620337348322
 20
303.3251182888243
 30
0.0
 11
596.3272802584761
 21
303.3251182888243
 31
0.0
  0
LINE
  5
AD
330
1F
100
AcDbEntity
  8
6
  6
CONTINUOUS
 62
     1
100
AcDbLine
 10
613.1620107348326
 20
300.8250982888239
 30
0.0
 11
600.1620017348323
 21
300.8250982888239
 31
0.0
  0
LINE
  5
AE
330
1F
100
AcDbEntity
  8
6
  6
CONTINUOUS
 62
     1
100
AcDbLine
 10
610.1620067348322
 20
299.2250982888245
 30
0.0
 11
601.1620057348327
 21
299.2250982888245
 31
0.0
  0
LINE
  5
AF
330
1F
100
AcDbEntity
  8
6
  6
CONTINUOUS
 62
     1
100
AcDbLine
 10
610.1620067348322
 20
297.6251082888248
 30
0.0
 11
601.1620057348327
 21
297.6251082888248
 31
0.0
  0
LINE
  5
B0
330
1F
100
AcDbEntity
  8
6
  6
CONTINUOUS
 62
     1
100
AcDbLine
 10
610.1620067348322
 20
298.4250782888248
 30
0.0
 11
601.1620057348327
 21
298.4250782888248
 31
0.0
  0
LINE
  5
B1
330
1F
100
AcDbEntity
  8
6
  6
CONTINUOUS
 62
     1
100
AcDbLine
 10
610.1620067348322
 20
300.0250782888243
 30
0.0
 11
601.1620057348327
 21
300.0250782888243
 31
0.0
  0
LINE
  5
B2
330
1F
100
AcDbEntity
  8
6
  6
CONTINUOUS
 62
     1
100
AcDbLine
 10
604.1620337348322
 20
294.325058288824
 30
0.0
 11
596.3272802584761
 21
294.325058288824
 31
0.0
  0
LINE
  5
B3
330
1F
100
AcDbEntity
  8
6
  6
CONTINUOUS
 62
     1
100
AcDbLine
 10
613.1620107348326
 20
296.8250882888251
 30
0.0
 11
600.1620017348323
 21
296.8250882888251
 31
0.0
  0
LINE
  5
B4
330
1F
100
AcDbEntity
  8
6
  6
CONTINUOUS
 62
     1
100
AcDbLine
 10
593.5065101797709
 20
302.3153480780793
 30
0.0
 11
587.2094814473267
 21
302.3153480780793
 31
0.0
  0
LINE
  5
B5
330
1F
100
AcDbEntity
  8
6
  6
CONTINUOUS
 62
     1
100
AcDbLine
 10
593.5065101797709
 20
295.3348284995718
 30
0.0
 11
587.2094814473257
 21
295.3348284995718
 31
0.0
  0
LINE
  5
B6
330
1F
100
AcDbEntity
  8
6
  6
CONTINUOUS
 62
     1
100
AcDbLine
 10
587.2094814473267
 20
295.3348284995718
 30
0.0
 11
587.2094814473257
 21
302.3153480780793
 31
0.0
  0
ARC
  5
B7
330
1F
100
AcDbEntity
  8
6
  6
CONTINUOUS
 62
     1
100
AcDbCircle
 10
596.3272802584761
 20
301.3251182888243
 30
0.0
 40
2.0
100
AcDbArc
 50
89.99999999999991
 51
120.0000000000333
  0
ARC
  5
B8
330
1F
100
AcDbEntity
  8
6
  6
CONTINUOUS
 62
     1
100
AcDbCircle
 10
593.5065101797709
 20
304.3153480780775
 30
0.0
 40
2.0
100
AcDbArc
 50
269.9999999999998
 51
300.0000000000329
  0
LINE
  5
B9
330
1F
100
AcDbEntity
  8
6
  6
CONTINUOUS
 62
     1
100
AcDbLine
 10
595.3272802584761
 20
303.0571690963934
 30
0.0
 11
594.5065101797709
 21
302.5832972705102
 31
0.0
  0
ARC
  5
BA
330
1F
100
AcDbEntity
  8
6
  6
CONTINUOUS
 62
     1
100
AcDbCircle
 10
596.3272802584761
 20
296.325058288824
 30
0.0
 40
2.0
100
AcDbArc
 50
240.0000000000028
 51
269.9999999999736
  0
ARC
  5
BB
330
1F
100
AcDbEntity
  8
6
  6
CONTINUOUS
 62
     1
100
AcDbCircle
 10
593.5065101797709
 20
293.3348284995709
 30
0.0
 40
2.0
100
AcDbArc
 50
59.99999999996675
 51
89.99999999999991
  0
LINE
  5
BC
330
1F
100
AcDbEntity
  8
6
  6
CONTINUOUS
 62
     1
100
AcDbLine
 10
595.3272802584761
 20
294.5930074812559
 30
0.0
 11
594.5065101797709
 21
295.0668793071391
 31
0.0
  0
LINE
  5
BD
330
1F
100
AcDbEntity
  8
6
  6
CONTINUOUS
 62
     1
100
AcDbLine
 10
600.1620017348323
 20
296.8250882888251
 30
0.0
 11
600.1620017348323
 21
300.8250982888239
 31
0.0
  0
LINE
  5
BE
330
1F
100
AcDbEntity
  8
6
  6
CONTINUOUS
 62
     1
100
AcDbLine
 10
601.1620057348327
 20
296.8250882888251
 30
0.0
 11
601.1620057348327
 21
300.8250982888239
 31
0.0
  0
LINE
  5
BF
330
1F
100
AcDbEntity
  8
6
  6
CONTINUOUS
 62
     1
100
AcDbLine
 10
613.1620107348326
 20
298.8250882888251
 30
0.0
 11
613.1620107348326
 21
304.0750982888239
 31
0.0
  0
ARC
  5
C0
330
1F
100
AcDbEntity
  8
6
  6
CONTINUOUS
 62
     1
100
AcDbCircle
 10
606.1620097348323
 20
303.0750982888239
 30
0.0
 40
1.0
100
AcDbArc
 50
89.99999999999991
 51
179.9999999999998
  0
LINE
  5
C1
330
1F
100
AcDbEntity
  8
6
  6
CONTINUOUS
 62
     1
100
AcDbLine
 10
604.1620337348322
 20
302.8251082888246
 30
0.0
 11
605.1620057348327
 21
302.8251082888246
 31
0.0
  0
LINE
  5
C2
330
1F
100
AcDbEntity
  8
6
  6
CONTINUOUS
 62
     1
100
AcDbLine
 10
604.1620337348322
 20
303.3251182888243
 30
0.0
 11
604.1620337348322
 21
300.8250982888248
 31
0.0
  0
LINE
  5
C3
330
1F
100
AcDbEntity
  8
6
  6
CONTINUOUS
 62
     1
100
AcDbLine
 10
605.1620057348327
 20
303.0750982888239
 30
0.0
 11
605.1620057348327
 21
300.8250982888239
 31
0.0
  0
LINE
  5
C4
330
1F
100
AcDbEntity
  8
6
  6
CONTINUOUS
 62
     1
100
AcDbLine
 10
605.1620057348327
 20
302.8251082888246
 30
0.0
 11
605.1620057348327
 21
300.8250982888239
 31
0.0
  0
LINE
  5
C5
330
1F
100
AcDbEntity
  8
6
  6
CONTINUOUS
 62
     1
100
AcDbLine
 10
606.1620097348323
 20
293.5750782888244
 30
0.0
 11
613.1620107348326
 21
293.5750782888244
 31
0.0
  0
LINE
  5
C6
330
1F
100
AcDbEntity
  8
6
  6
CONTINUOUS
 62
     1
100
AcDbLine
 10
605.1620057348327
 20
294.8250682888247
 30
0.0
 11
604.1620337348322
 21
294.8250682888247
 31
0.0
  0
LINE
  5
C7
330
1F
100
AcDbEntity
  8
6
  6
CONTINUOUS
 62
     1
100
AcDbLine
 10
604.1620337348322
 20
294.325058288824
 30
0.0
 11
604.1620337348322
 21
296.8250782888244
 31
0.0
  0
LINE
  5
C8
330
1F
100
AcDbEntity
  8
6
  6
CONTINUOUS
 62
     1
100
AcDbLine
 10
605.1620057348327
 20
294.5750782888244
 30
0.0
 11
605.1620057348327
 21
296.8250882888251
 31
0.0
  0
LINE
  5
C9
330
1F
100
AcDbEntity
  8
6
  6
CONTINUOUS
 62
     1
100
AcDbLine
 10
605.1620057348327
 20
296.8250882888251
 30
0.0
 11
605.1620057348327
 21
294.8250682888247
 31
0.0
  0
ARC
  5
CA
330
1F
100
AcDbEntity
  8
6
  6
CONTINUOUS
 62
     1
100
AcDbCircle
 10
606.1620097348323
 20
294.5750782888244
 30
0.0
 40
1.0
100
AcDbArc
 50
179.9999999999998
 51
269.9999999999998
  0
LINE
  5
CB
330
1F
100
AcDbEntity
  8
6
  6
CONTINUOUS
 62
     1
100
AcDbLine
 10
610.1620067348322
 20
300.8250982888239
 30
0.0
 11
610.1620067348322
 21
296.8250882888251
 31
0.0
  0
LINE
  5
CC
330
1F
100
AcDbEntity
  8
6
  6
CONTINUOUS
 62
     1
100
AcDbLine
 10
613.1620107348326
 20
298.8250882888251
 30
0.0
 11
613.1620107348326
 21
293.5750782888244
 31
0.0
  0
LINE
  5
CD
330
1F
100
AcDbEntity
  8
6
  6
CONTINUOUS
 62
     1
100
AcDbLine
 10
612.1620017348323
 20
300.8250982888239
 30
0.0
 11
612.1620017348323
 21
296.8250882888251
 31
0.0
  0
LINE
  5
CE
330
1F
100
AcDbEntity
  8
6
  6
CONTINUOUS
 62
     1
100
AcDbLine
 10
606.1620097348323
 20
304.0750982888239
 30
0.0
 11
613.1620107348326
 21
304.0750982888239
 31
0.0
  0
LINE
  5
CF
330
1F
100
AcDbEntity
  8
6
  6
CONTINUOUS
 62
     1
100
AcDbLine
 10
110.3546827939499
 20
86.33994299999995
 30
0.0
 11
110.3546827939499
 21
88.01995700000043
 31
0.0
  0
LINE
  5
D0
330
1F
100
AcDbEntity
  8
6
  6
CONTINUOUS
 62
     1
100
AcDbLine
 10
122.5346771939494
 20
79.54994299999998
 30
0.0
 11
122.5346771939494
 21
91.449971
 31
0.0
  0
LINE
  5
D1
330
1F
100
AcDbEntity
  8
6
  6
CONTINUOUS
 62
     1
100
AcDbLine
 10
121.8346743939501
 20
91.449971
 30
0.0
 11
121.8346743939501
 21
79.54994299999998
 31
0.0
  0
LINE
  5
D2
330
1F
100
AcDbEntity
  8
6
  6
CONTINUOUS
 62
     1
100
AcDbLine
 10
121.1346897939502
 20
91.02994299999955
 30
0.0
 11
121.1346897939502
 21
79.96997099999953
 31
0.0
  0
LINE
  5
D3
330
1F
100
AcDbEntity
  8
6
  6
CONTINUOUS
 62
     1
100
AcDbLine
 10
113.4346645939495
 20
91.02994299999955
 30
0.0
 11
113.4346645939495
 21
79.96997099999953
 31
0.0
  0
LINE
  5
D4
330
1F
100
AcDbEntity
  8
6
  6
CONTINUOUS
 62
     1
100
AcDbLine
 10
109.9346701939503
 20
87.87992900000063
 30
0.0
 11
109.9346701939503
 21
83.11997100000008
 31
0.0
  0
LINE
  5
D5
330
1F
100
AcDbEntity
  8
6
  6
CONTINUOUS
 62
     1
100
AcDbLine
 10
117.9846799939496
 20
86.89994999999999
 30
0.0
 11
117.9846799939496
 21
84.099964
 31
0.0
  0
LINE
  5
D6
330
1F
100
AcDbEntity
  8
6
  6
CONTINUOUS
 62
     1
100
AcDbLine
 10
119.3846841939494
 20
84.099964
 30
0.0
 11
119.3846841939494
 21
86.89994999999999
 31
0.0
  0
LINE
  5
D7
330
1F
100
AcDbEntity
  8
6
  6
CONTINUOUS
 62
     1
100
AcDbLine
 10
113.8546757939503
 20
91.449971
 30
0.0
 11
120.7146785939503
 21
91.449971
 31
0.0
  0
LINE
  5
D8
330
1F
100
AcDbEntity
  8
6
  6
CONTINUOUS
 62
     1
100
AcDbLine
 10
113.4346813939501
 20
92.14997099999982
 30
0.0
 11
121.1346729939496
 21
92.14997099999982
 31
0.0
  0
LINE
  5
D9
330
1F
100
AcDbEntity
  8
6
  6
CONTINUOUS
 62
     1
100
AcDbLine
 10
121.1346897939502
 20
92.84994300000017
 30
0.0
 11
113.4346645939495
 21
92.84994300000017
 31
0.0
  0
LINE
  5
DA
330
1F
100
AcDbEntity
  8
6
  6
CONTINUOUS
 62
     1
100
AcDbLine
 10
116.5846925939495
 20
90.04989399999977
 30
0.0
 11
115.1846785939497
 21
90.04989399999977
 31
0.0
  0
LINE
  5
DB
330
1F
100
AcDbEntity
  8
6
  6
CONTINUOUS
 62
     1
100
AcDbLine
 10
115.1846785939497
 20
87.94988000000012
 30
0.0
 11
116.5846925939495
 21
87.94988000000012
 31
0.0
  0
LINE
  5
DC
330
1F
100
AcDbEntity
  8
6
  6
CONTINUOUS
 62
     1
100
AcDbLine
 10
119.3846841939494
 20
86.89994999999999
 30
0.0
 11
117.9846799939496
 21
86.89994999999999
 31
0.0
  0
ARC
  5
DD
330
1F
100
AcDbEntity
  8
6
  6
CONTINUOUS
 62
     1
100
AcDbCircle
 10
121.1346897939502
 20
91.449971
 30
0.0
 40
1.400000000000006
100
AcDbArc
 50
0.0
 51
89.99999999999991
  0
ARC
  5
DE
330
1F
100
AcDbEntity
  8
6
  6
CONTINUOUS
 62
     1
100
AcDbCircle
 10
120.7146785939503
 20
91.02994299999955
 30
0.0
 40
0.4200000000000017
100
AcDbArc
 50
0.0
 51
89.99999999999991
  0
ARC
  5
DF
330
1F
100
AcDbEntity
  8
6
  6
CONTINUOUS
 62
     1
100
AcDbCircle
 10
121.1346729939496
 20
91.449971
 30
0.0
 40
0.7000000000000028
100
AcDbArc
 50
0.0
 51
89.99999999999991
  0
LINE
  5
E0
330
1F
100
AcDbEntity
  8
6
  6
CONTINUOUS
 62
     1
100
AcDbLine
 10
119.3846841939494
 20
90.39988000000085
 30
0.0
 11
117.9846799939496
 21
90.39988000000085
 31
0.0
  0
LINE
  5
E1
330
1F
100
AcDbEntity
  8
6
  6
CONTINUOUS
 62
     1
100
AcDbLine
 10
116.5846925939495
 20
87.94988000000012
 30
0.0
 11
116.5846925939495
 21
90.04989399999977
 31
0.0
  0
LINE
  5
E2
330
1F
100
AcDbEntity
  8
6
  6
CONTINUOUS
 62
     1
100
AcDbLine
 10
117.9846799939496
 20
90.39988000000085
 30
0.0
 11
117.9846799939496
 21
87.59989399999995
 31
0.0
  0
LINE
  5
E3
330
1F
100
AcDbEntity
  8
6
  6
CONTINUOUS
 62
     1
100
AcDbLine
 10
119.3846841939494
 20
87.59989399999995
 30
0.0
 11
119.3846841939494
 21
90.39988000000085
 31
0.0
  0
LINE
  5
E4
330
1F
100
AcDbEntity
  8
6
  6
CONTINUOUS
 62
     1
100
AcDbLine
 10
117.9846799939496
 20
87.59989399999995
 30
0.0
 11
119.3846841939494
 21
87.59989399999995
 31
0.0
  0
LINE
  5
E5
330
1F
100
AcDbEntity
  8
6
  6
CONTINUOUS
 62
     1
100
AcDbLine
 10
111.3346743939501
 20
86.89995699999963
 30
0.0
 11
111.3346743939501
 21
88.29997100000037
 31
0.0
  0
ARC
  5
E6
330
1F
100
AcDbEntity
  8
6
  6
CONTINUOUS
 62
     1
100
AcDbCircle
 10
110.3546827939499
 20
87.87992900000063
 30
0.0
 40
0.4200000000000017
100
AcDbArc
 50
89.99999999999991
 51
179.9999999999998
  0
LINE
  5
E7
330
1F
100
AcDbEntity
  8
6
  6
CONTINUOUS
 62
     1
100
AcDbLine
 10
110.6346729939496
 20
88.01995700000043
 30
0.0
 11
110.6346729939496
 21
88.29997100000037
 31
0.0
  0
LINE
  5
E8
330
1F
100
AcDbEntity
  8
6
  6
CONTINUOUS
 62
     1
100
AcDbLine
 10
110.3546827939499
 20
88.01995700000043
 30
0.0
 11
110.6346729939496
 21
88.01995700000043
 31
0.0
  0
LINE
  5
E9
330
1F
100
AcDbEntity
  8
6
  6
CONTINUOUS
 62
     1
100
AcDbLine
 10
111.3346743939501
 20
86.89995699999963
 30
0.0
 11
113.4346645939495
 21
86.89995699999963
 31
0.0
  0
LINE
  5
EA
330
1F
100
AcDbEntity
  8
6
  6
CONTINUOUS
 62
     1
100
AcDbLine
 10
110.3546827939499
 20
88.29997100000037
 30
0.0
 11
113.4346645939495
 21
88.29997100000037
 31
0.0
  0
ARC
  5
EB
330
1F
100
AcDbEntity
  8
6
  6
CONTINUOUS
 62
     1
100
AcDbCircle
 10
113.8546757939503
 20
91.02994299999955
 30
0.0
 40
0.4200000000000017
100
AcDbArc
 50
89.99999999999991
 51
179.9999999999998
  0
ARC
  5
EC
330
1F
100
AcDbEntity
  8
6
  6
CONTINUOUS
 62
     1
100
AcDbCircle
 10
113.4346813939501
 20
91.449971
 30
0.0
 40
0.7000000000000028
100
AcDbArc
 50
89.99999999999991
 51
179.9999999999998
  0
ARC
  5
ED
330
1F
100
AcDbEntity
  8
6
  6
CONTINUOUS
 62
     1
100
AcDbCircle
 10
113.4346645939495
 20
91.449971
 30
0.0
 40
1.400000000000006
100
AcDbArc
 50
89.99999999999991
 51
179.9999999999998
  0
LINE
  5
EE
330
1F
100
AcDbEntity
  8
6
  6
CONTINUOUS
 62
     1
100
AcDbLine
 10
115.1846785939497
 20
89.69988000000012
 30
0.0
 11
114.4846855939504
 21
89.69988000000012
 31
0.0
  0
LINE
  5
EF
330
1F
100
AcDbEntity
  8
6
  6
CONTINUOUS
 62
     1
100
AcDbLine
 10
115.1846785939497
 20
90.04989399999977
 30
0.0
 11
115.1846785939497
 21
89.69988000000012
 31
0.0
  0
LINE
  5
F0
330
1F
100
AcDbEntity
  8
6
  6
CONTINUOUS
 62
     1
100
AcDbLine
 10
114.4846855939504
 20
89.69988000000012
 30
0.0
 11
114.4846855939504
 21
88.29990799999996
 31
0.0
  0
LINE
  5
F1
330
1F
100
AcDbEntity
  8
6
  6
CONTINUOUS
 62
     1
100
AcDbLine
 10
115.1846785939497
 20
88.29990799999996
 30
0.0
 11
115.1846785939497
 21
87.94988000000012
 31
0.0
  0
LINE
  5
F2
330
1F
100
AcDbEntity
  8
6
  6
CONTINUOUS
 62
     1
100
AcDbLine
 10
114.4846855939504
 20
88.29990799999996
 30
0.0
 11
115.1846785939497
 21
88.29990799999996
 31
0.0
  0
LINE
  5
F3
330
1F
100
AcDbEntity
  8
6
  6
CONTINUOUS
 62
     1
100
AcDbLine
 10
112.7346799939496
 20
91.449971
 30
0.0
 11
112.7346799939496
 21
88.29997100000037
 31
0.0
  0
LINE
  5
F4
330
1F
100
AcDbEntity
  8
6
  6
CONTINUOUS
 62
     1
100
AcDbLine
 10
112.0346771939494
 20
91.449971
 30
0.0
 11
112.0346771939494
 21
88.29997100000037
 31
0.0
  0
LINE
  5
F5
330
1F
100
AcDbEntity
  8
6
  6
CONTINUOUS
 62
     1
100
AcDbLine
 10
120.7146785939503
 20
79.54994299999998
 30
0.0
 11
113.8546757939503
 21
79.54994299999998
 31
0.0
  0
LINE
  5
F6
330
1F
100
AcDbEntity
  8
6
  6
CONTINUOUS
 62
     1
100
AcDbLine
 10
121.1346729939496
 20
78.84994300000017
 30
0.0
 11
113.4346813939501
 21
78.84994300000017
 31
0.0
  0
LINE
  5
F7
330
1F
100
AcDbEntity
  8
6
  6
CONTINUOUS
 62
     1
100
AcDbLine
 10
121.1346897939502
 20
78.14997099999982
 30
0.0
 11
113.4346645939495
 21
78.14997099999982
 31
0.0
  0
LINE
  5
F8
330
1F
100
AcDbEntity
  8
6
  6
CONTINUOUS
 62
     1
100
AcDbLine
 10
115.1846785939497
 20
80.95001999999931
 30
0.0
 11
116.5846925939495
 21
80.95001999999931
 31
0.0
  0
LINE
  5
F9
330
1F
100
AcDbEntity
  8
6
  6
CONTINUOUS
 62
     1
100
AcDbLine
 10
116.5846925939495
 20
83.05003399999987
 30
0.0
 11
115.1846785939497
 21
83.05003399999987
 31
0.0
  0
LINE
  5
FA
330
1F
100
AcDbEntity
  8
6
  6
CONTINUOUS
 62
     1
100
AcDbLine
 10
115.1846785939497
 20
84.44995000000017
 30
0.0
 11
116.5846925939495
 21
84.44995000000017
 31
0.0
  0
LINE
  5
FB
330
1F
100
AcDbEntity
  8
6
  6
CONTINUOUS
 62
     1
100
AcDbLine
 10
116.5846925939495
 20
86.54996399999982
 30
0.0
 11
115.1846785939497
 21
86.54996399999982
 31
0.0
  0
ARC
  5
FC
330
1F
100
AcDbEntity
  8
6
  6
CONTINUOUS
 62
     1
100
AcDbCircle
 10
121.1346897939502
 20
79.54994299999998
 30
0.0
 40
1.400000000000006
100
AcDbArc
 50
269.9999999999998
 51
0.0
  0
ARC
  5
FD
330
1F
100
AcDbEntity
  8
6
  6
CONTINUOUS
 62
     1
100
AcDbCircle
 10
120.7146785939503
 20
79.96997099999953
 30
0.0
 40
0.4200000000000017
100
AcDbArc
 50
269.9999999999998
 51
0.0
  0
ARC
  5
FE
330
1F
100
AcDbEntity
  8
6
  6
CONTINUOUS
 62
     1
100
AcDbCircle
 10
121.1346729939496
 20
79.54994299999998
 30
0.0
 40
0.7000000000000028
100
AcDbArc
 50
269.9999999999998
 51
0.0
  0
LINE
  5
FF
330
1F
100
AcDbEntity
  8
6
  6
CONTINUOUS
 62
     1
100
AcDbLine
 10
117.9846799939496
 20
80.60003400000005
 30
0.0
 11
119.3846841939494
 21
80.60003400000005
 31
0.0
  0
LINE
  5
100
330
1F
100
AcDbEntity
  8
6
  6
CONTINUOUS
 62
     1
100
AcDbLine
 10
119.3846841939494
 20
80.60003400000005
 30
0.0
 11
119.3846841939494
 21
83.40001999999913
 31
0.0
  0
LINE
  5
101
330
1F
100
AcDbEntity
  8
6
  6
CONTINUOUS
 62
     1
100
AcDbLine
 10
117.9846799939496
 20
83.40001999999913
 30
0.0
 11
117.9846799939496
 21
80.60003400000005
 31
0.0
  0
LINE
  5
102
330
1F
100
AcDbEntity
  8
6
  6
CONTINUOUS
 62
     1
100
AcDbLine
 10
116.5846925939495
 20
80.95001999999931
 30
0.0
 11
116.5846925939495
 21
83.05003399999987
 31
0.0
  0
LINE
  5
103
330
1F
100
AcDbEntity
  8
6
  6
CONTINUOUS
 62
     1
100
AcDbLine
 10
119.3846841939494
 20
83.40001999999913
 30
0.0
 11
117.9846799939496
 21
83.40001999999913
 31
0.0
  0
LINE
  5
104
330
1F
100
AcDbEntity
  8
6
  6
CONTINUOUS
 62
     1
100
AcDbLine
 10
117.9846799939496
 20
84.099964
 30
0.0
 11
119.3846841939494
 21
84.099964
 31
0.0
  0
LINE
  5
105
330
1F
100
AcDbEntity
  8
6
  6
CONTINUOUS
 62
     1
100
AcDbLine
 10
116.5846925939495
 20
84.44995000000017
 30
0.0
 11
116.5846925939495
 21
86.54996399999982
 31
0.0
  0
ARC
  5
106
330
1F
100
AcDbEntity
  8
6
  6
CONTINUOUS
 62
     1
100
AcDbCircle
 10
113.8546757939503
 20
79.96997099999953
 30
0.0
 40
0.4200000000000017
100
AcDbArc
 50
179.9999999999998
 51
269.9999999999998
  0
ARC
  5
107
330
1F
100
AcDbEntity
  8
6
  6
CONTINUOUS
 62
     1
100
AcDbCircle
 10
113.4346813939501
 20
79.54994299999998
 30
0.0
 40
0.7000000000000028
100
AcDbArc
 50
179.9999999999998
 51
269.9999999999998
  0
ARC
  5
108
330
1F
100
AcDbEntity
  8
6
  6
CONTINUOUS
 62
     1
100
AcDbCircle
 10
113.4346645939495
 20
79.54994299999998
 30
0.0
 40
1.400000000000006
100
AcDbArc
 50
179.9999999999998
 51
269.9999999999998
  0
LINE
  5
109
330
1F
100
AcDbEntity
  8
6
  6
CONTINUOUS
 62
     1
100
AcDbLine
 10
114.4846855939504
 20
81.30004800000006
 30
0.0
 11
115.1846785939497
 21
81.30004800000006
 31
0.0
  0
LINE
  5
10A
330
1F
100
AcDbEntity
  8
6
  6
CONTINUOUS
 62
     1
100
AcDbLine
 10
115.1846785939497
 20
81.30004800000006
 30
0.0
 11
115.1846785939497
 21
80.95001999999931
 31
0.0
  0
LINE
  5
10B
330
1F
100
AcDbEntity
  8
6
  6
CONTINUOUS
 62
     1
100
AcDbLine
 10
114.4846855939504
 20
82.70001999999931
 30
0.0
 11
114.4846855939504
 21
81.30004800000006
 31
0.0
  0
LINE
  5
10C
330
1F
100
AcDbEntity
  8
6
  6
CONTINUOUS
 62
     1
100
AcDbLine
 10
115.1846785939497
 20
83.05003399999987
 30
0.0
 11
115.1846785939497
 21
82.70001999999931
 31
0.0
  0
LINE
  5
10D
330
1F
100
AcDbEntity
  8
6
  6
CONTINUOUS
 62
     1
100
AcDbLine
 10
115.1846785939497
 20
82.70001999999931
 30
0.0
 11
114.4846855939504
 21
82.70001999999931
 31
0.0
  0
LINE
  5
10E
330
1F
100
AcDbEntity
  8
6
  6
CONTINUOUS
 62
     1
100
AcDbLine
 10
110.3546827939499
 20
82.97995700000047
 30
0.0
 11
110.3546827939499
 21
84.65997100000004
 31
0.0
  0
LINE
  5
10F
330
1F
100
AcDbEntity
  8
6
  6
CONTINUOUS
 62
     1
100
AcDbLine
 10
111.3346743939501
 20
82.69994300000053
 30
0.0
 11
111.3346743939501
 21
84.09995699999945
 31
0.0
  0
LINE
  5
110
330
1F
100
AcDbEntity
  8
6
  6
CONTINUOUS
 62
     1
100
AcDbLine
 10
110.6346729939496
 20
84.65997100000004
 30
0.0
 11
110.3546827939499
 21
84.65997100000004
 31
0.0
  0
LINE
  5
111
330
1F
100
AcDbEntity
  8
6
  6
CONTINUOUS
 62
     1
100
AcDbLine
 10
113.4346645939495
 20
84.09995699999945
 30
0.0
 11
111.3346743939501
 21
84.09995699999945
 31
0.0
  0
ARC
  5
112
330
1F
100
AcDbEntity
  8
6
  6
CONTINUOUS
 62
     1
100
AcDbCircle
 10
110.3546827939499
 20
83.11997100000008
 30
0.0
 40
0.4200000000000017
100
AcDbArc
 50
179.9999999999998
 51
269.9999999999998
  0
LINE
  5
113
330
1F
100
AcDbEntity
  8
6
  6
CONTINUOUS
 62
     1
100
AcDbLine
 10
110.6346729939496
 20
82.69994300000053
 30
0.0
 11
110.6346729939496
 21
82.97995700000047
 31
0.0
  0
LINE
  5
114
330
1F
100
AcDbEntity
  8
6
  6
CONTINUOUS
 62
     1
100
AcDbLine
 10
110.6346729939496
 20
82.97995700000047
 30
0.0
 11
110.3546827939499
 21
82.97995700000047
 31
0.0
  0
LINE
  5
115
330
1F
100
AcDbEntity
  8
6
  6
CONTINUOUS
 62
     1
100
AcDbLine
 10
110.3546827939499
 20
82.69994300000053
 30
0.0
 11
113.4346645939495
 21
82.69994300000053
 31
0.0
  0
LINE
  5
116
330
1F
100
AcDbEntity
  8
6
  6
CONTINUOUS
 62
     1
100
AcDbLine
 10
114.4846855939504
 20
84.79997800000001
 30
0.0
 11
115.1846785939497
 21
84.79997800000001
 31
0.0
  0
LINE
  5
117
330
1F
100
AcDbEntity
  8
6
  6
CONTINUOUS
 62
     1
100
AcDbLine
 10
115.1846785939497
 20
84.79997800000001
 30
0.0
 11
115.1846785939497
 21
84.44995000000017
 31
0.0
  0
LINE
  5
118
330
1F
100
AcDbEntity
  8
6
  6
CONTINUOUS
 62
     1
100
AcDbLine
 10
112.7346799939496
 20
79.54994299999998
 30
0.0
 11
112.7346799939496
 21
82.69994300000053
 31
0.0
  0
LINE
  5
119
330
1F
100
AcDbEntity
  8
6
  6
CONTINUOUS
 62
     1
100
AcDbLine
 10
112.0346771939494
 20
79.54994299999998
 30
0.0
 11
112.0346771939494
 21
82.69994300000053
 31
0.0
  0
LINE
  5
11A
330
1F
100
AcDbEntity
  8
6
  6
CONTINUOUS
 62
     1
100
AcDbLine
 10
110.6346729939496
 20
86.33994299999995
 30
0.0
 11
110.3546827939499
 21
86.33994299999995
 31
0.0
  0
LINE
  5
11B
330
1F
100
AcDbEntity
  8
6
  6
CONTINUOUS
 62
     1
100
AcDbLine
 10
115.1846785939497
 20
86.54996399999982
 30
0.0
 11
115.1846785939497
 21
86.19995000000017
 31
0.0
  0
LINE
  5
11C
330
1F
100
AcDbEntity
  8
6
  6
CONTINUOUS
 62
     1
100
AcDbLine
 10
115.1846785939497
 20
86.19995000000017
 30
0.0
 11
114.4846855939504
 21
86.19995000000017
 31
0.0
  0
LINE
  5
11D
330
1F
100
AcDbEntity
  8
6
  6
CONTINUOUS
 62
     1
100
AcDbLine
 10
110.6346729939496
 20
84.65997100000004
 30
0.0
 11
110.6346729939496
 21
86.33994299999995
 31
0.0
  0
LINE
  5
11E
330
1F
100
AcDbEntity
  8
6
  6
CONTINUOUS
 62
     1
100
AcDbLine
 10
114.4846855939504
 20
86.19995000000017
 30
0.0
 11
114.4846855939504
 21
84.79997800000001
 31
0.0
  0
LINE
  5
11F
330
1F
100
AcDbEntity
  8
6
  6
CONTINUOUS
 62
     1
100
AcDbLine
 10
107.133593479437
 20
88.29996399999982
 30
0.0
 11
88.93358087943761
 21
88.29996399999982
 31
0.0
  0
LINE
  5
120
330
1F
100
AcDbEntity
  8
6
  6
CONTINUOUS
 62
     1
100
AcDbLine
 10
102.9335878794373
 20
86.05996400000004
 30
0.0
 11
90.33358647943714
 21
86.05996400000004
 31
0.0
  0
LINE
  5
121
330
1F
100
AcDbEntity
  8
6
  6
CONTINUOUS
 62
     1
100
AcDbLine
 10
102.9335878794373
 20
83.81997799999954
 30
0.0
 11
90.33358647943714
 21
83.81997799999954
 31
0.0
  0
LINE
  5
122
330
1F
100
AcDbEntity
  8
6
  6
CONTINUOUS
 62
     1
100
AcDbLine
 10
102.9335878794373
 20
84.93993599999976
 30
0.0
 11
90.33358647943714
 21
84.93993599999976
 31
0.0
  0
LINE
  5
123
330
1F
100
AcDbEntity
  8
6
  6
CONTINUOUS
 62
     1
100
AcDbLine
 10
102.9335878794373
 20
87.17993600000045
 30
0.0
 11
90.33358647943714
 21
87.17993600000045
 31
0.0
  0
LINE
  5
124
330
1F
100
AcDbEntity
  8
6
  6
CONTINUOUS
 62
     1
100
AcDbLine
 10
107.133593479437
 20
82.69995000000017
 30
0.0
 11
88.93358087943761
 21
82.69995000000017
 31
0.0
  0
LINE
  5
125
330
1F
100
AcDbEntity
  8
6
  6
CONTINUOUS
 62
     1
100
AcDbLine
 10
70.80013292309741
 20
87.6699636092253
 30
0.0
 11
40.00013292309723
 21
87.6699636092253
 31
0.0
  0
LINE
  5
126
330
1F
100
AcDbEntity
  8
6
  6
CONTINUOUS
 62
     1
100
AcDbLine
 10
70.80005247692861
 20
83.32996361605274
 30
0.0
 11
40.00005247692843
 21
83.32996339157125
 31
0.0
  0
LINE
  5
127
330
1F
100
AcDbEntity
  8
6
  6
CONTINUOUS
 62
     1
100
AcDbLine
 10
70.80005247692861
 20
81.57995000000119
 30
0.0
 11
70.80005247692861
 21
89.41995000000043
 31
0.0
  0
LINE
  5
128
330
1F
100
AcDbEntity
  8
6
  6
CONTINUOUS
 62
     1
100
AcDbLine
 10
88.93358087943761
 20
82.69995000000017
 30
0.0
 11
88.93358087943761
 21
88.29996399999982
 31
0.0
  0
LINE
  5
129
330
1F
100
AcDbEntity
  8
6
  6
CONTINUOUS
 62
     1
100
AcDbLine
 10
90.33358647943714
 20
82.69995000000017
 30
0.0
 11
90.33358647943714
 21
88.29996399999982
 31
0.0
  0
LINE
  5
12A
330
1F
100
AcDbEntity
  8
6
  6
CONTINUOUS
 62
     1
100
AcDbLine
 10
107.133593479437
 20
85.49995000000035
 30
0.0
 11
107.133593479437
 21
92.849964
 31
0.0
  0
ARC
  5
12B
330
1F
100
AcDbEntity
  8
6
  6
CONTINUOUS
 62
     1
100
AcDbCircle
 10
97.33359207943704
 20
91.44996399999945
 30
0.0
 40
1.400000000000006
100
AcDbArc
 50
89.99999999999991
 51
179.9999999999998
  0
LINE
  5
12C
330
1F
100
AcDbEntity
  8
6
  6
CONTINUOUS
 62
     1
100
AcDbLine
 10
94.53362567943714
 20
91.09997800000019
 30
0.0
 11
95.9335864794366
 21
91.09997800000019
 31
0.0
  0
LINE
  5
12D
330
1F
100
AcDbEntity
  8
6
  6
CONTINUOUS
 62
     1
100
AcDbLine
 10
94.53362567943714
 20
91.7999920000002
 30
0.0
 11
94.53362567943714
 21
88.29996399999982
 31
0.0
  0
LINE
  5
12E
330
1F
100
AcDbEntity
  8
6
  6
CONTINUOUS
 62
     1
100
AcDbLine
 10
95.9335864794366
 20
91.44996399999945
 30
0.0
 11
95.9335864794366
 21
88.29996399999982
 31
0.0
  0
LINE
  5
12F
330
1F
100
AcDbEntity
  8
6
  6
CONTINUOUS
 62
     1
100
AcDbLine
 10
95.9335864794366
 20
91.09997800000019
 30
0.0
 11
95.9335864794366
 21
88.29996399999982
 31
0.0
  0
LINE
  5
130
330
1F
100
AcDbEntity
  8
6
  6
CONTINUOUS
 62
     1
100
AcDbLine
 10
97.33359207943704
 20
78.1499359999998
 30
0.0
 11
107.133593479437
 21
78.1499359999998
 31
0.0
  0
LINE
  5
131
330
1F
100
AcDbEntity
  8
6
  6
CONTINUOUS
 62
     1
100
AcDbLine
 10
95.9335864794366
 20
79.8999219999996
 30
0.0
 11
94.53362567943714
 21
79.8999219999996
 31
0.0
  0
LINE
  5
132
330
1F
100
AcDbEntity
  8
6
  6
CONTINUOUS
 62
     1
100
AcDbLine
 10
94.53362567943714
 20
79.1999079999996
 30
0.0
 11
94.53362567943714
 21
82.69993599999998
 31
0.0
  0
LINE
  5
133
330
1F
100
AcDbEntity
  8
6
  6
CONTINUOUS
 62
     1
100
AcDbLine
 10
95.9335864794366
 20
79.54993599999943
 30
0.0
 11
95.9335864794366
 21
82.69995000000017
 31
0.0
  0
LINE
  5
134
330
1F
100
AcDbEntity
  8
6
  6
CONTINUOUS
 62
     1
100
AcDbLine
 10
95.9335864794366
 20
82.69995000000017
 30
0.0
 11
95.9335864794366
 21
79.8999219999996
 31
0.0
  0
ARC
  5
135
330
1F
100
AcDbEntity
  8
6
  6
CONTINUOUS
 62
     1
100
AcDbCircle
 10
97.33359207943704
 20
79.54993599999943
 30
0.0
 40
1.400000000000006
100
AcDbArc
 50
179.9999999999998
 51
269.9999999999998
  0
LINE
  5
136
330
1F
100
AcDbEntity
  8
6
  6
CONTINUOUS
 62
     1
100
AcDbLine
 10
102.9335878794373
 20
88.29996399999982
 30
0.0
 11
102.9335878794373
 21
82.69995000000017
 31
0.0
  0
LINE
  5
137
330
1F
100
AcDbEntity
  8
6
  6
CONTINUOUS
 62
     1
100
AcDbLine
 10
107.133593479437
 20
85.49995000000035
 30
0.0
 11
107.133593479437
 21
78.1499359999998
 31
0.0
  0
LINE
  5
138
330
1F
100
AcDbEntity
  8
6
  6
CONTINUOUS
 62
     1
100
AcDbLine
 10
105.7335808794378
 20
88.29996399999982
 30
0.0
 11
105.7335808794378
 21
82.69995000000017
 31
0.0
  0
LINE
  5
139
330
1F
100
AcDbEntity
  8
6
  6
CONTINUOUS
 62
     1
100
AcDbLine
 10
97.33359207943704
 20
92.849964
 30
0.0
 11
107.133593479437
 21
92.849964
 31
0.0
  0
LINE
  5
13A
330
1F
100
AcDbEntity
  8
6
  6
CONTINUOUS
 62
     1
100
AcDbLine
 10
94.53362567943714
 20
91.7999920000002
 30
0.0
 11
83.56497081253838
 21
91.7999920000002
 31
0.0
  0
LINE
  5
13B
330
1F
100
AcDbEntity
  8
6
  6
CONTINUOUS
 62
     1
100
AcDbLine
 10
76.60797258963976
 20
89.41995000000043
 30
0.0
 11
70.80005247692861
 21
89.41995000000043
 31
0.0
  0
ARC
  5
13C
330
1F
100
AcDbEntity
  8
6
  6
CONTINUOUS
 62
     1
100
AcDbCircle
 10
83.6349371725255
 20
88.46854473338408
 30
0.0
 40
3.33218189506124
100
AcDbArc
 50
91.20313712916261
 51
128.5407048704872
  0
ARC
  5
13D
330
1F
100
AcDbEntity
  8
6
  6
CONTINUOUS
 62
     1
100
AcDbCircle
 10
76.27576882842186
 20
98.424106187691
 30
0.0
 40
9.01028234803401
100
AcDbArc
 50
272.1129402668354
 51
301.7409359603933
  0
LINE
  5
13E
330
1F
100
AcDbEntity
  8
6
  6
CONTINUOUS
 62
     1
100
AcDbLine
 10
81.55875302988989
 20
91.07486313059508
 30
0.0
 11
81.01589270235127
 21
90.76144257435863
 31
0.0
  0
LINE
  5
13F
330
1F
100
AcDbEntity
  8
6
  6
CONTINUOUS
 62
     1
100
AcDbLine
 10
94.53362567943714
 20
79.19990800000141
 30
0.0
 11
83.56497081253838
 21
79.19990800000141
 31
0.0
  0
LINE
  5
140
330
1F
100
AcDbEntity
  8
6
  6
CONTINUOUS
 62
     1
100
AcDbLine
 10
76.60797258963976
 20
81.57995000000119
 30
0.0
 11
70.80005247692861
 21
81.57995000000119
 31
0.0
  0
ARC
  5
141
330
1F
100
AcDbEntity
  8
6
  6
CONTINUOUS
 62
     1
100
AcDbCircle
 10
83.6349371725255
 20
82.53135526661754
 30
0.0
 40
3.33218189506124
100
AcDbArc
 50
231.4592951295126
 51
268.7968628708368
  0
ARC
  5
142
330
1F
100
AcDbEntity
  8
6
  6
CONTINUOUS
 62
     1
100
AcDbCircle
 10
76.27576882842186
 20
72.57579381231062
 30
0.0
 40
9.01028234803401
100
AcDbArc
 50
58.25906403960627
 51
87.88705973316422
  0
LINE
  5
143
330
1F
100
AcDbEntity
  8
6
  6
CONTINUOUS
 62
     1
100
AcDbLine
 10
81.55875302988989
 20
79.92503686940654
 30
0.0
 11
81.01589270235127
 21
80.23845742564299
 31
0.0
  0
HATCH
  5
144
330
1F
100
AcDbEntity
  8
11
  6
CONTINUOUS
 62
     2
100
AcDbHatch
 10
0.0
 20
0.0
 30
0.0
210
0.0
220
0.0
230
1.0
  2

 70
     0
 71
     0
 91
        4
 92
        0
 93
       40
 72
     1
 10
419.0982976397782
 20
440.4181124999789
 11
269.0982976397781
 21
440.4181124999789
 72
     1
 10
269.0982976397781
 20
440.4181124999789
 11
269.0982976397781
 21
340.4181124999789
 72
     1
 10
269.0982976397781
 20
340.4181124999789
 11
386.5982976397782
 21
340.4181124999789
 72
     1
 10
386.5982976397782
 20
340.4181124999766
 11
386.6292304383678
 21
341.8357425893501
 72
     1
 10
386.6292304383678
 20
341.8357425893501
 11
386.7219699517965
 21
343.2506741392757
 72
     1
 10
386.7219699517965
 20
343.2506741392757
 11
386.8763396451294
 21
344.6602137471286
 72
     1
 10
386.8763396451294
 20
344.6602137471286
 11
387.0920456668815
 21
346.0616782741523
 72
     1
 10
387.0920456668815
 20
346.0616782741523
 11
387.3686774083804
 21
347.4523999529654
 72
     1
 10
387.3686774083804
 20
347.4523999529654
 11
387.7057082853836
 21
348.8297314658091
 72
     1
 10
387.7057082853836
 20
348.8297314658091
 11
388.1024967404609
 21
350.1910509838661
 72
     1
 10
388.1024967404609
 20
350.1910509838661
 11
388.5582874642363
 21
351.5337671580616
 72
     1
 10
388.5582874642363
 20
351.5337671580616
 11
389.0722128331616
 21
352.8553240518429
 72
     1
 10
389.0722128331616
 20
352.8553240518429
 11
389.6432945610873
 21
354.1532060065503
 72
     1
 10
389.6432945610873
 20
354.1532060065503
 11
390.2704455614863
 21
355.4249424301163
 72
     1
 10
390.2704455614863
 20
355.4249424301163
 11
390.9524720167843
 21
356.6681124999778
 72
     1
 10
390.9524720167843
 20
356.6681124999778
 11
391.6880756508598
 21
357.8803497712497
 72
     1
 10
391.6880756508598
 20
357.8803497712497
 11
392.4758562003864
 21
359.059346681387
 72
     1
 10
392.4758562003864
 20
359.059346681387
 11
393.3143140803136
 21
360.2028589427615
 72
     1
 10
393.3143140803136
 20
360.2028589427615
 11
394.201853238412
 21
361.3087098147906
 72
     1
 10
394.201853238412
 20
361.3087098147906
 11
395.1367841934498
 21
362.3747942474872
 72
     1
 10
395.1367841934498
 20
362.3747942474872
 11
396.1173272512162
 21
363.399082888541
 72
     1
 10
396.1173272512162
 20
363.399082888541
 11
397.1416158922701
 21
364.3796259463073
 72
     1
 10
397.1416158922701
 20
364.3796259463073
 11
398.2077003249666
 21
365.3145569013452
 72
     1
 10
398.2077003249666
 20
365.3145569013452
 11
399.3135511969958
 21
366.2020960594436
 72
     1
 10
399.3135511969958
 20
366.2020960594436
 11
400.4570634583703
 21
367.0405539393707
 72
     1
 10
400.4570634583703
 20
367.0405539393707
 11
401.6360603685076
 21
367.8283344888974
 72
     1
 10
401.6360603685076
 20
367.8283344888974
 11
402.8482976397795
 21
368.5639381229729
 72
     1
 10
402.8482976397795
 20
368.5639381229729
 11
404.0914677096409
 21
369.2459645782709
 72
     1
 10
404.0914677096409
 20
369.2459645782709
 11
405.3632041332069
 21
369.8731155786699
 72
     1
 10
405.3632041332069
 20
369.8731155786699
 11
406.6610860879143
 21
370.4441973065956
 72
     1
 10
406.6610860879143
 20
370.4441973065956
 11
407.9826429816956
 21
370.9581226755208
 72
     1
 10
407.9826429816956
 20
370.9581226755208
 11
409.3253591558911
 21
371.4139133992962
 72
     1
 10
409.3253591558911
 20
371.4139133992962
 11
410.6866786739482
 21
371.8107018543736
 72
     1
 10
410.6866786739482
 20
371.8107018543736
 11
412.0640101867918
 21
372.1477327313767
 72
     1
 10
412.0640101867918
 20
372.1477327313767
 11
413.454731865605
 21
372.4243644728757
 72
     1
 10
413.454731865605
 20
372.4243644728757
 11
414.8561963926287
 21
372.6400704946278
 72
     1
 10
414.8561963926287
 20
372.6400704946278
 11
416.2657360004816
 21
372.7944401879606
 72
     1
 10
416.2657360004816
 20
372.7944401879606
 11
417.6806675504072
 21
372.8871797013893
 72
     1
 10
417.6806675504072
 20
372.8871797013893
 11
419.0982976397807
 21
372.9181124999789
 72
     1
 10
419.0982976397782
 20
372.9181124999789
 11
419.0982976397782
 21
440.4181124999789
 97
        0
 92
        0
 93
       40
 72
     1
 10
569.0982976397781
 20
440.4181124999789
 11
419.0982976397782
 21
440.4181124999789
 72
     1
 10
419.0982976397782
 20
440.4181124999789
 11
419.0982976397782
 21
372.9181124999789
 72
     1
 10
419.0982976397792
 20
372.9181124999788
 11
420.5159277291525
 21
372.8871797013892
 72
     1
 10
420.5159277291525
 20
372.8871797013892
 11
421.9308592790779
 21
372.7944401879605
 72
     1
 10
421.9308592790779
 20
372.7944401879605
 11
423.3403988869307
 21
372.6400704946277
 72
     1
 10
423.3403988869307
 20
372.6400704946277
 11
424.7418634139542
 21
372.4243644728756
 72
     1
 10
424.7418634139542
 20
372.4243644728756
 11
426.1325850927673
 21
372.1477327313767
 72
     1
 10
426.1325850927673
 20
372.1477327313767
 11
427.5099166056108
 21
371.8107018543736
 72
     1
 10
427.5099166056108
 20
371.8107018543736
 11
428.8712361236677
 21
371.4139133992962
 72
     1
 10
428.8712361236677
 20
371.4139133992962
 11
430.213952297863
 21
370.9581226755209
 72
     1
 10
430.213952297863
 20
370.9581226755209
 11
431.5355091916442
 21
370.4441973065957
 72
     1
 10
431.5355091916442
 20
370.4441973065957
 11
432.8333911463514
 21
369.87311557867
 72
     1
 10
432.8333911463514
 20
369.87311557867
 11
434.1051275699172
 21
369.2459645782711
 72
     1
 10
434.1051275699172
 20
369.2459645782711
 11
435.3482976397786
 21
368.5639381229732
 72
     1
 10
435.3482976397786
 20
368.5639381229732
 11
436.5605349110504
 21
367.8283344888977
 72
     1
 10
436.5605349110504
 20
367.8283344888977
 11
437.7395318211875
 21
367.0405539393712
 72
     1
 10
437.7395318211875
 20
367.0405539393712
 11
438.8830440825619
 21
366.2020960594442
 72
     1
 10
438.8830440825619
 20
366.2020960594442
 11
439.9888949545909
 21
365.3145569013458
 72
     1
 10
439.9888949545909
 20
365.3145569013458
 11
441.0549793872873
 21
364.3796259463081
 72
     1
 10
441.0549793872873
 20
364.3796259463081
 11
442.0792680283412
 21
363.3990828885419
 72
     1
 10
442.0792680283412
 20
363.3990828885419
 11
443.0598110861073
 21
362.3747942474881
 72
     1
 10
443.0598110861073
 20
362.3747942474881
 11
443.9947420411451
 21
361.3087098147917
 72
     1
 10
443.9947420411451
 20
361.3087098147917
 11
444.8822811992434
 21
360.2028589427626
 72
     1
 10
444.8822811992434
 20
360.2028589427626
 11
445.7207390791705
 21
359.0593466813883
 72
     1
 10
445.7207390791705
 20
359.0593466813883
 11
446.508519628697
 21
357.8803497712511
 72
     1
 10
446.508519628697
 20
357.8803497712511
 11
447.2441232627724
 21
356.6681124999793
 72
     1
 10
447.2441232627724
 20
356.6681124999793
 11
447.9261497180703
 21
355.424942430118
 72
     1
 10
447.9261497180703
 20
355.424942430118
 11
448.5533007184692
 21
354.1532060065521
 72
     1
 10
448.5533007184692
 20
354.1532060065521
 11
449.1243824463949
 21
352.8553240518449
 72
     1
 10
449.1243824463949
 20
352.8553240518449
 11
449.6383078153201
 21
351.5337671580637
 72
     1
 10
449.6383078153201
 20
351.5337671580637
 11
450.0940985390955
 21
350.1910509838684
 72
     1
 10
450.0940985390955
 20
350.1910509838684
 11
450.4908869941728
 21
348.8297314658115
 72
     1
 10
450.4908869941728
 20
348.8297314658115
 11
450.8279178711759
 21
347.452399952968
 72
     1
 10
450.8279178711759
 20
347.452399952968
 11
451.1045496126748
 21
346.0616782741549
 72
     1
 10
451.1045496126748
 20
346.0616782741549
 11
451.3202556344269
 21
344.6602137471314
 72
     1
 10
451.3202556344269
 20
344.6602137471314
 11
451.4746253277598
 21
343.2506741392787
 72
     1
 10
451.4746253277598
 20
343.2506741392787
 11
451.5673648411884
 21
341.8357425893532
 72
     1
 10
451.5673648411884
 20
341.8357425893532
 11
451.598297639778
 21
340.4181124999799
 72
     1
 10
451.5982976397782
 20
340.4181124999789
 11
569.0982976397781
 21
340.4181124999789
 72
     1
 10
569.0982976397781
 20
340.4181124999789
 11
569.0982976397781
 21
440.4181124999789
 97
        0
 92
        0
 93
       40
 72
     1
 10
569.0982976397781
 20
340.4181124999789
 11
451.5982976397782
 21
340.4181124999789
 72
     1
 10
451.5982976397782
 20
340.4181124999764
 11
451.5673648411886
 21
339.000482410603
 72
     1
 10
451.5673648411886
 20
339.000482410603
 11
451.4746253277599
 21
337.5855508606776
 72
     1
 10
451.4746253277599
 20
337.5855508606776
 11
451.320255634427
 21
336.1760112528249
 72
     1
 10
451.320255634427
 20
336.1760112528249
 11
451.1045496126749
 21
334.7745467258015
 72
     1
 10
451.1045496126749
 20
334.7745467258015
 11
450.8279178711761
 21
333.3838250469884
 72
     1
 10
450.8279178711761
 20
333.3838250469884
 11
450.4908869941729
 21
332.006493534145
 72
     1
 10
450.4908869941729
 20
332.006493534145
 11
450.0940985390956
 21
330.645174016088
 72
     1
 10
450.0940985390956
 20
330.645174016088
 11
449.6383078153203
 21
329.3024578418928
 72
     1
 10
449.6383078153203
 20
329.3024578418928
 11
449.1243824463951
 21
327.9809009481117
 72
     1
 10
449.1243824463951
 20
327.9809009481117
 11
448.5533007184694
 21
326.6830189934045
 72
     1
 10
448.5533007184694
 20
326.6830189934045
 11
447.9261497180705
 21
325.4112825698386
 72
     1
 10
447.9261497180705
 20
325.4112825698386
 11
447.2441232627726
 21
324.1681124999773
 72
     1
 10
447.2441232627726
 20
324.1681124999773
 11
446.5085196286972
 21
322.9558752287056
 72
     1
 10
446.5085196286972
 20
322.9558752287056
 11
445.7207390791706
 21
321.7768783185685
 72
     1
 10
445.7207390791706
 20
321.7768783185685
 11
444.8822811992436
 21
320.6333660571941
 72
     1
 10
444.8822811992436
 20
320.6333660571941
 11
443.9947420411453
 21
319.5275151851651
 72
     1
 10
443.9947420411453
 20
319.5275151851651
 11
443.0598110861076
 21
318.4614307524687
 72
     1
 10
443.0598110861076
 20
318.4614307524687
 11
442.0792680283414
 21
317.437142111415
 72
     1
 10
442.0792680283414
 20
317.437142111415
 11
441.0549793872876
 21
316.4565990536488
 72
     1
 10
441.0549793872876
 20
316.4565990536488
 11
439.9888949545912
 21
315.5216680986111
 72
     1
 10
439.9888949545912
 20
315.5216680986111
 11
438.8830440825622
 21
314.6341289405128
 72
     1
 10
438.8830440825622
 20
314.6341289405128
 11
437.7395318211878
 21
313.7956710605857
 72
     1
 10
437.7395318211878
 20
313.7956710605857
 11
436.5605349110507
 21
313.0078905110593
 72
     1
 10
436.5605349110507
 20
313.0078905110593
 11
435.3482976397789
 21
312.2722868769838
 72
     1
 10
435.3482976397789
 20
312.2722868769838
 11
434.1051275699176
 21
311.5902604216859
 72
     1
 10
434.1051275699176
 20
311.5902604216859
 11
432.8333911463518
 21
310.963109421287
 72
     1
 10
432.8333911463518
 20
310.963109421287
 11
431.5355091916446
 21
310.3920276933614
 72
     1
 10
431.5355091916446
 20
310.3920276933614
 11
430.2139522978634
 21
309.8781023244362
 72
     1
 10
430.2139522978634
 20
309.8781023244362
 11
428.8712361236682
 21
309.4223116006609
 72
     1
 10
428.8712361236682
 20
309.4223116006609
 11
427.5099166056113
 21
309.0255231455836
 72
     1
 10
427.5099166056113
 20
309.0255231455836
 11
426.1325850927678
 21
308.6884922685805
 72
     1
 10
426.1325850927678
 20
308.6884922685805
 11
424.7418634139548
 21
308.4118605270816
 72
     1
 10
424.7418634139548
 20
308.4118605270816
 11
423.3403988869313
 21
308.1961545053296
 72
     1
 10
423.3403988869313
 20
308.1961545053296
 11
421.9308592790786
 21
308.0417848119966
 72
     1
 10
421.9308592790786
 20
308.0417848119966
 11
420.5159277291532
 21
307.949045298568
 72
     1
 10
420.5159277291532
 20
307.949045298568
 11
419.0982976397798
 21
307.9181124999784
 72
     1
 10
419.0982976397782
 20
307.9181124999789
 11
419.0982976397782
 21
240.4181124999789
 72
     1
 10
419.0982976397782
 20
240.4181124999789
 11
569.0982976397781
 21
240.4181124999789
 72
     1
 10
569.0982976397781
 20
240.4181124999789
 11
569.0982976397781
 21
340.4181124999789
 97
        0
 92
        0
 93
       40
 72
     1
 10
386.5982976397782
 20
340.4181124999812
 11
386.6292304383678
 21
339.0004824106077
 72
     1
 10
386.6292304383678
 20
339.0004824106077
 11
386.7219699517965
 21
337.5855508606821
 72
     1
 10
386.7219699517965
 20
337.5855508606821
 11
386.8763396451293
 21
336.1760112528293
 72
     1
 10
386.8763396451293
 20
336.1760112528293
 11
387.0920456668815
 21
334.7745467258056
 72
     1
 10
387.0920456668815
 20
334.7745467258056
 11
387.3686774083804
 21
333.3838250469924
 72
     1
 10
387.3686774083804
 20
333.3838250469924
 11
387.7057082853835
 21
332.0064935341487
 72
     1
 10
387.7057082853835
 20
332.0064935341487
 11
388.1024967404609
 21
330.6451740160917
 72
     1
 10
388.1024967404609
 20
330.6451740160917
 11
388.5582874642363
 21
329.3024578418962
 72
     1
 10
388.5582874642363
 20
329.3024578418962
 11
389.0722128331615
 21
327.9809009481149
 72
     1
 10
389.0722128331615
 20
327.9809009481149
 11
389.6432945610873
 21
326.6830189934075
 72
     1
 10
389.6432945610873
 20
326.6830189934075
 11
390.2704455614862
 21
325.4112825698416
 72
     1
 10
390.2704455614862
 20
325.4112825698416
 11
390.9524720167842
 21
324.1681124999801
 72
     1
 10
390.9524720167842
 20
324.1681124999801
 11
391.6880756508597
 21
322.9558752287082
 72
     1
 10
391.6880756508597
 20
322.9558752287082
 11
392.4758562003863
 21
321.7768783185709
 72
     1
 10
392.4758562003863
 20
321.7768783185709
 11
393.3143140803135
 21
320.6333660571964
 72
     1
 10
393.3143140803135
 20
320.6333660571964
 11
394.2018532384118
 21
319.5275151851673
 72
     1
 10
394.2018532384118
 20
319.5275151851673
 11
395.1367841934497
 21
318.4614307524707
 72
     1
 10
395.1367841934497
 20
318.4614307524707
 11
396.117327251216
 21
317.4371421114168
 72
     1
 10
396.117327251216
 20
317.4371421114168
 11
397.1416158922699
 21
316.4565990536505
 72
     1
 10
397.1416158922699
 20
316.4565990536505
 11
398.2077003249664
 21
315.5216680986127
 72
     1
 10
398.2077003249664
 20
315.5216680986127
 11
399.3135511969955
 21
314.6341289405142
 72
     1
 10
399.3135511969955
 20
314.6341289405142
 11
400.45706345837
 21
313.7956710605871
 72
     1
 10
400.45706345837
 20
313.7956710605871
 11
401.6360603685073
 21
313.0078905110605
 72
     1
 10
401.6360603685073
 20
313.0078905110605
 11
402.8482976397792
 21
312.272286876985
 72
     1
 10
402.8482976397792
 20
312.272286876985
 11
404.0914677096407
 21
311.590260421687
 72
     1
 10
404.0914677096407
 20
311.590260421687
 11
405.3632041332066
 21
310.963109421288
 72
     1
 10
405.3632041332066
 20
310.963109421288
 11
406.661086087914
 21
310.3920276933623
 72
     1
 10
406.661086087914
 20
310.3920276933623
 11
407.9826429816953
 21
309.878102324437
 72
     1
 10
407.9826429816953
 20
309.878102324437
 11
409.3253591558908
 21
309.4223116006617
 72
     1
 10
409.3253591558908
 20
309.4223116006617
 11
410.6866786739478
 21
309.0255231455843
 72
     1
 10
410.6866786739478
 20
309.0255231455843
 11
412.0640101867915
 21
308.6884922685811
 72
     1
 10
412.0640101867915
 20
308.6884922685811
 11
413.4547318656047
 21
308.4118605270822
 72
     1
 10
413.4547318656047
 20
308.4118605270822
 11
414.8561963926284
 21
308.1961545053301
 72
     1
 10
414.8561963926284
 20
308.1961545053301
 11
416.2657360004812
 21
308.0417848119972
 72
     1
 10
416.2657360004812
 20
308.0417848119972
 11
417.6806675504068
 21
307.9490452985685
 72
     1
 10
417.6806675504068
 20
307.9490452985685
 11
419.0982976397803
 21
307.9181124999789
 72
     1
 10
419.0982976397782
 20
307.9181124999789
 11
419.0982976397782
 21
240.4181124999789
 72
     1
 10
419.0982976397782
 20
240.4181124999789
 11
269.0982976397781
 21
240.4181124999789
 72
     1
 10
269.0982976397781
 20
240.4181124999789
 11
269.0982976397781
 21
340.4181124999789
 72
     1
 10
269.0982976397781
 20
340.4181124999789
 11
386.5982976397782
 21
340.4181124999789
 97
        0
 75
     0
 76
     2
 52
0.0
 41
0.5
 77
     0
 78
     2
 53
45.0
 43
-5877.90957401352
 44
4479.076246349501
 45
-6.735192090802229
 46
6.735192090802229
 79
     0
 53
135.0
 43
-5877.90957401352
 44
4479.076246349501
 45
-6.735192090802229
 46
-6.735192090802229
 79
     0
 98
        0
  0
LINE
  5
145
330
1F
100
AcDbEntity
  8
10
  6
CONTINUOUS
 62
     7
100
AcDbLine
 10
569.0982976397781
 20
240.4181124999789
 30
0.0
 11
569.0982976397781
 21
440.4181124999789
 31
0.0
  0
LINE
  5
146
330
1F
100
AcDbEntity
  8
10
  6
CONTINUOUS
 62
     7
100
AcDbLine
 10
569.0982976397781
 20
440.4181124999789
 30
0.0
 11
269.0982976397781
 21
440.4181124999789
 31
0.0
  0
LINE
  5
147
330
1F
100
AcDbEntity
  8
10
  6
CONTINUOUS
 62
     7
100
AcDbLine
 10
269.0982976397781
 20
440.4181124999789
 30
0.0
 11
269.0982976397781
 21
240.4181124999789
 31
0.0
  0
LINE
  5
148
330
1F
100
AcDbEntity
  8
4
  6
DASHDOT
 62
     1
100
AcDbLine
 10
419.0982976397782
 20
480.4181124999789
 30
0.0
 11
419.0982976397782
 21
200.4181124999789
 31
0.0
  0
LINE
  5
149
330
1F
100
AcDbEntity
  8
10
  6
CONTINUOUS
 62
     7
100
AcDbLine
 10
269.0982976397781
 20
240.4181124999789
 30
0.0
 11
569.0982976397781
 21
240.4181124999789
 31
0.0
  0
LINE
  5
14A
330
1F
100
AcDbEntity
  8
10
  6
CONTINUOUS
 62
     7
100
AcDbLine
 10
584.0982976397781
 20
455.4181124999789
 30
0.0
 11
584.0982976397781
 21
225.4181124999789
 31
0.0
  0
LINE
  5
14B
330
1F
100
AcDbEntity
  8
10
  6
CONTINUOUS
 62
     7
100
AcDbLine
 10
584.0982976397781
 20
225.4181124999789
 30
0.0
 11
254.0982976397781
 21
225.4181124999771
 31
0.0
  0
LINE
  5
14C
330
1F
100
AcDbEntity
  8
10
  6
CONTINUOUS
 62
     7
100
AcDbLine
 10
584.0982976397781
 20
455.4181124999789
 30
0.0
 11
254.0982976397781
 21
455.4181124999789
 31
0.0
  0
LINE
  5
14D
330
1F
100
AcDbEntity
  8
10
  6
CONTINUOUS
 62
     7
100
AcDbLine
 10
254.0982976397781
 20
455.4181124999789
 30
0.0
 11
254.0982976397781
 21
225.4181124999789
 31
0.0
  0
LINE
  5
14E
330
1F
100
AcDbEntity
  8
10
  6
CONTINUOUS
 62
     7
100
AcDbLine
 10
744.1166024970671
 20
225.1014458333132
 30
0.0
 11
737.2166024970666
 21
225.1014458333132
 31
0.0
  0
ARC
  5
14F
330
1F
100
AcDbEntity
  8
10
  6
CONTINUOUS
 62
     7
100
AcDbCircle
 10
740.6666024970673
 20
228.0684633771719
 30
0.0
 40
4.550350877192955
100
AcDbArc
 50
220.6956985253369
 51
319.3043014746624
  0
LINE
  5
150
330
1F
100
AcDbEntity
  8
10
  6
CONTINUOUS
 62
     7
100
AcDbLine
 10
744.1166024970671
 20
225.4181124999789
 30
0.0
 11
744.1166024970671
 21
225.1014458333132
 31
0.0
  0
LINE
  5
151
330
1F
100
AcDbEntity
  8
10
  6
CONTINUOUS
 62
     7
100
AcDbLine
 10
737.2166024970666
 20
225.4181124999789
 30
0.0
 11
737.2166024970666
 21
225.1014458333132
 31
0.0
  0
LINE
  5
152
330
1F
100
AcDbEntity
  8
10
  6
CONTINUOUS
 62
     7
100
AcDbLine
 10
705.6666024970673
 20
455.4181124999789
 30
0.0
 11
705.6666024970673
 21
225.4181124999789
 31
0.0
  0
LINE
  5
153
330
1F
100
AcDbEntity
  8
10
  6
CONTINUOUS
 62
     7
100
AcDbLine
 10
750.6666024970673
 20
470.4181124999789
 30
0.0
 11
750.6666024970673
 21
210.4181124999789
 31
0.0
  0
LINE
  5
154
330
1F
100
AcDbEntity
  8
10
  6
CONTINUOUS
 62
     7
100
AcDbLine
 10
749.6666024970673
 20
470.4181124999789
 30
0.0
 11
749.6666024970664
 21
347.9181124999789
 31
0.0
  0
LINE
  5
155
330
1F
100
AcDbEntity
  8
10
  6
CONTINUOUS
 62
     7
100
AcDbLine
 10
705.6666024970673
 20
455.4181124999789
 30
0.0
 11
749.6666024970673
 21
455.418112499977
 31
0.0
  0
LINE
  5
156
330
1F
100
AcDbEntity
  8
10
  6
CONTINUOUS
 62
     7
100
AcDbLine
 10
749.6666024970673
 20
454.418112499977
 30
0.0
 11
750.6666024970673
 21
454.418112499977
 31
0.0
  0
LINE
  5
157
330
1F
100
AcDbEntity
  8
10
  6
CONTINUOUS
 62
     7
100
AcDbLine
 10
749.6666024970673
 20
470.4181124999789
 30
0.0
 11
750.6666024970673
 21
470.4181124999789
 31
0.0
  0
LINE
  5
158
330
1F
100
AcDbEntity
  8
10
  6
CONTINUOUS
 62
     7
100
AcDbLine
 10
705.6666024970673
 20
225.4181124999789
 30
0.0
 11
749.6666024970655
 21
225.4181124999789
 31
0.0
  0
LINE
  5
159
330
1F
100
AcDbEntity
  8
10
  6
CONTINUOUS
 62
     7
100
AcDbLine
 10
749.6666024970655
 20
226.4181124999789
 30
0.0
 11
750.6666024970673
 21
226.4181124999789
 31
0.0
  0
LINE
  5
15A
330
1F
100
AcDbEntity
  8
10
  6
CONTINUOUS
 62
     7
100
AcDbLine
 10
749.6666024970673
 20
210.4181124999789
 30
0.0
 11
750.6666024970673
 21
210.4181124999789
 31
0.0
  0
LINE
  5
15B
330
1F
100
AcDbEntity
  8
10
  6
CONTINUOUS
 62
     7
100
AcDbLine
 10
569.0982976397781
 20
215.4181124999789
 30
0.0
 11
569.0982976397781
 21
225.4181124999789
 31
0.0
  0
ARC
  5
15C
330
1F
100
AcDbEntity
  8
10
  6
CONTINUOUS
 62
     7
100
AcDbCircle
 10
564.098297639779
 20
215.4181124999789
 30
0.0
 40
5.0
100
AcDbArc
 50
269.9999999999998
 51
0.0
  0
LINE
  5
15D
330
1F
100
AcDbEntity
  8
10
  6
CONTINUOUS
 62
     7
100
AcDbLine
 10
274.0982976397773
 20
210.4181124999789
 30
0.0
 11
564.098297639779
 21
210.4181124999789
 31
0.0
  0
LINE
  5
15E
330
1F
100
AcDbEntity
  8
10
  6
CONTINUOUS
 62
     7
100
AcDbLine
 10
269.0982976397781
 20
215.4181124999789
 30
0.0
 11
269.0982976397781
 21
225.4181124999789
 31
0.0
  0
ARC
  5
15F
330
1F
100
AcDbEntity
  8
10
  6
CONTINUOUS
 62
     7
100
AcDbCircle
 10
274.0982976397773
 20
215.4181124999789
 30
0.0
 40
5.0
100
AcDbArc
 50
179.9999999999998
 51
269.9999999999998
  0
LINE
  5
160
330
1F
100
AcDbEntity
  8
10
  6
CONTINUOUS
 62
     7
100
AcDbLine
 10
569.0982976397781
 20
465.4181124999789
 30
0.0
 11
569.0982976397781
 21
455.4181124999789
 31
0.0
  0
ARC
  5
161
330
1F
100
AcDbEntity
  8
10
  6
CONTINUOUS
 62
     7
100
AcDbCircle
 10
564.098297639779
 20
465.4181124999789
 30
0.0
 40
5.0
100
AcDbArc
 50
0.0
 51
89.99999999999991
  0
LINE
  5
162
330
1F
100
AcDbEntity
  8
10
  6
CONTINUOUS
 62
     7
100
AcDbLine
 10
274.0982976397781
 20
470.4181124999789
 30
0.0
 11
564.098297639779
 21
470.4181124999789
 31
0.0
  0
LINE
  5
163
330
1F
100
AcDbEntity
  8
10
  6
CONTINUOUS
 62
     7
100
AcDbLine
 10
269.0982976397781
 20
465.4181124999789
 30
0.0
 11
269.0982976397781
 21
455.4181124999789
 31
0.0
  0
ARC
  5
164
330
1F
100
AcDbEntity
  8
10
  6
CONTINUOUS
 62
     7
100
AcDbCircle
 10
274.0982976397773
 20
465.4181124999789
 30
0.0
 40
5.0
100
AcDbArc
 50
89.99999999999991
 51
179.9999999999998
  0
LINE
  5
165
330
1F
100
AcDbEntity
  8
10
  6
CONTINUOUS
 62
     7
100
AcDbLine
 10
267.5482976397798
 20
225.1014458333132
 30
0.0
 11
260.6482976397801
 21
225.1014458333132
 31
0.0
  0
ARC
  5
166
330
1F
100
AcDbEntity
  8
10
  6
CONTINUOUS
 62
     7
100
AcDbCircle
 10
264.09829763978
 20
228.0684633771719
 30
0.0
 40
4.550350877192983
100
AcDbArc
 50
220.6956985253369
 51
319.3043014746624
  0
LINE
  5
167
330
1F
100
AcDbEntity
  8
10
  6
CONTINUOUS
 62
     7
100
AcDbLine
 10
267.5482976397798
 20
225.4181124999789
 30
0.0
 11
267.5482976397798
 21
225.1014458333132
 31
0.0
  0
LINE
  5
168
330
1F
100
AcDbEntity
  8
10
  6
CONTINUOUS
 62
     7
100
AcDbLine
 10
260.6482976397801
 20
225.4181124999789
 30
0.0
 11
260.6482976397801
 21
225.1014458333132
 31
0.0
  0
LINE
  5
169
330
1F
100
AcDbEntity
  8
10
  6
CONTINUOUS
 62
     7
100
AcDbLine
 10
289.0482976397798
 20
225.1014458333132
 30
0.0
 11
282.1482976397793
 21
225.1014458333132
 31
0.0
  0
ARC
  5
16A
330
1F
100
AcDbEntity
  8
10
  6
CONTINUOUS
 62
     7
100
AcDbCircle
 10
285.59829763978
 20
228.0684633771719
 30
0.0
 40
4.550350877192983
100
AcDbArc
 50
220.6956985253369
 51
319.3043014746624
  0
LINE
  5
16B
330
1F
100
AcDbEntity
  8
10
  6
CONTINUOUS
 62
     7
100
AcDbLine
 10
289.0482976397798
 20
225.4181124999789
 30
0.0
 11
289.0482976397798
 21
225.1014458333132
 31
0.0
  0
LINE
  5
16C
330
1F
100
AcDbEntity
  8
10
  6
CONTINUOUS
 62
     7
100
AcDbLine
 10
282.1482976397793
 20
225.4181124999789
 30
0.0
 11
282.1482976397793
 21
225.1014458333132
 31
0.0
  0
LINE
  5
16D
330
1F
100
AcDbEntity
  8
10
  6
CONTINUOUS
 62
     7
100
AcDbLine
 10
267.5482976397798
 20
455.7347791666464
 30
0.0
 11
260.6482976397801
 21
455.7347791666464
 31
0.0
  0
ARC
  5
16E
330
1F
100
AcDbEntity
  8
10
  6
CONTINUOUS
 62
     7
100
AcDbCircle
 10
264.09829763978
 20
452.767761622786
 30
0.0
 40
4.550350877192983
100
AcDbArc
 50
40.6956985253525
 51
139.3043014746466
  0
LINE
  5
16F
330
1F
100
AcDbEntity
  8
10
  6
CONTINUOUS
 62
     7
100
AcDbLine
 10
267.5482976397798
 20
455.4181124999789
 30
0.0
 11
267.5482976397798
 21
455.7347791666464
 31
0.0
  0
LINE
  5
170
330
1F
100
AcDbEntity
  8
10
  6
CONTINUOUS
 62
     7
100
AcDbLine
 10
260.6482976397801
 20
455.4181124999789
 30
0.0
 11
260.6482976397801
 21
455.7347791666464
 31
0.0
  0
LINE
  5
171
330
1F
100
AcDbEntity
  8
10
  6
CONTINUOUS
 62
     7
100
AcDbLine
 10
289.0482976397798
 20
455.7347791666464
 30
0.0
 11
282.1482976397793
 21
455.7347791666464
 31
0.0
  0
ARC
  5
172
330
1F
100
AcDbEntity
  8
10
  6
CONTINUOUS
 62
     7
100
AcDbCircle
 10
285.59829763978
 20
452.767761622786
 30
0.0
 40
4.550350877192983
100
AcDbArc
 50
40.6956985253525
 51
139.3043014746466
  0
LINE
  5
173
330
1F
100
AcDbEntity
  8
10
  6
CONTINUOUS
 62
     7
100
AcDbLine
 10
289.0482976397798
 20
455.4181124999789
 30
0.0
 11
289.0482976397798
 21
455.7347791666464
 31
0.0
  0
LINE
  5
174
330
1F
100
AcDbEntity
  8
10
  6
CONTINUOUS
 62
     7
100
AcDbLine
 10
282.1482976397793
 20
455.4181124999789
 30
0.0
 11
282.1482976397793
 21
455.7347791666464
 31
0.0
  0
LINE
  5
175
330
1F
100
AcDbEntity
  8
10
  6
CONTINUOUS
 62
     7
100
AcDbLine
 10
570.6482976397765
 20
455.7347791666446
 30
0.0
 11
577.548297639777
 21
455.7347791666446
 31
0.0
  0
ARC
  5
176
330
1F
100
AcDbEntity
  8
10
  6
CONTINUOUS
 62
     7
100
AcDbCircle
 10
574.0982976397763
 20
452.767761622786
 30
0.0
 40
4.550350877192955
100
AcDbArc
 50
40.6956985253525
 51
139.3043014746475
  0
LINE
  5
177
330
1F
100
AcDbEntity
  8
10
  6
CONTINUOUS
 62
     7
100
AcDbLine
 10
570.6482976397765
 20
455.4181124999789
 30
0.0
 11
570.6482976397765
 21
455.7347791666446
 31
0.0
  0
LINE
  5
178
330
1F
100
AcDbEntity
  8
10
  6
CONTINUOUS
 62
     7
100
AcDbLine
 10
577.548297639777
 20
455.4181124999789
 30
0.0
 11
577.548297639777
 21
455.7347791666446
 31
0.0
  0
LINE
  5
179
330
1F
100
AcDbEntity
  8
10
  6
CONTINUOUS
 62
     7
100
AcDbLine
 10
549.1482976397774
 20
455.7347791666446
 30
0.0
 11
556.048297639777
 21
455.7347791666446
 31
0.0
  0
ARC
  5
17A
330
1F
100
AcDbEntity
  8
10
  6
CONTINUOUS
 62
     7
100
AcDbCircle
 10
552.5982976397772
 20
452.767761622786
 30
0.0
 40
4.550350877193011
100
AcDbArc
 50
40.6956985253525
 51
139.3043014746466
  0
LINE
  5
17B
330
1F
100
AcDbEntity
  8
10
  6
CONTINUOUS
 62
     7
100
AcDbLine
 10
549.1482976397774
 20
455.4181124999789
 30
0.0
 11
549.1482976397774
 21
455.7347791666446
 31
0.0
  0
LINE
  5
17C
330
1F
100
AcDbEntity
  8
10
  6
CONTINUOUS
 62
     7
100
AcDbLine
 10
556.048297639777
 20
455.4181124999789
 30
0.0
 11
556.048297639777
 21
455.7347791666446
 31
0.0
  0
LINE
  5
17D
330
1F
100
AcDbEntity
  8
10
  6
CONTINUOUS
 62
     7
100
AcDbLine
 10
570.6482976397765
 20
225.1014458333132
 30
0.0
 11
577.548297639777
 21
225.1014458333132
 31
0.0
  0
ARC
  5
17E
330
1F
100
AcDbEntity
  8
10
  6
CONTINUOUS
 62
     7
100
AcDbCircle
 10
574.0982976397763
 20
228.0684633771719
 30
0.0
 40
4.550350877192955
100
AcDbArc
 50
220.6956985253369
 51
319.3043014746624
  0
LINE
  5
17F
330
1F
100
AcDbEntity
  8
10
  6
CONTINUOUS
 62
     7
100
AcDbLine
 10
570.6482976397765
 20
225.4181124999789
 30
0.0
 11
570.6482976397765
 21
225.1014458333132
 31
0.0
  0
LINE
  5
180
330
1F
100
AcDbEntity
  8
10
  6
CONTINUOUS
 62
     7
100
AcDbLine
 10
577.548297639777
 20
225.4181124999789
 30
0.0
 11
577.548297639777
 21
225.1014458333132
 31
0.0
  0
LINE
  5
181
330
1F
100
AcDbEntity
  8
10
  6
CONTINUOUS
 62
     7
100
AcDbLine
 10
549.1482976397774
 20
225.1014458333132
 30
0.0
 11
556.048297639777
 21
225.1014458333132
 31
0.0
  0
ARC
  5
182
330
1F
100
AcDbEntity
  8
10
  6
CONTINUOUS
 62
     7
100
AcDbCircle
 10
552.5982976397772
 20
228.0684633771719
 30
0.0
 40
4.550350877193011
100
AcDbArc
 50
220.6956985253369
 51
319.3043014746624
  0
LINE
  5
183
330
1F
100
AcDbEntity
  8
10
  6
CONTINUOUS
 62
     7
100
AcDbLine
 10
549.1482976397774
 20
225.4181124999789
 30
0.0
 11
549.1482976397774
 21
225.1014458333132
 31
0.0
  0
LINE
  5
184
330
1F
100
AcDbEntity
  8
10
  6
CONTINUOUS
 62
     7
100
AcDbLine
 10
556.048297639777
 20
225.4181124999789
 30
0.0
 11
556.048297639777
 21
225.1014458333132
 31
0.0
  0
LINE
  5
185
330
1F
100
AcDbEntity
  8
10
  6
CONTINUOUS
 62
     7
100
AcDbLine
 10
253.7816309731106
 20
343.8681124999778
 30
0.0
 11
253.7816309731106
 21
336.9681124999781
 31
0.0
  0
ARC
  5
186
330
1F
100
AcDbEntity
  8
10
  6
CONTINUOUS
 62
     7
100
AcDbCircle
 10
256.7486485169711
 20
340.4181124999789
 30
0.0
 40
4.550350877192983
100
AcDbArc
 50
130.6956985253626
 51
229.304301474638
  0
LINE
  5
187
330
1F
100
AcDbEntity
  8
10
  6
CONTINUOUS
 62
     7
100
AcDbLine
 10
254.0982976397781
 20
343.8681124999778
 30
0.0
 11
253.7816309731106
 21
343.8681124999778
 31
0.0
  0
LINE
  5
188
330
1F
100
AcDbEntity
  8
10
  6
CONTINUOUS
 62
     7
100
AcDbLine
 10
254.0982976397781
 20
336.9681124999781
 30
0.0
 11
253.7816309731106
 21
336.9681124999781
 31
0.0
  0
LINE
  5
189
330
1F
100
AcDbEntity
  8
4
  6
DASHDOT
 62
     1
100
AcDbLine
 10
594.0982976397781
 20
340.4181124999789
 30
0.0
 11
244.0982976397781
 21
340.4181124999789
 31
0.0
  0
LINE
  5
18A
330
1F
100
AcDbEntity
  8
4
  6
DASHDOT
 62
     1
100
AcDbLine
 10
287.4982976397778
 20
217.4181124999789
 30
0.0
 11
300.6982976397785
 21
217.4181124999789
 31
0.0
  0
LINE
  5
18B
330
1F
100
AcDbEntity
  8
4
  6
DASHDOT
 62
     1
100
AcDbLine
 10
294.0982976397781
 20
224.0181124999793
 30
0.0
 11
294.0982976397781
 21
210.8181124999786
 31
0.0
  0
LINE
  5
18C
330
1F
100
AcDbEntity
  8
4
  6
DASHDOT
 62
     1
100
AcDbLine
 10
537.4982976397778
 20
217.4181124999789
 30
0.0
 11
550.6982976397785
 21
217.4181124999789
 31
0.0
  0
LINE
  5
18D
330
1F
100
AcDbEntity
  8
4
  6
DASHDOT
 62
     1
100
AcDbLine
 10
544.0982976397781
 20
224.0181124999793
 30
0.0
 11
544.0982976397781
 21
210.8181124999786
 31
0.0
  0
LINE
  5
18E
330
1F
100
AcDbEntity
  8
4
  6
DASHDOT
 62
     1
100
AcDbLine
 10
695.6666024970673
 20
340.4181124999789
 30
0.0
 11
760.6666024970673
 21
340.4181124999789
 31
0.0
  0
LINE
  5
18F
330
1F
100
AcDbEntity
  8
4
  6
DASHDOT
 62
     1
100
AcDbLine
 10
747.6666024970655
 20
217.4181124999789
 30
0.0
 11
752.6666024970673
 21
217.4181124999789
 31
0.0
  0
LINE
  5
190
330
1F
100
AcDbEntity
  8
4
  6
DASHDOT
 62
     1
100
AcDbLine
 10
747.6666024970655
 20
463.4181124999789
 30
0.0
 11
752.6666024970673
 21
463.4181124999789
 31
0.0
  0
LINE
  5
191
330
1F
100
AcDbEntity
  8
10
  6
CONTINUOUS
 62
     7
100
AcDbLine
 10
422.5482976397798
 20
225.1014458333114
 30
0.0
 11
415.6482976397793
 21
225.1014458333114
 31
0.0
  0
ARC
  5
192
330
1F
100
AcDbEntity
  8
10
  6
CONTINUOUS
 62
     7
100
AcDbCircle
 10
419.09829763978
 20
228.0684633771719
 30
0.0
 40
4.550350877192955
100
AcDbArc
 50
220.6956985253369
 51
319.3043014746624
  0
LINE
  5
193
330
1F
100
AcDbEntity
  8
10
  6
CONTINUOUS
 62
     7
100
AcDbLine
 10
422.5482976397798
 20
225.4181124999789
 30
0.0
 11
422.5482976397798
 21
225.1014458333114
 31
0.0
  0
LINE
  5
194
330
1F
100
AcDbEntity
  8
10
  6
CONTINUOUS
 62
     7
100
AcDbLine
 10
415.6482976397793
 20
225.4181124999789
 30
0.0
 11
415.6482976397793
 21
225.1014458333114
 31
0.0
  0
LINE
  5
195
330
1F
100
AcDbEntity
  8
4
  6
DASHDOT
 62
     1
100
AcDbLine
 10
488.1982976397776
 20
217.4181124999789
 30
0.0
 11
474.9982976397778
 21
217.4181124999789
 31
0.0
  0
LINE
  5
196
330
1F
100
AcDbEntity
  8
4
  6
DASHDOT
 62
     1
100
AcDbLine
 10
481.5982976397782
 20
224.0181124999793
 30
0.0
 11
481.5982976397782
 21
210.8181124999786
 31
0.0
  0
LINE
  5
197
330
1F
100
AcDbEntity
  8
4
  6
DASHDOT
 62
     1
100
AcDbLine
 10
287.4982976397778
 20
463.4181124999789
 30
0.0
 11
300.6982976397785
 21
463.4181124999789
 31
0.0
  0
LINE
  5
198
330
1F
100
AcDbEntity
  8
4
  6
DASHDOT
 62
     1
100
AcDbLine
 10
294.0982976397781
 20
456.8181124999786
 30
0.0
 11
294.0982976397781
 21
470.0181124999792
 31
0.0
  0
LINE
  5
199
330
1F
100
AcDbEntity
  8
4
  6
DASHDOT
 62
     1
100
AcDbLine
 10
537.4982976397778
 20
463.4181124999789
 30
0.0
 11
550.6982976397785
 21
463.4181124999789
 31
0.0
  0
LINE
  5
19A
330
1F
100
AcDbEntity
  8
4
  6
DASHDOT
 62
     1
100
AcDbLine
 10
544.0982976397781
 20
456.8181124999786
 30
0.0
 11
544.0982976397781
 21
470.0181124999792
 31
0.0
  0
LINE
  5
19B
330
1F
100
AcDbEntity
  8
10
  6
CONTINUOUS
 62
     7
100
AcDbLine
 10
584.4149643064457
 20
348.9681124999781
 30
0.0
 11
584.4149643064457
 21
355.8681124999797
 31
0.0
  0
ARC
  5
19C
330
1F
100
AcDbEntity
  8
10
  6
CONTINUOUS
 62
     7
100
AcDbCircle
 10
581.4479467625852
 20
352.4181124999789
 30
0.0
 40
4.550350877192955
100
AcDbArc
 50
310.6956985254262
 51
49.30430147457344
  0
LINE
  5
19D
330
1F
100
AcDbEntity
  8
10
  6
CONTINUOUS
 62
     7
100
AcDbLine
 10
584.0982976397781
 20
348.9681124999781
 30
0.0
 11
584.4149643064457
 21
348.9681124999781
 31
0.0
  0
LINE
  5
19E
330
1F
100
AcDbEntity
  8
10
  6
CONTINUOUS
 62
     7
100
AcDbLine
 10
584.0982976397781
 20
355.8681124999797
 30
0.0
 11
584.4149643064457
 21
355.8681124999797
 31
0.0
  0
LINE
  5
19F
330
1F
100
AcDbEntity
  8
10
  6
CONTINUOUS
 62
     7
100
AcDbLine
 10
584.4149643064457
 20
278.8681124999778
 30
0.0
 11
584.4149643064457
 21
271.9681124999781
 31
0.0
  0
ARC
  5
1A0
330
1F
100
AcDbEntity
  8
10
  6
CONTINUOUS
 62
     7
100
AcDbCircle
 10
581.4479467625852
 20
275.4181124999789
 30
0.0
 40
4.550350877192955
100
AcDbArc
 50
310.6956985254262
 51
49.30430147457344
  0
LINE
  5
1A1
330
1F
100
AcDbEntity
  8
10
  6
CONTINUOUS
 62
     7
100
AcDbLine
 10
584.0982976397781
 20
278.8681124999778
 30
0.0
 11
584.4149643064457
 21
278.8681124999778
 31
0.0
  0
LINE
  5
1A2
330
1F
100
AcDbEntity
  8
10
  6
CONTINUOUS
 62
     7
100
AcDbLine
 10
584.0982976397781
 20
271.9681124999781
 30
0.0
 11
584.4149643064457
 21
271.9681124999781
 31
0.0
  0
ARC
  5
1A3
330
1F
100
AcDbEntity
  8
10
  6
CONTINUOUS
 62
     7
100
AcDbCircle
 10
739.8666024970671
 20
351.6181124999797
 30
0.0
 40
0.5
100
AcDbArc
 50
0.0
 51
89.99999999999991
  0
ARC
  5
1A4
330
1F
100
AcDbEntity
  8
10
  6
CONTINUOUS
 62
     7
100
AcDbCircle
 10
741.4666024970675
 20
351.6181124999797
 30
0.0
 40
0.5
100
AcDbArc
 50
89.99999999999991
 51
179.9999999999998
  0
CIRCLE
  5
1A5
330
1F
100
AcDbEntity
  8
10
  6
CONTINUOUS
 62
     7
100
AcDbCircle
 10
740.6666024970673
 20
352.4181124999789
 30
0.0
 40
3.450000000000045
  0
LINE
  5
1A6
330
1F
100
AcDbEntity
  8
10
  6
CONTINUOUS
 62
     7
100
AcDbLine
 10
740.3666024970671
 20
351.6181124999797
 30
0.0
 11
740.3666024970671
 21
350.9681124999781
 31
0.0
  0
LINE
  5
1A7
330
1F
100
AcDbEntity
  8
10
  6
CONTINUOUS
 62
     7
100
AcDbLine
 10
740.9666024970675
 20
351.6181124999797
 30
0.0
 11
740.9666024970675
 21
350.9681124999781
 31
0.0
  0
LINE
  5
1A8
330
1F
100
AcDbEntity
  8
10
  6
CONTINUOUS
 62
     7
100
AcDbLine
 10
740.3666024970671
 20
350.9681124999781
 30
0.0
 11
740.9666024970675
 21
350.9681124999781
 31
0.0
  0
LINE
  5
1A9
330
1F
100
AcDbEntity
  8
10
  6
CONTINUOUS
 62
     7
100
AcDbLine
 10
739.8666024970671
 20
352.7181124999781
 30
0.0
 11
739.2166024970675
 21
352.7181124999781
 31
0.0
  0
LINE
  5
1AA
330
1F
100
AcDbEntity
  8
10
  6
CONTINUOUS
 62
     7
100
AcDbLine
 10
739.8666024970671
 20
352.1181124999797
 30
0.0
 11
739.2166024970675
 21
352.1181124999797
 31
0.0
  0
ARC
  5
1AB
330
1F
100
AcDbEntity
  8
10
  6
CONTINUOUS
 62
     7
100
AcDbCircle
 10
741.4666024970675
 20
353.2181124999781
 30
0.0
 40
0.5
100
AcDbArc
 50
179.9999999999998
 51
269.9999999999998
  0
ARC
  5
1AC
330
1F
100
AcDbEntity
  8
10
  6
CONTINUOUS
 62
     7
100
AcDbCircle
 10
739.8666024970671
 20
353.2181124999781
 30
0.0
 40
0.5
100
AcDbArc
 50
269.9999999999998
 51
0.0
  0
LINE
  5
1AD
330
1F
100
AcDbEntity
  8
10
  6
CONTINUOUS
 62
     7
100
AcDbLine
 10
740.9666024970675
 20
353.2181124999781
 30
0.0
 11
740.9666024970675
 21
353.8681124999797
 31
0.0
  0
LINE
  5
1AE
330
1F
100
AcDbEntity
  8
10
  6
CONTINUOUS
 62
     7
100
AcDbLine
 10
740.3666024970671
 20
353.2181124999781
 30
0.0
 11
740.3666024970671
 21
353.8681124999797
 31
0.0
  0
LINE
  5
1AF
330
1F
100
AcDbEntity
  8
10
  6
CONTINUOUS
 62
     7
100
AcDbLine
 10
741.4666024970675
 20
352.7181124999781
 30
0.0
 11
742.1166024970671
 21
352.7181124999781
 31
0.0
  0
LINE
  5
1B0
330
1F
100
AcDbEntity
  8
10
  6
CONTINUOUS
 62
     7
100
AcDbLine
 10
741.4666024970675
 20
352.1181124999797
 30
0.0
 11
742.1166024970671
 21
352.1181124999797
 31
0.0
  0
LINE
  5
1B1
330
1F
100
AcDbEntity
  8
10
  6
CONTINUOUS
 62
     7
100
AcDbLine
 10
742.1166024970671
 20
352.1181124999797
 30
0.0
 11
742.1166024970671
 21
352.7181124999781
 31
0.0
  0
LINE
  5
1B2
330
1F
100
AcDbEntity
  8
10
  6
CONTINUOUS
 62
     7
100
AcDbLine
 10
740.9666024970675
 20
353.8681124999797
 30
0.0
 11
740.3666024970671
 21
353.8681124999797
 31
0.0
  0
LINE
  5
1B3
330
1F
100
AcDbEntity
  8
10
  6
CONTINUOUS
 62
     7
100
AcDbLine
 10
739.2166024970675
 20
352.7181124999781
 30
0.0
 11
739.2166024970675
 21
352.1181124999797
 31
0.0
  0
CIRCLE
  5
1B4
330
1F
100
AcDbEntity
  8
10
  6
CONTINUOUS
 62
     7
100
AcDbCircle
 10
294.0982976397781
 20
463.4181124999789
 30
0.0
 40
3.099999999999994
  0
CIRCLE
  5
1B5
330
1F
100
AcDbEntity
  8
10
  6
CONTINUOUS
 62
     7
100
AcDbCircle
 10
544.0982976397781
 20
463.4181124999789
 30
0.0
 40
3.100000000000023
  0
CIRCLE
  5
1B6
330
1F
100
AcDbEntity
  8
10
  6
CONTINUOUS
 62
     7
100
AcDbCircle
 10
294.0982976397781
 20
217.4181124999789
 30
0.0
 40
3.099999999999994
  0
CIRCLE
  5
1B7
330
1F
100
AcDbEntity
  8
10
  6
CONTINUOUS
 62
     7
100
AcDbCircle
 10
481.5982976397782
 20
217.4181124999789
 30
0.0
 40
3.100000000000023
  0
CIRCLE
  5
1B8
330
1F
100
AcDbEntity
  8
10
  6
CONTINUOUS
 62
     7
100
AcDbCircle
 10
544.0982976397781
 20
217.4181124999789
 30
0.0
 40
3.100000000000023
  0
LINE
  5
1B9
330
1F
100
AcDbEntity
  8
10
  6
CONTINUOUS
 62
     7
100
AcDbLine
 10
744.1166024970671
 20
455.7347791666446
 30
0.0
 11
737.2166024970666
 21
455.7347791666446
 31
0.0
  0
ARC
  5
1BA
330
1F
100
AcDbEntity
  8
10
  6
CONTINUOUS
 62
     7
100
AcDbCircle
 10
740.6666024970673
 20
452.767761622786
 30
0.0
 40
4.550350877192955
100
AcDbArc
 50
40.6956985253525
 51
139.3043014746475
  0
LINE
  5
1BB
330
1F
100
AcDbEntity
  8
10
  6
CONTINUOUS
 62
     7
100
AcDbLine
 10
744.1166024970671
 20
455.4181124999789
 30
0.0
 11
744.1166024970671
 21
455.7347791666446
 31
0.0
  0
LINE
  5
1BC
330
1F
100
AcDbEntity
  8
10
  6
CONTINUOUS
 62
     7
100
AcDbLine
 10
737.2166024970666
 20
455.4181124999789
 30
0.0
 11
737.2166024970666
 21
455.7347791666446
 31
0.0
  0
LINE
  5
1BD
330
1F
100
AcDbEntity
  8
10
  6
CONTINUOUS
 62
     7
100
AcDbLine
 10
422.5482976397798
 20
455.7347791666464
 30
0.0
 11
415.6482976397793
 21
455.7347791666464
 31
0.0
  0
ARC
  5
1BE
330
1F
100
AcDbEntity
  8
10
  6
CONTINUOUS
 62
     7
100
AcDbCircle
 10
419.09829763978
 20
452.767761622786
 30
0.0
 40
4.550350877192955
100
AcDbArc
 50
40.69569852535296
 51
139.304301474647
  0
LINE
  5
1BF
330
1F
100
AcDbEntity
  8
10
  6
CONTINUOUS
 62
     7
100
AcDbLine
 10
422.5482976397798
 20
455.4181124999789
 30
0.0
 11
422.5482976397798
 21
455.7347791666464
 31
0.0
  0
LINE
  5
1C0
330
1F
100
AcDbEntity
  8
10
  6
CONTINUOUS
 62
     7
100
AcDbLine
 10
415.6482976397793
 20
455.4181124999789
 30
0.0
 11
415.6482976397793
 21
455.7347791666464
 31
0.0
  0
LINE
  5
1C1
330
1F
100
AcDbEntity
  8
4
  6
DASHDOT
 62
     1
100
AcDbLine
 10
349.9982976397778
 20
217.4181124999789
 30
0.0
 11
363.1982976397785
 21
217.4181124999789
 31
0.0
  0
LINE
  5
1C2
330
1F
100
AcDbEntity
  8
4
  6
DASHDOT
 62
     1
100
AcDbLine
 10
356.5982976397782
 20
224.0181124999793
 30
0.0
 11
356.5982976397782
 21
210.8181124999786
 31
0.0
  0
CIRCLE
  5
1C3
330
1F
100
AcDbEntity
  8
10
  6
CONTINUOUS
 62
     7
100
AcDbCircle
 10
356.5982976397782
 20
217.4181124999789
 30
0.0
 40
3.100000000000023
  0
LINE
  5
1C4
330
1F
100
AcDbEntity
  8
4
  6
DASHDOT
 62
     1
100
AcDbLine
 10
488.1982976397776
 20
463.4181124999789
 30
0.0
 11
474.9982976397778
 21
463.4181124999789
 31
0.0
  0
LINE
  5
1C5
330
1F
100
AcDbEntity
  8
4
  6
DASHDOT
 62
     1
100
AcDbLine
 10
481.5982976397782
 20
456.8181124999786
 30
0.0
 11
481.5982976397782
 21
470.0181124999792
 31
0.0
  0
CIRCLE
  5
1C6
330
1F
100
AcDbEntity
  8
10
  6
CONTINUOUS
 62
     7
100
AcDbCircle
 10
481.5982976397782
 20
463.4181124999789
 30
0.0
 40
3.100000000000023
  0
LINE
  5
1C7
330
1F
100
AcDbEntity
  8
4
  6
DASHDOT
 62
     1
100
AcDbLine
 10
349.9982976397778
 20
463.4181124999789
 30
0.0
 11
363.1982976397785
 21
463.4181124999789
 31
0.0
  0
LINE
  5
1C8
330
1F
100
AcDbEntity
  8
4
  6
DASHDOT
 62
     1
100
AcDbLine
 10
356.5982976397782
 20
456.8181124999786
 30
0.0
 11
356.5982976397782
 21
470.0181124999792
 31
0.0
  0
CIRCLE
  5
1C9
330
1F
100
AcDbEntity
  8
10
  6
CONTINUOUS
 62
     7
100
AcDbCircle
 10
356.5982976397782
 20
463.4181124999789
 30
0.0
 40
3.100000000000023
  0
LINE
  5
1CA
330
1F
100
AcDbEntity
  8
3
  6
HIDDEN
 62
     3
100
AcDbLine
 10
706.6666024970673
 20
452.4181124999798
 30
0.0
 11
706.6666024970673
 21
228.4181124999798
 31
0.0
  0
LINE
  5
1CB
330
1F
100
AcDbEntity
  8
3
  6
HIDDEN
 62
     3
100
AcDbLine
 10
711.6666024970673
 20
452.4181124999798
 30
0.0
 11
711.6666024970673
 21
228.4181124999798
 31
0.0
  0
LINE
  5
1CC
330
1F
100
AcDbEntity
  8
3
  6
HIDDEN
 62
     3
100
AcDbLine
 10
706.6666024970673
 20
452.4181124999798
 30
0.0
 11
711.6666024970673
 21
452.4181124999798
 31
0.0
  0
LINE
  5
1CD
330
1F
100
AcDbEntity
  8
3
  6
HIDDEN
 62
     3
100
AcDbLine
 10
706.6666024970673
 20
228.4181124999798
 30
0.0
 11
711.6666024970673
 21
228.4181124999798
 31
0.0
  0
LINE
  5
1CE
330
1F
100
AcDbEntity
  8
4
  6
DASHDOT
 62
     1
100
AcDbLine
 10
695.6666024970673
 20
340.4181124999789
 30
0.0
 11
760.6666024970673
 21
340.4181124999789
 31
0.0
  0
LINE
  5
1CF
330
1F
100
AcDbEntity
  8
3
  6
HIDDEN
 62
     3
100
AcDbLine
 10
750.6666024970673
 20
367.9181124999789
 30
0.0
 11
705.6666024970673
 21
367.9181124999789
 31
0.0
  0
LINE
  5
1D0
330
1F
100
AcDbEntity
  8
3
  6
HIDDEN
 62
     3
100
AcDbLine
 10
749.6666024970664
 20
372.9181124999789
 30
0.0
 11
711.6666024970673
 21
372.9181124999789
 31
0.0
  0
CIRCLE
  5
1D1
330
1F
100
AcDbEntity
  8
10
  6
CONTINUOUS
 62
     7
100
AcDbCircle
 10
419.0982976397782
 20
340.4181124999789
 30
0.0
 40
27.5
  0
CIRCLE
  5
1D2
330
1F
100
AcDbEntity
  8
3
  6
HIDDEN
 62
     3
100
AcDbCircle
 10
419.0982976397782
 20
340.4181124999789
 30
0.0
 40
32.5
  0
LINE
  5
1D3
330
1F
100
AcDbEntity
  8
3
  6
HIDDEN
 62
     3
100
AcDbLine
 10
750.6666024970673
 20
312.9181124999789
 30
0.0
 11
705.6666024970673
 21
312.9181124999789
 31
0.0
  0
LINE
  5
1D4
330
1F
100
AcDbEntity
  8
3
  6
HIDDEN
 62
     3
100
AcDbLine
 10
749.6666024970664
 20
307.9181124999789
 30
0.0
 11
711.6666024970673
 21
307.9181124999789
 31
0.0
  0
LINE
  5
1D5
330
1F
100
AcDbEntity
  8
10
  6
CONTINUOUS
 62
     7
100
AcDbLine
 10
591.0982976397781
 20
346.4181124999789
 30
0.0
 11
591.0982976397781
 21
340.4181124999789
 31
0.0
  0
LINE
  5
1D6
330
1F
100
AcDbEntity
  8
10
  6
CONTINUOUS
 62
     7
100
AcDbLine
 10
602.0982976397781
 20
342.9181124999789
 30
0.0
 11
602.0982976397781
 21
337.9181124999789
 31
0.0
  0
ARC
  5
1D7
330
1F
100
AcDbEntity
  8
10
  6
CONTINUOUS
 62
     7
100
AcDbCircle
 10
599.0982976397781
 20
342.9181124999789
 30
0.0
 40
3.0
100
AcDbArc
 50
0.0
 51
89.99999999999991
  0
LINE
  5
1D8
330
1F
100
AcDbEntity
  8
10
  6
CONTINUOUS
 62
     7
100
AcDbLine
 10
599.0982976397781
 20
346.4181124999789
 30
0.0
 11
599.0982976397781
 21
334.4181124999789
 31
0.0
  0
LINE
  5
1D9
330
1F
100
AcDbEntity
  8
10
  6
CONTINUOUS
 62
     7
100
AcDbLine
 10
591.0982976397781
 20
346.4181124999789
 30
0.0
 11
599.0982976397781
 21
346.4181124999789
 31
0.0
  0
LINE
  5
1DA
330
1F
100
AcDbEntity
  8
10
  6
CONTINUOUS
 62
     7
100
AcDbLine
 10
589.1982976397767
 20
345.4181124999789
 30
0.0
 11
591.0982976397781
 21
345.4181124999789
 31
0.0
  0
LINE
  5
1DB
330
1F
100
AcDbEntity
  8
10
  6
CONTINUOUS
 62
     7
100
AcDbLine
 10
591.0982976397781
 20
334.4181124999789
 30
0.0
 11
591.0982976397781
 21
340.4181124999789
 31
0.0
  0
LINE
  5
1DC
330
1F
100
AcDbEntity
  8
10
  6
CONTINUOUS
 62
     7
100
AcDbLine
 10
591.0982976397781
 20
340.4181124999789
 30
0.0
 11
599.0982976397781
 21
340.4181124999789
 31
0.0
  0
LINE
  5
1DD
330
1F
100
AcDbEntity
  8
10
  6
CONTINUOUS
 62
     7
100
AcDbLine
 10
589.1982976397767
 20
335.4181124999789
 30
0.0
 11
591.0982976397781
 21
335.4181124999789
 31
0.0
  0
ARC
  5
1DE
330
1F
100
AcDbEntity
  8
10
  6
CONTINUOUS
 62
     7
100
AcDbCircle
 10
599.0982976397781
 20
337.9181124999789
 30
0.0
 40
3.0
100
AcDbArc
 50
269.9999999999998
 51
0.0
  0
LINE
  5
1DF
330
1F
100
AcDbEntity
  8
10
  6
CONTINUOUS
 62
     7
100
AcDbLine
 10
591.0982976397781
 20
334.4181124999789
 30
0.0
 11
599.0982976397781
 21
334.4181124999789
 31
0.0
  0
LINE
  5
1E0
330
1F
100
AcDbEntity
  8
10
  6
CONTINUOUS
 62
     7
100
AcDbLine
 10
584.5982976397781
 20
346.6681124999789
 30
0.0
 11
584.0982976397781
 21
346.6681124999789
 31
0.0
  0
LINE
  5
1E1
330
1F
100
AcDbEntity
  8
10
  6
CONTINUOUS
 62
     7
100
AcDbLine
 10
584.5982976397781
 20
347.4181124999789
 30
0.0
 11
589.1982976397776
 21
347.4181124999789
 31
0.0
  0
LINE
  5
1E2
330
1F
100
AcDbEntity
  8
10
  6
CONTINUOUS
 62
     7
100
AcDbLine
 10
584.5982976397781
 20
343.9181124999789
 30
0.0
 11
589.1982976397776
 21
343.9181124999789
 31
0.0
  0
LINE
  5
1E3
330
1F
100
AcDbEntity
  8
10
  6
CONTINUOUS
 62
     7
100
AcDbLine
 10
584.5982976397781
 20
333.418112499977
 30
0.0
 11
589.1982976397776
 21
333.4181124999789
 31
0.0
  0
LINE
  5
1E4
330
1F
100
AcDbEntity
  8
10
  6
CONTINUOUS
 62
     7
100
AcDbLine
 10
584.5982976397772
 20
336.9181124999789
 30
0.0
 11
589.1982976397776
 21
336.9181124999789
 31
0.0
  0
LINE
  5
1E5
330
1F
100
AcDbEntity
  8
10
  6
CONTINUOUS
 62
     7
100
AcDbLine
 10
589.1982976397776
 20
347.4181124999789
 30
0.0
 11
589.1982976397776
 21
340.4181124999789
 31
0.0
  0
LINE
  5
1E6
330
1F
100
AcDbEntity
  8
10
  6
CONTINUOUS
 62
     7
100
AcDbLine
 10
589.1982976397776
 20
333.4181124999789
 30
0.0
 11
589.1982976397776
 21
340.4181124999789
 31
0.0
  0
LINE
  5
1E7
330
1F
100
AcDbEntity
  8
10
  6
CONTINUOUS
 62
     7
100
AcDbLine
 10
584.5982976397781
 20
347.4181124999789
 30
0.0
 11
584.5982976397772
 21
333.418112499977
 31
0.0
  0
LINE
  5
1E8
330
1F
100
AcDbEntity
  8
10
  6
CONTINUOUS
 62
     7
100
AcDbLine
 10
584.5982976397781
 20
334.1681124999789
 30
0.0
 11
584.0982976397781
 21
334.1681124999789
 31
0.0
  0
LINE
  5
1E9
330
1F
100
AcDbEntity
  8
10
  6
CONTINUOUS
 62
     7
100
AcDbLine
 10
584.0982976397781
 20
346.6681124999789
 30
0.0
 11
584.0982976397781
 21
334.1681124999789
 31
0.0
  0
MTEXT
  5
1EA
330
1F
100
AcDbEntity
  8
9
  6
CONTINUOUS
 62
     4
100
AcDbMText
 10
617.7642856639486
 20
331.0577852241624
 30
0.0
 40
6.0
 41
38.99793999408
 71
     1
 72
     1
  1
{\fＭＳ ゴシック;\T1.555898;L=500}
1001
ACAD
1000
ACAD_MTEXT_DEFINED_HEIGHT_BEGIN
1070
    46
1040
6.0
1000
ACAD_MTEXT_DEFINED_HEIGHT_END
  0
LINE
  5
1EB
330
1F
100
AcDbEntity
  8
10
  6
CONTINUOUS
 62
     7
100
AcDbLine
 10
584.4149643064457
 20
331.8681124999797
 30
0.0
 11
584.4149643064457
 21
324.9681124999781
 31
0.0
  0
ARC
  5
1EC
330
1F
100
AcDbEntity
  8
10
  6
CONTINUOUS
 62
     7
100
AcDbCircle
 10
581.4479467625852
 20
328.4181124999789
 30
0.0
 40
4.550350877192955
100
AcDbArc
 50
310.6956985254262
 51
49.30430147457344
  0
LINE
  5
1ED
330
1F
100
AcDbEntity
  8
10
  6
CONTINUOUS
 62
     7
100
AcDbLine
 10
584.0982976397781
 20
331.8681124999797
 30
0.0
 11
584.4149643064457
 21
331.8681124999797
 31
0.0
  0
LINE
  5
1EE
330
1F
100
AcDbEntity
  8
10
  6
CONTINUOUS
 62
     7
100
AcDbLine
 10
584.0982976397781
 20
324.9681124999781
 30
0.0
 11
584.4149643064457
 21
324.9681124999781
 31
0.0
  0
POLYLINE
  5
1EF
330
1F
100
AcDbEntity
  8
10
  6
CONTINUOUS
 62
     7
100
AcDb2dPolyline
 66
     1
 10
0.0
 20
0.0
 30
0.0
  0
VERTEX
  5
1F0
330
1EF
100
AcDbEntity
  8
10
  6
CONTINUOUS
 62
     7
100
AcDbVertex
100
AcDb2dVertex
 10
740.6307041121963
 20
346.4181124999789
 30
0.0
  0
VERTEX
  5
1F1
330
1EF
100
AcDbEntity
  8
10
  6
CONTINUOUS
 62
     7
100
AcDbVertex
100
AcDb2dVertex
 10
744.0948057273345
 20
340.4181124999789
 30
0.0
  0
VERTEX
  5
1F2
330
1EF
100
AcDbEntity
  8
10
  6
CONTINUOUS
 62
     7
100
AcDbVertex
100
AcDb2dVertex
 10
740.6307041121963
 20
334.4181124999789
 30
0.0
  0
VERTEX
  5
1F3
330
1EF
100
AcDbEntity
  8
10
  6
CONTINUOUS
 62
     7
100
AcDbVertex
100
AcDb2dVertex
 10
733.702500881921
 20
334.4181124999789
 30
0.0
  0
VERTEX
  5
1F4
330
1EF
100
AcDbEntity
  8
10
  6
CONTINUOUS
 62
     7
100
AcDbVertex
100
AcDb2dVertex
 10
730.2383992667837
 20
340.4181124999789
 30
0.0
  0
VERTEX
  5
1F5
330
1EF
100
AcDbEntity
  8
10
  6
CONTINUOUS
 62
     7
100
AcDbVertex
100
AcDb2dVertex
 10
733.702500881921
 20
346.4181124999789
 30
0.0
  0
VERTEX
  5
1F6
330
1EF
100
AcDbEntity
  8
10
  6
CONTINUOUS
 62
     7
100
AcDbVertex
100
AcDb2dVertex
 10
740.6307041121963
 20
346.4181124999789
 30
0.0
  0
SEQEND
  5
1F7
330
1EF
100
AcDbEntity
  8
10
  6
CONTINUOUS
 62
     7
  0
CIRCLE
  5
1F8
330
1F
100
AcDbEntity
  8
10
  6
CONTINUOUS
 62
     7
100
AcDbCircle
 10
737.1666024970582
 20
340.4181124999789
 30
0.0
 40
1.849999999990359
  0
CIRCLE
  5
1F9
330
1F
100
AcDbEntity
  8
10
  6
CONTINUOUS
 62
     7
100
AcDbCircle
 10
737.1666024970582
 20
340.4181124999789
 30
0.0
 40
5.0
  0
LINE
  5
1FA
330
1F
100
AcDbEntity
  8
10
  6
CONTINUOUS
 62
     7
100
AcDbLine
 10
749.6666024970664
 20
347.9181124999789
 30
0.0
 11
737.1666024970582
 21
347.9181124999789
 31
0.0
  0
LINE
  5
1FB
330
1F
100
AcDbEntity
  8
10
  6
CONTINUOUS
 62
     7
100
AcDbLine
 10
749.6666024970664
 20
332.9181124999817
 30
0.0
 11
737.16660249706
 21
332.9181124999789
 31
0.0
  0
ARC
  5
1FC
330
1F
100
AcDbEntity
  8
10
  6
CONTINUOUS
 62
     7
100
AcDbCircle
 10
737.1666024970582
 20
340.4181124999789
 30
0.0
 40
7.5
100
AcDbArc
 50
89.99999999999991
 51
270.0000000000274
  0
LINE
  5
1FD
330
1F
100
AcDbEntity
  8
10
  6
CONTINUOUS
 62
     7
100
AcDbLine
 10
749.6666024970664
 20
332.9181124999817
 30
0.0
 11
749.6666024970655
 21
210.4181124999789
 31
0.0
  0
ARC
  5
1FE
330
1F
100
AcDbEntity
  8
10
  6
CONTINUOUS
 62
     7
100
AcDbCircle
 10
739.8666024970671
 20
329.2181124999781
 30
0.0
 40
0.5
100
AcDbArc
 50
269.9999999999998
 51
0.0
  0
ARC
  5
1FF
330
1F
100
AcDbEntity
  8
10
  6
CONTINUOUS
 62
     7
100
AcDbCircle
 10
741.4666024970675
 20
329.2181124999781
 30
0.0
 40
0.5
100
AcDbArc
 50
179.9999999999998
 51
269.9999999999998
  0
CIRCLE
  5
200
330
1F
100
AcDbEntity
  8
10
  6
CONTINUOUS
 62
     7
100
AcDbCircle
 10
740.6666024970673
 20
328.4181124999789
 30
0.0
 40
3.450000000000045
  0
LINE
  5
201
330
1F
100
AcDbEntity
  8
10
  6
CONTINUOUS
 62
     7
100
AcDbLine
 10
740.3666024970671
 20
329.2181124999781
 30
0.0
 11
740.3666024970671
 21
329.8681124999797
 31
0.0
  0
LINE
  5
202
330
1F
100
AcDbEntity
  8
10
  6
CONTINUOUS
 62
     7
100
AcDbLine
 10
740.9666024970675
 20
329.2181124999781
 30
0.0
 11
740.9666024970675
 21
329.8681124999797
 31
0.0
  0
LINE
  5
203
330
1F
100
AcDbEntity
  8
10
  6
CONTINUOUS
 62
     7
100
AcDbLine
 10
740.3666024970671
 20
329.8681124999797
 30
0.0
 11
740.9666024970675
 21
329.8681124999797
 31
0.0
  0
LINE
  5
204
330
1F
100
AcDbEntity
  8
10
  6
CONTINUOUS
 62
     7
100
AcDbLine
 10
739.8666024970671
 20
328.1181124999797
 30
0.0
 11
739.2166024970675
 21
328.1181124999797
 31
0.0
  0
LINE
  5
205
330
1F
100
AcDbEntity
  8
10
  6
CONTINUOUS
 62
     7
100
AcDbLine
 10
739.8666024970671
 20
328.7181124999781
 30
0.0
 11
739.2166024970675
 21
328.7181124999781
 31
0.0
  0
ARC
  5
206
330
1F
100
AcDbEntity
  8
10
  6
CONTINUOUS
 62
     7
100
AcDbCircle
 10
741.4666024970675
 20
327.6181124999797
 30
0.0
 40
0.5
100
AcDbArc
 50
89.99999999999991
 51
179.9999999999998
  0
ARC
  5
207
330
1F
100
AcDbEntity
  8
10
  6
CONTINUOUS
 62
     7
100
AcDbCircle
 10
739.8666024970671
 20
327.6181124999797
 30
0.0
 40
0.5
100
AcDbArc
 50
0.0
 51
89.99999999999991
  0
LINE
  5
208
330
1F
100
AcDbEntity
  8
10
  6
CONTINUOUS
 62
     7
100
AcDbLine
 10
740.9666024970675
 20
327.6181124999797
 30
0.0
 11
740.9666024970675
 21
326.9681124999781
 31
0.0
  0
LINE
  5
209
330
1F
100
AcDbEntity
  8
10
  6
CONTINUOUS
 62
     7
100
AcDbLine
 10
740.3666024970671
 20
327.6181124999797
 30
0.0
 11
740.3666024970671
 21
326.9681124999781
 31
0.0
  0
LINE
  5
20A
330
1F
100
AcDbEntity
  8
10
  6
CONTINUOUS
 62
     7
100
AcDbLine
 10
741.4666024970675
 20
328.1181124999797
 30
0.0
 11
742.1166024970671
 21
328.1181124999797
 31
0.0
  0
LINE
  5
20B
330
1F
100
AcDbEntity
  8
10
  6
CONTINUOUS
 62
     7
100
AcDbLine
 10
741.4666024970675
 20
328.7181124999781
 30
0.0
 11
742.1166024970671
 21
328.7181124999781
 31
0.0
  0
LINE
  5
20C
330
1F
100
AcDbEntity
  8
10
  6
CONTINUOUS
 62
     7
100
AcDbLine
 10
742.1166024970671
 20
328.7181124999781
 30
0.0
 11
742.1166024970671
 21
328.1181124999797
 31
0.0
  0
LINE
  5
20D
330
1F
100
AcDbEntity
  8
10
  6
CONTINUOUS
 62
     7
100
AcDbLine
 10
740.9666024970675
 20
326.9681124999781
 30
0.0
 11
740.3666024970671
 21
326.9681124999781
 31
0.0
  0
LINE
  5
20E
330
1F
100
AcDbEntity
  8
10
  6
CONTINUOUS
 62
     7
100
AcDbLine
 10
739.2166024970675
 20
328.1181124999797
 30
0.0
 11
739.2166024970675
 21
328.7181124999781
 31
0.0
  0
ARC
  5
20F
330
1F
100
AcDbEntity
  8
10
  6
CONTINUOUS
 62
     7
100
AcDbCircle
 10
739.8666024970671
 20
276.2181124999781
 30
0.0
 40
0.5
100
AcDbArc
 50
269.9999999999998
 51
0.0
  0
ARC
  5
210
330
1F
100
AcDbEntity
  8
10
  6
CONTINUOUS
 62
     7
100
AcDbCircle
 10
741.4666024970675
 20
276.2181124999781
 30
0.0
 40
0.5
100
AcDbArc
 50
179.9999999999998
 51
269.9999999999998
  0
CIRCLE
  5
211
330
1F
100
AcDbEntity
  8
10
  6
CONTINUOUS
 62
     7
100
AcDbCircle
 10
740.6666024970673
 20
275.4181124999789
 30
0.0
 40
3.450000000000045
  0
LINE
  5
212
330
1F
100
AcDbEntity
  8
10
  6
CONTINUOUS
 62
     7
100
AcDbLine
 10
740.3666024970671
 20
276.2181124999781
 30
0.0
 11
740.3666024970671
 21
276.8681124999796
 31
0.0
  0
LINE
  5
213
330
1F
100
AcDbEntity
  8
10
  6
CONTINUOUS
 62
     7
100
AcDbLine
 10
740.9666024970675
 20
276.2181124999781
 30
0.0
 11
740.9666024970675
 21
276.8681124999796
 31
0.0
  0
LINE
  5
214
330
1F
100
AcDbEntity
  8
10
  6
CONTINUOUS
 62
     7
100
AcDbLine
 10
740.3666024970671
 20
276.8681124999796
 30
0.0
 11
740.9666024970675
 21
276.8681124999796
 31
0.0
  0
LINE
  5
215
330
1F
100
AcDbEntity
  8
10
  6
CONTINUOUS
 62
     7
100
AcDbLine
 10
739.8666024970671
 20
275.1181124999796
 30
0.0
 11
739.2166024970675
 21
275.1181124999796
 31
0.0
  0
LINE
  5
216
330
1F
100
AcDbEntity
  8
10
  6
CONTINUOUS
 62
     7
100
AcDbLine
 10
739.8666024970671
 20
275.7181124999781
 30
0.0
 11
739.2166024970675
 21
275.7181124999781
 31
0.0
  0
ARC
  5
217
330
1F
100
AcDbEntity
  8
10
  6
CONTINUOUS
 62
     7
100
AcDbCircle
 10
741.4666024970675
 20
274.6181124999796
 30
0.0
 40
0.5
100
AcDbArc
 50
89.99999999999991
 51
179.9999999999998
  0
ARC
  5
218
330
1F
100
AcDbEntity
  8
10
  6
CONTINUOUS
 62
     7
100
AcDbCircle
 10
739.8666024970671
 20
274.6181124999796
 30
0.0
 40
0.5
100
AcDbArc
 50
0.0
 51
89.99999999999991
  0
LINE
  5
219
330
1F
100
AcDbEntity
  8
10
  6
CONTINUOUS
 62
     7
100
AcDbLine
 10
740.9666024970675
 20
274.6181124999796
 30
0.0
 11
740.9666024970675
 21
273.9681124999781
 31
0.0
  0
LINE
  5
21A
330
1F
100
AcDbEntity
  8
10
  6
CONTINUOUS
 62
     7
100
AcDbLine
 10
740.3666024970671
 20
274.6181124999796
 30
0.0
 11
740.3666024970671
 21
273.9681124999781
 31
0.0
  0
LINE
  5
21B
330
1F
100
AcDbEntity
  8
10
  6
CONTINUOUS
 62
     7
100
AcDbLine
 10
741.4666024970675
 20
275.1181124999796
 30
0.0
 11
742.1166024970671
 21
275.1181124999796
 31
0.0
  0
LINE
  5
21C
330
1F
100
AcDbEntity
  8
10
  6
CONTINUOUS
 62
     7
100
AcDbLine
 10
741.4666024970675
 20
275.7181124999781
 30
0.0
 11
742.1166024970671
 21
275.7181124999781
 31
0.0
  0
LINE
  5
21D
330
1F
100
AcDbEntity
  8
10
  6
CONTINUOUS
 62
     7
100
AcDbLine
 10
742.1166024970671
 20
275.7181124999781
 30
0.0
 11
742.1166024970671
 21
275.1181124999796
 31
0.0
  0
LINE
  5
21E
330
1F
100
AcDbEntity
  8
10
  6
CONTINUOUS
 62
     7
100
AcDbLine
 10
740.9666024970675
 20
273.9681124999781
 30
0.0
 11
740.3666024970671
 21
273.9681124999781
 31
0.0
  0
LINE
  5
21F
330
1F
100
AcDbEntity
  8
10
  6
CONTINUOUS
 62
     7
100
AcDbLine
 10
739.2166024970675
 20
275.1181124999796
 30
0.0
 11
739.2166024970675
 21
275.7181124999781
 31
0.0
  0
ARC
  5
220
330
1F
100
AcDbEntity
  8
10
  6
CONTINUOUS
 62
     7
100
AcDbCircle
 10
739.8666024970671
 20
404.6181124999797
 30
0.0
 40
0.5
100
AcDbArc
 50
0.0
 51
89.99999999999991
  0
ARC
  5
221
330
1F
100
AcDbEntity
  8
10
  6
CONTINUOUS
 62
     7
100
AcDbCircle
 10
741.4666024970675
 20
404.6181124999797
 30
0.0
 40
0.5
100
AcDbArc
 50
89.99999999999991
 51
179.9999999999998
  0
CIRCLE
  5
222
330
1F
100
AcDbEntity
  8
10
  6
CONTINUOUS
 62
     7
100
AcDbCircle
 10
740.6666024970673
 20
405.4181124999789
 30
0.0
 40
3.450000000000045
  0
LINE
  5
223
330
1F
100
AcDbEntity
  8
10
  6
CONTINUOUS
 62
     7
100
AcDbLine
 10
740.3666024970671
 20
404.6181124999797
 30
0.0
 11
740.3666024970671
 21
403.9681124999781
 31
0.0
  0
LINE
  5
224
330
1F
100
AcDbEntity
  8
10
  6
CONTINUOUS
 62
     7
100
AcDbLine
 10
740.9666024970675
 20
404.6181124999797
 30
0.0
 11
740.9666024970675
 21
403.9681124999781
 31
0.0
  0
LINE
  5
225
330
1F
100
AcDbEntity
  8
10
  6
CONTINUOUS
 62
     7
100
AcDbLine
 10
740.3666024970671
 20
403.9681124999781
 30
0.0
 11
740.9666024970675
 21
403.9681124999781
 31
0.0
  0
LINE
  5
226
330
1F
100
AcDbEntity
  8
10
  6
CONTINUOUS
 62
     7
100
AcDbLine
 10
739.8666024970671
 20
405.7181124999781
 30
0.0
 11
739.2166024970675
 21
405.7181124999781
 31
0.0
  0
LINE
  5
227
330
1F
100
AcDbEntity
  8
10
  6
CONTINUOUS
 62
     7
100
AcDbLine
 10
739.8666024970671
 20
405.1181124999797
 30
0.0
 11
739.2166024970675
 21
405.1181124999797
 31
0.0
  0
ARC
  5
228
330
1F
100
AcDbEntity
  8
10
  6
CONTINUOUS
 62
     7
100
AcDbCircle
 10
741.4666024970675
 20
406.2181124999781
 30
0.0
 40
0.5
100
AcDbArc
 50
179.9999999999998
 51
269.9999999999998
  0
ARC
  5
229
330
1F
100
AcDbEntity
  8
10
  6
CONTINUOUS
 62
     7
100
AcDbCircle
 10
739.8666024970671
 20
406.2181124999781
 30
0.0
 40
0.5
100
AcDbArc
 50
269.9999999999998
 51
0.0
  0
LINE
  5
22A
330
1F
100
AcDbEntity
  8
10
  6
CONTINUOUS
 62
     7
100
AcDbLine
 10
740.9666024970675
 20
406.2181124999781
 30
0.0
 11
740.9666024970675
 21
406.8681124999797
 31
0.0
  0
LINE
  5
22B
330
1F
100
AcDbEntity
  8
10
  6
CONTINUOUS
 62
     7
100
AcDbLine
 10
740.3666024970671
 20
406.2181124999781
 30
0.0
 11
740.3666024970671
 21
406.8681124999797
 31
0.0
  0
LINE
  5
22C
330
1F
100
AcDbEntity
  8
10
  6
CONTINUOUS
 62
     7
100
AcDbLine
 10
741.4666024970675
 20
405.7181124999781
 30
0.0
 11
742.1166024970671
 21
405.7181124999781
 31
0.0
  0
LINE
  5
22D
330
1F
100
AcDbEntity
  8
10
  6
CONTINUOUS
 62
     7
100
AcDbLine
 10
741.4666024970675
 20
405.1181124999797
 30
0.0
 11
742.1166024970671
 21
405.1181124999797
 31
0.0
  0
LINE
  5
22E
330
1F
100
AcDbEntity
  8
10
  6
CONTINUOUS
 62
     7
100
AcDbLine
 10
742.1166024970671
 20
405.1181124999797
 30
0.0
 11
742.1166024970671
 21
405.7181124999781
 31
0.0
  0
LINE
  5
22F
330
1F
100
AcDbEntity
  8
10
  6
CONTINUOUS
 62
     7
100
AcDbLine
 10
740.9666024970675
 20
406.8681124999797
 30
0.0
 11
740.3666024970671
 21
406.8681124999797
 31
0.0
  0
LINE
  5
230
330
1F
100
AcDbEntity
  8
10
  6
CONTINUOUS
 62
     7
100
AcDbLine
 10
739.2166024970675
 20
405.7181124999781
 30
0.0
 11
739.2166024970675
 21
405.1181124999797
 31
0.0
  0
LINE
  5
231
330
1F
100
AcDbEntity
  8
10
  6
CONTINUOUS
 62
     7
100
AcDbLine
 10
584.4149643064457
 20
401.96811249998
 30
0.0
 11
584.4149643064457
 21
408.8681124999797
 31
0.0
  0
ARC
  5
232
330
1F
100
AcDbEntity
  8
10
  6
CONTINUOUS
 62
     7
100
AcDbCircle
 10
581.4479467625852
 20
405.4181124999789
 30
0.0
 40
4.550350877192955
100
AcDbArc
 50
310.6956985254262
 51
49.30430147457344
  0
LINE
  5
233
330
1F
100
AcDbEntity
  8
10
  6
CONTINUOUS
 62
     7
100
AcDbLine
 10
584.0982976397781
 20
401.96811249998
 30
0.0
 11
584.4149643064457
 21
401.96811249998
 31
0.0
  0
LINE
  5
234
330
1F
100
AcDbEntity
  8
10
  6
CONTINUOUS
 62
     7
100
AcDbLine
 10
584.0982976397781
 20
408.8681124999797
 30
0.0
 11
584.4149643064457
 21
408.8681124999797
 31
0.0
  0
LINE
  5
235
330
1F
100
AcDbEntity
  8
10
  6
CONTINUOUS
 62
     7
100
AcDbLine
 10
253.7816309731106
 20
278.8681124999778
 30
0.0
 11
253.7816309731106
 21
271.9681124999781
 31
0.0
  0
ARC
  5
236
330
1F
100
AcDbEntity
  8
10
  6
CONTINUOUS
 62
     7
100
AcDbCircle
 10
256.7486485169711
 20
275.4181124999789
 30
0.0
 40
4.550350877192983
100
AcDbArc
 50
130.6956985254271
 51
229.3043014745725
  0
LINE
  5
237
330
1F
100
AcDbEntity
  8
10
  6
CONTINUOUS
 62
     7
100
AcDbLine
 10
254.0982976397781
 20
278.8681124999778
 30
0.0
 11
253.7816309731106
 21
278.8681124999778
 31
0.0
  0
LINE
  5
238
330
1F
100
AcDbEntity
  8
10
  6
CONTINUOUS
 62
     7
100
AcDbLine
 10
254.0982976397781
 20
271.9681124999781
 30
0.0
 11
253.7816309731106
 21
271.9681124999781
 31
0.0
  0
LINE
  5
239
330
1F
100
AcDbEntity
  8
10
  6
CONTINUOUS
 62
     7
100
AcDbLine
 10
253.7816309731106
 20
401.96811249998
 30
0.0
 11
253.7816309731106
 21
408.8681124999797
 31
0.0
  0
ARC
  5
23A
330
1F
100
AcDbEntity
  8
10
  6
CONTINUOUS
 62
     7
100
AcDbCircle
 10
256.7486485169711
 20
405.4181124999789
 30
0.0
 40
4.550350877192983
100
AcDbArc
 50
130.6956985254271
 51
229.3043014745725
  0
LINE
  5
23B
330
1F
100
AcDbEntity
  8
10
  6
CONTINUOUS
 62
     7
100
AcDbLine
 10
254.0982976397781
 20
401.96811249998
 30
0.0
 11
253.7816309731106
 21
401.96811249998
 31
0.0
  0
LINE
  5
23C
330
1F
100
AcDbEntity
  8
10
  6
CONTINUOUS
 62
     7
100
AcDbLine
 10
254.0982976397781
 20
408.8681124999797
 30
0.0
 11
253.7816309731106
 21
408.8681124999797
 31
0.0
  0
LINE
  5
23D
330
1F
100
AcDbEntity
  8
7
  6
CONTINUOUS
 62
     6
100
AcDbLine
 10
82.36843905263049
 20
111.6162352820714
 30
0.0
 11
226.3684390526305
 21
111.6162352820714
 31
0.0
  0
LINE
  5
23E
330
1F
100
AcDbEntity
  8
7
  6
CONTINUOUS
 62
     6
100
AcDbLine
 10
82.36843905263049
 20
101.616215282071
 30
0.0
 11
226.3684390526305
 21
101.616215282071
 31
0.0
  0
LINE
  5
23F
330
1F
100
AcDbEntity
  8
7
  6
CONTINUOUS
 62
     6
100
AcDbLine
 10
82.36843905263049
 20
91.61623528207136
 30
0.0
 11
226.3684390526305
 21
91.61623528207136
 31
0.0
  0
LINE
  5
240
330
1F
100
AcDbEntity
  8
7
  6
CONTINUOUS
 62
     6
100
AcDbLine
 10
82.36843905263049
 20
81.61623528207136
 30
0.0
 11
226.3684390526305
 21
81.61623528207136
 31
0.0
  0
LINE
  5
241
330
1F
100
AcDbEntity
  8
7
  6
CONTINUOUS
 62
     6
100
AcDbLine
 10
170.3684390526305
 20
111.6162352820714
 30
0.0
 11
170.3684390526305
 21
81.61623528207136
 31
0.0
  0
LINE
  5
242
330
1F
100
AcDbEntity
  8
7
  6
CONTINUOUS
 62
     6
100
AcDbLine
 10
170.3684390526305
 20
111.6162352820714
 30
0.0
 11
170.3684390526305
 21
81.61623528207136
 31
0.0
  0
LINE
  5
243
330
1F
100
AcDbEntity
  8
7
  6
CONTINUOUS
 62
     6
100
AcDbLine
 10
122.36845905263
 20
111.6162352820714
 30
0.0
 11
122.36845905263
 21
81.61623528207136
 31
0.0
  0
LINE
  5
244
330
1F
100
AcDbEntity
  8
7
  6
CONTINUOUS
 62
     6
100
AcDbLine
 10
82.36843905263049
 20
111.6162352820714
 30
0.0
 11
82.36843905263049
 21
81.61623528207136
 31
0.0
  0
LINE
  5
245
330
1F
100
AcDbEntity
  8
7
  6
CONTINUOUS
 62
     6
100
AcDbLine
 10
82.36843905263049
 20
111.6162352820714
 30
0.0
 11
122.36845905263
 21
101.616215282071
 31
0.0
  0
LINE
  5
246
330
1F
100
AcDbEntity
  8
7
  6
CONTINUOUS
 62
     6
100
AcDbLine
 10
226.3684390526305
 20
111.6162352820714
 30
0.0
 11
226.3684390526305
 21
81.61623528207136
 31
0.0
  0
DIMENSION
  5
251
330
1F
100
AcDbEntity
  8
9
  6
CONTINUOUS
 62
     4
100
AcDbDimension
  2
DIM1
 10
569.098297639778
 20
140.2836032876633
 30
0.0
 11
419.0982976397782
 21
140.2836032876633
 31
0.0
 70
   160
  1
<>
  3
STANDARD
100
AcDbAlignedDimension
 13
269.0982976397781
 23
240.4181124999789
 33
0.0
 14
569.0982976397781
 24
240.4181124999789
 34
0.0
100
AcDbRotatedDimension
1001
ACAD
1000
DSTYLE
1002
{
1070
   287
1070
     4
1070
     7
1000

1070
     6
1000

1070
   279
1070
     1
1070
   340
1005
247
1070
   140
1040
6.0
1070
    40
1040
1.0
1070
   147
1040
0.0
1070
    76
1070
     0
1070
    75
1070
     0
1070
   173
1070
     1
1070
   289
1070
     2
1070
   288
1070
     1
1070
    77
1070
     1
1070
   172
1070
     1
1070
   174
1070
     0
1070
    74
1070
     0
1070
    73
1070
     0
1070
   284
1070
     8
1070
    78
1070
     8
1070
    42
1040
2.0
1070
    44
1040
3.0
1070
    43
1040
30.0
1070
   271
1070
     2
1070
    41
1040
4.0
1002
}
  0
DIMENSION
  5
25B
330
1F
100
AcDbEntity
  8
9
  6
CONTINUOUS
 62
     4
100
AcDbDimension
  2
DIM2
 10
584.0982976397779
 20
116.444838018356
 30
0.0
 11
419.0982976397782
 21
116.444838018356
 31
0.0
 70
   160
  1
<>
  3
STANDARD
100
AcDbAlignedDimension
 13
254.0982976397781
 23
225.4181124999771
 33
0.0
 14
584.0982976397781
 24
225.4181124999789
 34
0.0
100
AcDbRotatedDimension
1001
ACAD
1000
DSTYLE
1002
{
1070
   287
1070
     4
1070
     7
1000

1070
     6
1000

1070
   279
1070
     1
1070
   340
1005
247
1070
   140
1040
6.0
1070
    40
1040
1.0
1070
   147
1040
0.0
1070
    76
1070
     0
1070
    75
1070
     0
1070
   173
1070
     1
1070
   289
1070
     2
1070
   288
1070
     1
1070
    77
1070
     1
1070
   172
1070
     1
1070
   174
1070
     0
1070
    74
1070
     0
1070
    73
1070
     0
1070
   284
1070
     8
1070
    78
1070
     8
1070
    42
1040
2.0
1070
    44
1040
3.0
1070
    43
1040
30.0
1070
   271
1070
     2
1070
    41
1040
4.0
1002
}
  0
DIMENSION
  5
265
330
1F
100
AcDbEntity
  8
9
  6
CONTINUOUS
 62
     4
100
AcDbDimension
  2
DIM3
 10
750.6666024970672
 20
140.2836032876633
 30
0.0
 11
728.1666024970673
 21
140.2836032876633
 31
0.0
 70
   160
  1
<>
  3
STANDARD
100
AcDbAlignedDimension
 13
705.6666024970673
 23
225.4181124999789
 33
0.0
 14
750.6666024970673
 24
210.4181124999789
 34
0.0
100
AcDbRotatedDimension
1001
ACAD
1000
DSTYLE
1002
{
1070
   287
1070
     4
1070
     7
1000

1070
     6
1000

1070
   279
1070
     1
1070
   340
1005
247
1070
   140
1040
6.0
1070
    40
1040
1.0
1070
   147
1040
0.0
1070
    76
1070
     0
1070
    75
1070
     0
1070
   173
1070
     1
1070
   289
1070
     2
1070
   288
1070
     1
1070
    77
1070
     1
1070
   172
1070
     1
1070
   174
1070
     0
1070
    74
1070
     0
1070
    73
1070
     0
1070
   284
1070
     8
1070
    78
1070
     8
1070
    42
1040
2.0
1070
    44
1040
3.0
1070
    43
1040
30.0
1070
   271
1070
     2
1070
    41
1040
4.0
1002
}
  0
DIMENSION
  5
26F
330
1F
100
AcDbEntity
  8
9
  6
CONTINUOUS
 62
     4
100
AcDbDimension
  2
DIM4
 10
749.6666024970655
 20
184.9833015238958
 30
0.0
 11
761.6666024970673
 21
184.9833015238958
 31
0.0
 70
   160
  1
<>
  3
STANDARD
100
AcDbAlignedDimension
 13
750.6666024970673
 23
210.4181124999789
 33
0.0
 14
749.6666024970655
 24
210.4181124999789
 34
0.0
 50
179.9999999999998
100
AcDbRotatedDimension
1001
ACAD
1000
DSTYLE
1002
{
1070
   287
1070
     4
1070
     7
1000

1070
     6
1000

1070
   279
1070
     1
1070
   340
1005
247
1070
   140
1040
6.0
1070
    40
1040
1.0
1070
   147
1040
0.0
1070
    76
1070
     0
1070
    75
1070
     0
1070
   173
1070
     1
1070
   289
1070
     2
1070
   288
1070
     1
1070
    77
1070
     1
1070
   172
1070
     1
1070
   174
1070
     0
1070
    74
1070
     0
1070
    73
1070
     0
1070
   284
1070
     8
1070
    78
1070
     8
1070
    42
1040
2.0
1070
    44
1040
3.0
1070
    43
1040
30.0
1070
   271
1070
     2
1070
    41
1040
4.0
1002
}
  0
DIMENSION
  5
279
330
1F
100
AcDbEntity
  8
9
  6
CONTINUOUS
 62
     4
100
AcDbDimension
  2
DIM5
 10
229.796984410913
 20
440.418112499979
 30
0.0
 11
229.796984410913
 21
340.4181124999789
 31
0.0
 70
   160
  1
<>
  3
STANDARD
100
AcDbAlignedDimension
 13
269.0982976397781
 23
240.4181124999789
 33
0.0
 14
269.0982976397781
 24
440.4181124999789
 34
0.0
 50
89.99999999999991
100
AcDbRotatedDimension
1001
ACAD
1000
DSTYLE
1002
{
1070
   287
1070
     4
1070
     7
1000

1070
     6
1000

1070
   279
1070
     1
1070
   340
1005
247
1070
   140
1040
6.0
1070
    40
1040
1.0
1070
   147
1040
0.0
1070
    76
1070
     0
1070
    75
1070
     0
1070
   173
1070
     1
1070
   289
1070
     2
1070
   288
1070
     1
1070
    77
1070
     1
1070
   172
1070
     1
1070
   174
1070
     0
1070
    74
1070
     0
1070
    73
1070
     0
1070
   284
1070
     8
1070
    78
1070
     8
1070
    42
1040
2.0
1070
    44
1040
3.0
1070
    43
1040
30.0
1070
   271
1070
     2
1070
    41
1040
4.0
1002
}
  0
DIMENSION
  5
283
330
1F
100
AcDbEntity
  8
9
  6
CONTINUOUS
 62
     4
100
AcDbDimension
  2
DIM6
 10
208.3072160565271
 20
455.418112499979
 30
0.0
 11
208.3072160565271
 21
340.4181124999789
 31
0.0
 70
   160
  1
<>
  3
STANDARD
100
AcDbAlignedDimension
 13
254.0982976397781
 23
225.4181124999789
 33
0.0
 14
254.0982976397781
 24
455.4181124999789
 34
0.0
 50
89.99999999999991
100
AcDbRotatedDimension
1001
ACAD
1000
DSTYLE
1002
{
1070
   287
1070
     4
1070
     7
1000

1070
     6
1000

1070
   279
1070
     1
1070
   340
1005
247
1070
   140
1040
6.0
1070
    40
1040
1.0
1070
   147
1040
0.0
1070
    76
1070
     0
1070
    75
1070
     0
1070
   173
1070
     1
1070
   289
1070
     2
1070
   288
1070
     1
1070
    77
1070
     1
1070
   172
1070
     1
1070
   174
1070
     0
1070
    74
1070
     0
1070
    73
1070
     0
1070
   284
1070
     8
1070
    78
1070
     8
1070
    42
1040
2.0
1070
    44
1040
3.0
1070
    43
1040
30.0
1070
   271
1070
     2
1070
    41
1040
4.0
1002
}
  0
DIMENSION
  5
28D
330
1F
100
AcDbEntity
  8
9
  6
CONTINUOUS
 62
     4
100
AcDbDimension
  2
DIM7
 10
186.6643300781134
 20
463.4181124999792
 30
0.0
 11
186.6643300781134
 21
340.4181124999789
 31
0.0
 70
   160
  1
<>
  3
STANDARD
100
AcDbAlignedDimension
 13
294.0982976397781
 23
217.4181124999789
 33
0.0
 14
287.4982976397778
 24
463.4181124999789
 34
0.0
 50
89.99999999999991
100
AcDbRotatedDimension
1001
ACAD
1000
DSTYLE
1002
{
1070
   287
1070
     4
1070
     7
1000

1070
     6
1000

1070
   279
1070
     1
1070
   340
1005
247
1070
   140
1040
6.0
1070
    40
1040
1.0
1070
   147
1040
0.0
1070
    76
1070
     0
1070
    75
1070
     0
1070
   173
1070
     1
1070
   289
1070
     2
1070
   288
1070
     1
1070
    77
1070
     1
1070
   172
1070
     1
1070
   174
1070
     0
1070
    74
1070
     0
1070
    73
1070
     0
1070
   284
1070
     8
1070
    78
1070
     8
1070
    42
1040
2.0
1070
    44
1040
3.0
1070
    43
1040
30.0
1070
   271
1070
     2
1070
    41
1040
4.0
1002
}
  0
DIMENSION
  5
297
330
1F
100
AcDbEntity
  8
9
  6
CONTINUOUS
 62
     4
100
AcDbDimension
  2
DIM8
 10
165.7934925566542
 20
210.4181124999792
 30
0.0
 11
165.7934925566542
 21
340.4181124999787
 31
0.0
 70
   160
  1
<>
 53
89.99999999999991
  3
STANDARD
100
AcDbAlignedDimension
 13
274.0982976397773
 23
470.4181124999789
 33
0.0
 14
274.0982976397773
 24
210.4181124999789
 34
0.0
 50
-89.99999999999991
100
AcDbRotatedDimension
1001
ACAD
1000
DSTYLE
1002
{
1070
   287
1070
     4
1070
     7
1000

1070
     6
1000

1070
   279
1070
     1
1070
   340
1005
247
1070
   140
1040
6.0
1070
    40
1040
1.0
1070
   147
1040
0.0
1070
    76
1070
     0
1070
    75
1070
     0
1070
   173
1070
     1
1070
   289
1070
     2
1070
   288
1070
     1
1070
    77
1070
     1
1070
   172
1070
     1
1070
   174
1070
     0
1070
    74
1070
     0
1070
    73
1070
     0
1070
   284
1070
     8
1070
    78
1070
     8
1070
    42
1040
2.0
1070
    44
1040
3.0
1070
    43
1040
30.0
1070
   271
1070
     2
1070
    41
1040
4.0
1002
}
  0
DIMENSION
  5
2A1
330
1F
100
AcDbEntity
  8
9
  6
CONTINUOUS
 62
     4
100
AcDbDimension
  2
DIM9
 10
481.5982976397781
 20
184.9833015238958
 30
0.0
 11
419.0982976397781
 21
184.9833015238958
 31
0.0
 70
   160
  1
<>
  3
STANDARD
100
AcDbAlignedDimension
 13
356.5982976397782
 23
210.8181124999786
 33
0.0
 14
481.5982976397782
 24
210.8181124999786
 34
0.0
100
AcDbRotatedDimension
1001
ACAD
1000
DSTYLE
1002
{
1070
   287
1070
     4
1070
     7
1000

1070
     6
1000

1070
   279
1070
     1
1070
   340
1005
247
1070
   140
1040
6.0
1070
    40
1040
1.0
1070
   147
1040
0.0
1070
    76
1070
     0
1070
    75
1070
     0
1070
   173
1070
     1
1070
   289
1070
     2
1070
   288
1070
     1
1070
    77
1070
     1
1070
   172
1070
     1
1070
   174
1070
     0
1070
    74
1070
     0
1070
    73
1070
     0
1070
   284
1070
     8
1070
    78
1070
     8
1070
    42
1040
2.0
1070
    44
1040
3.0
1070
    43
1040
30.0
1070
   271
1070
     2
1070
    41
1040
4.0
1002
}
  0
DIMENSION
  5
2AB
330
1F
100
AcDbEntity
  8
9
  6
CONTINUOUS
 62
     4
100
AcDbDimension
  2
DIM10
 10
294.0982976397781
 20
161.5688927542481
 30
0.0
 11
419.0982976397781
 21
161.5688927542481
 31
0.0
 70
   160
  1
<>
  3
STANDARD
100
AcDbAlignedDimension
 13
544.0982976397781
 23
210.8181124999786
 33
0.0
 14
294.0982976397781
 24
210.8181124999786
 34
0.0
 50
179.9999999999998
100
AcDbRotatedDimension
1001
ACAD
1000
DSTYLE
1002
{
1070
   287
1070
     4
1070
     7
1000

1070
     6
1000

1070
   279
1070
     1
1070
   340
1005
247
1070
   140
1040
6.0
1070
    40
1040
1.0
1070
   147
1040
0.0
1070
    76
1070
     0
1070
    75
1070
     0
1070
   173
1070
     1
1070
   289
1070
     2
1070
   288
1070
     1
1070
    77
1070
     1
1070
   172
1070
     1
1070
   174
1070
     0
1070
    74
1070
     0
1070
    73
1070
     0
1070
   284
1070
     8
1070
    78
1070
     8
1070
    42
1040
2.0
1070
    44
1040
3.0
1070
    43
1040
30.0
1070
   271
1070
     2
1070
    41
1040
4.0
1002
}
  0
DIMENSION
  5
2B5
330
1F
100
AcDbEntity
  8
9
  6
CONTINUOUS
 62
     4
100
AcDbDimension
  2
DIM11
 10
602.0982976397778
 20
116.444838018356
 30
0.0
 11
616.0982976397781
 21
116.444838018356
 31
0.0
 70
   160
  1
(<>
  3
STANDARD
100
AcDbAlignedDimension
 13
584.0982976397781
 23
225.4181124999789
 33
0.0
 14
602.0982976397781
 24
337.9181124999789
 34
0.0
100
AcDbRotatedDimension
1001
ACAD
1000
DSTYLE
1002
{
1070
   287
1070
     4
1070
     7
1000

1070
     6
1000

1070
   279
1070
     1
1070
   340
1005
247
1070
   140
1040
6.0
1070
    40
1040
1.0
1070
   147
1040
0.0
1070
    76
1070
     0
1070
    75
1070
     0
1070
   173
1070
     1
1070
   289
1070
     2
1070
   288
1070
     1
1070
    77
1070
     1
1070
   172
1070
     1
1070
   174
1070
     0
1070
    74
1070
     0
1070
    73
1070
     0
1070
   284
1070
     8
1070
    78
1070
     8
1070
    42
1040
2.0
1070
    44
1040
3.0
1070
    43
1040
30.0
1070
   271
1070
     2
1070
    41
1040
4.0
1002
}
  0
DIMENSION
  5
2BF
330
1F
100
AcDbEntity
  8
9
  6
CONTINUOUS
 62
     4
100
AcDbDimension
  2
DIM12
 10
750.6666024970672
 20
161.5688927542481
 30
0.0
 11
769.1666024970673
 21
161.5688927542481
 31
0.0
 70
   160
  1
(<>
  3
STANDARD
100
AcDbAlignedDimension
 13
730.2383992667837
 23
340.4181124999789
 33
0.0
 14
750.6666024970673
 24
210.4181124999789
 34
0.0
100
AcDbRotatedDimension
1001
ACAD
1000
DSTYLE
1002
{
1070
   287
1070
     4
1070
     7
1000

1070
     6
1000

1070
   279
1070
     1
1070
   340
1005
247
1070
   140
1040
6.0
1070
    40
1040
1.0
1070
   147
1040
0.0
1070
    76
1070
     0
1070
    75
1070
     0
1070
   173
1070
     1
1070
   289
1070
     2
1070
   288
1070
     1
1070
    77
1070
     1
1070
   172
1070
     1
1070
   174
1070
     0
1070
    74
1070
     0
1070
    73
1070
     0
1070
   284
1070
     8
1070
    78
1070
     8
1070
    42
1040
2.0
1070
    44
1040
3.0
1070
    43
1040
30.0
1070
   271
1070
     2
1070
    41
1040
4.0
1002
}
  0
MTEXT
  5
2C0
330
1F
100
AcDbEntity
  8
2
  6
CONTINUOUS
 62
   151
100
AcDbMText
 10
82.3685539757289
 20
146.058393234972
 30
0.0
 40
5.2
 41
73.74069957295603
 71
     4
 72
     1
  1
{\fＭＳ ゴシック;\T0.771853;Details of Connector}
1001
ACAD
1000
ACAD_MTEXT_DEFINED_HEIGHT_BEGIN
1070
    46
1040
5.2
1000
ACAD_MTEXT_DEFINED_HEIGHT_END
  0
MTEXT
  5
2C1
330
1F
100
AcDbEntity
  8
2
  6
CONTINUOUS
 62
   151
100
AcDbMText
 10
124.36845905263
 20
106.6162252820716
 30
0.0
 40
4.0
 41
14.1499936208
 71
     4
 72
     1
  1
{\fＭＳ ゴシック;\T0.762970;Light}
1001
ACAD
1000
ACAD_MTEXT_DEFINED_HEIGHT_BEGIN
1070
    46
1040
4.0
1000
ACAD_MTEXT_DEFINED_HEIGHT_END
  0
MTEXT
  5
2C2
330
1F
100
AcDbEntity
  8
2
  6
CONTINUOUS
 62
   151
100
AcDbMText
 10
124.36845905263
 20
96.6162452820711
 30
0.0
 40
4.0
 41
25.52732986687999
 71
     4
 72
     1
  1
{\fＭＳ ゴシック;\T0.757746;SMR-03V-B}
1001
ACAD
1000
ACAD_MTEXT_DEFINED_HEIGHT_BEGIN
1070
    46
1040
4.0
1000
ACAD_MTEXT_DEFINED_HEIGHT_END
  0
MTEXT
  5
2C3
330
1F
100
AcDbEntity
  8
2
  6
CONTINUOUS
 62
   151
100
AcDbMText
 10
124.36845905263
 20
86.6162452820711
 30
0.0
 40
4.0
 41
36.85864398112
 71
     4
 72
     1
  1
{\fＭＳ ゴシック;\T0.765486;BYM-001T-P0.6}
1001
ACAD
1000
ACAD_MTEXT_DEFINED_HEIGHT_BEGIN
1070
    46
1040
4.0
1000
ACAD_MTEXT_DEFINED_HEIGHT_END
  0
MTEXT
  5
2C4
330
1F
100
AcDbEntity
  8
2
  6
CONTINUOUS
 62
   151
100
AcDbMText
 10
172.3684390526305
 20
96.6162452820711
 30
0.0
 40
4.0
 41
28.36553734692
 71
     4
 72
     1
  1
{\fＭＳ ゴシック;\T0.758093;SMP-03V-BC}
1001
ACAD
1000
ACAD_MTEXT_DEFINED_HEIGHT_BEGIN
1070
    46
1040
4.0
1000
ACAD_MTEXT_DEFINED_HEIGHT_END
  0
MTEXT
  5
2C5
330
1F
100
AcDbEntity
  8
2
  6
CONTINUOUS
 62
   151
100
AcDbMText
 10
172.3684390526305
 20
86.6162452820711
 30
0.0
 40
4.0
 41
39.70298692048001
 71
     4
 72
     1
  1
{\fＭＳ ゴシック;\T0.763956;BHF-001T-0.8SS}
1001
ACAD
1000
ACAD_MTEXT_DEFINED_HEIGHT_BEGIN
1070
    46
1040
4.0
1000
ACAD_MTEXT_DEFINED_HEIGHT_END
  0
MTEXT
  5
2C6
330
1F
100
AcDbEntity
  8
2
  6
CONTINUOUS
 62
   151
100
AcDbMText
 10
172.3684390526305
 20
106.6162252820716
 30
0.0
 40
4.0
 41
46.98988480707999
 71
     4
 72
     1
  1
{\fＭＳ ゴシック;\T0.992983;Power　Supply　}
1001
ACAD
1000
ACAD_MTEXT_DEFINED_HEIGHT_BEGIN
1070
    46
1040
4.0
1000
ACAD_MTEXT_DEFINED_HEIGHT_END
  0
MTEXT
  5
2C7
330
1F
100
AcDbEntity
  8
2
  6
CONTINUOUS
 62
   151
100
AcDbMText
 10
84.36843905263049
 20
96.6162452820711
 30
0.0
 40
4.0
 41
25.476877744
 71
     4
 72
     1
  1
{\fＭＳ ゴシック;\T0.773550;Connector}
1001
ACAD
1000
ACAD_MTEXT_DEFINED_HEIGHT_BEGIN
1070
    46
1040
4.0
1000
ACAD_MTEXT_DEFINED_HEIGHT_END
  0
MTEXT
  5
2C8
330
1F
100
AcDbEntity
  8
2
  6
CONTINUOUS
 62
   151
100
AcDbMText
 10
84.36843905263049
 20
86.6162452820711
 30
0.0
 40
4.0
 41
19.83480595536
 71
     4
 72
     1
  1
{\fＭＳ ゴシック;\T0.761366;Contact}
1001
ACAD
1000
ACAD_MTEXT_DEFINED_HEIGHT_BEGIN
1070
    46
1040
4.0
1000
ACAD_MTEXT_DEFINED_HEIGHT_END
  0
INSERT
  5
2D1
330
1F
100
AcDbEntity
  8
0
100
AcDbBlockReference
  2
*G28
 10
0.0
 20
0.0
 30
0.0
  0
DIMENSION
  5
2D9
330
1F
100
AcDbEntity
  8
9
  6
CONTINUOUS
 62
     4
100
AcDbDimension
  2
DIM13
 10
404.7090373503988
 20
316.9831132824735
 30
0.0
 11
512.4874595111537
 21
498.2493623145326
 31
0.0
 70
   163
  1
\U+2205<>
  3
STANDARD
100
AcDbDiametricDimension
 15
433.4875579291534
 25
363.8531117174871
 35
0.0
 40
0.0
1001
ACAD
1000
DSTYLE
1002
{
1070
   287
1070
     2
1070
     7
1000

1070
     6
1000

1070
   340
1005
247
1070
   140
1040
6.0
1070
    40
1040
1.0
1070
   147
1040
0.0
1070
    76
1070
     0
1070
    75
1070
     0
1070
   173
1070
     1
1070
   289
1070
     2
1070
   288
1070
     1
1070
    77
1070
     1
1070
   172
1070
     1
1070
   174
1070
     0
1070
    74
1070
     0
1070
    73
1070
     0
1070
   284
1070
     8
1070
    78
1070
     8
1070
    42
1040
2.0
1070
    44
1040
3.0
1070
    43
1040
30.0
1070
   271
1070
     2
1070
    41
1040
4.0
1002
}
  0
DIMENSION
  5
2E1
330
1F
100
AcDbEntity
  8
9
  6
CONTINUOUS
 62
     4
100
AcDbDimension
  2
DIM14
 10
397.6752163934495
 20
315.9783582067537
 30
0.0
 11
551.7522855722269
 21
496.3028254731678
 31
0.0
 70
   163
  1
\U+2205<>
  3
STANDARD
100
AcDbDiametricDimension
 15
440.5213788861049
 25
364.857866793204
 35
0.0
 40
0.0
1001
ACAD
1000
DSTYLE
1002
{
1070
   287
1070
     2
1070
     7
1000

1070
     6
1000

1070
   340
1005
247
1070
   140
1040
6.0
1070
    40
1040
1.0
1070
   147
1040
0.0
1070
    76
1070
     0
1070
    75
1070
     0
1070
   173
1070
     1
1070
   289
1070
     2
1070
   288
1070
     1
1070
    77
1070
     1
1070
   172
1070
     1
1070
   174
1070
     0
1070
    74
1070
     0
1070
    73
1070
     0
1070
   284
1070
     8
1070
    78
1070
     8
1070
    42
1040
2.0
1070
    44
1040
3.0
1070
    43
1040
30.0
1070
   271
1070
     2
1070
    41
1040
4.0
1002
}
  0
INSERT
  5
2E2
330
1F
100
AcDbEntity
  8
9
  6
CONTINUOUS
 62
     4
100
AcDbBlockReference
  2
_OPEN
 10
295.6482976397783
 20
466.1027912517104
 30
0.0
 41
4.0
 42
4.0
 43
4.0
 50
240.0000000000006
  0
POLYLINE
  5
2E3
330
1F
100
AcDbEntity
  8
9
  6
CONTINUOUS
 62
     4
100
AcDb2dPolyline
 66
     1
 10
0.0
 20
0.0
 30
0.0
  0
VERTEX
  5
2E4
330
2E3
100
AcDbEntity
  8
9
  6
CONTINUOUS
 62
     4
100
AcDbVertex
100
AcDb2dVertex
 10
295.6482976397783
 20
466.1027912517104
 30
0.0
  0
VERTEX
  5
2E5
330
2E3
100
AcDbEntity
  8
9
  6
CONTINUOUS
 62
     4
100
AcDbVertex
100
AcDb2dVertex
 10
310.6721293651126
 20
492.1248311243555
 30
0.0
  0
VERTEX
  5
2E6
330
2E3
100
AcDbEntity
  8
9
  6
CONTINUOUS
 62
     4
100
AcDbVertex
100
AcDb2dVertex
 10
336.0321293651125
 20
492.1248311243555
 30
0.0
  0
SEQEND
  5
2E7
330
2E3
100
AcDbEntity
  8
9
  6
CONTINUOUS
 62
     4
  0
MTEXT
  5
2E8
330
1F
100
AcDbEntity
  8
9
  6
CONTINUOUS
 62
     4
100
AcDbMText
 10
313.0321293651126
 20
492.1248311243555
 30
0.0
 40
6.0
 41
32.587333062
 71
     7
 72
     1
  1
{\fＭＳ ゴシック;\T1.016260;8-\U+00D86.2}
1001
ACAD
1000
ACAD_MTEXT_DEFINED_HEIGHT_BEGIN
1070
    46
1040
6.0
1000
ACAD_MTEXT_DEFINED_HEIGHT_END
  0
VIEWPORT
  5
3F
330
1B
100
AcDbEntity
 67
     1
  8
0
100
AcDbViewport
 10
420.0
 20
297.0
 30
0.0
 40
840.0
 41
594.0
 68
     1
 69
     1
1001
ACAD
1000
MVIEW
1002
{
1070
    16
1010
0.0
1020
0.0
1030
0.0
1010
0.0
1020
0.0
1030
1.0
1040
0.0
1040
9.0
1040
420.0
1040
297.0
1040
50.0
1040
0.0
1040
0.0
1070
     0
1070
   100
1070
     0
1070
     3
1070
     0
1070
     0
1070
     0
1070
     0
1040
0.0
1040
0.0
1040
0.0
1040
0.5
1040
0.5
1040
0.5
1040
0.5
1070
     0
1002
{
1002
}
1002
}
  0
ENDSEC
  0
SECTION
  2
OBJECTS
  0
DICTIONARY
  5
C
330
0
100
AcDbDictionary
  3
ACAD_GROUP
350
D
  3
ACAD_LAYOUT
350
1A
  3
ACAD_MATERIAL
350
3B
  3
ACAD_MLEADERSTYLE
350
30B
  3
ACAD_MLINESTYLE
350
17
  3
ACAD_PLOTSETTINGS
350
19
  3
ACAD_VISUALSTYLE
350
2A
  3
ACDBHEADERROUNDTRIPXREC
350
2E9
  3
ACDBVARIABLEDICTIONARY
350
309
  0
DICTIONARY
  5
D
102
{ACAD_REACTORS
330
C
102
}
330
C
100
AcDbDictionary
  0
DICTIONARY
  5
1A
102
{ACAD_REACTORS
330
C
102
}
330
C
100
AcDbDictionary
  0
DICTIONARY
  5
3B
102
{ACAD_REACTORS
330
C
102
}
330
C
100
AcDbDictionary
  3
BYBLOCK
350
3D
  3
BYLAYER
350
3C
  3
GLOBAL
350
3E
  0
DICTIONARY
  5
30B
102
{ACAD_REACTORS
330
C
102
}
330
C
100
AcDbDictionary
  0
DICTIONARY
  5
17
102
{ACAD_REACTORS
330
C
102
}
330
C
100
AcDbDictionary
  3
STANDARD
350
18
  0
DICTIONARY
  5
19
102
{ACAD_REACTORS
330
C
102
}
330
C
100
AcDbDictionary
  0
DICTIONARY
  5
2A
102
{ACAD_REACTORS
330
C
102
}
330
C
100
AcDbDictionary
  3
2DWIREFRAME
350
2F
  3
3D_HIDDEN
350
31
  3
3DWIREFRAME
350
30
  3
BASIC
350
32
  3
BRIGHTEN
350
36
  3
COLORCHANGE
350
3A
  3
CONCEPTUAL
350
34
  3
DIM
350
35
  3
FACEPATTERN
350
39
  3
FLAT
350
2B
  3
FLATWITHEDGES
350
2C
  3
GOURAUD
350
2D
  3
GOURAUDWITHEDGES
350
2E
  3
LINEPATTERN
350
38
  3
REALISTIC
350
33
  3
THICKEN
350
37
  0
DICTIONARY
  5
2E9
102
{ACAD_REACTORS
330
C
102
}
330
C
100
AcDbDictionary
  3
CEPSNTYPE
350
2F2
  3
DIMSTYLEDATA
350
308
  3
FINGERPRINTGUID
350
2F3
  3
HYPERLINKBASE
350
2EC
  3
INSUNITS
350
2F1
  3
LAYOUTDICT
350
2EE
  3
LWETCUNION
350
2F0
  3
PLOTSETDICT
350
2EF
  3
PSVPSCALE
350
2F5
  3
PUCSBASE
350
2F8
  3
PUCSORGBACK
350
2FE
  3
PUCSORGBOTTOM
350
2FA
  3
PUCSORGFRONT
350
2FD
  3
PUCSORGLEFT
350
2FB
  3
PUCSORGRIGHT
350
2FC
  3
PUCSORGTOP
350
2F9
  3
PUCSORTHOREF
350
2F6
  3
PUCSORTHOVIEW
350
2F7
  3
STYLESHEET
350
2ED
  3
TSTACKALIGN
350
2EA
  3
TSTACKSIZE
350
2EB
  3
UCSBASE
350
301
  3
UCSORGBACK
350
307
  3
UCSORGBOTTOM
350
303
  3
UCSORGFRONT
350
306
  3
UCSORGLEFT
350
304
  3
UCSORGRIGHT
350
305
  3
UCSORGTOP
350
302
  3
UCSORTHOREF
350
2FF
  3
UCSORTHOVIEW
350
300
  3
VERSIONGUID
350
2F4
  0
DICTIONARY
  5
309
102
{ACAD_REACTORS
330
C
102
}
330
C
100
AcDbDictionary
  3
DIMASSOC
350
30C
  3
HIDETEXT
350
30D
  0
MATERIAL
  5
3D
102
{ACAD_REACTORS
330
3B
102
}
102
{ACAD_XDICTIONARY
360
310
102
}
330
3B
100
AcDbMaterial
  1
ByBlock
  0
MATERIAL
  5
3C
102
{ACAD_REACTORS
330
3B
102
}
102
{ACAD_XDICTIONARY
360
30E
102
}
330
3B
100
AcDbMaterial
  1
ByLayer
  0
MATERIAL
  5
3E
102
{ACAD_REACTORS
330
3B
102
}
102
{ACAD_XDICTIONARY
360
312
102
}
330
3B
100
AcDbMaterial
  1
Global
  0
MLINESTYLE
  5
18
102
{ACAD_REACTORS
330
17
102
}
330
17
100
AcDbMlineStyle
  2
Standard
 70
     0
  3

 62
   256
 51
90.0
 52
90.0
 71
     2
 49
0.5
 62
   256
  6
BYLAYER
 49
-0.5
 62
   256
  6
BYLAYER
  0
ACAD_PROXY_OBJECT
  5
2F
102
{ACAD_REACTORS
330
2A
102
}
330
2A
100
AcDbProxyObject
 90
      499
 91
      501
 93
      436
310
42CC9915DA5C99599C985B595049028333333333333E3BF0000000000000FB0107901411070040501600405405064090741402480A0340
1001
ACAD
1000
AcDbSavedByObjectVersion
1070
     0
  0
ACAD_PROXY_OBJECT
  5
31
102
{ACAD_REACTORS
330
2A
102
}
330
2A
100
AcDbProxyObject
 90
      499
 91
      501
 93
      500
310
424CD108121A5919195B90640502408333333333333E3BF0000000000000FB01079024090700405020000000000001110200405405064090740C02480A0340
1001
ACAD
1000
AcDbSavedByObjectVersion
1070
     0
  0
ACAD_PROXY_OBJECT
  5
30
102
{ACAD_REACTORS
330
2A
102
}
330
2A
100
AcDbProxyObject
 90
      499
 91
      501
 93
      436
310
42CCD915DA5C99599C985B595059028333333333333E3BF0000000000000FB0107901411070040501600405405064090741402480A0340
1001
ACAD
1000
AcDbSavedByObjectVersion
1070
     0
  0
ACAD_PROXY_OBJECT
  5
32
102
{ACAD_REACTORS
330
2A
102
}
330
2A
100
AcDbProxyObject
 90
      499
 91
      501
 93
      388
310
4150985CDA58D07406404333333333333E3BF0000000000000FB0107A41107004050150841D405064090741402480A0350
1001
ACAD
1000
AcDbSavedByObjectVersion
1070
     0
  0
ACAD_PROXY_OBJECT
  5
36
102
{ACAD_REACTORS
330
2A
102
}
330
2A
100
AcDbProxyObject
 90
      499
 91
      501
 93
      428
310
42109C9A59DA1D195B90C409028333333333333E3BF0000000000000FB010790141107004050150841D405064090741402480A029950
1001
ACAD
1000
AcDbSavedByObjectVersion
1070
     0
  0
ACAD_PROXY_OBJECT
  5
3A
102
{ACAD_REACTORS
330
2A
102
}
330
2A
100
AcDbProxyObject
 90
      499
 91
      501
 93
      452
310
42D0DBDB1BDC90DA185B99D95104090240C333333333333E3BF0000000000000FB0108901411070040501508421405064090741402480A0350
1001
ACAD
1000
AcDbSavedByObjectVersion
1070
     0
  0
ACAD_PROXY_OBJECT
  5
34
102
{ACAD_REACTORS
330
2A
102
}
330
2A
100
AcDbProxyObject
 90
      499
 91
      501
 93
      500
310
4290DBDB98D95C1D1D585B10940D028333333333333E3BF0000000000000FB0107902409070040501000000000000111010841D405064090740C02480A0340
1001
ACAD
1000
AcDbSavedByObjectVersion
1070
     0
  0
ACAD_PROXY_OBJECT
  5
35
102
{ACAD_REACTORS
330
2A
102
}
330
2A
100
AcDbProxyObject
 90
      499
 91
      501
 93
      412
310
40D11A5B50B409028333333333333E3BF0000000000000FB010790141107004050150841D405064090741402480A02677FFFFFD0
1001
ACAD
1000
AcDbSavedByObjectVersion
1070
     0
  0
ACAD_PROXY_OBJECT
  5
39
102
{ACAD_REACTORS
330
2A
102
}
330
2A
100
AcDbProxyObject
 90
      499
 91
      501
 93
      444
310
42D19858D95C185D1D195C9B90F409028333333333333E3BF0000000000000FB010790141107004050150841D405064090741402480A0350
1001
ACAD
1000
AcDbSavedByObjectVersion
1070
     0
  0
ACAD_PROXY_OBJECT
  5
2B
102
{ACAD_REACTORS
330
2A
102
}
330
2A
100
AcDbProxyObject
 90
      499
 91
      501
 93
      388
310
41119B185D240901404333333333333E3BF0000000000000F9010740A41107004050150841D405064090741402480A1B50
1001
ACAD
1000
AcDbSavedByObjectVersion
1070
     0
  0
ACAD_PROXY_OBJECT
  5
2C
102
{ACAD_REACTORS
330
2A
102
}
330
2A
100
AcDbProxyObject
 90
      499
 91
      501
 93
      476
310
43519B185D15DA5D1A115919D95CD0140901404333333333333E3BF0000000000000F9010740901411070040501600405405064090741402480A1B50
1001
ACAD
1000
AcDbSavedByObjectVersion
1070
     0
  0
ACAD_PROXY_OBJECT
  5
2D
102
{ACAD_REACTORS
330
2A
102
}
330
2A
100
AcDbProxyObject
 90
      499
 91
      501
 93
      412
310
41D1DBDD5C985D5910240902404333333333333E3BF0000000000000F9010740A411070040501641D405064090741402480A1B50
1001
ACAD
1000
AcDbSavedByObjectVersion
1070
     0
  0
ACAD_PROXY_OBJECT
  5
2E
102
{ACAD_REACTORS
330
2A
102
}
330
2A
100
AcDbProxyObject
 90
      499
 91
      501
 93
      500
310
4411DBDD5C985D5915DA5D1A115919D95CD0340902404333333333333E3BF0000000000000F9010740901411070040501600405405064090741402480A1B50
1001
ACAD
1000
AcDbSavedByObjectVersion
1070
     0
  0
ACAD_PROXY_OBJECT
  5
38
102
{ACAD_REACTORS
330
2A
102
}
330
2A
100
AcDbProxyObject
 90
      499
 91
      501
 93
      444
310
42D31A5B995C185D1D195C9B90E409028333333333333E3BF0000000000000FB010790141107004050750841D405064090741402483A0350
1001
ACAD
1000
AcDbSavedByObjectVersion
1070
     0
  0
ACAD_PROXY_OBJECT
  5
33
102
{ACAD_REACTORS
330
2A
102
}
330
2A
100
AcDbProxyObject
 90
      499
 91
      501
 93
      420
310
425499585B1A5CDD1A58D08409028333333333333E3BF0000000000000FB01079019070040501508421405064090741402480A1B40
1001
ACAD
1000
AcDbSavedByObjectVersion
1070
     0
  0
ACAD_PROXY_OBJECT
  5
37
102
{ACAD_REACTORS
330
2A
102
}
330
2A
100
AcDbProxyObject
 90
      499
 91
      501
 93
      412
310
41D51A1A58DAD95B90D409028333333333333E3BF0000000000000FB010790141107004050150C41D405064090741402480A0350
1001
ACAD
1000
AcDbSavedByObjectVersion
1070
     0
  0
XRECORD
  5
2F2
102
{ACAD_REACTORS
330
2E9
102
}
330
2E9
100
AcDbXrecord
 90
        0
  0
XRECORD
  5
308
102
{ACAD_REACTORS
330
2E9
102
}
330
2E9
100
AcDbXrecord
1000
DSTYLE
1002
{
1070
   171
 70
     2
1070
   143
 40
25.4
1070
   274
 70
     2
1070
    41
 40
1.55291427
1070
   289
 70
     2
1070
   141
 40
0.09
1070
    43
 40
30.0
1070
   278
 70
    46
1070
    44
 40
2.0
1070
    42
 40
2.0
1070
   147
 40
0.09
1070
    77
 70
     3
1070
   272
 70
     4
1070
   146
 40
0.5
1070
   279
 70
     2
1070
   283
 70
     1
1070
   145
 40
0.7
1070
   340
340
11
1070
   140
 40
2.8
1070
   288
 70
     1
1002
}
  0
XRECORD
  5
2F3
102
{ACAD_REACTORS
330
2E9
102
}
330
2E9
100
AcDbXrecord
  1
{46A4D076-2309-4F8B-AC93-58580142F7D9}
  0
XRECORD
  5
2EC
102
{ACAD_REACTORS
330
2E9
102
}
330
2E9
100
AcDbXrecord
  1

  0
XRECORD
  5
2F1
102
{ACAD_REACTORS
330
2E9
102
}
330
2E9
100
AcDbXrecord
 90
        4
  0
XRECORD
  5
2EE
102
{ACAD_REACTORS
330
2E9
102
}
330
2E9
100
AcDbXrecord
340
1A
  0
XRECORD
  5
2F0
102
{ACAD_REACTORS
330
2E9
102
}
330
2E9
100
AcDbXrecord
 90
    10781
  0
XRECORD
  5
2EF
102
{ACAD_REACTORS
330
2E9
102
}
330
2E9
100
AcDbXrecord
340
19
  0
XRECORD
  5
2F5
102
{ACAD_REACTORS
330
2E9
102
}
330
2E9
100
AcDbXrecord
 40
0.0
  0
XRECORD
  5
2F8
102
{ACAD_REACTORS
330
2E9
102
}
330
2E9
100
AcDbXrecord
340
0
  0
XRECORD
  5
2FE
102
{ACAD_REACTORS
330
2E9
102
}
330
2E9
100
AcDbXrecord
 10
0.0
 20
0.0
 30
0.0
  0
XRECORD
  5
2FA
102
{ACAD_REACTORS
330
2E9
102
}
330
2E9
100
AcDbXrecord
 10
0.0
 20
0.0
 30
0.0
  0
XRECORD
  5
2FD
102
{ACAD_REACTORS
330
2E9
102
}
330
2E9
100
AcDbXrecord
 10
0.0
 20
0.0
 30
0.0
  0
XRECORD
  5
2FB
102
{ACAD_REACTORS
330
2E9
102
}
330
2E9
100
AcDbXrecord
 10
0.0
 20
0.0
 30
0.0
  0
XRECORD
  5
2FC
102
{ACAD_REACTORS
330
2E9
102
}
330
2E9
100
AcDbXrecord
 10
0.0
 20
0.0
 30
0.0
  0
XRECORD
  5
2F9
102
{ACAD_REACTORS
330
2E9
102
}
330
2E9
100
AcDbXrecord
 10
0.0
 20
0.0
 30
0.0
  0
XRECORD
  5
2F6
102
{ACAD_REACTORS
330
2E9
102
}
330
2E9
100
AcDbXrecord
340
0
  0
XRECORD
  5
2F7
102
{ACAD_REACTORS
330
2E9
102
}
330
2E9
100
AcDbXrecord
 70
     0
  0
XRECORD
  5
2ED
102
{ACAD_REACTORS
330
2E9
102
}
330
2E9
100
AcDbXrecord
  1

  0
XRECORD
  5
2EA
102
{ACAD_REACTORS
330
2E9
102
}
330
2E9
100
AcDbXrecord
 90
        1
  0
XRECORD
  5
2EB
102
{ACAD_REACTORS
330
2E9
102
}
330
2E9
100
AcDbXrecord
 90
       70
  0
XRECORD
  5
301
102
{ACAD_REACTORS
330
2E9
102
}
330
2E9
100
AcDbXrecord
340
0
  0
XRECORD
  5
307
102
{ACAD_REACTORS
330
2E9
102
}
330
2E9
100
AcDbXrecord
 10
0.0
 20
0.0
 30
0.0
  0
XRECORD
  5
303
102
{ACAD_REACTORS
330
2E9
102
}
330
2E9
100
AcDbXrecord
 10
0.0
 20
0.0
 30
0.0
  0
XRECORD
  5
306
102
{ACAD_REACTORS
330
2E9
102
}
330
2E9
100
AcDbXrecord
 10
0.0
 20
0.0
 30
0.0
  0
XRECORD
  5
304
102
{ACAD_REACTORS
330
2E9
102
}
330
2E9
100
AcDbXrecord
 10
0.0
 20
0.0
 30
0.0
  0
XRECORD
  5
305
102
{ACAD_REACTORS
330
2E9
102
}
330
2E9
100
AcDbXrecord
 10
0.0
 20
0.0
 30
0.0
  0
XRECORD
  5
302
102
{ACAD_REACTORS
330
2E9
102
}
330
2E9
100
AcDbXrecord
 10
0.0
 20
0.0
 30
0.0
  0
XRECORD
  5
2FF
102
{ACAD_REACTORS
330
2E9
102
}
330
2E9
100
AcDbXrecord
340
0
  0
XRECORD
  5
300
102
{ACAD_REACTORS
330
2E9
102
}
330
2E9
100
AcDbXrecord
 70
     0
  0
XRECORD
  5
2F4
102
{ACAD_REACTORS
330
2E9
102
}
330
2E9
100
AcDbXrecord
  1
{FAEB1C32-E019-11D5-929B-00C0DF256EC4}
  0
DICTIONARYVAR
  5
30C
102
{ACAD_REACTORS
330
309
102
}
330
309
100
DictionaryVariables
280
     0
  1
1
  0
DICTIONARYVAR
  5
30D
102
{ACAD_REACTORS
330
309
102
}
330
309
100
DictionaryVariables
280
     0
  1
1
  0
DICTIONARY
  5
310
330
3D
100
AcDbDictionary
280
     1
  3
ACAD_XREC_ROUNDTRIP
360
311
  0
DICTIONARY
  5
30E
330
3C
100
AcDbDictionary
280
     1
  3
ACAD_XREC_ROUNDTRIP
360
30F
  0
DICTIONARY
  5
312
330
3E
100
AcDbDictionary
280
     1
  3
ACAD_XREC_ROUNDTRIP
360
313
  0
XRECORD
  5
311
102
{ACAD_REACTORS
330
310
102
}
330
310
100
AcDbXrecord
102
MATERIAL
148
0.0
149
0.0
149
0.0
 93
        0
 94
      127
282
     0
 72
     1
 77
     1
171
     1
175
     1
179
     1
273
     0
  0
XRECORD
  5
30F
102
{ACAD_REACTORS
330
30E
102
}
330
30E
100
AcDbXrecord
102
MATERIAL
148
0.0
149
0.0
149
0.0
 93
        0
 94
      127
282
     0
 72
     1
 77
     1
171
     1
175
     1
179
     1
273
     0
  0
XRECORD
  5
313
102
{ACAD_REACTORS
330
312
102
}
330
312
100
AcDbXrecord
102
MATERIAL
148
0.0
149
0.0
149
0.0
 93
        0
 94
      127
282
     0
 72
     1
 77
     1
171
     1
175
     1
179
     1
273
     0
  0
ENDSEC
  0
EOF
