  0
SECTION
  2
HEADER
  9
$ACADVER
  1
AC1027
  9
$ACADMAINTVER
 70
     8
  9
$DWGCODEPAGE
  3
ANSI_932
  9
$REQUIREDVERSIONS
160
                 0
  9
$INSBASE
 10
0.0
 20
0.0
 30
0.0
  9
$EXTMIN
 10
224.0597274222487
 20
137.5783568522165
 30
0.0
  9
$EXTMAX
 10
794.80305550819
 20
522.2583499582162
 30
0.0
  9
$LIMMIN
 10
0.0
 20
0.0
  9
$LIMMAX
 10
420.0
 20
297.0
  9
$ORTHOMODE
 70
     0
  9
$REGENMODE
 70
     1
  9
$FILLMODE
 70
     1
  9
$QTEXTMODE
 70
     0
  9
$MIRRTEXT
 70
     1
  9
$LTSCALE
 40
0.75
  9
$ATTMODE
 70
     1
  9
$TEXTSIZE
 40
8.4
  9
$TRACEWID
 40
0.05
  9
$TEXTSTYLE
  7
Standard
  9
$CLAYER
  8
0
  9
$CELTYPE
  6
ByLayer
  9
$CECOLOR
 62
   256
  9
$CELTSCALE
 40
1.0
  9
$DISPSILH
 70
     0
  9
$DIMSCALE
 40
1.0
  9
$DIMASZ
 40
1.55291427
  9
$DIMEXO
 40
2.0
  9
$DIMDLI
 40
30.0
  9
$DIMRND
 40
0.0
  9
$DIMDLE
 40
0.0
  9
$DIMEXE
 40
2.0
  9
$DIMTP
 40
0.0
  9
$DIMTM
 40
0.0
  9
$DIMTXT
 40
2.8
  9
$DIMCEN
 40
0.09
  9
$DIMTSZ
 40
0.0
  9
$DIMTOL
 70
     0
  9
$DIMLIM
 70
     0
  9
$DIMTIH
 70
     0
  9
$DIMTOH
 70
     0
  9
$DIMSE1
 70
     0
  9
$DIMSE2
 70
     0
  9
$DIMTAD
 70
     3
  9
$DIMZIN
 70
     8
  9
$DIMBLK
  1

  9
$DIMASO
 70
     1
  9
$DIMSHO
 70
     1
  9
$DIMPOST
  1

  9
$DIMAPOST
  1

  9
$DIMALT
 70
     0
  9
$DIMALTD
 70
     2
  9
$DIMALTF
 40
25.4
  9
$DIMLFAC
 40
1.0
  9
$DIMTOFL
 70
     1
  9
$DIMTVP
 40
0.7
  9
$DIMTIX
 70
     0
  9
$DIMSOXD
 70
     0
  9
$DIMSAH
 70
     0
  9
$DIMBLK1
  1

  9
$DIMBLK2
  1

  9
$DIMSTYLE
  2
Standard
  9
$DIMCLRD
 70
     0
  9
$DIMCLRE
 70
     0
  9
$DIMCLRT
 70
     0
  9
$DIMTFAC
 40
0.5
  9
$DIMGAP
 40
0.09
  9
$DIMJUST
 70
     0
  9
$DIMSD1
 70
     0
  9
$DIMSD2
 70
     0
  9
$DIMTOLJ
 70
     1
  9
$DIMTZIN
 70
     8
  9
$DIMALTZ
 70
     0
  9
$DIMALTTZ
 70
     0
  9
$DIMUPT
 70
     1
  9
$DIMDEC
 70
     2
  9
$DIMTDEC
 70
     4
  9
$DIMALTU
 70
     2
  9
$DIMALTTD
 70
     2
  9
$DIMTXSTY
  7
Standard
  9
$DIMAUNIT
 70
     0
  9
$DIMADEC
 70
     0
  9
$DIMALTRND
 40
0.0
  9
$DIMAZIN
 70
     0
  9
$DIMDSEP
 70
    46
  9
$DIMATFIT
 70
     2
  9
$DIMFRAC
 70
     0
  9
$DIMLDRBLK
  1

  9
$DIMLUNIT
 70
     2
  9
$DIMLWD
 70
    -2
  9
$DIMLWE
 70
    -2
  9
$DIMTMOVE
 70
     2
  9
$DIMFXL
 40
1.0
  9
$DIMFXLON
 70
     0
  9
$DIMJOGANG
 40
0.7853981633974483
  9
$DIMTFILL
 70
     0
  9
$DIMTFILLCLR
 70
     0
  9
$DIMARCSYM
 70
     0
  9
$DIMLTYPE
  6

  9
$DIMLTEX1
  6

  9
$DIMLTEX2
  6

  9
$DIMTXTDIRECTION
 70
     0
  9
$LUNITS
 70
     2
  9
$LUPREC
 70
     4
  9
$SKETCHINC
 40
0.1
  9
$FILLETRAD
 40
0.5
  9
$AUNITS
 70
     0
  9
$AUPREC
 70
     0
  9
$MENU
  1
.
  9
$ELEVATION
 40
0.0
  9
$PELEVATION
 40
0.0
  9
$THICKNESS
 40
0.0
  9
$LIMCHECK
 70
     0
  9
$CHAMFERA
 40
0.0
  9
$CHAMFERB
 40
0.0
  9
$CHAMFERC
 40
0.0
  9
$CHAMFERD
 40
0.0
  9
$SKPOLY
 70
     0
  9
$TDCREATE
 40
2460053.950474537
  9
$TDUCREATE
 40
2460053.575474537
  9
$TDUPDATE
 40
2460053.57547662
  9
$TDUUPDATE
 40
2460053.20047662
  9
$TDINDWG
 40
0.0000000116
  9
$TDUSRTIMER
 40
0.0000000116
  9
$USRTIMER
 70
     1
  9
$ANGBASE
 50
0.0
  9
$ANGDIR
 70
     0
  9
$PDMODE
 70
     0
  9
$PDSIZE
 40
0.0
  9
$PLINEWID
 40
0.0
  9
$SPLFRAME
 70
     0
  9
$SPLINETYPE
 70
     6
  9
$SPLINESEGS
 70
     8
  9
$HANDSEED
  5
224
  9
$SURFTAB1
 70
     6
  9
$SURFTAB2
 70
     6
  9
$SURFTYPE
 70
     6
  9
$SURFU
 70
     6
  9
$SURFV
 70
     6
  9
$UCSBASE
  2

  9
$UCSNAME
  2

  9
$UCSORG
 10
0.0
 20
0.0
 30
0.0
  9
$UCSXDIR
 10
1.0
 20
0.0
 30
0.0
  9
$UCSYDIR
 10
0.0
 20
1.0
 30
0.0
  9
$UCSORTHOREF
  2

  9
$UCSORTHOVIEW
 70
     0
  9
$UCSORGTOP
 10
0.0
 20
0.0
 30
0.0
  9
$UCSORGBOTTOM
 10
0.0
 20
0.0
 30
0.0
  9
$UCSORGLEFT
 10
0.0
 20
0.0
 30
0.0
  9
$UCSORGRIGHT
 10
0.0
 20
0.0
 30
0.0
  9
$UCSORGFRONT
 10
0.0
 20
0.0
 30
0.0
  9
$UCSORGBACK
 10
0.0
 20
0.0
 30
0.0
  9
$PUCSBASE
  2

  9
$PUCSNAME
  2

  9
$PUCSORG
 10
0.0
 20
0.0
 30
0.0
  9
$PUCSXDIR
 10
1.0
 20
0.0
 30
0.0
  9
$PUCSYDIR
 10
0.0
 20
1.0
 30
0.0
  9
$PUCSORTHOREF
  2

  9
$PUCSORTHOVIEW
 70
     0
  9
$PUCSORGTOP
 10
0.0
 20
0.0
 30
0.0
  9
$PUCSORGBOTTOM
 10
0.0
 20
0.0
 30
0.0
  9
$PUCSORGLEFT
 10
0.0
 20
0.0
 30
0.0
  9
$PUCSORGRIGHT
 10
0.0
 20
0.0
 30
0.0
  9
$PUCSORGFRONT
 10
0.0
 20
0.0
 30
0.0
  9
$PUCSORGBACK
 10
0.0
 20
0.0
 30
0.0
  9
$USERI1
 70
     0
  9
$USERI2
 70
     0
  9
$USERI3
 70
     0
  9
$USERI4
 70
     0
  9
$USERI5
 70
     0
  9
$USERR1
 40
0.0
  9
$USERR2
 40
0.0
  9
$USERR3
 40
0.0
  9
$USERR4
 40
0.0
  9
$USERR5
 40
0.0
  9
$WORLDVIEW
 70
     1
  9
$SHADEDGE
 70
     3
  9
$SHADEDIF
 70
    70
  9
$TILEMODE
 70
     1
  9
$MAXACTVP
 70
    64
  9
$PINSBASE
 10
0.0
 20
0.0
 30
0.0
  9
$PLIMCHECK
 70
     0
  9
$PEXTMIN
 10
0.0
 20
0.0
 30
0.0
  9
$PEXTMAX
 10
420.0
 20
297.0
 30
0.0
  9
$PLIMMIN
 10
0.0
 20
0.0
  9
$PLIMMAX
 10
420.0
 20
297.0
  9
$UNITMODE
 70
     0
  9
$VISRETAIN
 70
     1
  9
$PLINEGEN
 70
     0
  9
$PSLTSCALE
 70
     1
  9
$TREEDEPTH
 70
  3020
  9
$CMLSTYLE
  2
Standard
  9
$CMLJUST
 70
     0
  9
$CMLSCALE
 40
1.0
  9
$PROXYGRAPHICS
 70
     1
  9
$MEASUREMENT
 70
     1
  9
$CELWEIGHT
370
    -1
  9
$ENDCAPS
280
     0
  9
$JOINSTYLE
280
     0
  9
$LWDISPLAY
290
     0
  9
$INSUNITS
 70
     4
  9
$HYPERLINKBASE
  1

  9
$STYLESHEET
  1

  9
$XEDIT
290
     1
  9
$CEPSNTYPE
380
     0
  9
$PSTYLEMODE
290
     1
  9
$FINGERPRINTGUID
  2
{55B55435-3694-4617-A736-44311C30D063}
  9
$VERSIONGUID
  2
{FAEB1C32-E019-11D5-929B-00C0DF256EC4}
  9
$EXTNAMES
290
     1
  9
$PSVPSCALE
 40
0.0
  9
$OLESTARTUP
290
     0
  9
$SORTENTS
280
   127
  9
$INDEXCTL
280
     0
  9
$HIDETEXT
280
     1
  9
$XCLIPFRAME
280
     2
  9
$HALOGAP
280
     0
  9
$OBSCOLOR
 70
   257
  9
$OBSLTYPE
280
     0
  9
$INTERSECTIONDISPLAY
280
     0
  9
$INTERSECTIONCOLOR
 70
   257
  9
$DIMASSOC
280
     1
  9
$PROJECTNAME
  1

  9
$CAMERADISPLAY
290
     0
  9
$LENSLENGTH
 40
50.0
  9
$CAMERAHEIGHT
 40
0.0
  9
$STEPSPERSEC
 40
2.0
  9
$STEPSIZE
 40
6.0
  9
$3DDWFPREC
 40
2.0
  9
$PSOLWIDTH
 40
0.25
  9
$PSOLHEIGHT
 40
4.0
  9
$LOFTANG1
 40
1.570796326794897
  9
$LOFTANG2
 40
1.570796326794897
  9
$LOFTMAG1
 40
0.0
  9
$LOFTMAG2
 40
0.0
  9
$LOFTPARAM
 70
     7
  9
$LOFTNORMALS
280
     1
  9
$LATITUDE
 40
37.795
  9
$LONGITUDE
 40
-122.394
  9
$NORTHDIRECTION
 40
0.0
  9
$TIMEZONE
 70
 -8000
  9
$LIGHTGLYPHDISPLAY
280
     1
  9
$TILEMODELIGHTSYNCH
280
     1
  9
$CMATERIAL
347
44
  9
$SOLIDHIST
280
     1
  9
$SHOWHIST
280
     1
  9
$DWFFRAME
280
     2
  9
$DGNFRAME
280
     2
  9
$REALWORLDSCALE
290
     1
  9
$INTERFERECOLOR
 62
   256
  9
$CSHADOW
280
     0
  9
$SHADOWPLANELOCATION
 40
0.0
  0
ENDSEC
  0
SECTION
  2
CLASSES
  0
CLASS
  1
ACDBDICTIONARYWDFLT
  2
AcDbDictionaryWithDefault
  3
ObjectDBX Classes
 90
        0
 91
        4
280
     0
281
     0
  0
CLASS
  1
VISUALSTYLE
  2
AcDbVisualStyle
  3
ObjectDBX Classes
 90
     4095
 91
        4
280
     0
281
     0
  0
CLASS
  1
MATERIAL
  2
AcDbMaterial
  3
ObjectDBX Classes
 90
     1153
 91
        4
280
     0
281
     0
  0
CLASS
  1
SCALE
  2
AcDbScale
  3
ObjectDBX Classes
 90
     1153
 91
        4
280
     0
281
     0
  0
CLASS
  1
SUN
  2
AcDbSun
  3
SCENEOE
 90
     1153
 91
        4
280
     0
281
     0
  0
CLASS
  1
DICTIONARYVAR
  2
AcDbDictionaryVar
  3
ObjectDBX Classes
 90
        0
 91
        4
280
     0
281
     0
  0
ENDSEC
  0
SECTION
  2
TABLES
  0
TABLE
  2
VPORT
  5
8
330
0
100
AcDbSymbolTable
 70
     1
  0
VPORT
  5
29
330
8
100
AcDbSymbolTableRecord
100
AcDbViewportTableRecord
  2
*Active
 70
     0
 10
0.0
 20
0.0
 11
1.0
 21
1.0
 12
10.42990654205607
 22
4.5
 13
0.0
 23
0.0
 14
0.5
 24
0.5
 15
0.5
 25
0.5
 16
0.0
 26
0.0
 36
1.0
 17
0.0
 27
0.0
 37
0.0
 40
9.0
 41
1.972972972850329
 42
50.0
 43
0.0
 44
0.0
 50
0.0
 51
0.0
 71
     0
 72
   100
 73
     1
 74
     3
 75
     0
 76
     0
 77
     0
 78
     0
281
     0
 65
     1
110
0.0
120
0.0
130
0.0
111
1.0
121
0.0
131
0.0
112
0.0
122
1.0
132
0.0
 79
     0
146
0.0
 60
     3
 61
     5
292
     1
282
     1
141
0.0
142
0.0
 63
   250
361
69
  0
ENDTAB
  0
TABLE
  2
LTYPE
  5
5
330
0
100
AcDbSymbolTable
 70
     9
  0
LTYPE
  5
14
330
5
100
AcDbSymbolTableRecord
100
AcDbLinetypeTableRecord
  2
ByBlock
 70
     0
  3

 72
    65
 73
     0
 40
0.0
  0
LTYPE
  5
15
330
5
100
AcDbSymbolTableRecord
100
AcDbLinetypeTableRecord
  2
ByLayer
 70
     0
  3

 72
    65
 73
     0
 40
0.0
  0
LTYPE
  5
16
330
5
100
AcDbSymbolTableRecord
100
AcDbLinetypeTableRecord
  2
Continuous
 70
     0
  3
Solid line
 72
    65
 73
     0
 40
0.0
  0
LTYPE
  5
B9
330
5
100
AcDbSymbolTableRecord
100
AcDbLinetypeTableRecord
  2
DOT
 70
     0
  3
DOT
 72
    65
 73
     2
 40
4.0
 49
6.0
 74
     0
 49
-2.0
 74
     0
  0
LTYPE
  5
BA
330
5
100
AcDbSymbolTableRecord
100
AcDbLinetypeTableRecord
  2
HIDDEN
 70
     0
  3
HIDDEN
 72
    65
 73
     2
 40
4.2
 49
8.4
 74
     0
 49
-4.2
 74
     0
  0
LTYPE
  5
BB
330
5
100
AcDbSymbolTableRecord
100
AcDbLinetypeTableRecord
  2
DASHDOT
 70
     0
  3
DASHDOT
 72
    65
 73
     4
 40
14.5
 49
30.0
 74
     0
 49
-9.0
 74
     0
 49
2.5
 74
     0
 49
-9.0
 74
     0
  0
LTYPE
  5
BC
330
5
100
AcDbSymbolTableRecord
100
AcDbLinetypeTableRecord
  2
PHANTOM
 70
     0
  3
PHANTOM
 72
    65
 73
     6
 40
12.0
 49
30.0
 74
     0
 49
-9.0
 74
     0
 49
2.5
 74
     0
 49
-5.0
 74
     0
 49
2.5
 74
     0
 49
-9.0
 74
     0
  0
LTYPE
  5
BD
330
5
100
AcDbSymbolTableRecord
100
AcDbLinetypeTableRecord
  2
ACAD_ISO14W100
 70
     0
  3
ACAD_ISO14W100
 72
    65
 73
     8
 40
1.5
 49
12.0
 74
     0
 49
-3.0
 74
     0
 49
0.5
 74
     0
 49
-3.0
 74
     0
 49
0.5
 74
     0
 49
-3.0
 74
     0
 49
0.5
 74
     0
 49
-3.0
 74
     0
  0
LTYPE
  5
BE
330
5
100
AcDbSymbolTableRecord
100
AcDbLinetypeTableRecord
  2
ACAD_ISO06W100
 70
     0
  3
ACAD_ISO06W100
 72
    65
 73
     8
 40
13.5
 49
24.0
 74
     0
 49
-3.0
 74
     0
 49
0.5
 74
     0
 49
-3.0
 74
     0
 49
0.5
 74
     0
 49
-3.0
 74
     0
 49
0.5
 74
     0
 49
-3.0
 74
     0
  0
LTYPE
  5
BF
330
5
100
AcDbSymbolTableRecord
100
AcDbLinetypeTableRecord
  2
ACAD_ISO11W100
 70
     0
  3
ACAD_ISO11W100
 72
    65
 73
     6
 40
15.5
 49
12.0
 74
     0
 49
-3.0
 74
     0
 49
12.0
 74
     0
 49
-3.0
 74
     0
 49
0.5
 74
     0
 49
-3.0
 74
     0
  0
LTYPE
  5
C0
330
5
100
AcDbSymbolTableRecord
100
AcDbLinetypeTableRecord
  2
ACAD_ISO13W100
 70
     0
  3
ACAD_ISO13W100
 72
    65
 73
     8
 40
13.0
 49
12.0
 74
     0
 49
-3.0
 74
     0
 49
12.0
 74
     0
 49
-3.0
 74
     0
 49
0.5
 74
     0
 49
-3.0
 74
     0
 49
0.5
 74
     0
 49
-3.0
 74
     0
  0
ENDTAB
  0
TABLE
  2
LAYER
  5
2
330
0
100
AcDbSymbolTable
 70
    10
  0
LAYER
  5
10
330
2
100
AcDbSymbolTableRecord
100
AcDbLayerTableRecord
  2
0
 70
     0
 62
     7
  6
Continuous
370
    -3
390
F
347
46
348
0
  0
LAYER
  5
C1
330
2
100
AcDbSymbolTableRecord
100
AcDbLayerTableRecord
  2
1
 70
     0
 62
     7
  6
Continuous
370
     9
390
F
347
46
348
0
  0
LAYER
  5
C2
330
2
100
AcDbSymbolTableRecord
100
AcDbLayerTableRecord
  2
2
 70
     0
 62
   151
  6
Continuous
370
    20
390
F
347
46
348
0
  0
LAYER
  5
C3
330
2
100
AcDbSymbolTableRecord
100
AcDbLayerTableRecord
  2
3
 70
     0
 62
     1
  6
DASHDOT
370
     9
390
F
347
46
348
0
  0
LAYER
  5
C4
330
2
100
AcDbSymbolTableRecord
100
AcDbLayerTableRecord
  2
4
 70
     0
 62
     7
  6
Continuous
370
     9
390
F
347
46
348
0
  0
LAYER
  5
C5
330
2
100
AcDbSymbolTableRecord
100
AcDbLayerTableRecord
  2
5
 70
     0
 62
     6
  6
Continuous
370
     9
390
F
347
46
348
0
  0
LAYER
  5
C6
330
2
100
AcDbSymbolTableRecord
100
AcDbLayerTableRecord
  2
6
 70
     0
 62
     3
  6
Continuous
370
    40
390
F
347
46
348
0
  0
LAYER
  5
C7
330
2
100
AcDbSymbolTableRecord
100
AcDbLayerTableRecord
  2
7
 70
     0
 62
     4
  6
Continuous
370
     9
390
F
347
46
348
0
  0
LAYER
  5
C8
330
2
100
AcDbSymbolTableRecord
100
AcDbLayerTableRecord
  2
8
 70
     0
 62
     7
  6
Continuous
370
    25
390
F
347
46
348
0
  0
LAYER
  5
C9
330
2
100
AcDbSymbolTableRecord
100
AcDbLayerTableRecord
  2
9
 70
     0
 62
     2
  6
Continuous
370
     9
390
F
347
46
348
0
  0
ENDTAB
  0
TABLE
  2
STYLE
  5
3
330
0
100
AcDbSymbolTable
 70
     3
  0
STYLE
  5
11
330
3
100
AcDbSymbolTableRecord
100
AcDbTextStyleTableRecord
  2
Standard
 70
     0
 40
0.0
 41
1.0
 50
0.0
 71
     0
 42
8.4
  3
txt
  4
bigfont
  0
STYLE
  5
6C
330
3
100
AcDbSymbolTableRecord
100
AcDbTextStyleTableRecord
  2
T_STANDARD
 70
     4
 40
10.0
 41
1.0
 50
0.0
 71
     0
 42
8.4
  3
txt
  4
bigfont
1001
ACAD
1000

1071
      256
  0
STYLE
  5
110
330
3
100
AcDbSymbolTableRecord
100
AcDbTextStyleTableRecord
  2
ＭＳ ゴシック
 70
     0
 40
0.0
 41
1.0
 50
0.0
 71
     0
 42
8.4
  3

  4

1001
ACAD
1000
ＭＳ ゴシック
1071
      256
  0
ENDTAB
  0
TABLE
  2
VIEW
  5
6
330
0
100
AcDbSymbolTable
 70
     0
  0
ENDTAB
  0
TABLE
  2
UCS
  5
7
330
0
100
AcDbSymbolTable
 70
     0
  0
ENDTAB
  0
TABLE
  2
APPID
  5
9
330
0
100
AcDbSymbolTable
 70
     2
  0
APPID
  5
12
330
9
100
AcDbSymbolTableRecord
100
AcDbRegAppTableRecord
  2
ACAD
 70
     0
  0
APPID
  5
6B
330
9
100
AcDbSymbolTableRecord
100
AcDbRegAppTableRecord
  2
ODA
 70
     0
  0
ENDTAB
  0
TABLE
  2
DIMSTYLE
  5
A
330
0
100
AcDbSymbolTable
 70
     1
100
AcDbDimStyleTable
  0
DIMSTYLE
105
27
102
{ACAD_REACTORS
330
11A
330
1B9
330
1C3
330
1CD
330
1D7
330
1E1
330
1EB
330
1F5
330
1FF
330
209
330
213
330
21D
102
}
330
A
100
AcDbSymbolTableRecord
100
AcDbDimStyleTableRecord
  2
Standard
 70
     0
178
     0
340
11
  0
ENDTAB
  0
TABLE
  2
BLOCK_RECORD
  5
1
330
0
100
AcDbSymbolTable
 70
    28
  0
BLOCK_RECORD
  5
1F
330
1
100
AcDbSymbolTableRecord
100
AcDbBlockTableRecord
  2
*Model_Space
340
22
 70
     0
280
     1
281
     0
  0
BLOCK_RECORD
  5
1B
330
1
100
AcDbSymbolTableRecord
100
AcDbBlockTableRecord
  2
*Paper_Space
340
1E
 70
     0
280
     1
281
     0
  0
BLOCK_RECORD
  5
23
330
1
100
AcDbSymbolTableRecord
100
AcDbBlockTableRecord
  2
*Paper_Space0
340
26
 70
     0
280
     1
281
     0
  0
BLOCK_RECORD
  5
6D
330
1
100
AcDbSymbolTableRecord
100
AcDbBlockTableRecord
  2
_ORIGIN
340
0
 70
     0
280
     1
281
     0
  0
BLOCK_RECORD
  5
72
330
1
100
AcDbSymbolTableRecord
100
AcDbBlockTableRecord
  2
_DOTBLANK
340
0
 70
     0
280
     1
281
     0
  0
BLOCK_RECORD
  5
77
330
1
100
AcDbSymbolTableRecord
100
AcDbBlockTableRecord
  2
_DOT
340
0
 70
     0
280
     1
281
     0
  0
BLOCK_RECORD
  5
7C
330
1
100
AcDbSymbolTableRecord
100
AcDbBlockTableRecord
  2
_OPEN
340
0
 70
     0
280
     1
281
     0
  0
BLOCK_RECORD
  5
82
330
1
100
AcDbSymbolTableRecord
100
AcDbBlockTableRecord
  2
_CLOSED
340
0
 70
     0
280
     1
281
     0
  0
BLOCK_RECORD
  5
89
330
1
100
AcDbSymbolTableRecord
100
AcDbBlockTableRecord
  2
_CLOSEDBLANK
340
0
 70
     0
280
     1
281
     0
  0
BLOCK_RECORD
  5
8F
330
1
100
AcDbSymbolTableRecord
100
AcDbBlockTableRecord
  2
_ARROWFILLED
340
0
102
{BLKREFS
331
118
331
119
331
192
331
1B7
331
1B8
331
1C1
331
1C2
331
1CB
331
1CC
331
1D5
331
1D6
331
1DF
331
1E0
331
1E9
331
1EA
331
1F3
331
1F4
331
1FD
331
1FE
331
207
331
208
331
211
331
212
331
21B
331
21C
102
}
 70
     0
280
     1
281
     0
  0
BLOCK_RECORD
  5
93
330
1
100
AcDbSymbolTableRecord
100
AcDbBlockTableRecord
  2
_BOXBLANK
340
0
 70
     0
280
     1
281
     0
  0
BLOCK_RECORD
  5
9B
330
1
100
AcDbSymbolTableRecord
100
AcDbBlockTableRecord
  2
_BOXFILLED
340
0
 70
     0
280
     1
281
     0
  0
BLOCK_RECORD
  5
A0
330
1
100
AcDbSymbolTableRecord
100
AcDbBlockTableRecord
  2
_INTEGRAL
340
0
 70
     0
280
     1
281
     0
  0
BLOCK_RECORD
  5
A5
330
1
100
AcDbSymbolTableRecord
100
AcDbBlockTableRecord
  2
_OBLIQUE
340
0
 70
     0
280
     1
281
     0
  0
BLOCK_RECORD
  5
A9
330
1
100
AcDbSymbolTableRecord
100
AcDbBlockTableRecord
  2
_NONE
340
0
 70
     0
280
     1
281
     0
  0
BLOCK_RECORD
  5
AC
330
1
100
AcDbSymbolTableRecord
100
AcDbBlockTableRecord
  2
MARK_OPEN
340
0
 70
     0
280
     1
281
     0
  0
BLOCK_RECORD
  5
B1
330
1
100
AcDbSymbolTableRecord
100
AcDbBlockTableRecord
  2
MARK_ORIGIN
340
0
 70
     0
280
     1
281
     0
  0
BLOCK_RECORD
  5
B5
330
1
100
AcDbSymbolTableRecord
100
AcDbBlockTableRecord
  2
MARK_DOT
340
0
 70
     0
280
     1
281
     0
  0
BLOCK_RECORD
  5
111
330
1
100
AcDbSymbolTableRecord
100
AcDbBlockTableRecord
  2
Dim1
340
0
 70
     0
280
     1
281
     0
  0
BLOCK_RECORD
  5
1B0
330
1
100
AcDbSymbolTableRecord
100
AcDbBlockTableRecord
  2
Dim2
340
0
 70
     0
280
     1
281
     0
  0
BLOCK_RECORD
  5
1BA
330
1
100
AcDbSymbolTableRecord
100
AcDbBlockTableRecord
  2
Dim3
340
0
 70
     0
280
     1
281
     0
  0
BLOCK_RECORD
  5
1C4
330
1
100
AcDbSymbolTableRecord
100
AcDbBlockTableRecord
  2
Dim4
340
0
 70
     0
280
     1
281
     0
  0
BLOCK_RECORD
  5
1CE
330
1
100
AcDbSymbolTableRecord
100
AcDbBlockTableRecord
  2
Dim5
340
0
 70
     0
280
     1
281
     0
  0
BLOCK_RECORD
  5
1D8
330
1
100
AcDbSymbolTableRecord
100
AcDbBlockTableRecord
  2
Dim6
340
0
 70
     0
280
     1
281
     0
  0
BLOCK_RECORD
  5
1E2
330
1
100
AcDbSymbolTableRecord
100
AcDbBlockTableRecord
  2
Dim7
340
0
 70
     0
280
     1
281
     0
  0
BLOCK_RECORD
  5
1EC
330
1
100
AcDbSymbolTableRecord
100
AcDbBlockTableRecord
  2
Dim8
340
0
 70
     0
280
     1
281
     0
  0
BLOCK_RECORD
  5
1F6
330
1
100
AcDbSymbolTableRecord
100
AcDbBlockTableRecord
  2
Dim9
340
0
 70
     0
280
     1
281
     0
  0
BLOCK_RECORD
  5
200
330
1
100
AcDbSymbolTableRecord
100
AcDbBlockTableRecord
  2
Dim10
340
0
 70
     0
280
     1
281
     0
  0
BLOCK_RECORD
  5
20A
330
1
100
AcDbSymbolTableRecord
100
AcDbBlockTableRecord
  2
Dim11
340
0
 70
     0
280
     1
281
     0
  0
BLOCK_RECORD
  5
214
330
1
100
AcDbSymbolTableRecord
100
AcDbBlockTableRecord
  2
Dim12
340
0
 70
     0
280
     1
281
     0
  0
ENDTAB
  0
ENDSEC
  0
SECTION
  2
BLOCKS
  0
BLOCK
  5
20
330
1F
100
AcDbEntity
  8
0
100
AcDbBlockBegin
  2
*Model_Space
 70
     0
 10
0.0
 20
0.0
 30
0.0
  3
*Model_Space
  1
*Model_Space
  0
ENDBLK
  5
21
330
1F
100
AcDbEntity
  8
0
100
AcDbBlockEnd
  0
BLOCK
  5
1C
330
1B
100
AcDbEntity
 67
     1
  8
0
100
AcDbBlockBegin
  2
*Paper_Space
 70
     0
 10
0.0
 20
0.0
 30
0.0
  3
*Paper_Space
  1
*Paper_Space
  0
ENDBLK
  5
1D
330
1B
100
AcDbEntity
 67
     1
  8
0
100
AcDbBlockEnd
  0
BLOCK
  5
24
330
23
100
AcDbEntity
  8
0
100
AcDbBlockBegin
  2
*Paper_Space0
 70
     0
 10
0.0
 20
0.0
 30
0.0
  3
*Paper_Space0
  1
*Paper_Space0
  0
ENDBLK
  5
25
330
23
100
AcDbEntity
  8
0
100
AcDbBlockEnd
  0
BLOCK
  5
70
330
6D
100
AcDbEntity
  8
0
100
AcDbBlockBegin
  2
_ORIGIN
 70
     0
 10
0.0
 20
0.0
 30
0.0
  3
_ORIGIN
  1
_ORIGIN
  0
CIRCLE
  5
6E
330
6D
100
AcDbEntity
  8
0
 62
     0
100
AcDbCircle
 10
0.0
 20
0.0
 30
0.0
 40
0.5
  0
LINE
  5
6F
330
6D
100
AcDbEntity
  8
0
 62
     0
100
AcDbLine
 10
0.0
 20
0.0
 30
0.0
 11
-1.0
 21
0.0
 31
0.0
  0
ENDBLK
  5
71
330
6D
100
AcDbEntity
  8
0
100
AcDbBlockEnd
  0
BLOCK
  5
75
330
72
100
AcDbEntity
  8
0
100
AcDbBlockBegin
  2
_DOTBLANK
 70
     0
 10
0.0
 20
0.0
 30
0.0
  3
_DOTBLANK
  1
_DOTBLANK
  0
CIRCLE
  5
73
330
72
100
AcDbEntity
  8
0
 62
     0
100
AcDbCircle
 10
0.0
 20
0.0
 30
0.0
 40
0.5
  0
LINE
  5
74
330
72
100
AcDbEntity
  8
0
 62
     0
100
AcDbLine
 10
-0.5
 20
0.0
 30
0.0
 11
-1.0
 21
0.0
 31
0.0
  0
ENDBLK
  5
76
330
72
100
AcDbEntity
  8
0
100
AcDbBlockEnd
  0
BLOCK
  5
7A
330
77
100
AcDbEntity
  8
0
100
AcDbBlockBegin
  2
_DOT
 70
     0
 10
0.0
 20
0.0
 30
0.0
  3
_DOT
  1
_DOT
  0
LWPOLYLINE
  5
78
330
77
100
AcDbEntity
  8
0
 62
     0
100
AcDbPolyline
 90
        2
 70
     1
 43
0.5
 10
-0.25
 20
0.0
 42
1.0
 10
0.25
 20
0.0
 42
1.0
  0
LINE
  5
79
330
77
100
AcDbEntity
  8
0
 62
     0
100
AcDbLine
 10
-0.5
 20
0.0
 30
0.0
 11
-1.0
 21
0.0
 31
0.0
  0
ENDBLK
  5
7B
330
77
100
AcDbEntity
  8
0
100
AcDbBlockEnd
  0
BLOCK
  5
80
330
7C
100
AcDbEntity
  8
0
100
AcDbBlockBegin
  2
_OPEN
 70
     0
 10
0.0
 20
0.0
 30
0.0
  3
_OPEN
  1
_OPEN
  0
LINE
  5
7D
330
7C
100
AcDbEntity
  8
0
 62
     0
100
AcDbLine
 10
0.0
 20
0.0
 30
0.0
 11
-1.0
 21
0.1666666666666667
 31
0.0
  0
LINE
  5
7E
330
7C
100
AcDbEntity
  8
0
 62
     0
100
AcDbLine
 10
0.0
 20
0.0
 30
0.0
 11
-1.0
 21
-0.1666666666666667
 31
0.0
  0
LINE
  5
7F
330
7C
100
AcDbEntity
  8
0
 62
     0
100
AcDbLine
 10
0.0
 20
0.0
 30
0.0
 11
-1.0
 21
0.0
 31
0.0
  0
ENDBLK
  5
81
330
7C
100
AcDbEntity
  8
0
100
AcDbBlockEnd
  0
BLOCK
  5
87
330
82
100
AcDbEntity
  8
0
100
AcDbBlockBegin
  2
_CLOSED
 70
     0
 10
0.0
 20
0.0
 30
0.0
  3
_CLOSED
  1
_CLOSED
  0
LINE
  5
83
330
82
100
AcDbEntity
  8
0
 62
     0
100
AcDbLine
 10
0.0
 20
0.0
 30
0.0
 11
-1.0
 21
0.1666666666666667
 31
0.0
  0
LINE
  5
84
330
82
100
AcDbEntity
  8
0
 62
     0
100
AcDbLine
 10
0.0
 20
0.0
 30
0.0
 11
-1.0
 21
-0.1666666666666667
 31
0.0
  0
LINE
  5
85
330
82
100
AcDbEntity
  8
0
 62
     0
100
AcDbLine
 10
-1.0
 20
0.1666666666666667
 30
0.0
 11
-1.0
 21
-0.1666666666666667
 31
0.0
  0
LINE
  5
86
330
82
100
AcDbEntity
  8
0
 62
     0
100
AcDbLine
 10
0.0
 20
0.0
 30
0.0
 11
-1.0
 21
0.0
 31
0.0
  0
ENDBLK
  5
88
330
82
100
AcDbEntity
  8
0
100
AcDbBlockEnd
  0
BLOCK
  5
8D
330
89
100
AcDbEntity
  8
0
100
AcDbBlockBegin
  2
_CLOSEDBLANK
 70
     0
 10
0.0
 20
0.0
 30
0.0
  3
_CLOSEDBLANK
  1
_CLOSEDBLANK
  0
LINE
  5
8A
330
89
100
AcDbEntity
  8
0
 62
     0
100
AcDbLine
 10
0.0
 20
0.0
 30
0.0
 11
-1.0
 21
0.1666666666666667
 31
0.0
  0
LINE
  5
8B
330
89
100
AcDbEntity
  8
0
 62
     0
100
AcDbLine
 10
0.0
 20
0.0
 30
0.0
 11
-1.0
 21
-0.1666666666666667
 31
0.0
  0
LINE
  5
8C
330
89
100
AcDbEntity
  8
0
 62
     0
100
AcDbLine
 10
-1.0
 20
0.1666666666666667
 30
0.0
 11
-1.0
 21
-0.1666666666666667
 31
0.0
  0
ENDBLK
  5
8E
330
89
100
AcDbEntity
  8
0
100
AcDbBlockEnd
  0
BLOCK
  5
91
330
8F
100
AcDbEntity
  8
0
100
AcDbBlockBegin
  2
_ARROWFILLED
 70
     0
 10
0.0
 20
0.0
 30
0.0
  3
_ARROWFILLED
  1
_ARROWFILLED
  0
SOLID
  5
90
330
8F
100
AcDbEntity
  8
0
 62
     0
100
AcDbTrace
 10
0.0
 20
0.0
 30
0.0
 11
-1.0
 21
-0.1666666666666667
 31
0.0
 12
-1.0
 22
0.1666666666666667
 32
0.0
 13
0.0
 23
0.0
 33
0.0
  0
ENDBLK
  5
92
330
8F
100
AcDbEntity
  8
0
100
AcDbBlockEnd
  0
BLOCK
  5
99
330
93
100
AcDbEntity
  8
0
100
AcDbBlockBegin
  2
_BOXBLANK
 70
     0
 10
0.0
 20
0.0
 30
0.0
  3
_BOXBLANK
  1
_BOXBLANK
  0
LINE
  5
94
330
93
100
AcDbEntity
  8
0
 62
     0
100
AcDbLine
 10
-0.5
 20
-0.5
 30
0.0
 11
0.5
 21
-0.5
 31
0.0
  0
LINE
  5
95
330
93
100
AcDbEntity
  8
0
 62
     0
100
AcDbLine
 10
0.5
 20
-0.5
 30
0.0
 11
0.5
 21
0.5
 31
0.0
  0
LINE
  5
96
330
93
100
AcDbEntity
  8
0
 62
     0
100
AcDbLine
 10
0.5
 20
0.5
 30
0.0
 11
-0.5
 21
0.5
 31
0.0
  0
LINE
  5
97
330
93
100
AcDbEntity
  8
0
 62
     0
100
AcDbLine
 10
-0.5
 20
0.5
 30
0.0
 11
-0.5
 21
-0.5
 31
0.0
  0
LINE
  5
98
330
93
100
AcDbEntity
  8
0
 62
     0
100
AcDbLine
 10
-0.5
 20
0.0
 30
0.0
 11
-1.0
 21
0.0
 31
0.0
  0
ENDBLK
  5
9A
330
93
100
AcDbEntity
  8
0
100
AcDbBlockEnd
  0
BLOCK
  5
9E
330
9B
100
AcDbEntity
  8
0
100
AcDbBlockBegin
  2
_BOXFILLED
 70
     0
 10
0.0
 20
0.0
 30
0.0
  3
_BOXFILLED
  1
_BOXFILLED
  0
SOLID
  5
9C
330
9B
100
AcDbEntity
  8
0
 62
     0
100
AcDbTrace
 10
-0.5
 20
0.5
 30
0.0
 11
0.5
 21
0.5
 31
0.0
 12
-0.5
 22
-0.5
 32
0.0
 13
0.5
 23
-0.5
 33
0.0
  0
LINE
  5
9D
330
9B
100
AcDbEntity
  8
0
 62
     0
100
AcDbLine
 10
-0.5
 20
0.0
 30
0.0
 11
-1.0
 21
0.0
 31
0.0
  0
ENDBLK
  5
9F
330
9B
100
AcDbEntity
  8
0
100
AcDbBlockEnd
  0
BLOCK
  5
A3
330
A0
100
AcDbEntity
  8
0
100
AcDbBlockBegin
  2
_INTEGRAL
 70
     0
 10
0.0
 20
0.0
 30
0.0
  3
_INTEGRAL
  1
_INTEGRAL
  0
ARC
  5
A1
330
A0
100
AcDbEntity
  8
0
 62
     0
100
AcDbCircle
 10
0.444888
 20
-0.0913346
 30
0.0
 40
0.4541666
100
AcDbArc
 50
101.9999999999999
 51
167.9999999999998
  0
ARC
  5
A2
330
A0
100
AcDbEntity
  8
0
 62
     0
100
AcDbCircle
 10
-0.444888
 20
0.0913346
 30
0.0
 40
0.4541666
100
AcDbArc
 50
281.9999999999997
 51
347.9999999999997
  0
ENDBLK
  5
A4
330
A0
100
AcDbEntity
  8
0
100
AcDbBlockEnd
  0
BLOCK
  5
A7
330
A5
100
AcDbEntity
  8
0
100
AcDbBlockBegin
  2
_OBLIQUE
 70
     0
 10
0.0
 20
0.0
 30
0.0
  3
_OBLIQUE
  1
_OBLIQUE
  0
LINE
  5
A6
330
A5
100
AcDbEntity
  8
0
 62
     0
100
AcDbLine
 10
-0.5
 20
-0.5
 30
0.0
 11
0.5
 21
0.5
 31
0.0
  0
ENDBLK
  5
A8
330
A5
100
AcDbEntity
  8
0
100
AcDbBlockEnd
  0
BLOCK
  5
AA
330
A9
100
AcDbEntity
  8
0
100
AcDbBlockBegin
  2
_NONE
 70
     0
 10
0.0
 20
0.0
 30
0.0
  3
_NONE
  1
_NONE
  0
ENDBLK
  5
AB
330
A9
100
AcDbEntity
  8
0
100
AcDbBlockEnd
  0
BLOCK
  5
AF
330
AC
100
AcDbEntity
  8
0
100
AcDbBlockBegin
  2
MARK_OPEN
 70
     0
 10
0.0
 20
0.0
 30
0.0
  3
MARK_OPEN
  1
MARK_OPEN
  0
LINE
  5
AD
330
AC
100
AcDbEntity
  8
0
 62
     0
100
AcDbLine
 10
0.0
 20
0.0
 30
0.0
 11
-1.0
 21
0.1666666666666667
 31
0.0
  0
LINE
  5
AE
330
AC
100
AcDbEntity
  8
0
 62
     0
100
AcDbLine
 10
0.0
 20
0.0
 30
0.0
 11
-1.0
 21
-0.1666666666666667
 31
0.0
  0
ENDBLK
  5
B0
330
AC
100
AcDbEntity
  8
0
100
AcDbBlockEnd
  0
BLOCK
  5
B3
330
B1
100
AcDbEntity
  8
0
100
AcDbBlockBegin
  2
MARK_ORIGIN
 70
     0
 10
0.0
 20
0.0
 30
0.0
  3
MARK_ORIGIN
  1
MARK_ORIGIN
  0
CIRCLE
  5
B2
330
B1
100
AcDbEntity
  8
0
 62
     0
100
AcDbCircle
 10
0.0
 20
0.0
 30
0.0
 40
0.5
  0
ENDBLK
  5
B4
330
B1
100
AcDbEntity
  8
0
100
AcDbBlockEnd
  0
BLOCK
  5
B7
330
B5
100
AcDbEntity
  8
0
100
AcDbBlockBegin
  2
MARK_DOT
 70
     0
 10
0.0
 20
0.0
 30
0.0
  3
MARK_DOT
  1
MARK_DOT
  0
LWPOLYLINE
  5
B6
330
B5
100
AcDbEntity
  8
0
 62
     0
100
AcDbPolyline
 90
        2
 70
     1
 43
0.5
 10
-0.25
 20
0.0
 42
1.0
 10
0.25
 20
0.0
 42
1.0
  0
ENDBLK
  5
B8
330
B5
100
AcDbEntity
  8
0
100
AcDbBlockEnd
  0
BLOCK
  5
112
330
111
100
AcDbEntity
  8
0
100
AcDbBlockBegin
  2
Dim1
 70
     0
 10
0.0
 20
0.0
 30
0.0
  3
Dim1
  1
Dim1
  0
LINE
  5
114
330
111
100
AcDbEntity
  8
7
  6
Continuous
 62
     4
370
     9
100
AcDbLine
 10
782.30305550819
 20
232.5516313338395
 30
0.0
 11
782.30305550819
 21
206.1168203577564
 31
0.0
  0
LINE
  5
115
330
111
100
AcDbEntity
  8
7
  6
Continuous
 62
     4
370
     9
100
AcDbLine
 10
781.3030555081883
 20
232.5516313338395
 30
0.0
 11
781.3030555081883
 21
206.1168203577564
 31
0.0
  0
LINE
  5
116
330
111
100
AcDbEntity
  8
7
  6
Continuous
 62
     4
370
     9
100
AcDbLine
 10
791.80305550819
 20
209.1168203577564
 30
0.0
 11
773.3030555081883
 21
209.1168203577564
 31
0.0
  0
MTEXT
  5
117
330
111
100
AcDbEntity
  8
7
  6
Continuous
 62
     4
370
     9
100
AcDbMText
 10
791.80305550819
 20
209.1168203577564
 30
0.0
 40
6.0
 41
7.142857142857143
 46
6.0
 71
     4
 72
     1
  1
1
  7
ＭＳ ゴシック
 73
     1
 44
1.0
1001
ACAD
1000
ACAD_MTEXT_DEFINED_HEIGHT_BEGIN
1070
    46
1040
6.0
1000
ACAD_MTEXT_DEFINED_HEIGHT_END
  0
INSERT
  5
118
330
111
100
AcDbEntity
  8
7
  6
Continuous
 62
     4
370
     9
100
AcDbBlockReference
  2
_ARROWFILLED
 10
782.30305550819
 20
209.1168203577564
 30
0.0
 41
4.0
 42
4.0
 43
4.0
 50
179.9999999999995
  0
INSERT
  5
119
330
111
100
AcDbEntity
  8
7
  6
Continuous
 62
     4
370
     9
100
AcDbBlockReference
  2
_ARROWFILLED
 10
781.3030555081883
 20
209.1168203577564
 30
0.0
 41
4.0
 42
4.0
 43
4.0
 50
359.9999999999997
  0
ENDBLK
  5
113
330
111
100
AcDbEntity
  8
0
100
AcDbBlockEnd
  0
BLOCK
  5
1B1
330
1B0
100
AcDbEntity
  8
0
100
AcDbBlockBegin
  2
Dim2
 70
     0
 10
0.0
 20
0.0
 30
0.0
  3
Dim2
  1
Dim2
  0
LINE
  5
1B3
330
1B0
100
AcDbEntity
  8
7
  6
Continuous
 62
     4
370
     9
100
AcDbLine
 10
333.3645325053726
 20
262.5516313338395
 30
0.0
 11
333.3645325053724
 21
161.4171221215239
 31
0.0
  0
LINE
  5
1B4
330
1B0
100
AcDbEntity
  8
7
  6
Continuous
 62
     4
370
     9
100
AcDbLine
 10
633.3645325053725
 20
262.5516313338395
 30
0.0
 11
633.3645325053724
 21
161.4171221215239
 31
0.0
  0
LINE
  5
1B5
330
1B0
100
AcDbEntity
  8
7
  6
Continuous
 62
     4
370
     9
100
AcDbLine
 10
333.3645325053724
 20
164.4171221215239
 30
0.0
 11
633.3645325053724
 21
164.4171221215239
 31
0.0
  0
MTEXT
  5
1B6
330
1B0
100
AcDbEntity
  8
7
  6
Continuous
 62
     4
370
     9
100
AcDbMText
 10
483.3645325053725
 20
164.4171221215239
 30
0.0
 40
6.0
 41
77.14285714285714
 46
6.0
 71
     8
 72
     1
  1
300
  7
ＭＳ ゴシック
 73
     1
 44
1.0
1001
ACAD
1000
ACAD_MTEXT_DEFINED_HEIGHT_BEGIN
1070
    46
1040
6.0
1000
ACAD_MTEXT_DEFINED_HEIGHT_END
  0
INSERT
  5
1B7
330
1B0
100
AcDbEntity
  8
7
  6
Continuous
 62
     4
370
     9
100
AcDbBlockReference
  2
_ARROWFILLED
 10
333.3645325053724
 20
164.4171221215239
 30
0.0
 41
4.0
 42
4.0
 43
4.0
 50
179.9999999999998
  0
INSERT
  5
1B8
330
1B0
100
AcDbEntity
  8
7
  6
Continuous
 62
     4
370
     9
100
AcDbBlockReference
  2
_ARROWFILLED
 10
633.3645325053724
 20
164.4171221215239
 30
0.0
 41
4.0
 42
4.0
 43
4.0
 50
359.9999999999997
  0
ENDBLK
  5
1B2
330
1B0
100
AcDbEntity
  8
0
100
AcDbBlockEnd
  0
BLOCK
  5
1BB
330
1BA
100
AcDbEntity
  8
0
100
AcDbBlockBegin
  2
Dim3
 70
     0
 10
0.0
 20
0.0
 30
0.0
  3
Dim3
  1
Dim3
  0
LINE
  5
1BD
330
1BA
100
AcDbEntity
  8
7
  6
Continuous
 62
     4
370
     9
100
AcDbLine
 10
318.3645325053726
 20
247.5516313338377
 30
0.0
 11
318.3645325053724
 21
137.5783568522165
 31
0.0
  0
LINE
  5
1BE
330
1BA
100
AcDbEntity
  8
7
  6
Continuous
 62
     4
370
     9
100
AcDbLine
 10
648.3645325053726
 20
247.5516313338395
 30
0.0
 11
648.3645325053724
 21
137.5783568522165
 31
0.0
  0
LINE
  5
1BF
330
1BA
100
AcDbEntity
  8
7
  6
Continuous
 62
     4
370
     9
100
AcDbLine
 10
318.3645325053724
 20
140.5783568522165
 30
0.0
 11
648.3645325053724
 21
140.5783568522165
 31
0.0
  0
MTEXT
  5
1C0
330
1BA
100
AcDbEntity
  8
7
  6
Continuous
 62
     4
370
     9
100
AcDbMText
 10
483.3645325053725
 20
140.5783568522165
 30
0.0
 40
6.0
 41
77.14285714285714
 46
6.0
 71
     8
 72
     1
  1
330
  7
ＭＳ ゴシック
 73
     1
 44
1.0
1001
ACAD
1000
ACAD_MTEXT_DEFINED_HEIGHT_BEGIN
1070
    46
1040
6.0
1000
ACAD_MTEXT_DEFINED_HEIGHT_END
  0
INSERT
  5
1C1
330
1BA
100
AcDbEntity
  8
7
  6
Continuous
 62
     4
370
     9
100
AcDbBlockReference
  2
_ARROWFILLED
 10
318.3645325053724
 20
140.5783568522165
 30
0.0
 41
4.0
 42
4.0
 43
4.0
 50
179.9999999999998
  0
INSERT
  5
1C2
330
1BA
100
AcDbEntity
  8
7
  6
Continuous
 62
     4
370
     9
100
AcDbBlockReference
  2
_ARROWFILLED
 10
648.3645325053724
 20
140.5783568522165
 30
0.0
 41
4.0
 42
4.0
 43
4.0
 50
359.9999999999997
  0
ENDBLK
  5
1BC
330
1BA
100
AcDbEntity
  8
0
100
AcDbBlockEnd
  0
BLOCK
  5
1C5
330
1C4
100
AcDbEntity
  8
0
100
AcDbBlockBegin
  2
Dim4
 70
     0
 10
0.0
 20
0.0
 30
0.0
  3
Dim4
  1
Dim4
  0
LINE
  5
1C7
330
1C4
100
AcDbEntity
  8
7
  6
Continuous
 62
     4
370
     9
100
AcDbLine
 10
737.30305550819
 20
247.5516313338395
 30
0.0
 11
737.3030555081899
 21
161.4171221215239
 31
0.0
  0
LINE
  5
1C8
330
1C4
100
AcDbEntity
  8
7
  6
Continuous
 62
     4
370
     9
100
AcDbLine
 10
782.30305550819
 20
232.5516313338395
 30
0.0
 11
782.3030555081899
 21
161.4171221215239
 31
0.0
  0
LINE
  5
1C9
330
1C4
100
AcDbEntity
  8
7
  6
Continuous
 62
     4
370
     9
100
AcDbLine
 10
737.3030555081899
 20
164.4171221215239
 30
0.0
 11
782.3030555081899
 21
164.4171221215239
 31
0.0
  0
MTEXT
  5
1CA
330
1C4
100
AcDbEntity
  8
7
  6
Continuous
 62
     4
370
     9
100
AcDbMText
 10
759.80305550819
 20
164.4171221215239
 30
0.0
 40
6.0
 41
48.57142857142856
 46
6.0
 71
     8
 72
     1
  1
45
  7
ＭＳ ゴシック
 73
     1
 44
1.0
1001
ACAD
1000
ACAD_MTEXT_DEFINED_HEIGHT_BEGIN
1070
    46
1040
6.0
1000
ACAD_MTEXT_DEFINED_HEIGHT_END
  0
INSERT
  5
1CB
330
1C4
100
AcDbEntity
  8
7
  6
Continuous
 62
     4
370
     9
100
AcDbBlockReference
  2
_ARROWFILLED
 10
737.3030555081899
 20
164.4171221215239
 30
0.0
 41
4.0
 42
4.0
 43
4.0
 50
179.9999999999998
  0
INSERT
  5
1CC
330
1C4
100
AcDbEntity
  8
7
  6
Continuous
 62
     4
370
     9
100
AcDbBlockReference
  2
_ARROWFILLED
 10
782.3030555081899
 20
164.4171221215239
 30
0.0
 41
4.0
 42
4.0
 43
4.0
 50
359.9999999999997
  0
ENDBLK
  5
1C6
330
1C4
100
AcDbEntity
  8
0
100
AcDbBlockEnd
  0
BLOCK
  5
1CF
330
1CE
100
AcDbEntity
  8
0
100
AcDbBlockBegin
  2
Dim5
 70
     0
 10
0.0
 20
0.0
 30
0.0
  3
Dim5
  1
Dim5
  0
LINE
  5
1D1
330
1CE
100
AcDbEntity
  8
7
  6
Continuous
 62
     4
370
     9
100
AcDbLine
 10
331.3645325053726
 20
264.5516313338395
 30
0.0
 11
291.0632192765074
 21
264.5516313338396
 31
0.0
  0
LINE
  5
1D2
330
1CE
100
AcDbEntity
  8
7
  6
Continuous
 62
     4
370
     9
100
AcDbLine
 10
331.3645325053726
 20
464.5516313338393
 30
0.0
 11
291.0632192765074
 21
464.5516313338394
 31
0.0
  0
LINE
  5
1D3
330
1CE
100
AcDbEntity
  8
7
  6
Continuous
 62
     4
370
     9
100
AcDbLine
 10
294.0632192765074
 20
264.5516313338396
 30
0.0
 11
294.0632192765074
 21
464.5516313338394
 31
0.0
  0
MTEXT
  5
1D4
330
1CE
100
AcDbEntity
  8
7
  6
Continuous
 62
     4
370
     9
100
AcDbMText
 10
294.0632192765074
 20
364.5516313338395
 30
0.0
 40
6.0
 41
77.14285714285714
 46
6.0
 71
     8
 72
     1
  1
200
  7
ＭＳ ゴシック
 11
1.615544574432587E-15
 21
1.0
 31
0.0
 73
     1
 44
1.0
1001
ACAD
1000
ACAD_MTEXT_DEFINED_HEIGHT_BEGIN
1070
    46
1040
6.0
1000
ACAD_MTEXT_DEFINED_HEIGHT_END
  0
INSERT
  5
1D5
330
1CE
100
AcDbEntity
  8
7
  6
Continuous
 62
     4
370
     9
100
AcDbBlockReference
  2
_ARROWFILLED
 10
294.0632192765074
 20
264.5516313338396
 30
0.0
 41
4.0
 42
4.0
 43
4.0
 50
269.9999999999998
  0
INSERT
  5
1D6
330
1CE
100
AcDbEntity
  8
7
  6
Continuous
 62
     4
370
     9
100
AcDbBlockReference
  2
_ARROWFILLED
 10
294.0632192765074
 20
464.5516313338394
 30
0.0
 41
4.0
 42
4.0
 43
4.0
 50
89.99999999999991
  0
ENDBLK
  5
1D0
330
1CE
100
AcDbEntity
  8
0
100
AcDbBlockEnd
  0
BLOCK
  5
1D9
330
1D8
100
AcDbEntity
  8
0
100
AcDbBlockBegin
  2
Dim6
 70
     0
 10
0.0
 20
0.0
 30
0.0
  3
Dim6
  1
Dim6
  0
LINE
  5
1DB
330
1D8
100
AcDbEntity
  8
7
  6
Continuous
 62
     4
370
     9
100
AcDbLine
 10
316.3645325053726
 20
249.5516313338395
 30
0.0
 11
269.5734509221216
 21
249.5516313338397
 31
0.0
  0
LINE
  5
1DC
330
1D8
100
AcDbEntity
  8
7
  6
Continuous
 62
     4
370
     9
100
AcDbLine
 10
316.3645325053726
 20
479.5516313338395
 30
0.0
 11
269.5734509221216
 21
479.5516313338397
 31
0.0
  0
LINE
  5
1DD
330
1D8
100
AcDbEntity
  8
7
  6
Continuous
 62
     4
370
     9
100
AcDbLine
 10
272.5734509221216
 20
249.5516313338397
 30
0.0
 11
272.5734509221216
 21
479.5516313338397
 31
0.0
  0
MTEXT
  5
1DE
330
1D8
100
AcDbEntity
  8
7
  6
Continuous
 62
     4
370
     9
100
AcDbMText
 10
272.5734509221216
 20
364.5516313338396
 30
0.0
 40
6.0
 41
77.14285714285714
 46
6.0
 71
     8
 72
     1
  1
230
  7
ＭＳ ゴシック
 11
1.615544574432587E-15
 21
1.0
 31
0.0
 73
     1
 44
1.0
1001
ACAD
1000
ACAD_MTEXT_DEFINED_HEIGHT_BEGIN
1070
    46
1040
6.0
1000
ACAD_MTEXT_DEFINED_HEIGHT_END
  0
INSERT
  5
1DF
330
1D8
100
AcDbEntity
  8
7
  6
Continuous
 62
     4
370
     9
100
AcDbBlockReference
  2
_ARROWFILLED
 10
272.5734509221216
 20
249.5516313338397
 30
0.0
 41
4.0
 42
4.0
 43
4.0
 50
269.9999999999998
  0
INSERT
  5
1E0
330
1D8
100
AcDbEntity
  8
7
  6
Continuous
 62
     4
370
     9
100
AcDbBlockReference
  2
_ARROWFILLED
 10
272.5734509221216
 20
479.5516313338397
 30
0.0
 41
4.0
 42
4.0
 43
4.0
 50
89.99999999999991
  0
ENDBLK
  5
1DA
330
1D8
100
AcDbEntity
  8
0
100
AcDbBlockEnd
  0
BLOCK
  5
1E3
330
1E2
100
AcDbEntity
  8
0
100
AcDbBlockBegin
  2
Dim7
 70
     0
 10
0.0
 20
0.0
 30
0.0
  3
Dim7
  1
Dim7
  0
LINE
  5
1E5
330
1E2
100
AcDbEntity
  8
7
  6
Continuous
 62
     4
370
     9
100
AcDbLine
 10
356.3645325053726
 20
241.5516313338395
 30
0.0
 11
247.930564943708
 21
241.5516313338399
 31
0.0
  0
LINE
  5
1E6
330
1E2
100
AcDbEntity
  8
7
  6
Continuous
 62
     4
370
     9
100
AcDbLine
 10
352.2645325053726
 20
487.5516313338395
 30
0.0
 11
247.930564943708
 21
487.5516313338399
 31
0.0
  0
LINE
  5
1E7
330
1E2
100
AcDbEntity
  8
7
  6
Continuous
 62
     4
370
     9
100
AcDbLine
 10
250.930564943708
 20
241.5516313338399
 30
0.0
 11
250.930564943708
 21
487.5516313338399
 31
0.0
  0
MTEXT
  5
1E8
330
1E2
100
AcDbEntity
  8
7
  6
Continuous
 62
     4
370
     9
100
AcDbMText
 10
250.930564943708
 20
364.5516313338395
 30
0.0
 40
6.0
 41
77.14285714285714
 46
6.0
 71
     8
 72
     1
  1
246
  7
ＭＳ ゴシック
 11
1.615544574432587E-15
 21
1.0
 31
0.0
 73
     1
 44
1.0
1001
ACAD
1000
ACAD_MTEXT_DEFINED_HEIGHT_BEGIN
1070
    46
1040
6.0
1000
ACAD_MTEXT_DEFINED_HEIGHT_END
  0
INSERT
  5
1E9
330
1E2
100
AcDbEntity
  8
7
  6
Continuous
 62
     4
370
     9
100
AcDbBlockReference
  2
_ARROWFILLED
 10
250.930564943708
 20
241.5516313338399
 30
0.0
 41
4.0
 42
4.0
 43
4.0
 50
269.9999999999998
  0
INSERT
  5
1EA
330
1E2
100
AcDbEntity
  8
7
  6
Continuous
 62
     4
370
     9
100
AcDbBlockReference
  2
_ARROWFILLED
 10
250.930564943708
 20
487.5516313338399
 30
0.0
 41
4.0
 42
4.0
 43
4.0
 50
89.99999999999991
  0
ENDBLK
  5
1E4
330
1E2
100
AcDbEntity
  8
0
100
AcDbBlockEnd
  0
BLOCK
  5
1ED
330
1EC
100
AcDbEntity
  8
0
100
AcDbBlockBegin
  2
Dim8
 70
     0
 10
0.0
 20
0.0
 30
0.0
  3
Dim8
  1
Dim8
  0
LINE
  5
1EF
330
1EC
100
AcDbEntity
  8
7
  6
Continuous
 62
     4
370
     9
100
AcDbLine
 10
336.3645325053717
 20
494.5516313338393
 30
0.0
 11
227.0597274222487
 21
494.5516313338396
 31
0.0
  0
LINE
  5
1F0
330
1EC
100
AcDbEntity
  8
7
  6
Continuous
 62
     4
370
     9
100
AcDbLine
 10
336.3645325053717
 20
234.5516313338395
 30
0.0
 11
227.0597274222487
 21
234.5516313338399
 31
0.0
  0
LINE
  5
1F1
330
1EC
100
AcDbEntity
  8
7
  6
Continuous
 62
     4
370
     9
100
AcDbLine
 10
230.0597274222487
 20
494.5516313338396
 30
0.0
 11
230.0597274222487
 21
234.5516313338399
 31
0.0
  0
MTEXT
  5
1F2
330
1EC
100
AcDbEntity
  8
7
  6
Continuous
 62
     4
370
     9
100
AcDbMText
 10
230.0597274222487
 20
364.5516313338395
 30
0.0
 40
6.0
 41
77.14285714285714
 46
6.0
 71
     8
 72
     1
  1
260
  7
ＭＳ ゴシック
 11
1.615544574432587E-15
 21
1.0
 31
0.0
 73
     1
 44
1.0
1001
ACAD
1000
ACAD_MTEXT_DEFINED_HEIGHT_BEGIN
1070
    46
1040
6.0
1000
ACAD_MTEXT_DEFINED_HEIGHT_END
  0
INSERT
  5
1F3
330
1EC
100
AcDbEntity
  8
7
  6
Continuous
 62
     4
370
     9
100
AcDbBlockReference
  2
_ARROWFILLED
 10
230.0597274222487
 20
494.5516313338396
 30
0.0
 41
4.0
 42
4.0
 43
4.0
 50
89.99999999999991
  0
INSERT
  5
1F4
330
1EC
100
AcDbEntity
  8
7
  6
Continuous
 62
     4
370
     9
100
AcDbBlockReference
  2
_ARROWFILLED
 10
230.0597274222487
 20
234.5516313338399
 30
0.0
 41
4.0
 42
4.0
 43
4.0
 50
269.9999999999998
  0
ENDBLK
  5
1EE
330
1EC
100
AcDbEntity
  8
0
100
AcDbBlockEnd
  0
BLOCK
  5
1F7
330
1F6
100
AcDbEntity
  8
0
100
AcDbBlockBegin
  2
Dim9
 70
     0
 10
0.0
 20
0.0
 30
0.0
  3
Dim9
  1
Dim9
  0
LINE
  5
1F9
330
1F6
100
AcDbEntity
  8
7
  6
Continuous
 62
     4
370
     9
100
AcDbLine
 10
420.8645325053725
 20
235.4516313338395
 30
0.0
 11
420.8645325053724
 21
206.1168203577564
 31
0.0
  0
LINE
  5
1FA
330
1F6
100
AcDbEntity
  8
7
  6
Continuous
 62
     4
370
     9
100
AcDbLine
 10
545.8645325053725
 20
235.4516313338395
 30
0.0
 11
545.8645325053725
 21
206.1168203577564
 31
0.0
  0
LINE
  5
1FB
330
1F6
100
AcDbEntity
  8
7
  6
Continuous
 62
     4
370
     9
100
AcDbLine
 10
420.8645325053724
 20
209.1168203577564
 30
0.0
 11
545.8645325053725
 21
209.1168203577564
 31
0.0
  0
MTEXT
  5
1FC
330
1F6
100
AcDbEntity
  8
7
  6
Continuous
 62
     4
370
     9
100
AcDbMText
 10
483.3645325053725
 20
209.1168203577564
 30
0.0
 40
6.0
 41
72.85714285714286
 46
6.0
 71
     8
 72
     1
  1
125
  7
ＭＳ ゴシック
 73
     1
 44
1.0
1001
ACAD
1000
ACAD_MTEXT_DEFINED_HEIGHT_BEGIN
1070
    46
1040
6.0
1000
ACAD_MTEXT_DEFINED_HEIGHT_END
  0
INSERT
  5
1FD
330
1F6
100
AcDbEntity
  8
7
  6
Continuous
 62
     4
370
     9
100
AcDbBlockReference
  2
_ARROWFILLED
 10
420.8645325053724
 20
209.1168203577564
 30
0.0
 41
4.0
 42
4.0
 43
4.0
 50
179.9999999999998
  0
INSERT
  5
1FE
330
1F6
100
AcDbEntity
  8
7
  6
Continuous
 62
     4
370
     9
100
AcDbBlockReference
  2
_ARROWFILLED
 10
545.8645325053725
 20
209.1168203577564
 30
0.0
 41
4.0
 42
4.0
 43
4.0
 50
359.9999999999997
  0
ENDBLK
  5
1F8
330
1F6
100
AcDbEntity
  8
0
100
AcDbBlockEnd
  0
BLOCK
  5
201
330
200
100
AcDbEntity
  8
0
100
AcDbBlockBegin
  2
Dim10
 70
     0
 10
0.0
 20
0.0
 30
0.0
  3
Dim10
  1
Dim10
  0
LINE
  5
203
330
200
100
AcDbEntity
  8
7
  6
Continuous
 62
     4
370
     9
100
AcDbLine
 10
782.30305550819
 20
232.5516313338395
 30
0.0
 11
782.3030555081899
 21
182.7024115881086
 31
0.0
  0
LINE
  5
204
330
200
100
AcDbEntity
  8
7
  6
Continuous
 62
     4
370
     9
100
AcDbLine
 10
748.8030555081897
 20
339.5516313338395
 30
0.0
 11
748.8030555081895
 21
182.7024115881086
 31
0.0
  0
LINE
  5
205
330
200
100
AcDbEntity
  8
7
  6
Continuous
 62
     4
370
     9
100
AcDbLine
 10
782.3030555081899
 20
185.7024115881086
 30
0.0
 11
748.8030555081895
 21
185.7024115881086
 31
0.0
  0
MTEXT
  5
206
330
200
100
AcDbEntity
  8
7
  6
Continuous
 62
     4
370
     9
100
AcDbMText
 10
765.5530555081896
 20
185.7024115881086
 30
0.0
 40
6.0
 41
91.42857142857142
 46
6.0
 71
     8
 72
     1
  1
33.5
  7
ＭＳ ゴシック
 73
     1
 44
1.0
1001
ACAD
1000
ACAD_MTEXT_DEFINED_HEIGHT_BEGIN
1070
    46
1040
6.0
1000
ACAD_MTEXT_DEFINED_HEIGHT_END
  0
INSERT
  5
207
330
200
100
AcDbEntity
  8
7
  6
Continuous
 62
     4
370
     9
100
AcDbBlockReference
  2
_ARROWFILLED
 10
782.3030555081899
 20
185.7024115881086
 30
0.0
 41
4.0
 42
4.0
 43
4.0
 50
359.9999999999997
  0
INSERT
  5
208
330
200
100
AcDbEntity
  8
7
  6
Continuous
 62
     4
370
     9
100
AcDbBlockReference
  2
_ARROWFILLED
 10
748.8030555081895
 20
185.7024115881086
 30
0.0
 41
4.0
 42
4.0
 43
4.0
 50
179.9999999999998
  0
ENDBLK
  5
202
330
200
100
AcDbEntity
  8
0
100
AcDbBlockEnd
  0
BLOCK
  5
20B
330
20A
100
AcDbEntity
  8
0
100
AcDbBlockBegin
  2
Dim11
 70
     0
 10
0.0
 20
0.0
 30
0.0
  3
Dim11
  1
Dim11
  0
LINE
  5
20D
330
20A
100
AcDbEntity
  8
7
  6
Continuous
 62
     4
370
     9
100
AcDbLine
 10
608.3645325053725
 20
235.4516313338395
 30
0.0
 11
608.3645325053724
 21
182.7024115881086
 31
0.0
  0
LINE
  5
20E
330
20A
100
AcDbEntity
  8
7
  6
Continuous
 62
     4
370
     9
100
AcDbLine
 10
358.3645325053726
 20
235.4516313338395
 30
0.0
 11
358.3645325053726
 21
182.7024115881086
 31
0.0
  0
LINE
  5
20F
330
20A
100
AcDbEntity
  8
7
  6
Continuous
 62
     4
370
     9
100
AcDbLine
 10
608.3645325053724
 20
185.7024115881086
 30
0.0
 11
358.3645325053726
 21
185.7024115881086
 31
0.0
  0
MTEXT
  5
210
330
20A
100
AcDbEntity
  8
7
  6
Continuous
 62
     4
370
     9
100
AcDbMText
 10
483.3645325053726
 20
185.7024115881086
 30
0.0
 40
6.0
 41
77.14285714285714
 46
6.0
 71
     8
 72
     1
  1
250
  7
ＭＳ ゴシック
 73
     1
 44
1.0
1001
ACAD
1000
ACAD_MTEXT_DEFINED_HEIGHT_BEGIN
1070
    46
1040
6.0
1000
ACAD_MTEXT_DEFINED_HEIGHT_END
  0
INSERT
  5
211
330
20A
100
AcDbEntity
  8
7
  6
Continuous
 62
     4
370
     9
100
AcDbBlockReference
  2
_ARROWFILLED
 10
608.3645325053724
 20
185.7024115881086
 30
0.0
 41
4.0
 42
4.0
 43
4.0
 50
359.9999999999997
  0
INSERT
  5
212
330
20A
100
AcDbEntity
  8
7
  6
Continuous
 62
     4
370
     9
100
AcDbBlockReference
  2
_ARROWFILLED
 10
358.3645325053726
 20
185.7024115881086
 30
0.0
 41
4.0
 42
4.0
 43
4.0
 50
179.9999999999998
  0
ENDBLK
  5
20C
330
20A
100
AcDbEntity
  8
0
100
AcDbBlockEnd
  0
BLOCK
  5
215
330
214
100
AcDbEntity
  8
0
100
AcDbBlockBegin
  2
Dim12
 70
     0
 10
0.0
 20
0.0
 30
0.0
  3
Dim12
  1
Dim12
  0
LINE
  5
217
330
214
100
AcDbEntity
  8
7
  6
Continuous
 62
     4
370
     9
100
AcDbLine
 10
648.3645325053726
 20
247.5516313338395
 30
0.0
 11
648.3645325053724
 21
137.5783568522165
 31
0.0
  0
LINE
  5
218
330
214
100
AcDbEntity
  8
7
  6
Continuous
 62
     4
370
     9
100
AcDbLine
 10
683.3645325053744
 20
339.5516313338395
 30
0.0
 11
683.3645325053741
 21
137.5783568522165
 31
0.0
  0
LINE
  5
219
330
214
100
AcDbEntity
  8
7
  6
Continuous
 62
     4
370
     9
100
AcDbLine
 10
648.3645325053724
 20
140.5783568522165
 30
0.0
 11
683.3645325053741
 21
140.5783568522165
 31
0.0
  0
MTEXT
  5
21A
330
214
100
AcDbEntity
  8
7
  6
Continuous
 62
     4
370
     9
100
AcDbMText
 10
665.8645325053734
 20
140.5783568522165
 30
0.0
 40
6.0
 41
48.57142857142856
 46
6.0
 71
     8
 72
     1
  1
35
  7
ＭＳ ゴシック
 73
     1
 44
1.0
1001
ACAD
1000
ACAD_MTEXT_DEFINED_HEIGHT_BEGIN
1070
    46
1040
6.0
1000
ACAD_MTEXT_DEFINED_HEIGHT_END
  0
INSERT
  5
21B
330
214
100
AcDbEntity
  8
7
  6
Continuous
 62
     4
370
     9
100
AcDbBlockReference
  2
_ARROWFILLED
 10
648.3645325053724
 20
140.5783568522165
 30
0.0
 41
4.0
 42
4.0
 43
4.0
 50
179.9999999999998
  0
INSERT
  5
21C
330
214
100
AcDbEntity
  8
7
  6
Continuous
 62
     4
370
     9
100
AcDbBlockReference
  2
_ARROWFILLED
 10
683.3645325053741
 20
140.5783568522165
 30
0.0
 41
4.0
 42
4.0
 43
4.0
 50
359.9999999999997
  0
ENDBLK
  5
216
330
214
100
AcDbEntity
  8
0
100
AcDbBlockEnd
  0
ENDSEC
  0
SECTION
  2
ENTITIES
  0
HATCH
  5
CA
330
1F
100
AcDbEntity
  8
9
  6
Continuous
 62
     2
370
     9
100
AcDbHatch
 10
0.0
 20
0.0
 30
0.0
210
0.0
220
0.0
230
1.0
  2

 70
     0
 71
     0
 91
        4
 92
        0
 93
        4
 72
     1
 10
483.3645325053726
 20
264.5516313338395
 11
633.3645325053725
 21
264.5516313338395
 72
     1
 10
633.3645325053725
 20
264.5516313338395
 11
633.3645325053725
 21
364.5516313338395
 72
     1
 10
633.3645325053725
 20
364.5516313338395
 11
483.3645325053727
 21
364.5516313338395
 72
     1
 10
483.3645325053727
 20
364.5516313338395
 11
483.3645325053726
 21
264.5516313338395
 97
        0
 92
        0
 93
        4
 72
     1
 10
333.3645325053721
 20
264.5516313338395
 11
483.3645325053726
 21
264.5516313338395
 72
     1
 10
483.3645325053726
 20
264.5516313338395
 11
483.3645325053727
 21
364.5516313338395
 72
     1
 10
483.3645325053727
 20
364.5516313338395
 11
333.3645325053726
 21
364.5516313338395
 72
     1
 10
333.3645325053726
 20
364.5516313338395
 11
333.3645325053721
 21
264.5516313338395
 97
        0
 92
        0
 93
        4
 72
     1
 10
483.3645325053728
 20
364.5516313338395
 11
483.3645325053729
 21
464.5516313338393
 72
     1
 10
483.3645325053729
 20
464.5516313338393
 11
333.3645325053726
 21
464.5516313338393
 72
     1
 10
333.3645325053726
 20
464.5516313338393
 11
333.3645325053726
 21
364.5516313338395
 72
     1
 10
333.3645325053726
 20
364.5516313338395
 11
483.3645325053728
 21
364.5516313338395
 97
        0
 92
        0
 93
        4
 72
     1
 10
633.3645325053725
 20
364.5516313338395
 11
633.3645325053725
 21
464.5516313338393
 72
     1
 10
633.3645325053725
 20
464.5516313338393
 11
483.3645325053729
 21
464.5516313338393
 72
     1
 10
483.3645325053729
 20
464.5516313338393
 11
483.3645325053727
 21
364.5516313338395
 72
     1
 10
483.3645325053727
 20
364.5516313338395
 11
633.3645325053725
 21
364.5516313338395
 97
        0
 75
     0
 76
     2
 52
0.0
 41
0.3333333333333333
 77
     0
 78
     2
 53
45.0
 43
91.25
 44
61.74975411593194
 45
-6.735192090801846
 46
6.735192090801881
 79
     0
 53
135.0
 43
91.25
 44
61.74975411593194
 45
-6.735192090801874
 46
-6.735192090801853
 79
     0
 98
        0
  0
LINE
  5
CB
330
1F
100
AcDbEntity
  8
8
  6
Continuous
 62
     7
370
    25
100
AcDbLine
 10
633.3645325053725
 20
264.5516313338395
 30
0.0
 11
633.3645325053725
 21
464.5516313338393
 31
0.0
  0
LINE
  5
CC
330
1F
100
AcDbEntity
  8
8
  6
Continuous
 62
     7
370
    25
100
AcDbLine
 10
633.3645325053725
 20
464.5516313338393
 30
0.0
 11
333.3645325053721
 21
464.5516313338393
 31
0.0
  0
LINE
  5
CD
330
1F
100
AcDbEntity
  8
8
  6
Continuous
 62
     7
370
    25
100
AcDbLine
 10
333.3645325053726
 20
464.5516313338393
 30
0.0
 11
333.3645325053726
 21
264.5516313338395
 31
0.0
  0
LINE
  5
CE
330
1F
100
AcDbEntity
  8
3
  6
DASHDOT
 62
     1
370
     9
100
AcDbLine
 10
483.364532505373
 20
499.5516313338395
 30
0.0
 11
483.3645325053725
 21
229.5516313338395
 31
0.0
  0
LINE
  5
CF
330
1F
100
AcDbEntity
  8
8
  6
Continuous
 62
     7
370
    25
100
AcDbLine
 10
333.3645325053721
 20
264.5516313338395
 30
0.0
 11
633.3645325053725
 21
264.5516313338395
 31
0.0
  0
LINE
  5
D0
330
1F
100
AcDbEntity
  8
8
  6
Continuous
 62
     7
370
    25
100
AcDbLine
 10
648.3645325053726
 20
479.5516313338395
 30
0.0
 11
648.3645325053726
 21
249.5516313338395
 31
0.0
  0
LINE
  5
D1
330
1F
100
AcDbEntity
  8
8
  6
Continuous
 62
     7
370
    25
100
AcDbLine
 10
648.3645325053726
 20
249.5516313338395
 30
0.0
 11
318.3645325053726
 21
249.5516313338377
 31
0.0
  0
LINE
  5
D2
330
1F
100
AcDbEntity
  8
8
  6
Continuous
 62
     7
370
    25
100
AcDbLine
 10
648.3645325053726
 20
479.5516313338395
 30
0.0
 11
318.3645325053726
 21
479.5516313338395
 31
0.0
  0
LINE
  5
D3
330
1F
100
AcDbEntity
  8
8
  6
Continuous
 62
     7
370
    25
100
AcDbLine
 10
318.3645325053726
 20
479.5516313338395
 30
0.0
 11
318.3645325053726
 21
249.5516313338395
 31
0.0
  0
LINE
  5
D4
330
1F
100
AcDbEntity
  8
8
  6
Continuous
 62
     7
370
    25
100
AcDbLine
 10
775.7530555081897
 20
249.2349646671738
 30
0.0
 11
768.853055508189
 21
249.2349646671738
 31
0.0
  0
ARC
  5
D5
330
1F
100
AcDbEntity
  8
8
  6
Continuous
 62
     7
370
    25
100
AcDbCircle
 10
772.30305550819
 20
252.2019822110324
 30
0.0
 40
4.550350877192955
100
AcDbArc
 50
220.6956985253407
 51
319.3043014746586
  0
LINE
  5
D6
330
1F
100
AcDbEntity
  8
8
  6
Continuous
 62
     7
370
    25
100
AcDbLine
 10
775.7530555081897
 20
249.5516313338395
 30
0.0
 11
775.7530555081897
 21
249.2349646671738
 31
0.0
  0
LINE
  5
D7
330
1F
100
AcDbEntity
  8
8
  6
Continuous
 62
     7
370
    25
100
AcDbLine
 10
768.853055508189
 20
249.5516313338395
 30
0.0
 11
768.853055508189
 21
249.2349646671738
 31
0.0
  0
LINE
  5
D8
330
1F
100
AcDbEntity
  8
8
  6
Continuous
 62
     7
370
    25
100
AcDbLine
 10
737.30305550819
 20
479.5516313338395
 30
0.0
 11
737.30305550819
 21
249.5516313338395
 31
0.0
  0
LINE
  5
D9
330
1F
100
AcDbEntity
  8
8
  6
Continuous
 62
     7
370
    25
100
AcDbLine
 10
782.30305550819
 20
494.5516313338393
 30
0.0
 11
782.30305550819
 21
234.5516313338395
 31
0.0
  0
LINE
  5
DA
330
1F
100
AcDbEntity
  8
8
  6
Continuous
 62
     7
370
    25
100
AcDbLine
 10
781.30305550819
 20
494.5516313338393
 30
0.0
 11
781.3030555081883
 21
234.5516313338395
 31
0.0
  0
LINE
  5
DB
330
1F
100
AcDbEntity
  8
8
  6
Continuous
 62
     7
370
    25
100
AcDbLine
 10
737.30305550819
 20
479.5516313338395
 30
0.0
 11
781.30305550819
 21
479.5516313338376
 31
0.0
  0
LINE
  5
DC
330
1F
100
AcDbEntity
  8
8
  6
Continuous
 62
     7
370
    25
100
AcDbLine
 10
781.30305550819
 20
478.5516313338376
 30
0.0
 11
782.30305550819
 21
478.5516313338376
 31
0.0
  0
LINE
  5
DD
330
1F
100
AcDbEntity
  8
8
  6
Continuous
 62
     7
370
    25
100
AcDbLine
 10
781.30305550819
 20
494.5516313338393
 30
0.0
 11
782.30305550819
 21
494.5516313338393
 31
0.0
  0
LINE
  5
DE
330
1F
100
AcDbEntity
  8
8
  6
Continuous
 62
     7
370
    25
100
AcDbLine
 10
737.30305550819
 20
249.5516313338395
 30
0.0
 11
781.3030555081883
 21
249.5516313338395
 31
0.0
  0
LINE
  5
DF
330
1F
100
AcDbEntity
  8
8
  6
Continuous
 62
     7
370
    25
100
AcDbLine
 10
781.3030555081883
 20
250.5516313338395
 30
0.0
 11
782.30305550819
 21
250.5516313338395
 31
0.0
  0
LINE
  5
E0
330
1F
100
AcDbEntity
  8
8
  6
Continuous
 62
     7
370
    25
100
AcDbLine
 10
781.30305550819
 20
234.5516313338395
 30
0.0
 11
782.30305550819
 21
234.5516313338395
 31
0.0
  0
LINE
  5
E1
330
1F
100
AcDbEntity
  8
8
  6
Continuous
 62
     7
370
    25
100
AcDbLine
 10
633.3645325053725
 20
239.5516313338395
 30
0.0
 11
633.3645325053725
 21
249.5516313338395
 31
0.0
  0
ARC
  5
E2
330
1F
100
AcDbEntity
  8
8
  6
Continuous
 62
     7
370
    25
100
AcDbCircle
 10
628.3645325053734
 20
239.5516313338395
 30
0.0
 40
5.0
100
AcDbArc
 50
269.9999999999998
 51
0.0
  0
LINE
  5
E3
330
1F
100
AcDbEntity
  8
8
  6
Continuous
 62
     7
370
    25
100
AcDbLine
 10
338.3645325053717
 20
234.5516313338395
 30
0.0
 11
628.3645325053734
 21
234.5516313338395
 31
0.0
  0
LINE
  5
E4
330
1F
100
AcDbEntity
  8
8
  6
Continuous
 62
     7
370
    25
100
AcDbLine
 10
333.3645325053726
 20
239.5516313338395
 30
0.0
 11
333.3645325053726
 21
249.5516313338395
 31
0.0
  0
ARC
  5
E5
330
1F
100
AcDbEntity
  8
8
  6
Continuous
 62
     7
370
    25
100
AcDbCircle
 10
338.3645325053717
 20
239.5516313338395
 30
0.0
 40
5.0
100
AcDbArc
 50
179.9999999999998
 51
269.9999999999998
  0
LINE
  5
E6
330
1F
100
AcDbEntity
  8
8
  6
Continuous
 62
     7
370
    25
100
AcDbLine
 10
633.3645325053725
 20
489.5516313338393
 30
0.0
 11
633.3645325053725
 21
479.5516313338395
 31
0.0
  0
ARC
  5
E7
330
1F
100
AcDbEntity
  8
8
  6
Continuous
 62
     7
370
    25
100
AcDbCircle
 10
628.3645325053734
 20
489.5516313338393
 30
0.0
 40
5.0
100
AcDbArc
 50
0.0
 51
89.99999999999991
  0
LINE
  5
E8
330
1F
100
AcDbEntity
  8
8
  6
Continuous
 62
     7
370
    25
100
AcDbLine
 10
338.3645325053726
 20
494.5516313338393
 30
0.0
 11
628.3645325053734
 21
494.5516313338393
 31
0.0
  0
LINE
  5
E9
330
1F
100
AcDbEntity
  8
8
  6
Continuous
 62
     7
370
    25
100
AcDbLine
 10
333.3645325053726
 20
489.5516313338393
 30
0.0
 11
333.3645325053726
 21
479.5516313338395
 31
0.0
  0
ARC
  5
EA
330
1F
100
AcDbEntity
  8
8
  6
Continuous
 62
     7
370
    25
100
AcDbCircle
 10
338.3645325053717
 20
489.5516313338393
 30
0.0
 40
5.0
100
AcDbArc
 50
89.99999999999991
 51
179.9999999999998
  0
LINE
  5
EB
330
1F
100
AcDbEntity
  8
8
  6
Continuous
 62
     7
370
    25
100
AcDbLine
 10
331.8145325053742
 20
249.2349646671738
 30
0.0
 11
324.9145325053746
 21
249.2349646671738
 31
0.0
  0
ARC
  5
EC
330
1F
100
AcDbEntity
  8
8
  6
Continuous
 62
     7
370
    25
100
AcDbCircle
 10
328.3645325053744
 20
252.2019822110324
 30
0.0
 40
4.550350877192955
100
AcDbArc
 50
220.6956985253402
 51
319.3043014746586
  0
LINE
  5
ED
330
1F
100
AcDbEntity
  8
8
  6
Continuous
 62
     7
370
    25
100
AcDbLine
 10
331.8145325053742
 20
249.5516313338395
 30
0.0
 11
331.8145325053742
 21
249.2349646671738
 31
0.0
  0
LINE
  5
EE
330
1F
100
AcDbEntity
  8
8
  6
Continuous
 62
     7
370
    25
100
AcDbLine
 10
324.9145325053746
 20
249.5516313338395
 30
0.0
 11
324.9145325053746
 21
249.2349646671738
 31
0.0
  0
LINE
  5
EF
330
1F
100
AcDbEntity
  8
8
  6
Continuous
 62
     7
370
    25
100
AcDbLine
 10
353.3145325053742
 20
249.2349646671738
 30
0.0
 11
346.4145325053737
 21
249.2349646671738
 31
0.0
  0
ARC
  5
F0
330
1F
100
AcDbEntity
  8
8
  6
Continuous
 62
     7
370
    25
100
AcDbCircle
 10
349.8645325053744
 20
252.2019822110324
 30
0.0
 40
4.550350877192955
100
AcDbArc
 50
220.6956985253402
 51
319.3043014746586
  0
LINE
  5
F1
330
1F
100
AcDbEntity
  8
8
  6
Continuous
 62
     7
370
    25
100
AcDbLine
 10
353.3145325053742
 20
249.5516313338395
 30
0.0
 11
353.3145325053742
 21
249.2349646671738
 31
0.0
  0
LINE
  5
F2
330
1F
100
AcDbEntity
  8
8
  6
Continuous
 62
     7
370
    25
100
AcDbLine
 10
346.4145325053737
 20
249.5516313338395
 30
0.0
 11
346.4145325053737
 21
249.2349646671738
 31
0.0
  0
LINE
  5
F3
330
1F
100
AcDbEntity
  8
8
  6
Continuous
 62
     7
370
    25
100
AcDbLine
 10
331.8145325053742
 20
479.8682980005069
 30
0.0
 11
324.9145325053746
 21
479.8682980005069
 31
0.0
  0
ARC
  5
F4
330
1F
100
AcDbEntity
  8
8
  6
Continuous
 62
     7
370
    25
100
AcDbCircle
 10
328.3645325053744
 20
476.9012804566465
 30
0.0
 40
4.550350877192955
100
AcDbArc
 50
40.69569852534085
 51
139.3043014746587
  0
LINE
  5
F5
330
1F
100
AcDbEntity
  8
8
  6
Continuous
 62
     7
370
    25
100
AcDbLine
 10
331.8145325053742
 20
479.5516313338395
 30
0.0
 11
331.8145325053742
 21
479.8682980005069
 31
0.0
  0
LINE
  5
F6
330
1F
100
AcDbEntity
  8
8
  6
Continuous
 62
     7
370
    25
100
AcDbLine
 10
324.9145325053746
 20
479.5516313338395
 30
0.0
 11
324.9145325053746
 21
479.8682980005069
 31
0.0
  0
LINE
  5
F7
330
1F
100
AcDbEntity
  8
8
  6
Continuous
 62
     7
370
    25
100
AcDbLine
 10
353.3145325053742
 20
479.8682980005069
 30
0.0
 11
346.4145325053737
 21
479.8682980005069
 31
0.0
  0
ARC
  5
F8
330
1F
100
AcDbEntity
  8
8
  6
Continuous
 62
     7
370
    25
100
AcDbCircle
 10
349.8645325053744
 20
476.9012804566465
 30
0.0
 40
4.550350877192955
100
AcDbArc
 50
40.69569852534085
 51
139.3043014746587
  0
LINE
  5
F9
330
1F
100
AcDbEntity
  8
8
  6
Continuous
 62
     7
370
    25
100
AcDbLine
 10
353.3145325053742
 20
479.5516313338395
 30
0.0
 11
353.3145325053742
 21
479.8682980005069
 31
0.0
  0
LINE
  5
FA
330
1F
100
AcDbEntity
  8
8
  6
Continuous
 62
     7
370
    25
100
AcDbLine
 10
346.4145325053737
 20
479.5516313338395
 30
0.0
 11
346.4145325053737
 21
479.8682980005069
 31
0.0
  0
LINE
  5
FB
330
1F
100
AcDbEntity
  8
8
  6
Continuous
 62
     7
370
    25
100
AcDbLine
 10
634.914532505371
 20
479.8682980005052
 30
0.0
 11
641.8145325053715
 21
479.8682980005052
 31
0.0
  0
ARC
  5
FC
330
1F
100
AcDbEntity
  8
8
  6
Continuous
 62
     7
370
    25
100
AcDbCircle
 10
638.3645325053707
 20
476.9012804566465
 30
0.0
 40
4.550350877192955
100
AcDbArc
 50
40.69569852534131
 51
139.3043014746587
  0
LINE
  5
FD
330
1F
100
AcDbEntity
  8
8
  6
Continuous
 62
     7
370
    25
100
AcDbLine
 10
634.914532505371
 20
479.5516313338395
 30
0.0
 11
634.914532505371
 21
479.8682980005052
 31
0.0
  0
LINE
  5
FE
330
1F
100
AcDbEntity
  8
8
  6
Continuous
 62
     7
370
    25
100
AcDbLine
 10
641.8145325053715
 20
479.5516313338395
 30
0.0
 11
641.8145325053715
 21
479.8682980005052
 31
0.0
  0
LINE
  5
FF
330
1F
100
AcDbEntity
  8
8
  6
Continuous
 62
     7
370
    25
100
AcDbLine
 10
613.4145325053719
 20
479.8682980005052
 30
0.0
 11
620.3145325053715
 21
479.8682980005052
 31
0.0
  0
ARC
  5
100
330
1F
100
AcDbEntity
  8
8
  6
Continuous
 62
     7
370
    25
100
AcDbCircle
 10
616.8645325053716
 20
476.9012804566465
 30
0.0
 40
4.550350877192955
100
AcDbArc
 50
40.69569852534131
 51
139.3043014746587
  0
LINE
  5
101
330
1F
100
AcDbEntity
  8
8
  6
Continuous
 62
     7
370
    25
100
AcDbLine
 10
613.4145325053719
 20
479.5516313338395
 30
0.0
 11
613.4145325053719
 21
479.8682980005052
 31
0.0
  0
LINE
  5
102
330
1F
100
AcDbEntity
  8
8
  6
Continuous
 62
     7
370
    25
100
AcDbLine
 10
620.3145325053715
 20
479.5516313338395
 30
0.0
 11
620.3145325053715
 21
479.8682980005052
 31
0.0
  0
LINE
  5
103
330
1F
100
AcDbEntity
  8
8
  6
Continuous
 62
     7
370
    25
100
AcDbLine
 10
634.914532505371
 20
249.2349646671738
 30
0.0
 11
641.8145325053715
 21
249.2349646671738
 31
0.0
  0
ARC
  5
104
330
1F
100
AcDbEntity
  8
8
  6
Continuous
 62
     7
370
    25
100
AcDbCircle
 10
638.3645325053707
 20
252.2019822110324
 30
0.0
 40
4.550350877192955
100
AcDbArc
 50
220.6956985253407
 51
319.3043014746586
  0
LINE
  5
105
330
1F
100
AcDbEntity
  8
8
  6
Continuous
 62
     7
370
    25
100
AcDbLine
 10
634.914532505371
 20
249.5516313338395
 30
0.0
 11
634.914532505371
 21
249.2349646671738
 31
0.0
  0
LINE
  5
106
330
1F
100
AcDbEntity
  8
8
  6
Continuous
 62
     7
370
    25
100
AcDbLine
 10
641.8145325053715
 20
249.5516313338395
 30
0.0
 11
641.8145325053715
 21
249.2349646671738
 31
0.0
  0
LINE
  5
107
330
1F
100
AcDbEntity
  8
8
  6
Continuous
 62
     7
370
    25
100
AcDbLine
 10
613.4145325053719
 20
249.2349646671738
 30
0.0
 11
620.3145325053715
 21
249.2349646671738
 31
0.0
  0
ARC
  5
108
330
1F
100
AcDbEntity
  8
8
  6
Continuous
 62
     7
370
    25
100
AcDbCircle
 10
616.8645325053716
 20
252.2019822110324
 30
0.0
 40
4.550350877192955
100
AcDbArc
 50
220.6956985253407
 51
319.3043014746586
  0
LINE
  5
109
330
1F
100
AcDbEntity
  8
8
  6
Continuous
 62
     7
370
    25
100
AcDbLine
 10
613.4145325053719
 20
249.5516313338395
 30
0.0
 11
613.4145325053719
 21
249.2349646671738
 31
0.0
  0
LINE
  5
10A
330
1F
100
AcDbEntity
  8
8
  6
Continuous
 62
     7
370
    25
100
AcDbLine
 10
620.3145325053715
 20
249.5516313338395
 30
0.0
 11
620.3145325053715
 21
249.2349646671738
 31
0.0
  0
LINE
  5
10B
330
1F
100
AcDbEntity
  8
8
  6
Continuous
 62
     7
370
    25
100
AcDbLine
 10
318.0478658387051
 20
368.0016313338384
 30
0.0
 11
318.0478658387051
 21
361.1016313338388
 31
0.0
  0
ARC
  5
10C
330
1F
100
AcDbEntity
  8
8
  6
Continuous
 62
     7
370
    25
100
AcDbCircle
 10
321.0148833825656
 20
364.5516313338395
 30
0.0
 40
4.550350877192955
100
AcDbArc
 50
130.6956985253495
 51
229.3043014746502
  0
LINE
  5
10D
330
1F
100
AcDbEntity
  8
8
  6
Continuous
 62
     7
370
    25
100
AcDbLine
 10
318.3645325053726
 20
368.0016313338384
 30
0.0
 11
318.0478658387051
 21
368.0016313338384
 31
0.0
  0
LINE
  5
10E
330
1F
100
AcDbEntity
  8
8
  6
Continuous
 62
     7
370
    25
100
AcDbLine
 10
318.3645325053726
 20
361.1016313338388
 30
0.0
 11
318.0478658387051
 21
361.1016313338388
 31
0.0
  0
LINE
  5
10F
330
1F
100
AcDbEntity
  8
3
  6
DASHDOT
 62
     1
370
     9
100
AcDbLine
 10
653.3645325053725
 20
364.5516313338395
 30
0.0
 11
313.3645325053726
 21
364.5516313338395
 31
0.0
  0
DIMENSION
  5
11A
330
1F
100
AcDbEntity
  8
7
  6
Continuous
 62
     4
370
     9
100
AcDbDimension
280
     0
  2
Dim1
 10
781.3030555081883
 20
209.1168203577564
 30
0.0
 11
793.30305550819
 21
209.1168203577564
 31
0.0
 70
   160
  1
<>
 71
     5
 42
-1.0
 73
     0
 74
     0
 75
     0
  3
Standard
100
AcDbAlignedDimension
 13
782.30305550819
 23
234.5516313338395
 33
0.0
 14
781.3030555081883
 24
234.5516313338395
 34
0.0
 50
179.9999999999998
100
AcDbRotatedDimension
1001
ACAD
1000
DSTYLE
1002
{
1070
   279
1070
     2
1070
   340
1005
110
1070
   140
1040
6.0
1070
    40
1040
1.0
1070
   147
1040
0.0
1070
    76
1070
     0
1070
    75
1070
     0
1070
   344
1005
0
1070
   343
1005
0
1070
   173
1070
     1
1070
   289
1070
     2
1070
   288
1070
     1
1070
    77
1070
     1
1070
   172
1070
     1
1070
   174
1070
     0
1070
    74
1070
     0
1070
    73
1070
     0
1070
   284
1070
     8
1070
    78
1070
     8
1070
    42
1040
2.0
1070
    44
1040
3.0
1070
    43
1040
30.0
1070
   271
1070
     2
1070
    41
1040
4.0
1002
}
  0
LINE
  5
11B
330
1F
100
AcDbEntity
  8
3
  6
DASHDOT
 62
     1
370
     9
100
AcDbLine
 10
732.30305550819
 20
364.5516313338395
 30
0.0
 11
787.30305550819
 21
364.5516313338396
 31
0.0
  0
LINE
  5
11C
330
1F
100
AcDbEntity
  8
3
  6
DASHDOT
 62
     1
370
     9
100
AcDbLine
 10
780.3030555081883
 20
487.5516313338395
 30
0.0
 11
783.30305550819
 21
487.5516313338395
 31
0.0
  0
LINE
  5
11D
330
1F
100
AcDbEntity
  8
8
  6
Continuous
 62
     7
370
    25
100
AcDbLine
 10
486.8145325053742
 20
249.234964667172
 30
0.0
 11
479.9145325053737
 21
249.234964667172
 31
0.0
  0
ARC
  5
11E
330
1F
100
AcDbEntity
  8
8
  6
Continuous
 62
     7
370
    25
100
AcDbCircle
 10
483.3645325053743
 20
252.2019822110324
 30
0.0
 40
4.550350877192955
100
AcDbArc
 50
220.6956985253402
 51
319.3043014746586
  0
LINE
  5
11F
330
1F
100
AcDbEntity
  8
8
  6
Continuous
 62
     7
370
    25
100
AcDbLine
 10
486.8145325053742
 20
249.5516313338395
 30
0.0
 11
486.8145325053742
 21
249.234964667172
 31
0.0
  0
LINE
  5
120
330
1F
100
AcDbEntity
  8
8
  6
Continuous
 62
     7
370
    25
100
AcDbLine
 10
479.9145325053737
 20
249.5516313338395
 30
0.0
 11
479.9145325053737
 21
249.234964667172
 31
0.0
  0
LINE
  5
121
330
1F
100
AcDbEntity
  8
3
  6
DASHDOT
 62
     1
370
     9
100
AcDbLine
 10
354.2645325053726
 20
487.5516313338395
 30
0.0
 11
362.4645325053726
 21
487.5516313338395
 31
0.0
  0
LINE
  5
122
330
1F
100
AcDbEntity
  8
3
  6
DASHDOT
 62
     1
370
     9
100
AcDbLine
 10
358.3645325053726
 20
483.4516313338395
 30
0.0
 11
358.3645325053726
 21
491.6516313338395
 31
0.0
  0
LINE
  5
123
330
1F
100
AcDbEntity
  8
8
  6
Continuous
 62
     7
370
    25
100
AcDbLine
 10
683.3645325053744
 20
341.5516313338395
 30
0.0
 11
683.3645325053744
 21
387.5516313338395
 31
0.0
  0
LINE
  5
124
330
1F
100
AcDbEntity
  8
8
  6
Continuous
 62
     7
370
    25
100
AcDbLine
 10
683.3645325053744
 20
386.0516313338395
 30
0.0
 11
648.3645325053726
 21
386.0516313338395
 31
0.0
  0
LINE
  5
125
330
1F
100
AcDbEntity
  8
8
  6
Continuous
 62
     7
370
    25
100
AcDbLine
 10
683.3645325053744
 20
387.5516313338395
 30
0.0
 11
648.3645325053744
 21
387.5516313338395
 31
0.0
  0
LINE
  5
126
330
1F
100
AcDbEntity
  8
8
  6
Continuous
 62
     7
370
    25
100
AcDbLine
 10
683.3645325053744
 20
343.0516313338395
 30
0.0
 11
648.3645325053726
 21
343.0516313338395
 31
0.0
  0
LINE
  5
127
330
1F
100
AcDbEntity
  8
8
  6
Continuous
 62
     7
370
    25
100
AcDbLine
 10
683.3645325053744
 20
341.5516313338395
 30
0.0
 11
648.3645325053744
 21
341.5516313338395
 31
0.0
  0
LINE
  5
128
330
1F
100
AcDbEntity
  8
8
  6
Continuous
 62
     7
370
    25
100
AcDbLine
 10
676.214532505373
 20
337.2856246943685
 30
0.0
 11
676.214532505373
 21
330.0516313338377
 31
0.0
  0
LINE
  5
129
330
1F
100
AcDbEntity
  8
9
  6
Continuous
 62
     2
370
     9
100
AcDbLine
 10
675.6760709669102
 20
334.7516313338366
 30
0.0
 11
676.214532505371
 21
335.6842740763751
 31
0.0
  0
LINE
  5
12A
330
1F
100
AcDbEntity
  8
8
  6
Continuous
 62
     7
370
    25
100
AcDbLine
 10
675.4145325053719
 20
329.2516313338367
 30
0.0
 11
676.214532505373
 21
330.0516313338377
 31
0.0
  0
LINE
  5
12B
330
1F
100
AcDbEntity
  8
9
  6
Continuous
 62
     2
370
     9
100
AcDbLine
 10
675.6760709669102
 20
334.7516313338366
 30
0.0
 11
675.6760709669102
 21
329.5131697953749
 31
0.0
  0
LINE
  5
12C
330
1F
100
AcDbEntity
  8
8
  6
Continuous
 62
     7
370
    25
100
AcDbLine
 10
679.8645325053726
 20
339.2516313338366
 30
0.0
 11
679.8645325053726
 21
341.5516313338377
 31
0.0
  0
LINE
  5
12D
330
1F
100
AcDbEntity
  8
8
  6
Continuous
 62
     7
370
    25
100
AcDbLine
 10
650.8645325053726
 20
339.2516313338366
 30
0.0
 11
650.8645325053726
 21
341.5516313338377
 31
0.0
  0
LINE
  5
12E
330
1F
100
AcDbEntity
  8
9
  6
Continuous
 62
     2
370
     9
100
AcDbLine
 10
655.0529940438332
 20
334.7516313338366
 30
0.0
 11
654.5145325053722
 21
335.6842740763751
 31
0.0
  0
LINE
  5
12F
330
1F
100
AcDbEntity
  8
8
  6
Continuous
 62
     7
370
    25
100
AcDbLine
 10
679.8645325053726
 20
339.2516313338366
 30
0.0
 11
650.8645325053726
 21
339.2516313338366
 31
0.0
  0
LINE
  5
130
330
1F
100
AcDbEntity
  8
8
  6
Continuous
 62
     7
370
    25
100
AcDbLine
 10
654.5145325053722
 20
334.7516313338366
 30
0.0
 11
676.214532505373
 21
334.7516313338366
 31
0.0
  0
LINE
  5
131
330
1F
100
AcDbEntity
  8
8
  6
Continuous
 62
     7
370
    25
100
AcDbLine
 10
655.3145325053715
 20
329.2516313338367
 30
0.0
 11
654.5145325053722
 21
330.0516313338377
 31
0.0
  0
LINE
  5
132
330
1F
100
AcDbEntity
  8
8
  6
Continuous
 62
     7
370
    25
100
AcDbLine
 10
654.5145325053722
 20
330.0516313338377
 30
0.0
 11
676.214532505373
 21
330.0516313338377
 31
0.0
  0
LINE
  5
133
330
1F
100
AcDbEntity
  8
8
  6
Continuous
 62
     7
370
    25
100
AcDbLine
 10
654.5145325053722
 20
337.2783461650489
 30
0.0
 11
654.5145325053722
 21
330.0516313338377
 31
0.0
  0
LINE
  5
134
330
1F
100
AcDbEntity
  8
9
  6
Continuous
 62
     2
370
     9
100
AcDbLine
 10
655.0529940438332
 20
334.7516313338366
 30
0.0
 11
655.0529940438332
 21
329.5131697953749
 31
0.0
  0
LINE
  5
135
330
1F
100
AcDbEntity
  8
8
  6
Continuous
 62
     7
370
    25
100
AcDbLine
 10
655.3145325053715
 20
329.2516313338367
 30
0.0
 11
675.4145325053719
 21
329.2516313338367
 31
0.0
  0
LINE
  5
136
330
1F
100
AcDbEntity
  8
8
  6
Continuous
 62
     7
370
    25
100
AcDbLine
 10
679.6535546377231
 20
339.2516313338366
 30
0.0
 11
674.1535546377231
 21
339.2516313338366
 31
0.0
  0
ARC
  5
137
330
1F
100
AcDbEntity
  8
8
  6
Continuous
 62
     7
370
    25
100
AcDbCircle
 10
676.9035546377231
 20
344.2516313338366
 30
0.0
 40
7.0
100
AcDbArc
 50
253.448644000063
 51
286.5513559999091
  0
LINE
  5
138
330
1F
100
AcDbEntity
  8
8
  6
Continuous
 62
     7
370
    25
100
AcDbLine
 10
679.6535546377231
 20
339.2516313338366
 30
0.0
 11
679.6114326377224
 21
338.4479063338369
 31
0.0
  0
ARC
  5
139
330
1F
100
AcDbEntity
  8
8
  6
Continuous
 62
     7
370
    25
100
AcDbCircle
 10
678.6128026377221
 20
338.5002423338375
 30
0.0
 40
1.0
100
AcDbArc
 50
286.5513559999089
 51
356.9999999999939
  0
LINE
  5
13A
330
1F
100
AcDbEntity
  8
8
  6
Continuous
 62
     7
370
    25
100
AcDbLine
 10
674.1535546377231
 20
339.2516313338366
 30
0.0
 11
674.195676637722
 21
338.4479063338369
 31
0.0
  0
ARC
  5
13B
330
1F
100
AcDbEntity
  8
8
  6
Continuous
 62
     7
370
    25
100
AcDbCircle
 10
675.1943066377219
 20
338.5002423338375
 30
0.0
 40
1.0
100
AcDbArc
 50
183.0000000000054
 51
253.4486440000627
  0
LINE
  5
13C
330
1F
100
AcDbEntity
  8
8
  6
Continuous
 62
     7
370
    25
100
AcDbLine
 10
656.6535546377231
 20
339.2516313338366
 30
0.0
 11
651.1535546377231
 21
339.2516313338366
 31
0.0
  0
ARC
  5
13D
330
1F
100
AcDbEntity
  8
8
  6
Continuous
 62
     7
370
    25
100
AcDbCircle
 10
653.9035546377231
 20
344.2516313338366
 30
0.0
 40
7.0
100
AcDbArc
 50
253.448644000063
 51
286.5513559999091
  0
LINE
  5
13E
330
1F
100
AcDbEntity
  8
8
  6
Continuous
 62
     7
370
    25
100
AcDbLine
 10
656.6535546377231
 20
339.2516313338366
 30
0.0
 11
656.6114326377221
 21
338.4479063338369
 31
0.0
  0
ARC
  5
13F
330
1F
100
AcDbEntity
  8
8
  6
Continuous
 62
     7
370
    25
100
AcDbCircle
 10
655.6128026377222
 20
338.5002423338375
 30
0.0
 40
1.0
100
AcDbArc
 50
286.5513559999089
 51
356.9999999999939
  0
LINE
  5
140
330
1F
100
AcDbEntity
  8
8
  6
Continuous
 62
     7
370
    25
100
AcDbLine
 10
651.1535546377231
 20
339.2516313338366
 30
0.0
 11
651.195676637722
 21
338.4479063338369
 31
0.0
  0
ARC
  5
141
330
1F
100
AcDbEntity
  8
8
  6
Continuous
 62
     7
370
    25
100
AcDbCircle
 10
652.1943066377221
 20
338.5002423338375
 30
0.0
 40
1.0
100
AcDbArc
 50
183.0000000000054
 51
253.4486440000627
  0
LINE
  5
142
330
1F
100
AcDbEntity
  8
8
  6
Continuous
 62
     7
370
    25
100
AcDbLine
 10
648.6811991720401
 20
399.101631333837
 30
0.0
 11
648.6811991720401
 21
406.0016313338383
 31
0.0
  0
ARC
  5
143
330
1F
100
AcDbEntity
  8
8
  6
Continuous
 62
     7
370
    25
100
AcDbCircle
 10
645.7141816281796
 20
402.5516313338376
 30
0.0
 40
4.550350877192955
100
AcDbArc
 50
310.6956985254333
 51
49.3043014745663
  0
LINE
  5
144
330
1F
100
AcDbEntity
  8
8
  6
Continuous
 62
     7
370
    25
100
AcDbLine
 10
648.3645325053726
 20
399.101631333837
 30
0.0
 11
648.6811991720401
 21
399.101631333837
 31
0.0
  0
LINE
  5
145
330
1F
100
AcDbEntity
  8
8
  6
Continuous
 62
     7
370
    25
100
AcDbLine
 10
648.3645325053726
 20
406.0016313338383
 30
0.0
 11
648.6811991720401
 21
406.0016313338383
 31
0.0
  0
LINE
  5
146
330
1F
100
AcDbEntity
  8
8
  6
Continuous
 62
     7
370
    25
100
AcDbLine
 10
648.6811991720401
 20
330.0016313338367
 30
0.0
 11
648.6811991720401
 21
323.101631333837
 31
0.0
  0
ARC
  5
147
330
1F
100
AcDbEntity
  8
8
  6
Continuous
 62
     7
370
    25
100
AcDbCircle
 10
645.7141816281796
 20
326.5516313338377
 30
0.0
 40
4.550350877192955
100
AcDbArc
 50
310.6956985254333
 51
49.3043014745663
  0
LINE
  5
148
330
1F
100
AcDbEntity
  8
8
  6
Continuous
 62
     7
370
    25
100
AcDbLine
 10
648.3645325053726
 20
330.0016313338367
 30
0.0
 11
648.6811991720401
 21
330.0016313338367
 31
0.0
  0
LINE
  5
149
330
1F
100
AcDbEntity
  8
8
  6
Continuous
 62
     7
370
    25
100
AcDbLine
 10
648.3645325053726
 20
323.101631333837
 30
0.0
 11
648.6811991720401
 21
323.101631333837
 31
0.0
  0
LINE
  5
14A
330
1F
100
AcDbEntity
  8
8
  6
Continuous
 62
     7
370
    25
100
AcDbLine
 10
748.8030555081897
 20
387.5516313338395
 30
0.0
 11
781.3030555081895
 21
387.5516313338395
 31
0.0
  0
LINE
  5
14B
330
1F
100
AcDbEntity
  8
8
  6
Continuous
 62
     7
370
    25
100
AcDbLine
 10
748.8030555081897
 20
387.5516313338395
 30
0.0
 11
748.8030555081897
 21
341.5516313338395
 31
0.0
  0
LINE
  5
14C
330
1F
100
AcDbEntity
  8
8
  6
Continuous
 62
     7
370
    25
100
AcDbLine
 10
748.8030555081897
 20
341.5516313338395
 30
0.0
 11
781.3030555081891
 21
341.5516313338395
 31
0.0
  0
LINE
  5
14D
330
1F
100
AcDbEntity
  8
8
  6
Continuous
 62
     7
370
    25
100
AcDbLine
 10
775.6530555081908
 20
337.2856246943685
 30
0.0
 11
775.6530555081908
 21
330.0516313338377
 31
0.0
  0
LINE
  5
14E
330
1F
100
AcDbEntity
  8
9
  6
Continuous
 62
     2
370
     9
100
AcDbLine
 10
775.114593969728
 20
334.7516313338366
 30
0.0
 11
775.6530555081889
 21
335.6842740763751
 31
0.0
  0
LINE
  5
14F
330
1F
100
AcDbEntity
  8
8
  6
Continuous
 62
     7
370
    25
100
AcDbLine
 10
774.8530555081896
 20
329.2516313338367
 30
0.0
 11
775.6530555081908
 21
330.0516313338377
 31
0.0
  0
LINE
  5
150
330
1F
100
AcDbEntity
  8
9
  6
Continuous
 62
     2
370
     9
100
AcDbLine
 10
775.114593969728
 20
334.7516313338366
 30
0.0
 11
775.114593969728
 21
329.5131697953749
 31
0.0
  0
LINE
  5
151
330
1F
100
AcDbEntity
  8
8
  6
Continuous
 62
     7
370
    25
100
AcDbLine
 10
779.3030555081903
 20
339.2516313338366
 30
0.0
 11
779.3030555081903
 21
341.5516313338377
 31
0.0
  0
LINE
  5
152
330
1F
100
AcDbEntity
  8
8
  6
Continuous
 62
     7
370
    25
100
AcDbLine
 10
750.3030555081903
 20
339.2516313338366
 30
0.0
 11
750.3030555081903
 21
341.5516313338377
 31
0.0
  0
LINE
  5
153
330
1F
100
AcDbEntity
  8
9
  6
Continuous
 62
     2
370
     9
100
AcDbLine
 10
754.4915170466508
 20
334.7516313338366
 30
0.0
 11
753.9530555081901
 21
335.6842740763751
 31
0.0
  0
LINE
  5
154
330
1F
100
AcDbEntity
  8
8
  6
Continuous
 62
     7
370
    25
100
AcDbLine
 10
779.3030555081903
 20
339.2516313338366
 30
0.0
 11
750.3030555081903
 21
339.2516313338366
 31
0.0
  0
LINE
  5
155
330
1F
100
AcDbEntity
  8
8
  6
Continuous
 62
     7
370
    25
100
AcDbLine
 10
753.9530555081901
 20
334.7516313338366
 30
0.0
 11
775.6530555081908
 21
334.7516313338366
 31
0.0
  0
LINE
  5
156
330
1F
100
AcDbEntity
  8
8
  6
Continuous
 62
     7
370
    25
100
AcDbLine
 10
754.7530555081894
 20
329.2516313338367
 30
0.0
 11
753.9530555081901
 21
330.0516313338377
 31
0.0
  0
LINE
  5
157
330
1F
100
AcDbEntity
  8
8
  6
Continuous
 62
     7
370
    25
100
AcDbLine
 10
753.9530555081901
 20
330.0516313338377
 30
0.0
 11
775.6530555081908
 21
330.0516313338377
 31
0.0
  0
LINE
  5
158
330
1F
100
AcDbEntity
  8
8
  6
Continuous
 62
     7
370
    25
100
AcDbLine
 10
753.9530555081901
 20
337.2783461650489
 30
0.0
 11
753.9530555081901
 21
330.0516313338377
 31
0.0
  0
LINE
  5
159
330
1F
100
AcDbEntity
  8
9
  6
Continuous
 62
     2
370
     9
100
AcDbLine
 10
754.4915170466508
 20
334.7516313338366
 30
0.0
 11
754.4915170466508
 21
329.5131697953749
 31
0.0
  0
LINE
  5
15A
330
1F
100
AcDbEntity
  8
8
  6
Continuous
 62
     7
370
    25
100
AcDbLine
 10
754.7530555081894
 20
329.2516313338367
 30
0.0
 11
774.8530555081896
 21
329.2516313338367
 31
0.0
  0
LINE
  5
15B
330
1F
100
AcDbEntity
  8
8
  6
Continuous
 62
     7
370
    25
100
AcDbLine
 10
779.0920776405409
 20
339.2516313338366
 30
0.0
 11
773.5920776405407
 21
339.2516313338366
 31
0.0
  0
ARC
  5
15C
330
1F
100
AcDbEntity
  8
8
  6
Continuous
 62
     7
370
    25
100
AcDbCircle
 10
776.3420776405409
 20
344.2516313338366
 30
0.0
 40
7.0
100
AcDbArc
 50
253.448644000063
 51
286.5513559999091
  0
LINE
  5
15D
330
1F
100
AcDbEntity
  8
8
  6
Continuous
 62
     7
370
    25
100
AcDbLine
 10
779.0920776405409
 20
339.2516313338366
 30
0.0
 11
779.0499556405404
 21
338.4479063338369
 31
0.0
  0
ARC
  5
15E
330
1F
100
AcDbEntity
  8
8
  6
Continuous
 62
     7
370
    25
100
AcDbCircle
 10
778.0513256405401
 20
338.5002423338375
 30
0.0
 40
1.0
100
AcDbArc
 50
286.5513559999089
 51
356.9999999999939
  0
LINE
  5
15F
330
1F
100
AcDbEntity
  8
8
  6
Continuous
 62
     7
370
    25
100
AcDbLine
 10
773.5920776405407
 20
339.2516313338366
 30
0.0
 11
773.6341996405396
 21
338.4479063338369
 31
0.0
  0
ARC
  5
160
330
1F
100
AcDbEntity
  8
8
  6
Continuous
 62
     7
370
    25
100
AcDbCircle
 10
774.6328296405397
 20
338.5002423338375
 30
0.0
 40
1.0
100
AcDbArc
 50
183.0000000000054
 51
253.4486440000627
  0
LINE
  5
161
330
1F
100
AcDbEntity
  8
8
  6
Continuous
 62
     7
370
    25
100
AcDbLine
 10
756.0920776405407
 20
339.2516313338366
 30
0.0
 11
750.5920776405409
 21
339.2516313338366
 31
0.0
  0
ARC
  5
162
330
1F
100
AcDbEntity
  8
8
  6
Continuous
 62
     7
370
    25
100
AcDbCircle
 10
753.3420776405407
 20
344.2516313338366
 30
0.0
 40
7.0
100
AcDbArc
 50
253.448644000063
 51
286.5513559999091
  0
LINE
  5
163
330
1F
100
AcDbEntity
  8
8
  6
Continuous
 62
     7
370
    25
100
AcDbLine
 10
756.0920776405407
 20
339.2516313338366
 30
0.0
 11
756.0499556405402
 21
338.4479063338369
 31
0.0
  0
ARC
  5
164
330
1F
100
AcDbEntity
  8
8
  6
Continuous
 62
     7
370
    25
100
AcDbCircle
 10
755.0513256405403
 20
338.5002423338375
 30
0.0
 40
1.0
100
AcDbArc
 50
286.5513559999089
 51
356.9999999999939
  0
LINE
  5
165
330
1F
100
AcDbEntity
  8
8
  6
Continuous
 62
     7
370
    25
100
AcDbLine
 10
750.5920776405409
 20
339.2516313338366
 30
0.0
 11
750.6341996405397
 21
338.4479063338369
 31
0.0
  0
ARC
  5
166
330
1F
100
AcDbEntity
  8
8
  6
Continuous
 62
     7
370
    25
100
AcDbCircle
 10
751.6328296405397
 20
338.5002423338375
 30
0.0
 40
1.0
100
AcDbArc
 50
183.0000000000054
 51
253.4486440000627
  0
ARC
  5
167
330
1F
100
AcDbEntity
  8
8
  6
Continuous
 62
     7
370
    25
100
AcDbCircle
 10
771.5030555081897
 20
401.7516313338383
 30
0.0
 40
0.5
100
AcDbArc
 50
0.0
 51
89.99999999999991
  0
ARC
  5
168
330
1F
100
AcDbEntity
  8
8
  6
Continuous
 62
     7
370
    25
100
AcDbCircle
 10
773.1030555081901
 20
401.7516313338383
 30
0.0
 40
0.5
100
AcDbArc
 50
89.99999999999991
 51
179.9999999999998
  0
CIRCLE
  5
169
330
1F
100
AcDbEntity
  8
1
  6
Continuous
 62
     7
370
     9
100
AcDbCircle
 10
772.30305550819
 20
402.5516313338376
 30
0.0
 40
3.450000000000045
  0
LINE
  5
16A
330
1F
100
AcDbEntity
  8
8
  6
Continuous
 62
     7
370
    25
100
AcDbLine
 10
772.0030555081898
 20
401.7516313338383
 30
0.0
 11
772.0030555081898
 21
401.101631333837
 31
0.0
  0
LINE
  5
16B
330
1F
100
AcDbEntity
  8
8
  6
Continuous
 62
     7
370
    25
100
AcDbLine
 10
772.6030555081901
 20
401.7516313338383
 30
0.0
 11
772.6030555081901
 21
401.101631333837
 31
0.0
  0
LINE
  5
16C
330
1F
100
AcDbEntity
  8
8
  6
Continuous
 62
     7
370
    25
100
AcDbLine
 10
772.0030555081898
 20
401.101631333837
 30
0.0
 11
772.6030555081901
 21
401.101631333837
 31
0.0
  0
LINE
  5
16D
330
1F
100
AcDbEntity
  8
8
  6
Continuous
 62
     7
370
    25
100
AcDbLine
 10
771.5030555081897
 20
402.851631333837
 30
0.0
 11
770.8530555081901
 21
402.851631333837
 31
0.0
  0
LINE
  5
16E
330
1F
100
AcDbEntity
  8
8
  6
Continuous
 62
     7
370
    25
100
AcDbLine
 10
771.5030555081897
 20
402.2516313338384
 30
0.0
 11
770.8530555081901
 21
402.2516313338384
 31
0.0
  0
ARC
  5
16F
330
1F
100
AcDbEntity
  8
8
  6
Continuous
 62
     7
370
    25
100
AcDbCircle
 10
773.1030555081901
 20
403.351631333837
 30
0.0
 40
0.5
100
AcDbArc
 50
179.9999999999998
 51
269.9999999999998
  0
ARC
  5
170
330
1F
100
AcDbEntity
  8
8
  6
Continuous
 62
     7
370
    25
100
AcDbCircle
 10
771.5030555081897
 20
403.351631333837
 30
0.0
 40
0.5
100
AcDbArc
 50
269.9999999999998
 51
0.0
  0
LINE
  5
171
330
1F
100
AcDbEntity
  8
8
  6
Continuous
 62
     7
370
    25
100
AcDbLine
 10
772.6030555081901
 20
403.351631333837
 30
0.0
 11
772.6030555081901
 21
404.0016313338383
 31
0.0
  0
LINE
  5
172
330
1F
100
AcDbEntity
  8
8
  6
Continuous
 62
     7
370
    25
100
AcDbLine
 10
772.0030555081898
 20
403.351631333837
 30
0.0
 11
772.0030555081898
 21
404.0016313338383
 31
0.0
  0
LINE
  5
173
330
1F
100
AcDbEntity
  8
8
  6
Continuous
 62
     7
370
    25
100
AcDbLine
 10
773.1030555081901
 20
402.851631333837
 30
0.0
 11
773.7530555081897
 21
402.851631333837
 31
0.0
  0
LINE
  5
174
330
1F
100
AcDbEntity
  8
8
  6
Continuous
 62
     7
370
    25
100
AcDbLine
 10
773.1030555081901
 20
402.2516313338384
 30
0.0
 11
773.7530555081897
 21
402.2516313338384
 31
0.0
  0
LINE
  5
175
330
1F
100
AcDbEntity
  8
8
  6
Continuous
 62
     7
370
    25
100
AcDbLine
 10
773.7530555081897
 20
402.2516313338384
 30
0.0
 11
773.7530555081897
 21
402.851631333837
 31
0.0
  0
LINE
  5
176
330
1F
100
AcDbEntity
  8
8
  6
Continuous
 62
     7
370
    25
100
AcDbLine
 10
772.6030555081901
 20
404.0016313338383
 30
0.0
 11
772.0030555081898
 21
404.0016313338383
 31
0.0
  0
LINE
  5
177
330
1F
100
AcDbEntity
  8
8
  6
Continuous
 62
     7
370
    25
100
AcDbLine
 10
770.8530555081901
 20
402.851631333837
 30
0.0
 11
770.8530555081901
 21
402.2516313338384
 31
0.0
  0
ARC
  5
178
330
1F
100
AcDbEntity
  8
8
  6
Continuous
 62
     7
370
    25
100
AcDbCircle
 10
771.5030555081897
 20
325.7516313338383
 30
0.0
 40
0.5
100
AcDbArc
 50
0.0
 51
89.99999999999991
  0
ARC
  5
179
330
1F
100
AcDbEntity
  8
8
  6
Continuous
 62
     7
370
    25
100
AcDbCircle
 10
773.1030555081901
 20
325.7516313338383
 30
0.0
 40
0.5
100
AcDbArc
 50
89.99999999999991
 51
179.9999999999998
  0
ARC
  5
17A
330
1F
100
AcDbEntity
  8
8
  6
Continuous
 62
     7
370
    25
100
AcDbCircle
 10
772.30305550819
 20
326.5516313338377
 30
0.0
 40
3.450000000000045
100
AcDbArc
 50
128.4999504092713
 51
51.50004959072869
  0
LINE
  5
17B
330
1F
100
AcDbEntity
  8
8
  6
Continuous
 62
     7
370
    25
100
AcDbLine
 10
772.0030555081898
 20
325.7516313338383
 30
0.0
 11
772.0030555081898
 21
325.101631333837
 31
0.0
  0
LINE
  5
17C
330
1F
100
AcDbEntity
  8
8
  6
Continuous
 62
     7
370
    25
100
AcDbLine
 10
772.6030555081901
 20
325.7516313338383
 30
0.0
 11
772.6030555081901
 21
325.101631333837
 31
0.0
  0
LINE
  5
17D
330
1F
100
AcDbEntity
  8
8
  6
Continuous
 62
     7
370
    25
100
AcDbLine
 10
772.0030555081898
 20
325.101631333837
 30
0.0
 11
772.6030555081901
 21
325.101631333837
 31
0.0
  0
LINE
  5
17E
330
1F
100
AcDbEntity
  8
8
  6
Continuous
 62
     7
370
    25
100
AcDbLine
 10
771.5030555081897
 20
326.851631333837
 30
0.0
 11
770.8530555081901
 21
326.851631333837
 31
0.0
  0
LINE
  5
17F
330
1F
100
AcDbEntity
  8
8
  6
Continuous
 62
     7
370
    25
100
AcDbLine
 10
771.5030555081897
 20
326.2516313338384
 30
0.0
 11
770.8530555081901
 21
326.2516313338384
 31
0.0
  0
ARC
  5
180
330
1F
100
AcDbEntity
  8
8
  6
Continuous
 62
     7
370
    25
100
AcDbCircle
 10
773.1030555081901
 20
327.351631333837
 30
0.0
 40
0.5
100
AcDbArc
 50
179.9999999999998
 51
269.9999999999998
  0
ARC
  5
181
330
1F
100
AcDbEntity
  8
8
  6
Continuous
 62
     7
370
    25
100
AcDbCircle
 10
771.5030555081897
 20
327.351631333837
 30
0.0
 40
0.5
100
AcDbArc
 50
269.9999999999998
 51
0.0
  0
LINE
  5
182
330
1F
100
AcDbEntity
  8
8
  6
Continuous
 62
     7
370
    25
100
AcDbLine
 10
772.6030555081901
 20
327.351631333837
 30
0.0
 11
772.6030555081901
 21
328.0016313338383
 31
0.0
  0
LINE
  5
183
330
1F
100
AcDbEntity
  8
8
  6
Continuous
 62
     7
370
    25
100
AcDbLine
 10
772.0030555081898
 20
327.351631333837
 30
0.0
 11
772.0030555081898
 21
328.0016313338383
 31
0.0
  0
LINE
  5
184
330
1F
100
AcDbEntity
  8
8
  6
Continuous
 62
     7
370
    25
100
AcDbLine
 10
773.1030555081901
 20
326.851631333837
 30
0.0
 11
773.7530555081897
 21
326.851631333837
 31
0.0
  0
LINE
  5
185
330
1F
100
AcDbEntity
  8
8
  6
Continuous
 62
     7
370
    25
100
AcDbLine
 10
773.1030555081901
 20
326.2516313338384
 30
0.0
 11
773.7530555081897
 21
326.2516313338384
 31
0.0
  0
LINE
  5
186
330
1F
100
AcDbEntity
  8
8
  6
Continuous
 62
     7
370
    25
100
AcDbLine
 10
773.7530555081897
 20
326.2516313338384
 30
0.0
 11
773.7530555081897
 21
326.851631333837
 31
0.0
  0
LINE
  5
187
330
1F
100
AcDbEntity
  8
8
  6
Continuous
 62
     7
370
    25
100
AcDbLine
 10
772.6030555081901
 20
328.0016313338383
 30
0.0
 11
772.0030555081898
 21
328.0016313338383
 31
0.0
  0
LINE
  5
188
330
1F
100
AcDbEntity
  8
8
  6
Continuous
 62
     7
370
    25
100
AcDbLine
 10
770.8530555081901
 20
326.851631333837
 30
0.0
 11
770.8530555081901
 21
326.2516313338384
 31
0.0
  0
CIRCLE
  5
189
330
1F
100
AcDbEntity
  8
1
  6
Continuous
 62
     7
370
     9
100
AcDbCircle
 10
358.3645325053726
 20
487.5516313338395
 30
0.0
 40
3.100000000000023
  0
CIRCLE
  5
18A
330
1F
100
AcDbEntity
  8
1
  6
Continuous
 62
     7
370
     9
100
AcDbCircle
 10
608.3645325053725
 20
487.5516313338395
 30
0.0
 40
3.100000000000023
  0
CIRCLE
  5
18B
330
1F
100
AcDbEntity
  8
1
  6
Continuous
 62
     7
370
     9
100
AcDbCircle
 10
358.3645325053726
 20
241.5516313338395
 30
0.0
 40
3.100000000000023
  0
CIRCLE
  5
18C
330
1F
100
AcDbEntity
  8
1
  6
Continuous
 62
     7
370
     9
100
AcDbCircle
 10
545.8645325053725
 20
241.5516313338395
 30
0.0
 40
3.100000000000023
  0
CIRCLE
  5
18D
330
1F
100
AcDbEntity
  8
1
  6
Continuous
 62
     7
370
     9
100
AcDbCircle
 10
608.3645325053725
 20
241.5516313338395
 30
0.0
 40
3.100000000000023
  0
LINE
  5
18E
330
1F
100
AcDbEntity
  8
8
  6
Continuous
 62
     7
370
    25
100
AcDbLine
 10
775.7530555081897
 20
479.8682980005052
 30
0.0
 11
768.853055508189
 21
479.8682980005052
 31
0.0
  0
ARC
  5
18F
330
1F
100
AcDbEntity
  8
8
  6
Continuous
 62
     7
370
    25
100
AcDbCircle
 10
772.30305550819
 20
476.9012804566465
 30
0.0
 40
4.550350877192955
100
AcDbArc
 50
40.69569852533324
 51
139.3043014746668
  0
LINE
  5
190
330
1F
100
AcDbEntity
  8
8
  6
Continuous
 62
     7
370
    25
100
AcDbLine
 10
775.7530555081897
 20
479.5516313338395
 30
0.0
 11
775.7530555081897
 21
479.8682980005052
 31
0.0
  0
LINE
  5
191
330
1F
100
AcDbEntity
  8
8
  6
Continuous
 62
     7
370
    25
100
AcDbLine
 10
768.853055508189
 20
479.5516313338395
 30
0.0
 11
768.853055508189
 21
479.8682980005052
 31
0.0
  0
INSERT
  5
192
330
1F
100
AcDbEntity
  8
7
  6
Continuous
 62
     4
370
     9
100
AcDbBlockReference
  2
_ARROWFILLED
 10
359.9145325053728
 20
490.2363100855708
 30
0.0
 41
4.0
 42
4.0
 43
4.0
 50
240.0000000000004
  0
POLYLINE
  5
193
330
1F
100
AcDbEntity
  8
7
  6
Continuous
 62
     4
370
     9
100
AcDb2dPolyline
 66
     1
 10
0.0
 20
0.0
 30
0.0
  0
VERTEX
  5
194
330
193
100
AcDbEntity
  8
7
  6
Continuous
 62
     4
370
     9
100
AcDbVertex
100
AcDb2dVertex
 10
359.9145325053728
 20
490.2363100855708
 30
0.0
  0
VERTEX
  5
195
330
193
100
AcDbEntity
  8
7
  6
Continuous
 62
     4
370
     9
100
AcDbVertex
100
AcDb2dVertex
 10
374.9383642307074
 20
516.2583499582162
 30
0.0
  0
VERTEX
  5
196
330
193
100
AcDbEntity
  8
7
  6
Continuous
 62
     4
370
     9
100
AcDbVertex
100
AcDb2dVertex
 10
376.5647003789745
 20
516.2583499582162
 30
0.0
  0
VERTEX
  5
197
330
193
100
AcDbEntity
  8
7
  6
Continuous
 62
     4
370
     9
100
AcDbVertex
100
AcDb2dVertex
 10
399.5647003789745
 20
516.2583499582162
 30
0.0
  0
SEQEND
  5
198
330
193
100
AcDbEntity
  8
7
  6
Continuous
 62
     4
370
     9
  0
MTEXT
  5
199
330
1F
100
AcDbEntity
  8
7
  6
Continuous
 62
     4
370
     9
100
AcDbMText
 10
376.5647003789745
 20
516.2583499582162
 30
0.0
 40
6.0
 41
32.587333062
 46
6.0
 71
     7
 72
     1
  1
{\fＭＳ ゴシック;\T1.016260;8-Ø6.2}
 73
     1
 44
1.0
1001
ACAD
1000
ACAD_MTEXT_DEFINED_HEIGHT_BEGIN
1070
    46
1040
6.0
1000
ACAD_MTEXT_DEFINED_HEIGHT_END
  0
LINE
  5
19A
330
1F
100
AcDbEntity
  8
8
  6
Continuous
 62
     7
370
    25
100
AcDbLine
 10
486.8145325053742
 20
479.8682980005069
 30
0.0
 11
479.9145325053737
 21
479.8682980005069
 31
0.0
  0
ARC
  5
19B
330
1F
100
AcDbEntity
  8
8
  6
Continuous
 62
     7
370
    25
100
AcDbCircle
 10
483.3645325053743
 20
476.9012804566465
 30
0.0
 40
4.550350877192955
100
AcDbArc
 50
40.6956985253337
 51
139.3043014746663
  0
LINE
  5
19C
330
1F
100
AcDbEntity
  8
8
  6
Continuous
 62
     7
370
    25
100
AcDbLine
 10
486.8145325053742
 20
479.5516313338395
 30
0.0
 11
486.8145325053742
 21
479.8682980005069
 31
0.0
  0
LINE
  5
19D
330
1F
100
AcDbEntity
  8
8
  6
Continuous
 62
     7
370
    25
100
AcDbLine
 10
479.9145325053737
 20
479.5516313338395
 30
0.0
 11
479.9145325053737
 21
479.8682980005069
 31
0.0
  0
CIRCLE
  5
19E
330
1F
100
AcDbEntity
  8
1
  6
Continuous
 62
     7
370
     9
100
AcDbCircle
 10
420.8645325053725
 20
241.5516313338395
 30
0.0
 40
3.100000000000023
  0
CIRCLE
  5
19F
330
1F
100
AcDbEntity
  8
1
  6
Continuous
 62
     7
370
     9
100
AcDbCircle
 10
545.8645325053725
 20
487.5516313338395
 30
0.0
 40
3.100000000000023
  0
CIRCLE
  5
1A0
330
1F
100
AcDbEntity
  8
1
  6
Continuous
 62
     7
370
     9
100
AcDbCircle
 10
420.8645325053725
 20
487.5516313338395
 30
0.0
 40
3.100000000000023
  0
LINE
  5
1A1
330
1F
100
AcDbEntity
  8
3
  6
DASHDOT
 62
     1
370
     9
100
AcDbLine
 10
780.3030555081883
 20
241.5516313338395
 30
0.0
 11
783.30305550819
 21
241.5516313338395
 31
0.0
  0
LINE
  5
1A2
330
1F
100
AcDbEntity
  8
3
  6
DASHDOT
 62
     1
370
     9
100
AcDbLine
 10
416.7645325053725
 20
487.5516313338395
 30
0.0
 11
424.9645325053725
 21
487.5516313338395
 31
0.0
  0
LINE
  5
1A3
330
1F
100
AcDbEntity
  8
3
  6
DASHDOT
 62
     1
370
     9
100
AcDbLine
 10
420.8645325053725
 20
483.4516313338395
 30
0.0
 11
420.8645325053725
 21
491.6516313338395
 31
0.0
  0
LINE
  5
1A4
330
1F
100
AcDbEntity
  8
3
  6
DASHDOT
 62
     1
370
     9
100
AcDbLine
 10
541.7645325053725
 20
487.5516313338395
 30
0.0
 11
549.9645325053725
 21
487.5516313338395
 31
0.0
  0
LINE
  5
1A5
330
1F
100
AcDbEntity
  8
3
  6
DASHDOT
 62
     1
370
     9
100
AcDbLine
 10
545.8645325053725
 20
483.4516313338395
 30
0.0
 11
545.8645325053725
 21
491.6516313338395
 31
0.0
  0
LINE
  5
1A6
330
1F
100
AcDbEntity
  8
3
  6
DASHDOT
 62
     1
370
     9
100
AcDbLine
 10
604.2645325053725
 20
487.5516313338395
 30
0.0
 11
612.4645325053725
 21
487.5516313338395
 31
0.0
  0
LINE
  5
1A7
330
1F
100
AcDbEntity
  8
3
  6
DASHDOT
 62
     1
370
     9
100
AcDbLine
 10
608.3645325053725
 20
483.4516313338395
 30
0.0
 11
608.3645325053725
 21
491.6516313338395
 31
0.0
  0
LINE
  5
1A8
330
1F
100
AcDbEntity
  8
3
  6
DASHDOT
 62
     1
370
     9
100
AcDbLine
 10
354.2645325053726
 20
241.5516313338395
 30
0.0
 11
362.4645325053726
 21
241.5516313338395
 31
0.0
  0
LINE
  5
1A9
330
1F
100
AcDbEntity
  8
3
  6
DASHDOT
 62
     1
370
     9
100
AcDbLine
 10
358.3645325053726
 20
237.4516313338395
 30
0.0
 11
358.3645325053726
 21
245.6516313338395
 31
0.0
  0
LINE
  5
1AA
330
1F
100
AcDbEntity
  8
3
  6
DASHDOT
 62
     1
370
     9
100
AcDbLine
 10
416.7645325053725
 20
241.5516313338395
 30
0.0
 11
424.9645325053725
 21
241.5516313338395
 31
0.0
  0
LINE
  5
1AB
330
1F
100
AcDbEntity
  8
3
  6
DASHDOT
 62
     1
370
     9
100
AcDbLine
 10
420.8645325053725
 20
237.4516313338395
 30
0.0
 11
420.8645325053725
 21
245.6516313338395
 31
0.0
  0
LINE
  5
1AC
330
1F
100
AcDbEntity
  8
3
  6
DASHDOT
 62
     1
370
     9
100
AcDbLine
 10
541.7645325053725
 20
241.5516313338395
 30
0.0
 11
549.9645325053725
 21
241.5516313338395
 31
0.0
  0
LINE
  5
1AD
330
1F
100
AcDbEntity
  8
3
  6
DASHDOT
 62
     1
370
     9
100
AcDbLine
 10
545.8645325053725
 20
237.4516313338395
 30
0.0
 11
545.8645325053725
 21
245.6516313338395
 31
0.0
  0
LINE
  5
1AE
330
1F
100
AcDbEntity
  8
3
  6
DASHDOT
 62
     1
370
     9
100
AcDbLine
 10
604.2645325053725
 20
241.5516313338395
 30
0.0
 11
612.4645325053725
 21
241.5516313338395
 31
0.0
  0
LINE
  5
1AF
330
1F
100
AcDbEntity
  8
3
  6
DASHDOT
 62
     1
370
     9
100
AcDbLine
 10
608.3645325053725
 20
237.4516313338395
 30
0.0
 11
608.3645325053725
 21
245.6516313338395
 31
0.0
  0
DIMENSION
  5
1B9
330
1F
100
AcDbEntity
  8
7
  6
Continuous
 62
     4
370
     9
100
AcDbDimension
280
     0
  2
Dim2
 10
633.3645325053724
 20
164.4171221215239
 30
0.0
 11
483.3645325053725
 21
164.4171221215239
 31
0.0
 70
   160
  1
<>
 71
     8
 42
-1.0
 73
     0
 74
     0
 75
     0
  3
Standard
100
AcDbAlignedDimension
 13
333.3645325053726
 23
264.5516313338395
 33
0.0
 14
633.3645325053725
 24
264.5516313338395
 34
0.0
100
AcDbRotatedDimension
1001
ACAD
1000
DSTYLE
1002
{
1070
   279
1070
     1
1070
   340
1005
110
1070
   140
1040
6.0
1070
    40
1040
1.0
1070
   147
1040
0.0
1070
    76
1070
     0
1070
    75
1070
     0
1070
   344
1005
0
1070
   343
1005
0
1070
   173
1070
     1
1070
   289
1070
     2
1070
   288
1070
     1
1070
    77
1070
     1
1070
   172
1070
     1
1070
   174
1070
     0
1070
    74
1070
     0
1070
    73
1070
     0
1070
   284
1070
     8
1070
    78
1070
     8
1070
    42
1040
2.0
1070
    44
1040
3.0
1070
    43
1040
30.0
1070
   271
1070
     2
1070
    41
1040
4.0
1002
}
  0
DIMENSION
  5
1C3
330
1F
100
AcDbEntity
  8
7
  6
Continuous
 62
     4
370
     9
100
AcDbDimension
280
     0
  2
Dim3
 10
648.3645325053724
 20
140.5783568522165
 30
0.0
 11
483.3645325053725
 21
140.5783568522165
 31
0.0
 70
   160
  1
<>
 71
     8
 42
-1.0
 73
     0
 74
     0
 75
     0
  3
Standard
100
AcDbAlignedDimension
 13
318.3645325053726
 23
249.5516313338377
 33
0.0
 14
648.3645325053726
 24
249.5516313338395
 34
0.0
100
AcDbRotatedDimension
1001
ACAD
1000
DSTYLE
1002
{
1070
   279
1070
     1
1070
   340
1005
110
1070
   140
1040
6.0
1070
    40
1040
1.0
1070
   147
1040
0.0
1070
    76
1070
     0
1070
    75
1070
     0
1070
   344
1005
0
1070
   343
1005
0
1070
   173
1070
     1
1070
   289
1070
     2
1070
   288
1070
     1
1070
    77
1070
     1
1070
   172
1070
     1
1070
   174
1070
     0
1070
    74
1070
     0
1070
    73
1070
     0
1070
   284
1070
     8
1070
    78
1070
     8
1070
    42
1040
2.0
1070
    44
1040
3.0
1070
    43
1040
30.0
1070
   271
1070
     2
1070
    41
1040
4.0
1002
}
  0
DIMENSION
  5
1CD
330
1F
100
AcDbEntity
  8
7
  6
Continuous
 62
     4
370
     9
100
AcDbDimension
280
     0
  2
Dim4
 10
782.3030555081899
 20
164.4171221215239
 30
0.0
 11
759.80305550819
 21
164.4171221215239
 31
0.0
 70
   160
  1
<>
 71
     8
 42
-1.0
 73
     0
 74
     0
 75
     0
  3
Standard
100
AcDbAlignedDimension
 13
737.30305550819
 23
249.5516313338395
 33
0.0
 14
782.30305550819
 24
234.5516313338395
 34
0.0
100
AcDbRotatedDimension
1001
ACAD
1000
DSTYLE
1002
{
1070
   279
1070
     1
1070
   340
1005
110
1070
   140
1040
6.0
1070
    40
1040
1.0
1070
   147
1040
0.0
1070
    76
1070
     0
1070
    75
1070
     0
1070
   344
1005
0
1070
   343
1005
0
1070
   173
1070
     1
1070
   289
1070
     2
1070
   288
1070
     1
1070
    77
1070
     1
1070
   172
1070
     1
1070
   174
1070
     0
1070
    74
1070
     0
1070
    73
1070
     0
1070
   284
1070
     8
1070
    78
1070
     8
1070
    42
1040
2.0
1070
    44
1040
3.0
1070
    43
1040
30.0
1070
   271
1070
     2
1070
    41
1040
4.0
1002
}
  0
DIMENSION
  5
1D7
330
1F
100
AcDbEntity
  8
7
  6
Continuous
 62
     4
370
     9
100
AcDbDimension
280
     0
  2
Dim5
 10
294.0632192765074
 20
464.5516313338394
 30
0.0
 11
294.0632192765074
 21
364.5516313338395
 31
0.0
 70
   160
  1
<>
 71
     8
 42
-1.0
 73
     0
 74
     0
 75
     0
  3
Standard
100
AcDbAlignedDimension
 13
333.3645325053726
 23
264.5516313338395
 33
0.0
 14
333.3645325053726
 24
464.5516313338393
 34
0.0
 50
89.99999999999991
100
AcDbRotatedDimension
1001
ACAD
1000
DSTYLE
1002
{
1070
   279
1070
     1
1070
   340
1005
110
1070
   140
1040
6.0
1070
    40
1040
1.0
1070
   147
1040
0.0
1070
    76
1070
     0
1070
    75
1070
     0
1070
   344
1005
0
1070
   343
1005
0
1070
   173
1070
     1
1070
   289
1070
     2
1070
   288
1070
     1
1070
    77
1070
     1
1070
   172
1070
     1
1070
   174
1070
     0
1070
    74
1070
     0
1070
    73
1070
     0
1070
   284
1070
     8
1070
    78
1070
     8
1070
    42
1040
2.0
1070
    44
1040
3.0
1070
    43
1040
30.0
1070
   271
1070
     2
1070
    41
1040
4.0
1002
}
  0
DIMENSION
  5
1E1
330
1F
100
AcDbEntity
  8
7
  6
Continuous
 62
     4
370
     9
100
AcDbDimension
280
     0
  2
Dim6
 10
272.5734509221216
 20
479.5516313338397
 30
0.0
 11
272.5734509221216
 21
364.5516313338396
 31
0.0
 70
   160
  1
<>
 71
     8
 42
-1.0
 73
     0
 74
     0
 75
     0
  3
Standard
100
AcDbAlignedDimension
 13
318.3645325053726
 23
249.5516313338395
 33
0.0
 14
318.3645325053726
 24
479.5516313338395
 34
0.0
 50
89.99999999999991
100
AcDbRotatedDimension
1001
ACAD
1000
DSTYLE
1002
{
1070
   279
1070
     1
1070
   340
1005
110
1070
   140
1040
6.0
1070
    40
1040
1.0
1070
   147
1040
0.0
1070
    76
1070
     0
1070
    75
1070
     0
1070
   344
1005
0
1070
   343
1005
0
1070
   173
1070
     1
1070
   289
1070
     2
1070
   288
1070
     1
1070
    77
1070
     1
1070
   172
1070
     1
1070
   174
1070
     0
1070
    74
1070
     0
1070
    73
1070
     0
1070
   284
1070
     8
1070
    78
1070
     8
1070
    42
1040
2.0
1070
    44
1040
3.0
1070
    43
1040
30.0
1070
   271
1070
     2
1070
    41
1040
4.0
1002
}
  0
DIMENSION
  5
1EB
330
1F
100
AcDbEntity
  8
7
  6
Continuous
 62
     4
370
     9
100
AcDbDimension
280
     0
  2
Dim7
 10
250.930564943708
 20
487.5516313338399
 30
0.0
 11
250.930564943708
 21
364.5516313338395
 31
0.0
 70
   160
  1
<>
 71
     8
 42
-1.0
 73
     0
 74
     0
 75
     0
  3
Standard
100
AcDbAlignedDimension
 13
358.3645325053726
 23
241.5516313338395
 33
0.0
 14
354.2645325053726
 24
487.5516313338395
 34
0.0
 50
89.99999999999991
100
AcDbRotatedDimension
1001
ACAD
1000
DSTYLE
1002
{
1070
   279
1070
     1
1070
   340
1005
110
1070
   140
1040
6.0
1070
    40
1040
1.0
1070
   147
1040
0.0
1070
    76
1070
     0
1070
    75
1070
     0
1070
   344
1005
0
1070
   343
1005
0
1070
   173
1070
     1
1070
   289
1070
     2
1070
   288
1070
     1
1070
    77
1070
     1
1070
   172
1070
     1
1070
   174
1070
     0
1070
    74
1070
     0
1070
    73
1070
     0
1070
   284
1070
     8
1070
    78
1070
     8
1070
    42
1040
2.0
1070
    44
1040
3.0
1070
    43
1040
30.0
1070
   271
1070
     2
1070
    41
1040
4.0
1002
}
  0
DIMENSION
  5
1F5
330
1F
100
AcDbEntity
  8
7
  6
Continuous
 62
     4
370
     9
100
AcDbDimension
280
     0
  2
Dim8
 10
230.0597274222487
 20
234.5516313338399
 30
0.0
 11
230.0597274222487
 21
364.5516313338395
 31
0.0
 70
   160
  1
<>
 71
     8
 42
-1.0
 73
     0
 74
     0
 75
     0
 53
89.99999999999991
  3
Standard
100
AcDbAlignedDimension
 13
338.3645325053717
 23
494.5516313338393
 33
0.0
 14
338.3645325053717
 24
234.5516313338395
 34
0.0
 50
-89.99999999999991
100
AcDbRotatedDimension
1001
ACAD
1000
DSTYLE
1002
{
1070
   279
1070
     1
1070
   340
1005
110
1070
   140
1040
6.0
1070
    40
1040
1.0
1070
   147
1040
0.0
1070
    76
1070
     0
1070
    75
1070
     0
1070
   344
1005
0
1070
   343
1005
0
1070
   173
1070
     1
1070
   289
1070
     2
1070
   288
1070
     1
1070
    77
1070
     1
1070
   172
1070
     1
1070
   174
1070
     0
1070
    74
1070
     0
1070
    73
1070
     0
1070
   284
1070
     8
1070
    78
1070
     8
1070
    42
1040
2.0
1070
    44
1040
3.0
1070
    43
1040
30.0
1070
   271
1070
     2
1070
    41
1040
4.0
1002
}
  0
DIMENSION
  5
1FF
330
1F
100
AcDbEntity
  8
7
  6
Continuous
 62
     4
370
     9
100
AcDbDimension
280
     0
  2
Dim9
 10
545.8645325053725
 20
209.1168203577564
 30
0.0
 11
483.3645325053725
 21
209.1168203577564
 31
0.0
 70
   160
  1
<>
 71
     8
 42
-1.0
 73
     0
 74
     0
 75
     0
  3
Standard
100
AcDbAlignedDimension
 13
420.8645325053725
 23
237.4516313338395
 33
0.0
 14
545.8645325053725
 24
237.4516313338395
 34
0.0
100
AcDbRotatedDimension
1001
ACAD
1000
DSTYLE
1002
{
1070
   279
1070
     1
1070
   340
1005
110
1070
   140
1040
6.0
1070
    40
1040
1.0
1070
   147
1040
0.0
1070
    76
1070
     0
1070
    75
1070
     0
1070
   344
1005
0
1070
   343
1005
0
1070
   173
1070
     1
1070
   289
1070
     2
1070
   288
1070
     1
1070
    77
1070
     1
1070
   172
1070
     1
1070
   174
1070
     0
1070
    74
1070
     0
1070
    73
1070
     0
1070
   284
1070
     8
1070
    78
1070
     8
1070
    42
1040
2.0
1070
    44
1040
3.0
1070
    43
1040
30.0
1070
   271
1070
     2
1070
    41
1040
4.0
1002
}
  0
DIMENSION
  5
209
330
1F
100
AcDbEntity
  8
7
  6
Continuous
 62
     4
370
     9
100
AcDbDimension
280
     0
  2
Dim10
 10
748.8030555081895
 20
185.7024115881086
 30
0.0
 11
765.5530555081896
 21
185.7024115881086
 31
0.0
 70
   160
  1
<>
 71
     8
 42
-1.0
 73
     0
 74
     0
 75
     0
  3
Standard
100
AcDbAlignedDimension
 13
782.30305550819
 23
234.5516313338395
 33
0.0
 14
748.8030555081897
 24
341.5516313338395
 34
0.0
 50
179.9999999999998
100
AcDbRotatedDimension
1001
ACAD
1000
DSTYLE
1002
{
1070
   279
1070
     1
1070
   340
1005
110
1070
   140
1040
6.0
1070
    40
1040
1.0
1070
   147
1040
0.0
1070
    76
1070
     0
1070
    75
1070
     0
1070
   344
1005
0
1070
   343
1005
0
1070
   173
1070
     1
1070
   289
1070
     2
1070
   288
1070
     1
1070
    77
1070
     1
1070
   172
1070
     1
1070
   174
1070
     0
1070
    74
1070
     0
1070
    73
1070
     0
1070
   284
1070
     8
1070
    78
1070
     8
1070
    42
1040
2.0
1070
    44
1040
3.0
1070
    43
1040
30.0
1070
   271
1070
     2
1070
    41
1040
4.0
1002
}
  0
DIMENSION
  5
213
330
1F
100
AcDbEntity
  8
7
  6
Continuous
 62
     4
370
     9
100
AcDbDimension
280
     0
  2
Dim11
 10
358.3645325053726
 20
185.7024115881086
 30
0.0
 11
483.3645325053726
 21
185.7024115881086
 31
0.0
 70
   160
  1
<>
 71
     8
 42
-1.0
 73
     0
 74
     0
 75
     0
  3
Standard
100
AcDbAlignedDimension
 13
608.3645325053725
 23
237.4516313338395
 33
0.0
 14
358.3645325053726
 24
237.4516313338395
 34
0.0
 50
179.9999999999998
100
AcDbRotatedDimension
1001
ACAD
1000
DSTYLE
1002
{
1070
   279
1070
     1
1070
   340
1005
110
1070
   140
1040
6.0
1070
    40
1040
1.0
1070
   147
1040
0.0
1070
    76
1070
     0
1070
    75
1070
     0
1070
   344
1005
0
1070
   343
1005
0
1070
   173
1070
     1
1070
   289
1070
     2
1070
   288
1070
     1
1070
    77
1070
     1
1070
   172
1070
     1
1070
   174
1070
     0
1070
    74
1070
     0
1070
    73
1070
     0
1070
   284
1070
     8
1070
    78
1070
     8
1070
    42
1040
2.0
1070
    44
1040
3.0
1070
    43
1040
30.0
1070
   271
1070
     2
1070
    41
1040
4.0
1002
}
  0
DIMENSION
  5
21D
330
1F
100
AcDbEntity
  8
7
  6
Continuous
 62
     4
370
     9
100
AcDbDimension
280
     0
  2
Dim12
 10
683.3645325053741
 20
140.5783568522165
 30
0.0
 11
665.8645325053734
 21
140.5783568522165
 31
0.0
 70
   160
  1
<>
 71
     8
 42
-1.0
 73
     0
 74
     0
 75
     0
  3
Standard
100
AcDbAlignedDimension
 13
648.3645325053726
 23
249.5516313338395
 33
0.0
 14
683.3645325053744
 24
341.5516313338395
 34
0.0
100
AcDbRotatedDimension
1001
ACAD
1000
DSTYLE
1002
{
1070
   279
1070
     1
1070
   340
1005
110
1070
   140
1040
6.0
1070
    40
1040
1.0
1070
   147
1040
0.0
1070
    76
1070
     0
1070
    75
1070
     0
1070
   344
1005
0
1070
   343
1005
0
1070
   173
1070
     1
1070
   289
1070
     2
1070
   288
1070
     1
1070
    77
1070
     1
1070
   172
1070
     1
1070
   174
1070
     0
1070
    74
1070
     0
1070
    73
1070
     0
1070
   284
1070
     8
1070
    78
1070
     8
1070
    42
1040
2.0
1070
    44
1040
3.0
1070
    43
1040
30.0
1070
   271
1070
     2
1070
    41
1040
4.0
1002
}
  0
VIEWPORT
  5
6A
330
1B
100
AcDbEntity
 67
     1
  8
0
100
AcDbViewport
 10
630.0
 20
445.5
 30
0.0
 40
1260.0
 41
891.0
 68
     1
 69
     1
 12
630.0
 22
445.5
 13
0.0
 23
0.0
 14
0.5
 24
0.5
 15
0.5
 25
0.5
 16
0.0
 26
0.0
 36
1.0
 17
0.0
 27
0.0
 37
0.0
 42
50.0
 43
0.0
 44
0.0
 45
9.0
 50
0.0
 51
0.0
 72
   100
 90
   557152
  1

281
     0
 71
     1
 74
     0
110
0.0
120
0.0
130
0.0
111
1.0
121
0.0
131
0.0
112
0.0
122
1.0
132
0.0
 79
     0
146
0.0
170
     0
 61
     5
292
     1
282
     1
141
0.0
142
0.0
 63
   256
  0
ENDSEC
  0
SECTION
  2
OBJECTS
  0
DICTIONARY
  5
C
330
0
100
AcDbDictionary
281
     1
  3
ACAD_DETAILVIEWSTYLE
350
222
  3
ACAD_GROUP
350
D
  3
ACAD_LAYOUT
350
1A
  3
ACAD_MATERIAL
350
43
  3
ACAD_MLEADERSTYLE
350
221
  3
ACAD_MLINESTYLE
350
17
  3
ACAD_PLOTSETTINGS
350
19
  3
ACAD_PLOTSTYLENAME
350
E
  3
ACAD_SCALELIST
350
47
  3
ACAD_SECTIONVIEWSTYLE
350
223
  3
ACAD_TABLESTYLE
350
220
  3
ACAD_VISUALSTYLE
350
2A
  3
AcDbVariableDictionary
350
21E
  0
SUN
  5
69
330
29
100
AcDbSun
 90
        1
290
     0
 63
     7
421
 16777215
 40
1.0
291
     1
 91
  2455826
 92
 54000000
292
     0
 70
     2
 71
   256
280
     1
  0
DICTIONARY
  5
222
102
{ACAD_REACTORS
330
C
102
}
330
C
100
AcDbDictionary
281
     1
  0
DICTIONARY
  5
D
102
{ACAD_REACTORS
330
C
102
}
330
C
100
AcDbDictionary
281
     1
  0
DICTIONARY
  5
1A
102
{ACAD_REACTORS
330
C
102
}
330
C
100
AcDbDictionary
281
     1
  3
Layout1
350
1E
  3
Layout2
350
26
  3
Model
350
22
  0
DICTIONARY
  5
43
102
{ACAD_REACTORS
330
C
102
}
330
C
100
AcDbDictionary
281
     1
  3
ByBlock
350
45
  3
ByLayer
350
44
  3
Global
350
46
  0
DICTIONARY
  5
221
102
{ACAD_REACTORS
330
C
102
}
330
C
100
AcDbDictionary
281
     1
  0
DICTIONARY
  5
17
102
{ACAD_REACTORS
330
C
102
}
330
C
100
AcDbDictionary
281
     1
  3
Standard
350
18
  0
DICTIONARY
  5
19
102
{ACAD_REACTORS
330
C
102
}
330
C
100
AcDbDictionary
281
     1
  0
ACDBDICTIONARYWDFLT
  5
E
102
{ACAD_REACTORS
330
C
102
}
330
C
100
AcDbDictionary
281
     1
  3
Normal
350
F
100
AcDbDictionaryWithDefault
340
F
  0
DICTIONARY
  5
47
102
{ACAD_REACTORS
330
C
102
}
330
C
100
AcDbDictionary
281
     1
  3
A0
350
48
  3
A1
350
49
  3
A2
350
4A
  3
A3
350
4B
  3
A4
350
4C
  3
A5
350
4D
  3
A6
350
4E
  3
A7
350
4F
  3
A8
350
50
  3
A9
350
51
  3
B0
350
52
  3
B1
350
53
  3
B2
350
54
  3
B3
350
55
  3
B4
350
56
  3
B5
350
57
  3
B6
350
58
  3
B7
350
59
  3
B8
350
5A
  3
B9
350
5B
  3
C0
350
5C
  3
C1
350
5D
  3
C2
350
5E
  3
C3
350
5F
  3
C4
350
60
  3
C5
350
61
  3
C6
350
62
  3
C7
350
63
  3
C8
350
64
  3
C9
350
65
  3
D0
350
66
  3
D1
350
67
  3
D2
350
68
  0
DICTIONARY
  5
223
102
{ACAD_REACTORS
330
C
102
}
330
C
100
AcDbDictionary
281
     1
  0
DICTIONARY
  5
220
102
{ACAD_REACTORS
330
C
102
}
330
C
100
AcDbDictionary
281
     1
  0
DICTIONARY
  5
2A
102
{ACAD_REACTORS
330
C
102
}
330
C
100
AcDbDictionary
281
     1
  3
2dWireframe
350
2F
  3
Basic
350
32
  3
Brighten
350
36
  3
ColorChange
350
3A
  3
Conceptual
350
34
  3
Dim
350
35
  3
EdgeColorOff
350
3D
  3
Facepattern
350
39
  3
Flat
350
2B
  3
FlatWithEdges
350
2C
  3
Gouraud
350
2D
  3
GouraudWithEdges
350
2E
  3
Hidden
350
31
  3
JitterOff
350
3B
  3
Linepattern
350
38
  3
OverhangOff
350
3C
  3
Realistic
350
33
  3
Shaded
350
42
  3
Shaded with edges
350
41
  3
Shades of Gray
350
3E
  3
Sketchy
350
3F
  3
Thicken
350
37
  3
Wireframe
350
30
  3
X-Ray
350
40
  0
DICTIONARY
  5
21E
102
{ACAD_REACTORS
330
C
102
}
330
C
100
AcDbDictionary
281
     1
  3
CANNOSCALE
350
21F
  0
LAYOUT
  5
1E
102
{ACAD_REACTORS
330
1A
102
}
330
1A
100
AcDbPlotSettings
  1

  2
none_device
  4

  6

 40
0.0
 41
0.0
 42
0.0
 43
0.0
 44
0.0
 45
0.0
 46
0.0
 47
0.0
 48
0.0
 49
0.0
140
0.0
141
0.0
142
1.0
143
1.0
 70
   688
 72
     0
 73
     0
 74
     5
  7

 75
    16
 76
     0
 77
     2
 78
   300
147
1.0
148
0.0
149
0.0
100
AcDbLayout
  1
Layout1
 70
     1
 71
     1
 10
0.0
 20
0.0
 11
420.0
 21
297.0
 12
0.0
 22
0.0
 32
0.0
 14
0.0
 24
0.0
 34
0.0
 15
420.0
 25
297.0
 35
0.0
146
0.0
 13
0.0
 23
0.0
 33
0.0
 16
1.0
 26
0.0
 36
0.0
 17
0.0
 27
1.0
 37
0.0
 76
     0
330
1B
331
6A
  0
LAYOUT
  5
26
102
{ACAD_REACTORS
330
1A
102
}
330
1A
100
AcDbPlotSettings
  1

  2
none_device
  4

  6

 40
0.0
 41
0.0
 42
0.0
 43
0.0
 44
0.0
 45
0.0
 46
0.0
 47
0.0
 48
0.0
 49
0.0
140
0.0
141
0.0
142
1.0
143
1.0
 70
   688
 72
     0
 73
     0
 74
     5
  7

 75
    16
 76
     0
 77
     2
 78
   300
147
1.0
148
0.0
149
0.0
100
AcDbLayout
  1
Layout2
 70
     1
 71
     2
 10
0.0
 20
0.0
 11
0.0
 21
0.0
 12
0.0
 22
0.0
 32
0.0
 14
0.0
 24
0.0
 34
0.0
 15
0.0
 25
0.0
 35
0.0
146
0.0
 13
0.0
 23
0.0
 33
0.0
 16
1.0
 26
0.0
 36
0.0
 17
0.0
 27
1.0
 37
0.0
 76
     0
330
23
  0
LAYOUT
  5
22
102
{ACAD_REACTORS
330
1A
102
}
330
1A
100
AcDbPlotSettings
  1

  2
none_device
  4
Letter_(8.50_x_11.00_Inches)
  6

 40
6.35
 41
6.35
 42
6.35000508
 43
6.35000508
 44
215.9
 45
279.4
 46
0.0
 47
0.0
 48
0.0
 49
0.0
140
0.0
141
0.0
142
1.0
143
1.0
 70
  1712
 72
     0
 73
     0
 74
     0
  7

 75
     0
 76
     0
 77
     2
 78
   300
147
1.0
148
0.0
149
0.0
100
AcDbLayout
  1
Model
 70
     1
 71
     0
 10
0.0
 20
0.0
 11
420.0
 21
297.0
 12
0.0
 22
0.0
 32
0.0
 14
224.0597274222487
 24
137.5783568522165
 34
0.0
 15
794.80305550819
 25
522.2583499582162
 35
0.0
146
0.0
 13
0.0
 23
0.0
 33
0.0
 16
1.0
 26
0.0
 36
0.0
 17
0.0
 27
1.0
 37
0.0
 76
     0
330
1F
331
29
  0
MATERIAL
  5
45
102
{ACAD_REACTORS
330
43
102
}
330
43
100
AcDbMaterial
  1
ByBlock
 72
     1
 94
      127
  0
MATERIAL
  5
44
102
{ACAD_REACTORS
330
43
102
}
330
43
100
AcDbMaterial
  1
ByLayer
 72
     1
 94
      127
  0
MATERIAL
  5
46
102
{ACAD_REACTORS
330
43
102
}
330
43
100
AcDbMaterial
  1
Global
 72
     1
 94
      127
  0
MLINESTYLE
  5
18
102
{ACAD_REACTORS
330
17
102
}
330
17
100
AcDbMlineStyle
  2
Standard
 70
     0
  3

 62
   256
 51
90.0
 52
90.0
 71
     2
 49
0.5
 62
   256
  6
BYLAYER
 49
-0.5
 62
   256
  6
BYLAYER
  0
ACDBPLACEHOLDER
  5
F
102
{ACAD_REACTORS
330
E
102
}
330
E
  0
SCALE
  5
48
102
{ACAD_REACTORS
330
47
102
}
330
47
100
AcDbScale
 70
     0
300
1:1
140
1.0
141
1.0
290
     1
  0
SCALE
  5
49
102
{ACAD_REACTORS
330
47
102
}
330
47
100
AcDbScale
 70
     0
300
1:2
140
1.0
141
2.0
290
     0
  0
SCALE
  5
4A
102
{ACAD_REACTORS
330
47
102
}
330
47
100
AcDbScale
 70
     0
300
1:4
140
1.0
141
4.0
290
     0
  0
SCALE
  5
4B
102
{ACAD_REACTORS
330
47
102
}
330
47
100
AcDbScale
 70
     0
300
1:5
140
1.0
141
5.0
290
     0
  0
SCALE
  5
4C
102
{ACAD_REACTORS
330
47
102
}
330
47
100
AcDbScale
 70
     0
300
1:8
140
1.0
141
8.0
290
     0
  0
SCALE
  5
4D
102
{ACAD_REACTORS
330
47
102
}
330
47
100
AcDbScale
 70
     0
300
1:10
140
1.0
141
10.0
290
     0
  0
SCALE
  5
4E
102
{ACAD_REACTORS
330
47
102
}
330
47
100
AcDbScale
 70
     0
300
1:16
140
1.0
141
16.0
290
     0
  0
SCALE
  5
4F
102
{ACAD_REACTORS
330
47
102
}
330
47
100
AcDbScale
 70
     0
300
1:20
140
1.0
141
20.0
290
     0
  0
SCALE
  5
50
102
{ACAD_REACTORS
330
47
102
}
330
47
100
AcDbScale
 70
     0
300
1:30
140
1.0
141
30.0
290
     0
  0
SCALE
  5
51
102
{ACAD_REACTORS
330
47
102
}
330
47
100
AcDbScale
 70
     0
300
1:40
140
1.0
141
40.0
290
     0
  0
SCALE
  5
52
102
{ACAD_REACTORS
330
47
102
}
330
47
100
AcDbScale
 70
     0
300
1:50
140
1.0
141
50.0
290
     0
  0
SCALE
  5
53
102
{ACAD_REACTORS
330
47
102
}
330
47
100
AcDbScale
 70
     0
300
1:100
140
1.0
141
100.0
290
     0
  0
SCALE
  5
54
102
{ACAD_REACTORS
330
47
102
}
330
47
100
AcDbScale
 70
     0
300
2:1
140
2.0
141
1.0
290
     0
  0
SCALE
  5
55
102
{ACAD_REACTORS
330
47
102
}
330
47
100
AcDbScale
 70
     0
300
4:1
140
4.0
141
1.0
290
     0
  0
SCALE
  5
56
102
{ACAD_REACTORS
330
47
102
}
330
47
100
AcDbScale
 70
     0
300
8:1
140
8.0
141
1.0
290
     0
  0
SCALE
  5
57
102
{ACAD_REACTORS
330
47
102
}
330
47
100
AcDbScale
 70
     0
300
10:1
140
10.0
141
1.0
290
     0
  0
SCALE
  5
58
102
{ACAD_REACTORS
330
47
102
}
330
47
100
AcDbScale
 70
     0
300
100:1
140
100.0
141
1.0
290
     0
  0
SCALE
  5
59
102
{ACAD_REACTORS
330
47
102
}
330
47
100
AcDbScale
 70
     0
300
1/128" = 1'-0"
140
0.0078125
141
12.0
290
     0
  0
SCALE
  5
5A
102
{ACAD_REACTORS
330
47
102
}
330
47
100
AcDbScale
 70
     0
300
1/64" = 1'-0"
140
0.015625
141
12.0
290
     0
  0
SCALE
  5
5B
102
{ACAD_REACTORS
330
47
102
}
330
47
100
AcDbScale
 70
     0
300
1/32" = 1'-0"
140
0.03125
141
12.0
290
     0
  0
SCALE
  5
5C
102
{ACAD_REACTORS
330
47
102
}
330
47
100
AcDbScale
 70
     0
300
1/16" = 1'-0"
140
0.0625
141
12.0
290
     0
  0
SCALE
  5
5D
102
{ACAD_REACTORS
330
47
102
}
330
47
100
AcDbScale
 70
     0
300
3/32" = 1'-0"
140
0.09375
141
12.0
290
     0
  0
SCALE
  5
5E
102
{ACAD_REACTORS
330
47
102
}
330
47
100
AcDbScale
 70
     0
300
1/8" = 1'-0"
140
0.125
141
12.0
290
     0
  0
SCALE
  5
5F
102
{ACAD_REACTORS
330
47
102
}
330
47
100
AcDbScale
 70
     0
300
3/16" = 1'-0"
140
0.1875
141
12.0
290
     0
  0
SCALE
  5
60
102
{ACAD_REACTORS
330
47
102
}
330
47
100
AcDbScale
 70
     0
300
1/4" = 1'-0"
140
0.25
141
12.0
290
     0
  0
SCALE
  5
61
102
{ACAD_REACTORS
330
47
102
}
330
47
100
AcDbScale
 70
     0
300
3/8" = 1'-0"
140
0.375
141
12.0
290
     0
  0
SCALE
  5
62
102
{ACAD_REACTORS
330
47
102
}
330
47
100
AcDbScale
 70
     0
300
1/2" = 1'-0"
140
0.5
141
12.0
290
     0
  0
SCALE
  5
63
102
{ACAD_REACTORS
330
47
102
}
330
47
100
AcDbScale
 70
     0
300
3/4" = 1'-0"
140
0.75
141
12.0
290
     0
  0
SCALE
  5
64
102
{ACAD_REACTORS
330
47
102
}
330
47
100
AcDbScale
 70
     0
300
1" = 1'-0"
140
1.0
141
12.0
290
     0
  0
SCALE
  5
65
102
{ACAD_REACTORS
330
47
102
}
330
47
100
AcDbScale
 70
     0
300
1-1/2" = 1'-0"
140
1.5
141
12.0
290
     0
  0
SCALE
  5
66
102
{ACAD_REACTORS
330
47
102
}
330
47
100
AcDbScale
 70
     0
300
3" = 1'-0"
140
3.0
141
12.0
290
     0
  0
SCALE
  5
67
102
{ACAD_REACTORS
330
47
102
}
330
47
100
AcDbScale
 70
     0
300
6" = 1'-0"
140
6.0
141
12.0
290
     0
  0
SCALE
  5
68
102
{ACAD_REACTORS
330
47
102
}
330
47
100
AcDbScale
 70
     0
300
1'-0" = 1'-0"
140
12.0
141
12.0
290
     0
  0
VISUALSTYLE
  5
2F
102
{ACAD_REACTORS
330
2A
102
}
330
2A
100
AcDbVisualStyle
  2
2dWireframe
 70
     4
177
     3
291
     0
 70
    58
 90
        0
176
     1
 90
        2
176
     1
 90
        0
176
     1
 90
        0
176
     1
 40
0.6
176
     1
 40
30.0
176
     1
 62
     7
420
 16777215
176
     1
 90
        1
176
     1
 90
        4
176
     1
 62
     7
176
     1
 62
   257
176
     1
 90
        1
176
     1
 90
        1
176
     1
 40
1.0
176
     1
 90
        0
176
     1
 62
   257
176
     1
 40
1.0
176
     1
 90
        1
176
     1
 90
        6
176
     1
 90
        2
176
     1
 62
     7
176
     1
 90
        5
176
     1
 90
        0
176
     1
 90
        0
176
     1
290
     0
176
     1
 90
        1
176
     1
 40
0.0
176
     1
 90
        0
176
     1
290
     1
176
     1
290
     1
176
     1
290
     0
176
     1
290
     0
176
     1
290
     0
176
     1
290
     0
176
     1
290
     0
176
     1
290
     0
176
     1
290
     0
176
     1
 90
       50
176
     1
 40
0.0
176
     1
 40
1.0
176
     1
 90
        0
176
     1
 62
    18
420
        0
176
     1
 90
       50
176
     1
 90
        3
176
     1
 62
     5
420
      255
176
     1
290
     0
176
     1
 90
       50
176
     1
 90
       50
176
     1
 90
       50
176
     1
290
     0
176
     1
 90
       50
176
     1
 62
   256
176
     0
 40
1.0
176
     0
 90
        2
176
     1
  1
strokes_ogs.tif
176
     1
290
     0
176
     1
 40
1.0
176
     1
 40
1.0
176
     1
  0
VISUALSTYLE
  5
32
102
{ACAD_REACTORS
330
2A
102
}
330
2A
100
AcDbVisualStyle
  2
Basic
 70
     7
177
     3
291
     1
 70
    58
 90
        1
176
     1
 90
        0
176
     1
 90
        1
176
     1
 90
        0
176
     1
 40
0.6
176
     1
 40
30.0
176
     1
 62
     7
420
 16777215
176
     1
 90
        0
176
     1
 90
        4
176
     1
 62
     7
176
     1
 62
   257
176
     1
 90
        1
176
     1
 90
        1
176
     1
 40
1.0
176
     1
 90
        8
176
     1
 62
     7
176
     1
 40
1.0
176
     1
 90
        1
176
     1
 90
        6
176
     1
 90
        2
176
     1
 62
     7
176
     1
 90
        5
176
     1
 90
        0
176
     1
 90
        0
176
     1
290
     0
176
     1
 90
        1
176
     1
 40
0.0
176
     1
 90
        0
176
     1
290
     0
176
     1
290
     1
176
     1
290
     1
176
     1
290
     0
176
     1
290
     0
176
     1
290
     0
176
     1
290
     0
176
     1
290
     0
176
     1
290
     0
176
     1
 90
       50
176
     1
 40
0.0
176
     1
 40
1.0
176
     1
 90
        0
176
     1
 62
    18
420
        0
176
     1
 90
       50
176
     1
 90
        3
176
     1
 62
     5
420
      255
176
     1
290
     0
176
     1
 90
       50
176
     1
 90
       50
176
     1
 90
       50
176
     1
290
     0
176
     1
 90
       50
176
     1
 62
   256
176
     0
 40
1.0
176
     0
 90
        2
176
     1
  1
strokes_ogs.tif
176
     1
290
     0
176
     1
 40
1.0
176
     1
 40
1.0
176
     1
  0
VISUALSTYLE
  5
36
102
{ACAD_REACTORS
330
2A
102
}
330
2A
100
AcDbVisualStyle
  2
Brighten
 70
    12
177
     3
291
     1
 70
    58
 90
        2
176
     1
 90
        2
176
     1
 90
        0
176
     1
 90
        0
176
     1
 40
0.6
176
     1
 40
30.0
176
     1
 62
     7
420
 16777215
176
     1
 90
        1
176
     1
 90
        4
176
     1
 62
     7
176
     1
 62
   257
176
     1
 90
        1
176
     1
 90
        1
176
     1
 40
1.0
176
     1
 90
        8
176
     1
 62
     7
176
     1
 40
1.0
176
     1
 90
        1
176
     1
 90
        6
176
     1
 90
        2
176
     1
 62
     7
176
     1
 90
        5
176
     1
 90
        0
176
     1
 90
        0
176
     1
290
     0
176
     1
 90
        1
176
     1
 40
50.0
176
     1
 90
        0
176
     1
290
     0
176
     1
290
     1
176
     1
290
     1
176
     1
290
     0
176
     1
290
     0
176
     1
290
     0
176
     1
290
     0
176
     1
290
     0
176
     1
290
     0
176
     1
 90
       50
176
     1
 40
0.0
176
     1
 40
1.0
176
     1
 90
        0
176
     1
 62
    18
420
        0
176
     1
 90
       50
176
     1
 90
        3
176
     1
 62
     5
420
      255
176
     1
290
     0
176
     1
 90
       50
176
     1
 90
       50
176
     1
 90
       50
176
     1
290
     0
176
     1
 90
       50
176
     1
 62
   256
176
     0
 40
1.0
176
     0
 90
        2
176
     1
  1
strokes_ogs.tif
176
     1
290
     0
176
     1
 40
1.0
176
     1
 40
1.0
176
     1
  0
VISUALSTYLE
  5
3A
102
{ACAD_REACTORS
330
2A
102
}
330
2A
100
AcDbVisualStyle
  2
ColorChange
 70
    16
177
     3
291
     1
 70
    58
 90
        2
176
     1
 90
        2
176
     1
 90
        3
176
     1
 90
        0
176
     1
 40
0.6
176
     1
 40
30.0
176
     1
 62
     8
420
  8421504
176
     1
 90
        1
176
     1
 90
        4
176
     1
 62
     7
176
     1
 62
   257
176
     1
 90
        1
176
     1
 90
        1
176
     1
 40
1.0
176
     1
 90
        8
176
     1
 62
     8
420
  8421504
176
     1
 40
1.0
176
     1
 90
        1
176
     1
 90
        6
176
     1
 90
        2
176
     1
 62
     7
176
     1
 90
        5
176
     1
 90
        0
176
     1
 90
        0
176
     1
290
     0
176
     1
 90
        1
176
     1
 40
0.0
176
     1
 90
        0
176
     1
290
     0
176
     1
290
     1
176
     1
290
     1
176
     1
290
     0
176
     1
290
     0
176
     1
290
     0
176
     1
290
     0
176
     1
290
     0
176
     1
290
     0
176
     1
 90
       50
176
     1
 40
0.0
176
     1
 40
1.0
176
     1
 90
        0
176
     1
 62
    18
420
        0
176
     1
 90
       50
176
     1
 90
        3
176
     1
 62
     5
420
      255
176
     1
290
     0
176
     1
 90
       50
176
     1
 90
       50
176
     1
 90
       50
176
     1
290
     0
176
     1
 90
       50
176
     1
 62
   256
176
     0
 40
1.0
176
     0
 90
        2
176
     1
  1
strokes_ogs.tif
176
     1
290
     0
176
     1
 40
1.0
176
     1
 40
1.0
176
     1
  0
VISUALSTYLE
  5
34
102
{ACAD_REACTORS
330
2A
102
}
330
2A
100
AcDbVisualStyle
  2
Conceptual
 70
     9
177
     3
291
     0
 70
    58
 90
        3
176
     1
 90
        2
176
     1
 90
        0
176
     1
 90
        0
176
     1
 40
0.6
176
     1
 40
30.0
176
     1
 62
     7
420
 16777215
176
     1
 90
        2
176
     1
 90
        2
176
     1
 62
     7
176
     1
 62
   257
176
     1
 90
        1
176
     1
 90
        1
176
     1
 40
179.0
176
     1
 90
        8
176
     1
 62
     7
176
     1
 40
1.0
176
     1
 90
        1
176
     1
 90
        6
176
     1
 90
        2
176
     1
 62
     7
176
     1
 90
        3
176
     1
 90
        0
176
     1
 90
        0
176
     1
290
     0
176
     1
 90
        1
176
     1
 40
0.0
176
     1
 90
        0
176
     1
290
     0
176
     1
290
     1
176
     1
290
     1
176
     1
290
     0
176
     1
290
     0
176
     1
290
     0
176
     1
290
     0
176
     1
290
     0
176
     1
290
     0
176
     1
 90
       50
176
     1
 40
0.0
176
     1
 40
1.0
176
     1
 90
        0
176
     1
 62
    18
420
        0
176
     1
 90
       50
176
     1
 90
        3
176
     1
 62
     5
420
      255
176
     1
290
     0
176
     1
 90
       50
176
     1
 90
       50
176
     1
 90
       50
176
     1
290
     0
176
     1
 90
       50
176
     1
 62
   256
176
     0
 40
1.0
176
     0
 90
        2
176
     1
  1
strokes_ogs.tif
176
     1
290
     0
176
     1
 40
1.0
176
     1
 40
1.0
176
     1
  0
VISUALSTYLE
  5
35
102
{ACAD_REACTORS
330
2A
102
}
330
2A
100
AcDbVisualStyle
  2
Dim
 70
    11
177
     3
291
     1
 70
    58
 90
        2
176
     1
 90
        2
176
     1
 90
        0
176
     1
 90
        0
176
     1
 40
0.6
176
     1
 40
30.0
176
     1
 62
     7
420
 16777215
176
     1
 90
        1
176
     1
 90
        4
176
     1
 62
     7
176
     1
 62
   257
176
     1
 90
        1
176
     1
 90
        1
176
     1
 40
1.0
176
     1
 90
        8
176
     1
 62
     7
176
     1
 40
1.0
176
     1
 90
        1
176
     1
 90
        6
176
     1
 90
        2
176
     1
 62
     7
176
     1
 90
        5
176
     1
 90
        0
176
     1
 90
        0
176
     1
290
     0
176
     1
 90
        1
176
     1
 40
-50.0
176
     1
 90
        0
176
     1
290
     0
176
     1
290
     1
176
     1
290
     1
176
     1
290
     0
176
     1
290
     0
176
     1
290
     0
176
     1
290
     0
176
     1
290
     0
176
     1
290
     0
176
     1
 90
       50
176
     1
 40
0.0
176
     1
 40
1.0
176
     1
 90
        0
176
     1
 62
    18
420
        0
176
     1
 90
       50
176
     1
 90
        3
176
     1
 62
     5
420
      255
176
     1
290
     0
176
     1
 90
       50
176
     1
 90
       50
176
     1
 90
       50
176
     1
290
     0
176
     1
 90
       50
176
     1
 62
   256
176
     0
 40
1.0
176
     0
 90
        2
176
     1
  1
strokes_ogs.tif
176
     1
290
     0
176
     1
 40
1.0
176
     1
 40
1.0
176
     1
  0
VISUALSTYLE
  5
3D
102
{ACAD_REACTORS
330
2A
102
}
330
2A
100
AcDbVisualStyle
  2
EdgeColorOff
 70
    22
177
     3
291
     1
 70
    58
 90
        2
176
     0
 90
        2
176
     0
 90
        0
176
     0
 90
        0
176
     0
 40
0.6
176
     0
 40
30.0
176
     0
 62
     7
420
 16777215
176
     0
 90
        1
176
     0
 90
        4
176
     0
 62
     7
176
     0
 62
   257
176
     0
 90
        1
176
     0
 90
        1
176
     0
 40
1.0
176
     0
 90
        8
176
     2
 62
     7
176
     0
 40
1.0
176
     0
 90
        1
176
     0
 90
        6
176
     0
 90
        2
176
     0
 62
     7
176
     0
 90
        5
176
     0
 90
        0
176
     0
 90
        0
176
     0
290
     0
176
     0
 90
        1
176
     0
 40
0.0
176
     0
 90
        0
176
     0
290
     0
176
     0
290
     1
176
     0
290
     1
176
     0
290
     0
176
     0
290
     0
176
     0
290
     0
176
     0
290
     0
176
     0
290
     0
176
     0
290
     0
176
     0
 90
       50
176
     0
 40
0.0
176
     0
 40
1.0
176
     0
 90
        0
176
     0
 62
    18
420
        0
176
     0
 90
       50
176
     0
 90
        3
176
     0
 62
     5
420
      255
176
     0
290
     0
176
     0
 90
       50
176
     0
 90
       50
176
     0
 90
       50
176
     0
290
     0
176
     0
 90
       50
176
     0
 62
   256
176
     0
 40
1.0
176
     0
 90
        2
176
     0
  1
strokes_ogs.tif
176
     0
290
     0
176
     0
 40
1.0
176
     0
 40
1.0
176
     0
  0
VISUALSTYLE
  5
39
102
{ACAD_REACTORS
330
2A
102
}
330
2A
100
AcDbVisualStyle
  2
Facepattern
 70
    15
177
     3
291
     1
 70
    58
 90
        2
176
     1
 90
        2
176
     1
 90
        0
176
     1
 90
        0
176
     1
 40
0.6
176
     1
 40
30.0
176
     1
 62
     7
420
 16777215
176
     1
 90
        1
176
     1
 90
        4
176
     1
 62
     7
176
     1
 62
   257
176
     1
 90
        1
176
     1
 90
        1
176
     1
 40
1.0
176
     1
 90
        8
176
     1
 62
     7
176
     1
 40
1.0
176
     1
 90
        1
176
     1
 90
        6
176
     1
 90
        2
176
     1
 62
     7
176
     1
 90
        5
176
     1
 90
        0
176
     1
 90
        0
176
     1
290
     0
176
     1
 90
        1
176
     1
 40
0.0
176
     1
 90
        0
176
     1
290
     0
176
     1
290
     1
176
     1
290
     1
176
     1
290
     0
176
     1
290
     0
176
     1
290
     0
176
     1
290
     0
176
     1
290
     0
176
     1
290
     0
176
     1
 90
       50
176
     1
 40
0.0
176
     1
 40
1.0
176
     1
 90
        0
176
     1
 62
    18
420
        0
176
     1
 90
       50
176
     1
 90
        3
176
     1
 62
     5
420
      255
176
     1
290
     0
176
     1
 90
       50
176
     1
 90
       50
176
     1
 90
       50
176
     1
290
     0
176
     1
 90
       50
176
     1
 62
   256
176
     0
 40
1.0
176
     0
 90
        2
176
     1
  1
strokes_ogs.tif
176
     1
290
     0
176
     1
 40
1.0
176
     1
 40
1.0
176
     1
  0
VISUALSTYLE
  5
2B
102
{ACAD_REACTORS
330
2A
102
}
330
2A
100
AcDbVisualStyle
  2
Flat
 70
     0
177
     3
291
     1
 70
    58
 90
        2
176
     1
 90
        1
176
     1
 90
        1
176
     1
 90
        2
176
     1
 40
0.6
176
     1
 40
30.0
176
     1
 62
     7
420
 16777215
176
     1
 90
        0
176
     1
 90
        0
176
     1
 62
     7
176
     1
 62
   257
176
     1
 90
        1
176
     1
 90
        1
176
     1
 40
1.0
176
     1
 90
        8
176
     1
 62
     7
176
     1
 40
1.0
176
     1
 90
        1
176
     1
 90
        6
176
     1
 90
        2
176
     1
 62
     7
176
     1
 90
        5
176
     1
 90
        0
176
     1
 90
        0
176
     1
290
     0
176
     1
 90
       13
176
     1
 40
0.0
176
     1
 90
        0
176
     1
290
     0
176
     1
290
     1
176
     1
290
     1
176
     1
290
     0
176
     1
290
     0
176
     1
290
     0
176
     1
290
     0
176
     1
290
     0
176
     1
290
     0
176
     1
 90
       50
176
     1
 40
0.0
176
     1
 40
1.0
176
     1
 90
        0
176
     1
 62
    18
420
        0
176
     1
 90
       50
176
     1
 90
        3
176
     1
 62
     5
420
      255
176
     1
290
     0
176
     1
 90
       50
176
     1
 90
       50
176
     1
 90
       50
176
     1
290
     0
176
     1
 90
       50
176
     1
 62
   256
176
     0
 40
1.0
176
     0
 90
        2
176
     1
  1
strokes_ogs.tif
176
     1
290
     0
176
     1
 40
1.0
176
     1
 40
1.0
176
     1
  0
VISUALSTYLE
  5
2C
102
{ACAD_REACTORS
330
2A
102
}
330
2A
100
AcDbVisualStyle
  2
FlatWithEdges
 70
     1
177
     3
291
     1
 70
    58
 90
        2
176
     1
 90
        1
176
     1
 90
        1
176
     1
 90
        2
176
     1
 40
0.6
176
     1
 40
30.0
176
     1
 62
     7
420
 16777215
176
     1
 90
        1
176
     1
 90
        0
176
     1
 62
     7
176
     1
 62
   257
176
     1
 90
        1
176
     1
 90
        1
176
     1
 40
1.0
176
     1
 90
        0
176
     1
 62
   257
176
     1
 40
1.0
176
     1
 90
        1
176
     1
 90
        6
176
     1
 90
        2
176
     1
 62
     7
176
     1
 90
        5
176
     1
 90
        0
176
     1
 90
        0
176
     1
290
     0
176
     1
 90
       13
176
     1
 40
0.0
176
     1
 90
        0
176
     1
290
     0
176
     1
290
     1
176
     1
290
     1
176
     1
290
     0
176
     1
290
     0
176
     1
290
     0
176
     1
290
     0
176
     1
290
     0
176
     1
290
     0
176
     1
 90
       50
176
     1
 40
0.0
176
     1
 40
1.0
176
     1
 90
        0
176
     1
 62
    18
420
        0
176
     1
 90
       50
176
     1
 90
        3
176
     1
 62
     5
420
      255
176
     1
290
     0
176
     1
 90
       50
176
     1
 90
       50
176
     1
 90
       50
176
     1
290
     0
176
     1
 90
       50
176
     1
 62
   256
176
     0
 40
1.0
176
     0
 90
        2
176
     1
  1
strokes_ogs.tif
176
     1
290
     0
176
     1
 40
1.0
176
     1
 40
1.0
176
     1
  0
VISUALSTYLE
  5
2D
102
{ACAD_REACTORS
330
2A
102
}
330
2A
100
AcDbVisualStyle
  2
Gouraud
 70
     2
177
     3
291
     1
 70
    58
 90
        2
176
     1
 90
        2
176
     1
 90
        1
176
     1
 90
        2
176
     1
 40
0.6
176
     1
 40
30.0
176
     1
 62
     7
420
 16777215
176
     1
 90
        0
176
     1
 90
        0
176
     1
 62
     7
176
     1
 62
   257
176
     1
 90
        1
176
     1
 90
        1
176
     1
 40
1.0
176
     1
 90
        0
176
     1
 62
     7
176
     1
 40
1.0
176
     1
 90
        1
176
     1
 90
        6
176
     1
 90
        2
176
     1
 62
     7
176
     1
 90
        5
176
     1
 90
        0
176
     1
 90
        0
176
     1
290
     0
176
     1
 90
       13
176
     1
 40
0.0
176
     1
 90
        0
176
     1
290
     0
176
     1
290
     1
176
     1
290
     1
176
     1
290
     0
176
     1
290
     0
176
     1
290
     0
176
     1
290
     0
176
     1
290
     0
176
     1
290
     0
176
     1
 90
       50
176
     1
 40
0.0
176
     1
 40
1.0
176
     1
 90
        0
176
     1
 62
    18
420
        0
176
     1
 90
       50
176
     1
 90
        3
176
     1
 62
     5
420
      255
176
     1
290
     0
176
     1
 90
       50
176
     1
 90
       50
176
     1
 90
       50
176
     1
290
     0
176
     1
 90
       50
176
     1
 62
   256
176
     0
 40
1.0
176
     0
 90
        2
176
     1
  1
strokes_ogs.tif
176
     1
290
     0
176
     1
 40
1.0
176
     1
 40
1.0
176
     1
  0
VISUALSTYLE
  5
2E
102
{ACAD_REACTORS
330
2A
102
}
330
2A
100
AcDbVisualStyle
  2
GouraudWithEdges
 70
     3
177
     3
291
     1
 70
    58
 90
        2
176
     1
 90
        2
176
     1
 90
        1
176
     1
 90
        2
176
     1
 40
0.6
176
     1
 40
30.0
176
     1
 62
     7
420
 16777215
176
     1
 90
        1
176
     1
 90
        0
176
     1
 62
     7
176
     1
 62
   257
176
     1
 90
        1
176
     1
 90
        1
176
     1
 40
1.0
176
     1
 90
        0
176
     1
 62
   257
176
     1
 40
1.0
176
     1
 90
        1
176
     1
 90
        6
176
     1
 90
        2
176
     1
 62
     7
176
     1
 90
        5
176
     1
 90
        0
176
     1
 90
        0
176
     1
290
     0
176
     1
 90
       13
176
     1
 40
0.0
176
     1
 90
        0
176
     1
290
     0
176
     1
290
     1
176
     1
290
     1
176
     1
290
     0
176
     1
290
     0
176
     1
290
     0
176
     1
290
     0
176
     1
290
     0
176
     1
290
     0
176
     1
 90
       50
176
     1
 40
0.0
176
     1
 40
1.0
176
     1
 90
        0
176
     1
 62
    18
420
        0
176
     1
 90
       50
176
     1
 90
        3
176
     1
 62
     5
420
      255
176
     1
290
     0
176
     1
 90
       50
176
     1
 90
       50
176
     1
 90
       50
176
     1
290
     0
176
     1
 90
       50
176
     1
 62
   256
176
     0
 40
1.0
176
     0
 90
        2
176
     1
  1
strokes_ogs.tif
176
     1
290
     0
176
     1
 40
1.0
176
     1
 40
1.0
176
     1
  0
VISUALSTYLE
  5
31
102
{ACAD_REACTORS
330
2A
102
}
330
2A
100
AcDbVisualStyle
  2
Hidden
 70
     6
177
     3
291
     0
 70
    58
 90
        1
176
     1
 90
        2
176
     1
 90
        2
176
     1
 90
        0
176
     1
 40
0.6
176
     1
 40
30.0
176
     1
 62
     7
420
 16777215
176
     1
 90
        2
176
     1
 90
        2
176
     1
 62
     7
176
     1
 62
   257
176
     1
 90
        2
176
     1
 90
        1
176
     1
 40
40.0
176
     1
 90
        0
176
     1
 62
   257
176
     1
 40
1.0
176
     1
 90
        1
176
     1
 90
        6
176
     1
 90
        2
176
     1
 62
     7
176
     1
 90
        3
176
     1
 90
        0
176
     1
 90
        0
176
     1
290
     0
176
     1
 90
        1
176
     1
 40
0.0
176
     1
 90
        0
176
     1
290
     0
176
     1
290
     1
176
     1
290
     1
176
     1
290
     0
176
     1
290
     0
176
     1
290
     0
176
     1
290
     0
176
     1
290
     0
176
     1
290
     0
176
     1
 90
       50
176
     1
 40
0.0
176
     1
 40
1.0
176
     1
 90
        0
176
     1
 62
    18
420
        0
176
     1
 90
       50
176
     1
 90
        3
176
     1
 62
     5
420
      255
176
     1
290
     0
176
     1
 90
       50
176
     1
 90
       50
176
     1
 90
       50
176
     1
290
     0
176
     1
 90
       50
176
     1
 62
   256
176
     0
 40
1.0
176
     0
 90
        2
176
     1
  1
strokes_ogs.tif
176
     1
290
     0
176
     1
 40
1.0
176
     1
 40
1.0
176
     1
  0
VISUALSTYLE
  5
3B
102
{ACAD_REACTORS
330
2A
102
}
330
2A
100
AcDbVisualStyle
  2
JitterOff
 70
    20
177
     3
291
     1
 70
    58
 90
        2
176
     0
 90
        2
176
     0
 90
        0
176
     0
 90
        0
176
     0
 40
0.6
176
     0
 40
30.0
176
     0
 62
     7
420
 16777215
176
     0
 90
        1
176
     0
 90
        4
176
     0
 62
     7
176
     0
 62
   257
176
     0
 90
        1
176
     0
 90
        1
176
     0
 40
1.0
176
     0
 90
       10
176
     2
 62
     7
176
     0
 40
1.0
176
     0
 90
        1
176
     0
 90
        6
176
     0
 90
        2
176
     0
 62
     7
176
     0
 90
        5
176
     0
 90
        0
176
     0
 90
        0
176
     0
290
     0
176
     0
 90
        1
176
     0
 40
0.0
176
     0
 90
        0
176
     0
290
     0
176
     0
290
     1
176
     0
290
     1
176
     0
290
     0
176
     0
290
     0
176
     0
290
     0
176
     0
290
     0
176
     0
290
     0
176
     0
290
     0
176
     0
 90
       50
176
     0
 40
0.0
176
     0
 40
1.0
176
     0
 90
        0
176
     0
 62
    18
420
        0
176
     0
 90
       50
176
     0
 90
        3
176
     0
 62
     5
420
      255
176
     0
290
     0
176
     0
 90
       50
176
     0
 90
       50
176
     0
 90
       50
176
     0
290
     0
176
     0
 90
       50
176
     0
 62
   256
176
     0
 40
1.0
176
     0
 90
        2
176
     0
  1
strokes_ogs.tif
176
     0
290
     0
176
     0
 40
1.0
176
     0
 40
1.0
176
     0
  0
VISUALSTYLE
  5
38
102
{ACAD_REACTORS
330
2A
102
}
330
2A
100
AcDbVisualStyle
  2
Linepattern
 70
    14
177
     3
291
     1
 70
    58
 90
        2
176
     1
 90
        2
176
     1
 90
        0
176
     1
 90
        0
176
     1
 40
0.6
176
     1
 40
30.0
176
     1
 62
     7
420
 16777215
176
     1
 90
        1
176
     1
 90
        4
176
     1
 62
     7
176
     1
 62
   257
176
     1
 90
        7
176
     1
 90
        7
176
     1
 40
1.0
176
     1
 90
        8
176
     1
 62
     7
176
     1
 40
1.0
176
     1
 90
        1
176
     1
 90
        6
176
     1
 90
        2
176
     1
 62
     7
176
     1
 90
        5
176
     1
 90
        0
176
     1
 90
        0
176
     1
290
     0
176
     1
 90
        1
176
     1
 40
0.0
176
     1
 90
        0
176
     1
290
     0
176
     1
290
     1
176
     1
290
     1
176
     1
290
     0
176
     1
290
     0
176
     1
290
     0
176
     1
290
     0
176
     1
290
     0
176
     1
290
     0
176
     1
 90
       50
176
     1
 40
0.0
176
     1
 40
1.0
176
     1
 90
        0
176
     1
 62
    18
420
        0
176
     1
 90
       50
176
     1
 90
        3
176
     1
 62
     5
420
      255
176
     1
290
     0
176
     1
 90
       50
176
     1
 90
       50
176
     1
 90
       50
176
     1
290
     0
176
     1
 90
       50
176
     1
 62
   256
176
     0
 40
1.0
176
     0
 90
        2
176
     1
  1
strokes_ogs.tif
176
     1
290
     0
176
     1
 40
1.0
176
     1
 40
1.0
176
     1
  0
VISUALSTYLE
  5
3C
102
{ACAD_REACTORS
330
2A
102
}
330
2A
100
AcDbVisualStyle
  2
OverhangOff
 70
    21
177
     3
291
     1
 70
    58
 90
        2
176
     0
 90
        2
176
     0
 90
        0
176
     0
 90
        0
176
     0
 40
0.6
176
     0
 40
30.0
176
     0
 62
     7
420
 16777215
176
     0
 90
        1
176
     0
 90
        4
176
     0
 62
     7
176
     0
 62
   257
176
     0
 90
        1
176
     0
 90
        1
176
     0
 40
1.0
176
     0
 90
        9
176
     2
 62
     7
176
     0
 40
1.0
176
     0
 90
        1
176
     0
 90
        6
176
     0
 90
        2
176
     0
 62
     7
176
     0
 90
        5
176
     0
 90
        0
176
     0
 90
        0
176
     0
290
     0
176
     0
 90
        1
176
     0
 40
0.0
176
     0
 90
        0
176
     0
290
     0
176
     0
290
     1
176
     0
290
     1
176
     0
290
     0
176
     0
290
     0
176
     0
290
     0
176
     0
290
     0
176
     0
290
     0
176
     0
290
     0
176
     0
 90
       50
176
     0
 40
0.0
176
     0
 40
1.0
176
     0
 90
        0
176
     0
 62
    18
420
        0
176
     0
 90
       50
176
     0
 90
        3
176
     0
 62
     5
420
      255
176
     0
290
     0
176
     0
 90
       50
176
     0
 90
       50
176
     0
 90
       50
176
     0
290
     0
176
     0
 90
       50
176
     0
 62
   256
176
     0
 40
1.0
176
     0
 90
        2
176
     0
  1
strokes_ogs.tif
176
     0
290
     0
176
     0
 40
1.0
176
     0
 40
1.0
176
     0
  0
VISUALSTYLE
  5
33
102
{ACAD_REACTORS
330
2A
102
}
330
2A
100
AcDbVisualStyle
  2
Realistic
 70
     8
177
     3
291
     0
 70
    58
 90
        2
176
     1
 90
        3
176
     1
 90
        0
176
     1
 90
        2
176
     1
 40
0.6
176
     1
 40
30.0
176
     1
 62
     7
420
 16777215
176
     1
 90
        0
176
     1
 90
        0
176
     1
 62
     7
176
     1
 62
   257
176
     1
 90
        1
176
     1
 90
        1
176
     1
 40
1.0
176
     1
 90
        8
176
     1
 62
   257
176
     1
 40
1.0
176
     1
 90
        1
176
     1
 90
        6
176
     1
 90
        2
176
     1
 62
     7
176
     1
 90
        3
176
     1
 90
        0
176
     1
 90
        0
176
     1
290
     0
176
     1
 90
       13
176
     1
 40
0.0
176
     1
 90
        0
176
     1
290
     0
176
     1
290
     1
176
     1
290
     1
176
     1
290
     0
176
     1
290
     0
176
     1
290
     0
176
     1
290
     0
176
     1
290
     0
176
     1
290
     0
176
     1
 90
       50
176
     1
 40
0.0
176
     1
 40
1.0
176
     1
 90
        0
176
     1
 62
    18
420
        0
176
     1
 90
       50
176
     1
 90
        3
176
     1
 62
     5
420
      255
176
     1
290
     0
176
     1
 90
       50
176
     1
 90
       50
176
     1
 90
       50
176
     1
290
     0
176
     1
 90
       50
176
     1
 62
   256
176
     0
 40
1.0
176
     0
 90
        2
176
     1
  1
strokes_ogs.tif
176
     1
290
     0
176
     1
 40
1.0
176
     1
 40
1.0
176
     1
  0
VISUALSTYLE
  5
42
102
{ACAD_REACTORS
330
2A
102
}
330
2A
100
AcDbVisualStyle
  2
Shaded
 70
    27
177
     3
291
     0
 70
    58
 90
        2
176
     1
 90
        2
176
     1
 90
        1
176
     1
 90
        2
176
     1
 40
0.6
176
     1
 40
30.0
176
     1
 62
     7
420
 16777215
176
     1
 90
        0
176
     1
 90
        4
176
     1
 62
     7
176
     1
 62
   257
176
     1
 90
        1
176
     1
 90
        1
176
     1
 40
1.0
176
     1
 90
        8
176
     1
 62
   257
176
     1
 40
1.0
176
     1
 90
        1
176
     1
 90
        6
176
     1
 90
        2
176
     1
 62
     8
420
  7895160
176
     1
 90
        3
176
     1
 90
        0
176
     1
 90
        0
176
     1
290
     0
176
     1
 90
        5
176
     1
 40
0.0
176
     1
 90
        0
176
     1
290
     0
176
     1
290
     1
176
     1
290
     1
176
     1
290
     0
176
     1
290
     0
176
     1
290
     0
176
     1
290
     0
176
     1
290
     0
176
     1
290
     0
176
     1
 90
       50
176
     1
 40
0.0
176
     1
 40
1.0
176
     1
 90
        0
176
     1
 62
    18
420
        0
176
     1
 90
       50
176
     1
 90
        3
176
     1
 62
     5
420
      255
176
     1
290
     0
176
     1
 90
       50
176
     1
 90
       50
176
     1
 90
       50
176
     1
290
     0
176
     1
 90
       50
176
     1
 62
   256
176
     0
 40
1.0
176
     0
 90
        2
176
     1
  1
strokes_ogs.tif
176
     1
290
     0
176
     1
 40
1.0
176
     1
 40
1.0
176
     1
  0
VISUALSTYLE
  5
41
102
{ACAD_REACTORS
330
2A
102
}
330
2A
100
AcDbVisualStyle
  2
Shaded with edges
 70
    26
177
     3
291
     0
 70
    58
 90
        2
176
     1
 90
        2
176
     1
 90
        1
176
     1
 90
        2
176
     1
 40
0.6
176
     1
 40
30.0
176
     1
 62
     7
420
 16777215
176
     1
 90
        1
176
     1
 90
       10
176
     1
 62
     7
176
     1
 62
   257
176
     1
 90
        2
176
     1
 90
        1
176
     1
 40
1.0
176
     1
 90
        8
176
     1
 62
   257
176
     1
 40
1.0
176
     1
 90
        1
176
     1
 90
        6
176
     1
 90
        2
176
     1
 62
     7
176
     1
 90
        3
176
     1
 90
        0
176
     1
 90
        0
176
     1
290
     0
176
     1
 90
        5
176
     1
 40
0.0
176
     1
 90
        0
176
     1
290
     0
176
     1
290
     1
176
     1
290
     1
176
     1
290
     0
176
     1
290
     0
176
     1
290
     0
176
     1
290
     0
176
     1
290
     0
176
     1
290
     0
176
     1
 90
       50
176
     1
 40
0.0
176
     1
 40
1.0
176
     1
 90
        0
176
     1
 62
    18
420
        0
176
     1
 90
       50
176
     1
 90
        3
176
     1
 62
     5
420
      255
176
     1
290
     0
176
     1
 90
       50
176
     1
 90
       50
176
     1
 90
       50
176
     1
290
     0
176
     1
 90
       50
176
     1
 62
   256
176
     0
 40
1.0
176
     0
 90
        2
176
     1
  1
strokes_ogs.tif
176
     1
290
     0
176
     1
 40
1.0
176
     1
 40
1.0
176
     1
  0
VISUALSTYLE
  5
3E
102
{ACAD_REACTORS
330
2A
102
}
330
2A
100
AcDbVisualStyle
  2
Shades of Gray
 70
    23
177
     3
291
     0
 70
    58
 90
        2
176
     1
 90
        2
176
     1
 90
        3
176
     1
 90
        0
176
     1
 40
0.6
176
     1
 40
30.0
176
     1
 62
     7
420
 16777215
176
     1
 90
        2
176
     1
 90
        2
176
     1
 62
     7
176
     1
 62
     7
176
     1
 90
        1
176
     1
 90
        1
176
     1
 40
40.0
176
     1
 90
        8
176
     1
 62
     7
176
     1
 40
1.0
176
     1
 90
        1
176
     1
 90
        6
176
     1
 90
        2
176
     1
 62
     7
176
     1
 90
        3
176
     1
 90
        0
176
     1
 90
        0
176
     1
290
     0
176
     1
 90
        1
176
     1
 40
0.0
176
     1
 90
        0
176
     1
290
     0
176
     1
290
     1
176
     1
290
     1
176
     1
290
     0
176
     1
290
     0
176
     1
290
     0
176
     1
290
     0
176
     1
290
     0
176
     1
290
     0
176
     1
 90
       50
176
     1
 40
0.0
176
     1
 40
1.0
176
     1
 90
        0
176
     1
 62
    18
420
        0
176
     1
 90
       50
176
     1
 90
        3
176
     1
 62
     5
420
      255
176
     1
290
     0
176
     1
 90
       50
176
     1
 90
       50
176
     1
 90
       50
176
     1
290
     0
176
     1
 90
       50
176
     1
 62
   256
176
     0
 40
1.0
176
     0
 90
        2
176
     1
  1
strokes_ogs.tif
176
     1
290
     0
176
     1
 40
1.0
176
     1
 40
1.0
176
     1
  0
VISUALSTYLE
  5
3F
102
{ACAD_REACTORS
330
2A
102
}
330
2A
100
AcDbVisualStyle
  2
Sketchy
 70
    24
177
     3
291
     0
 70
    58
 90
        1
176
     1
 90
        2
176
     1
 90
        2
176
     1
 90
        0
176
     1
 40
0.6
176
     1
 40
30.0
176
     1
 62
     7
420
 16777215
176
     1
 90
        2
176
     1
 90
        2
176
     1
 62
     7
176
     1
 62
     7
176
     1
 90
        1
176
     1
 90
        1
176
     1
 40
40.0
176
     1
 90
       11
176
     1
 62
     7
176
     1
 40
1.0
176
     1
 90
        1
176
     1
 90
        6
176
     1
 90
        2
176
     1
 62
     7
176
     1
 90
        6
176
     1
 90
        0
176
     1
 90
        0
176
     1
290
     0
176
     1
 90
        1
176
     1
 40
0.0
176
     1
 90
        0
176
     1
290
     0
176
     1
290
     1
176
     1
290
     1
176
     1
290
     0
176
     1
290
     0
176
     1
290
     0
176
     1
290
     0
176
     1
290
     0
176
     1
290
     0
176
     1
 90
       50
176
     1
 40
0.0
176
     1
 40
1.0
176
     1
 90
        0
176
     1
 62
    18
420
        0
176
     1
 90
       50
176
     1
 90
        3
176
     1
 62
     5
420
      255
176
     1
290
     0
176
     1
 90
       50
176
     1
 90
       50
176
     1
 90
       50
176
     1
290
     0
176
     1
 90
       50
176
     1
 62
   256
176
     0
 40
1.0
176
     0
 90
        2
176
     1
  1
strokes_ogs.tif
176
     1
290
     0
176
     1
 40
1.0
176
     1
 40
1.0
176
     1
  0
VISUALSTYLE
  5
37
102
{ACAD_REACTORS
330
2A
102
}
330
2A
100
AcDbVisualStyle
  2
Thicken
 70
    13
177
     3
291
     1
 70
    58
 90
        2
176
     1
 90
        2
176
     1
 90
        0
176
     1
 90
        0
176
     1
 40
0.6
176
     1
 40
30.0
176
     1
 62
     7
420
 16777215
176
     1
 90
        1
176
     1
 90
        4
176
     1
 62
     7
176
     1
 62
   257
176
     1
 90
        1
176
     1
 90
        1
176
     1
 40
1.0
176
     1
 90
       12
176
     1
 62
     7
176
     1
 40
1.0
176
     1
 90
        1
176
     1
 90
        6
176
     1
 90
        2
176
     1
 62
     7
176
     1
 90
        5
176
     1
 90
        0
176
     1
 90
        0
176
     1
290
     0
176
     1
 90
        1
176
     1
 40
0.0
176
     1
 90
        0
176
     1
290
     0
176
     1
290
     1
176
     1
290
     1
176
     1
290
     0
176
     1
290
     0
176
     1
290
     0
176
     1
290
     0
176
     1
290
     0
176
     1
290
     0
176
     1
 90
       50
176
     1
 40
0.0
176
     1
 40
1.0
176
     1
 90
        0
176
     1
 62
    18
420
        0
176
     1
 90
       50
176
     1
 90
        3
176
     1
 62
     5
420
      255
176
     1
290
     0
176
     1
 90
       50
176
     1
 90
       50
176
     1
 90
       50
176
     1
290
     0
176
     1
 90
       50
176
     1
 62
   256
176
     0
 40
1.0
176
     0
 90
        2
176
     1
  1
strokes_ogs.tif
176
     1
290
     0
176
     1
 40
1.0
176
     1
 40
1.0
176
     1
  0
VISUALSTYLE
  5
30
102
{ACAD_REACTORS
330
2A
102
}
330
2A
100
AcDbVisualStyle
  2
Wireframe
 70
     5
177
     3
291
     0
 70
    58
 90
        0
176
     1
 90
        2
176
     1
 90
        0
176
     1
 90
        0
176
     1
 40
0.6
176
     1
 40
30.0
176
     1
 62
     7
420
 16777215
176
     1
 90
        1
176
     1
 90
        4
176
     1
 62
     7
176
     1
 62
   257
176
     1
 90
        1
176
     1
 90
        1
176
     1
 40
1.0
176
     1
 90
        0
176
     1
 62
   257
176
     1
 40
1.0
176
     1
 90
        1
176
     1
 90
        6
176
     1
 90
        2
176
     1
 62
     7
176
     1
 90
        3
176
     1
 90
        0
176
     1
 90
        0
176
     1
290
     0
176
     1
 90
        1
176
     1
 40
0.0
176
     1
 90
        0
176
     1
290
     0
176
     1
290
     1
176
     1
290
     1
176
     1
290
     0
176
     1
290
     0
176
     1
290
     0
176
     1
290
     0
176
     1
290
     0
176
     1
290
     0
176
     1
 90
       50
176
     1
 40
0.0
176
     1
 40
1.0
176
     1
 90
        0
176
     1
 62
    18
420
        0
176
     1
 90
       50
176
     1
 90
        3
176
     1
 62
     5
420
      255
176
     1
290
     0
176
     1
 90
       50
176
     1
 90
       50
176
     1
 90
       50
176
     1
290
     0
176
     1
 90
       50
176
     1
 62
   256
176
     0
 40
1.0
176
     0
 90
        2
176
     1
  1
strokes_ogs.tif
176
     1
290
     0
176
     1
 40
1.0
176
     1
 40
1.0
176
     1
  0
VISUALSTYLE
  5
40
102
{ACAD_REACTORS
330
2A
102
}
330
2A
100
AcDbVisualStyle
  2
X-Ray
 70
    25
177
     3
291
     0
 70
    58
 90
        2
176
     1
 90
        2
176
     1
 90
        1
176
     1
 90
        1
176
     1
 40
0.5
176
     1
 40
30.0
176
     1
 62
     7
420
 16777215
176
     1
 90
        1
176
     1
 90
        0
176
     1
 62
     7
176
     1
 62
   257
176
     1
 90
        1
176
     1
 90
        1
176
     1
 40
1.0
176
     1
 90
        8
176
     1
 62
     7
176
     1
 40
1.0
176
     1
 90
        1
176
     1
 90
        6
176
     1
 90
        2
176
     1
 62
     7
176
     1
 90
        3
176
     1
 90
        0
176
     1
 90
        0
176
     1
290
     0
176
     1
 90
       13
176
     1
 40
0.0
176
     1
 90
        0
176
     1
290
     0
176
     1
290
     1
176
     1
290
     1
176
     1
290
     0
176
     1
290
     0
176
     1
290
     0
176
     1
290
     0
176
     1
290
     0
176
     1
290
     0
176
     1
 90
       50
176
     1
 40
0.0
176
     1
 40
1.0
176
     1
 90
        0
176
     1
 62
    18
420
        0
176
     1
 90
       50
176
     1
 90
        3
176
     1
 62
     5
420
      255
176
     1
290
     0
176
     1
 90
       50
176
     1
 90
       50
176
     1
 90
       50
176
     1
290
     0
176
     1
 90
       50
176
     1
 62
   256
176
     0
 40
1.0
176
     0
 90
        2
176
     1
  1
strokes_ogs.tif
176
     1
290
     0
176
     1
 40
1.0
176
     1
 40
1.0
176
     1
  0
DICTIONARYVAR
  5
21F
102
{ACAD_REACTORS
330
21E
102
}
330
21E
100
DictionaryVariables
280
     0
  1
1:1
  0
ENDSEC
  0
EOF
