  0
SECTION
  2
HEADER
  9
$ACADVER
  1
AC1014
  9
$ACADMAINTVER
 70
     9
  9
$DWGCODEPAGE
  3
ANSI_932
  9
$INSBASE
 10
0.0
 20
0.0
 30
0.0
  9
$EXTMIN
 10
147.9120014825722
 20
49.51133743247692
 30
0.0
  9
$EXTMAX
 10
703.1022197237253
 20
532.466980373946
 30
0.0
  9
$LIMMIN
 10
0.0
 20
0.0
  9
$LIMMAX
 10
420.0
 20
297.0
  9
$ORTHOMODE
 70
     0
  9
$REGENMODE
 70
     1
  9
$FILLMODE
 70
     1
  9
$QTEXTMODE
 70
     0
  9
$MIRRTEXT
 70
     1
  9
$DRAGMODE
 70
     2
  9
$LTSCALE
 40
0.5
  9
$OSMODE
 70
    37
  9
$ATTMODE
 70
     1
  9
$TEXTSIZE
 40
5.6
  9
$TRACEWID
 40
0.05
  9
$TEXTSTYLE
  7
STANDARD
  9
$CLAYER
  8
0
  9
$CELTYPE
  6
BYLAYER
  9
$CECOLOR
 62
   256
  9
$CELTSCALE
 40
1.0
  9
$DELOBJ
 70
     1
  9
$DISPSILH
 70
     0
  9
$DIMSCALE
 40
1.0
  9
$DIMASZ
 40
1.55291427
  9
$DIMEXO
 40
2.0
  9
$DIMDLI
 40
30.0
  9
$DIMRND
 40
0.0
  9
$DIMDLE
 40
0.0
  9
$DIMEXE
 40
2.0
  9
$DIMTP
 40
0.0
  9
$DIMTM
 40
0.0
  9
$DIMTXT
 40
2.8
  9
$DIMCEN
 40
0.09
  9
$DIMTSZ
 40
0.0
  9
$DIMTOL
 70
     0
  9
$DIMLIM
 70
     0
  9
$DIMTIH
 70
     0
  9
$DIMTOH
 70
     0
  9
$DIMSE1
 70
     0
  9
$DIMSE2
 70
     0
  9
$DIMTAD
 70
     3
  9
$DIMZIN
 70
     8
  9
$DIMBLK
  1

  9
$DIMASO
 70
     1
  9
$DIMSHO
 70
     1
  9
$DIMPOST
  1

  9
$DIMAPOST
  1

  9
$DIMALT
 70
     0
  9
$DIMALTD
 70
     2
  9
$DIMALTF
 40
25.4
  9
$DIMLFAC
 40
1.0
  9
$DIMTOFL
 70
     1
  9
$DIMTVP
 40
0.7
  9
$DIMTIX
 70
     0
  9
$DIMSOXD
 70
     0
  9
$DIMSAH
 70
     0
  9
$DIMBLK1
  1

  9
$DIMBLK2
  1

  9
$DIMSTYLE
  2
STANDARD
  9
$DIMCLRD
 70
     0
  9
$DIMCLRE
 70
     0
  9
$DIMCLRT
 70
     0
  9
$DIMTFAC
 40
0.5
  9
$DIMGAP
 40
0.09
  9
$DIMJUST
 70
     0
  9
$DIMSD1
 70
     0
  9
$DIMSD2
 70
     0
  9
$DIMTOLJ
 70
     1
  9
$DIMTZIN
 70
     8
  9
$DIMALTZ
 70
     0
  9
$DIMALTTZ
 70
     0
  9
$DIMFIT
 70
     5
  9
$DIMUPT
 70
     1
  9
$DIMUNIT
 70
     2
  9
$DIMDEC
 70
     2
  9
$DIMTDEC
 70
     4
  9
$DIMALTU
 70
     2
  9
$DIMALTTD
 70
     2
  9
$DIMTXSTY
  7
STANDARD
  9
$DIMAUNIT
 70
     0
  9
$LUNITS
 70
     2
  9
$LUPREC
 70
     4
  9
$SKETCHINC
 40
0.1
  9
$FILLETRAD
 40
0.5
  9
$AUNITS
 70
     0
  9
$AUPREC
 70
     0
  9
$MENU
  1
.
  9
$ELEVATION
 40
0.0
  9
$PELEVATION
 40
0.0
  9
$THICKNESS
 40
0.0
  9
$LIMCHECK
 70
     0
  9
$CHAMFERA
 40
0.5
  9
$CHAMFERB
 40
0.5
  9
$CHAMFERC
 40
1.0
  9
$CHAMFERD
 40
0.0
  9
$SKPOLY
 70
     0
  9
$TDCREATE
 40
2460098.004583333
  9
$TDUPDATE
 40
2460097.629591562
  9
$TDINDWG
 40
0.0000000116
  9
$TDUSRTIMER
 40
0.0000000116
  9
$USRTIMER
 70
     1
  9
$ANGBASE
 50
0.0
  9
$ANGDIR
 70
     0
  9
$PDMODE
 70
     0
  9
$PDSIZE
 40
0.0
  9
$PLINEWID
 40
0.0
  9
$COORDS
 70
     1
  9
$SPLFRAME
 70
     0
  9
$SPLINETYPE
 70
     6
  9
$SPLINESEGS
 70
     8
  9
$ATTDIA
 70
     0
  9
$ATTREQ
 70
     1
  9
$HANDLING
 70
     1
  9
$HANDSEED
  5
257
  9
$SURFTAB1
 70
     6
  9
$SURFTAB2
 70
     6
  9
$SURFTYPE
 70
     6
  9
$SURFU
 70
     6
  9
$SURFV
 70
     6
  9
$UCSNAME
  2

  9
$UCSORG
 10
0.0
 20
0.0
 30
0.0
  9
$UCSXDIR
 10
1.0
 20
0.0
 30
0.0
  9
$UCSYDIR
 10
0.0
 20
1.0
 30
0.0
  9
$PUCSNAME
  2

  9
$PUCSORG
 10
0.0
 20
0.0
 30
0.0
  9
$PUCSXDIR
 10
1.0
 20
0.0
 30
0.0
  9
$PUCSYDIR
 10
0.0
 20
1.0
 30
0.0
  9
$USERI1
 70
     0
  9
$USERI2
 70
     0
  9
$USERI3
 70
     0
  9
$USERI4
 70
     0
  9
$USERI5
 70
     0
  9
$USERR1
 40
0.0
  9
$USERR2
 40
0.0
  9
$USERR3
 40
0.0
  9
$USERR4
 40
0.0
  9
$USERR5
 40
0.0
  9
$WORLDVIEW
 70
     1
  9
$SHADEDGE
 70
     3
  9
$SHADEDIF
 70
    70
  9
$TILEMODE
 70
     1
  9
$MAXACTVP
 70
    64
  9
$PINSBASE
 10
0.0
 20
0.0
 30
0.0
  9
$PLIMCHECK
 70
     0
  9
$PEXTMIN
 10
0.0
 20
0.0
 30
0.0
  9
$PEXTMAX
 10
420.0
 20
297.0
 30
0.0
  9
$PLIMMIN
 10
0.0
 20
0.0
  9
$PLIMMAX
 10
420.0
 20
297.0
  9
$UNITMODE
 70
     0
  9
$VISRETAIN
 70
     1
  9
$PLINEGEN
 70
     0
  9
$PSLTSCALE
 70
     1
  9
$TREEDEPTH
 70
  3020
  9
$PICKSTYLE
 70
     1
  9
$CMLSTYLE
  2
STANDARD
  9
$CMLJUST
 70
     0
  9
$CMLSCALE
 40
1.0
  9
$PROXYGRAPHICS
 70
     1
  9
$MEASUREMENT
 70
     1
  0
ENDSEC
  0
SECTION
  2
CLASSES
  0
CLASS
  1
ACDBDICTIONARYWDFLT
  2
AcDbDictionaryWithDefault
  3
ObjectDBX Classes
 90
        0
280
     0
281
     0
  0
CLASS
  1
VISUALSTYLE
  2
AcDbVisualStyle
  3
ObjectDBX Classes
 90
     4095
280
     0
281
     0
  0
CLASS
  1
MATERIAL
  2
AcDbMaterial
  3
ObjectDBX Classes
 90
     1153
280
     0
281
     0
  0
CLASS
  1
DICTIONARYVAR
  2
AcDbDictionaryVar
  3
ObjectDBX Classes
 90
        0
280
     0
281
     0
  0
CLASS
  1
XRECORD
  2
AcDbXrecord
  3
AutoCAD 2000
 90
        0
280
     0
281
     0
  0
CLASS
  1
LWPOLYLINE
  2
AcDbPolyline
  3
AutoCAD 2000
 90
        0
280
     0
281
     1
  0
CLASS
  1
HATCH
  2
AcDbHatch
  3
AutoCAD 2000
 90
        0
280
     0
281
     1
  0
CLASS
  1
ACDBPLACEHOLDER
  2
AcDbPlaceHolder
  3
ObjectDBX Classes
 90
        0
280
     0
281
     0
  0
CLASS
  1
LAYOUT
  2
AcDbLayout
  3
ObjectDBX Classes
 90
        0
280
     0
281
     0
  0
ENDSEC
  0
SECTION
  2
TABLES
  0
TABLE
  2
VPORT
  5
8
330
0
100
AcDbSymbolTable
 70
     1
  0
VPORT
  5
29
330
8
100
AcDbSymbolTableRecord
100
AcDbViewportTableRecord
  2
*ACTIVE
 70
     0
 10
0.0
 20
0.0
 11
1.0
 21
1.0
 12
10.42990654205607
 22
4.5
 13
0.0
 23
0.0
 14
0.5
 24
0.5
 15
0.5
 25
0.5
 16
0.0
 26
0.0
 36
1.0
 17
0.0
 27
0.0
 37
0.0
 40
9.0
 41
1.972972972850329
 42
50.0
 43
0.0
 44
0.0
 50
0.0
 51
0.0
 71
     0
 72
   100
 73
     1
 74
     3
 75
     0
 76
     0
 77
     0
 78
     0
  0
ENDTAB
  0
TABLE
  2
LTYPE
  5
5
330
0
100
AcDbSymbolTable
 70
     9
  0
LTYPE
  5
14
330
5
100
AcDbSymbolTableRecord
100
AcDbLinetypeTableRecord
  2
BYBLOCK
 70
     0
  3

 72
    65
 73
     0
 40
0.0
  0
LTYPE
  5
15
330
5
100
AcDbSymbolTableRecord
100
AcDbLinetypeTableRecord
  2
BYLAYER
 70
     0
  3

 72
    65
 73
     0
 40
0.0
  0
LTYPE
  5
16
330
5
100
AcDbSymbolTableRecord
100
AcDbLinetypeTableRecord
  2
CONTINUOUS
 70
     0
  3
Solid line
 72
    65
 73
     0
 40
0.0
  0
LTYPE
  5
8E
330
5
100
AcDbSymbolTableRecord
100
AcDbLinetypeTableRecord
  2
DOT
 70
     0
  3
DOT
 72
    65
 73
     2
 40
4.0
 49
6.0
 74
     0
 49
-2.0
 74
     0
  0
LTYPE
  5
8F
330
5
100
AcDbSymbolTableRecord
100
AcDbLinetypeTableRecord
  2
HIDDEN
 70
     0
  3
HIDDEN
 72
    65
 73
     2
 40
4.2
 49
8.4
 74
     0
 49
-4.2
 74
     0
  0
LTYPE
  5
90
330
5
100
AcDbSymbolTableRecord
100
AcDbLinetypeTableRecord
  2
DASHDOT
 70
     0
  3
DASHDOT
 72
    65
 73
     4
 40
14.5
 49
30.0
 74
     0
 49
-9.0
 74
     0
 49
2.5
 74
     0
 49
-9.0
 74
     0
  0
LTYPE
  5
91
330
5
100
AcDbSymbolTableRecord
100
AcDbLinetypeTableRecord
  2
PHANTOM
 70
     0
  3
PHANTOM
 72
    65
 73
     6
 40
12.0
 49
30.0
 74
     0
 49
-9.0
 74
     0
 49
2.5
 74
     0
 49
-5.0
 74
     0
 49
2.5
 74
     0
 49
-9.0
 74
     0
  0
LTYPE
  5
92
330
5
100
AcDbSymbolTableRecord
100
AcDbLinetypeTableRecord
  2
ACAD_ISO14W100
 70
     0
  3
ACAD_ISO14W100
 72
    65
 73
     8
 40
1.5
 49
12.0
 74
     0
 49
-3.0
 74
     0
 49
0.5
 74
     0
 49
-3.0
 74
     0
 49
0.5
 74
     0
 49
-3.0
 74
     0
 49
0.5
 74
     0
 49
-3.0
 74
     0
  0
LTYPE
  5
93
330
5
100
AcDbSymbolTableRecord
100
AcDbLinetypeTableRecord
  2
ACAD_ISO06W100
 70
     0
  3
ACAD_ISO06W100
 72
    65
 73
     8
 40
13.5
 49
24.0
 74
     0
 49
-3.0
 74
     0
 49
0.5
 74
     0
 49
-3.0
 74
     0
 49
0.5
 74
     0
 49
-3.0
 74
     0
 49
0.5
 74
     0
 49
-3.0
 74
     0
  0
LTYPE
  5
94
330
5
100
AcDbSymbolTableRecord
100
AcDbLinetypeTableRecord
  2
ACAD_ISO11W100
 70
     0
  3
ACAD_ISO11W100
 72
    65
 73
     6
 40
15.5
 49
12.0
 74
     0
 49
-3.0
 74
     0
 49
12.0
 74
     0
 49
-3.0
 74
     0
 49
0.5
 74
     0
 49
-3.0
 74
     0
  0
LTYPE
  5
95
330
5
100
AcDbSymbolTableRecord
100
AcDbLinetypeTableRecord
  2
ACAD_ISO13W100
 70
     0
  3
ACAD_ISO13W100
 72
    65
 73
     8
 40
13.0
 49
12.0
 74
     0
 49
-3.0
 74
     0
 49
12.0
 74
     0
 49
-3.0
 74
     0
 49
0.5
 74
     0
 49
-3.0
 74
     0
 49
0.5
 74
     0
 49
-3.0
 74
     0
  0
ENDTAB
  0
TABLE
  2
LAYER
  5
2
330
0
100
AcDbSymbolTable
 70
    11
  0
LAYER
  5
10
330
2
100
AcDbSymbolTableRecord
100
AcDbLayerTableRecord
  2
0
 70
     0
 62
     7
  6
CONTINUOUS
  0
LAYER
  5
96
330
2
100
AcDbSymbolTableRecord
100
AcDbLayerTableRecord
  2
1
 70
     0
 62
     7
  6
CONTINUOUS
  0
LAYER
  5
97
330
2
100
AcDbSymbolTableRecord
100
AcDbLayerTableRecord
  2
2
 70
     0
 62
   151
  6
CONTINUOUS
  0
LAYER
  5
98
330
2
100
AcDbSymbolTableRecord
100
AcDbLayerTableRecord
  2
3
 70
     0
 62
     3
  6
HIDDEN
  0
LAYER
  5
99
330
2
100
AcDbSymbolTableRecord
100
AcDbLayerTableRecord
  2
4
 70
     0
 62
     1
  6
DASHDOT
  0
LAYER
  5
9A
330
2
100
AcDbSymbolTableRecord
100
AcDbLayerTableRecord
  2
5
 70
     0
 62
     7
  6
CONTINUOUS
  0
LAYER
  5
9B
330
2
100
AcDbSymbolTableRecord
100
AcDbLayerTableRecord
  2
6
 70
     0
 62
     6
  6
CONTINUOUS
  0
LAYER
  5
9C
330
2
100
AcDbSymbolTableRecord
100
AcDbLayerTableRecord
  2
7
 70
     0
 62
     3
  6
CONTINUOUS
  0
LAYER
  5
9D
330
2
100
AcDbSymbolTableRecord
100
AcDbLayerTableRecord
  2
8
 70
     0
 62
     4
  6
CONTINUOUS
  0
LAYER
  5
9E
330
2
100
AcDbSymbolTableRecord
100
AcDbLayerTableRecord
  2
9
 70
     0
 62
     7
  6
CONTINUOUS
  0
LAYER
  5
9F
330
2
100
AcDbSymbolTableRecord
100
AcDbLayerTableRecord
  2
10
 70
     0
 62
     2
  6
CONTINUOUS
  0
ENDTAB
  0
TABLE
  2
STYLE
  5
3
330
0
100
AcDbSymbolTable
 70
     3
  0
STYLE
  5
11
330
3
100
AcDbSymbolTableRecord
100
AcDbTextStyleTableRecord
  2
STANDARD
 70
     0
 40
0.0
 41
1.0
 50
0.0
 71
     0
 42
5.6
  3
txt
  4
bigfont
  0
STYLE
  5
41
330
3
100
AcDbSymbolTableRecord
100
AcDbTextStyleTableRecord
  2
T_STANDARD
 70
     4
 40
10.0
 41
1.0
 50
0.0
 71
     0
 42
10.0
  3
txt
  4
bigfont
  0
STYLE
  5
19C
330
3
100
AcDbSymbolTableRecord
100
AcDbTextStyleTableRecord
  2
ＭＳ_ゴシック
 70
     0
 40
0.0
 41
1.0
 50
0.0
 71
     0
 42
0.0
  3

  4

1001
ACAD
1000
ＭＳ ゴシック
1071
      256
  0
ENDTAB
  0
TABLE
  2
VIEW
  5
6
330
0
100
AcDbSymbolTable
 70
     0
  0
ENDTAB
  0
TABLE
  2
UCS
  5
7
330
0
100
AcDbSymbolTable
 70
     0
  0
ENDTAB
  0
TABLE
  2
APPID
  5
9
330
0
100
AcDbSymbolTable
 70
     2
  0
APPID
  5
12
330
9
100
AcDbSymbolTableRecord
100
AcDbRegAppTableRecord
  2
ACAD
 70
     0
  0
APPID
  5
40
330
9
100
AcDbSymbolTableRecord
100
AcDbRegAppTableRecord
  2
ODA
 70
     0
  0
ENDTAB
  0
TABLE
  2
DIMSTYLE
  5
A
330
0
100
AcDbSymbolTable
 70
     1
  0
DIMSTYLE
105
27
102
{ACAD_REACTORS
330
1A6
330
1B0
330
1BA
330
1C4
330
1CE
330
1D8
330
1E2
330
1EC
330
1F6
330
200
330
20A
330
214
330
223
330
22B
102
}
330
A
100
AcDbSymbolTableRecord
100
AcDbDimStyleTableRecord
  2
STANDARD
 70
     0
  3

  4

  5

  6

  7

 40
1.0
 41
0.18
 42
0.0625
 43
0.38
 44
0.18
 45
0.0
 46
0.0
 47
0.0
 48
0.0
140
0.18
141
0.09
142
0.0
143
25.4
144
1.0
145
0.0
146
1.0
147
0.09
 71
     0
 72
     0
 73
     1
 74
     1
 75
     0
 76
     0
 77
     0
 78
     0
170
     0
171
     2
172
     0
173
     0
174
     0
175
     0
176
     0
177
     0
178
     0
270
     2
271
     4
272
     4
273
     2
274
     2
340
11
275
     0
280
     0
281
     0
282
     0
283
     1
284
     0
285
     0
286
     0
287
     3
288
     0
  0
ENDTAB
  0
TABLE
  2
BLOCK_RECORD
  5
1
330
0
100
AcDbSymbolTable
 70
    30
  0
BLOCK_RECORD
  5
1F
330
1
100
AcDbSymbolTableRecord
100
AcDbBlockTableRecord
  2
*MODEL_SPACE
  0
BLOCK_RECORD
  5
1B
330
1
100
AcDbSymbolTableRecord
100
AcDbBlockTableRecord
  2
*PAPER_SPACE
  0
BLOCK_RECORD
  5
42
330
1
100
AcDbSymbolTableRecord
100
AcDbBlockTableRecord
  2
_ORIGIN
  0
BLOCK_RECORD
  5
47
330
1
100
AcDbSymbolTableRecord
100
AcDbBlockTableRecord
  2
_DOTBLANK
  0
BLOCK_RECORD
  5
4C
330
1
100
AcDbSymbolTableRecord
100
AcDbBlockTableRecord
  2
_DOT
  0
BLOCK_RECORD
  5
51
330
1
100
AcDbSymbolTableRecord
100
AcDbBlockTableRecord
  2
_OPEN
  0
BLOCK_RECORD
  5
57
330
1
100
AcDbSymbolTableRecord
100
AcDbBlockTableRecord
  2
_CLOSED
  0
BLOCK_RECORD
  5
5E
330
1
100
AcDbSymbolTableRecord
100
AcDbBlockTableRecord
  2
_CLOSEDBLANK
  0
BLOCK_RECORD
  5
64
330
1
100
AcDbSymbolTableRecord
100
AcDbBlockTableRecord
  2
_ARROWFILLED
  0
BLOCK_RECORD
  5
68
330
1
100
AcDbSymbolTableRecord
100
AcDbBlockTableRecord
  2
_BOXBLANK
  0
BLOCK_RECORD
  5
70
330
1
100
AcDbSymbolTableRecord
100
AcDbBlockTableRecord
  2
_BOXFILLED
  0
BLOCK_RECORD
  5
75
330
1
100
AcDbSymbolTableRecord
100
AcDbBlockTableRecord
  2
_INTEGRAL
  0
BLOCK_RECORD
  5
7A
330
1
100
AcDbSymbolTableRecord
100
AcDbBlockTableRecord
  2
_OBLIQUE
  0
BLOCK_RECORD
  5
7E
330
1
100
AcDbSymbolTableRecord
100
AcDbBlockTableRecord
  2
_NONE
  0
BLOCK_RECORD
  5
81
330
1
100
AcDbSymbolTableRecord
100
AcDbBlockTableRecord
  2
MARK_OPEN
  0
BLOCK_RECORD
  5
86
330
1
100
AcDbSymbolTableRecord
100
AcDbBlockTableRecord
  2
MARK_ORIGIN
  0
BLOCK_RECORD
  5
8A
330
1
100
AcDbSymbolTableRecord
100
AcDbBlockTableRecord
  2
MARK_DOT
  0
BLOCK_RECORD
  5
19D
330
1
100
AcDbSymbolTableRecord
100
AcDbBlockTableRecord
  2
DIM1
  0
BLOCK_RECORD
  5
1A7
330
1
100
AcDbSymbolTableRecord
100
AcDbBlockTableRecord
  2
DIM2
  0
BLOCK_RECORD
  5
1B1
330
1
100
AcDbSymbolTableRecord
100
AcDbBlockTableRecord
  2
DIM3
  0
BLOCK_RECORD
  5
1BB
330
1
100
AcDbSymbolTableRecord
100
AcDbBlockTableRecord
  2
DIM4
  0
BLOCK_RECORD
  5
1C5
330
1
100
AcDbSymbolTableRecord
100
AcDbBlockTableRecord
  2
DIM5
  0
BLOCK_RECORD
  5
1CF
330
1
100
AcDbSymbolTableRecord
100
AcDbBlockTableRecord
  2
DIM6
  0
BLOCK_RECORD
  5
1D9
330
1
100
AcDbSymbolTableRecord
100
AcDbBlockTableRecord
  2
DIM7
  0
BLOCK_RECORD
  5
1E3
330
1
100
AcDbSymbolTableRecord
100
AcDbBlockTableRecord
  2
DIM8
  0
BLOCK_RECORD
  5
1ED
330
1
100
AcDbSymbolTableRecord
100
AcDbBlockTableRecord
  2
DIM9
  0
BLOCK_RECORD
  5
1F7
330
1
100
AcDbSymbolTableRecord
100
AcDbBlockTableRecord
  2
DIM10
  0
BLOCK_RECORD
  5
201
330
1
100
AcDbSymbolTableRecord
100
AcDbBlockTableRecord
  2
DIM11
  0
BLOCK_RECORD
  5
20B
330
1
100
AcDbSymbolTableRecord
100
AcDbBlockTableRecord
  2
DIM12
  0
BLOCK_RECORD
  5
21C
330
1
100
AcDbSymbolTableRecord
100
AcDbBlockTableRecord
  2
DIM13
  0
BLOCK_RECORD
  5
224
330
1
100
AcDbSymbolTableRecord
100
AcDbBlockTableRecord
  2
DIM14
  0
ENDTAB
  0
ENDSEC
  0
SECTION
  2
BLOCKS
  0
BLOCK
  5
20
330
1F
100
AcDbEntity
  8
0
100
AcDbBlockBegin
  2
*MODEL_SPACE
 70
     0
 10
0.0
 20
0.0
 30
0.0
  3
*MODEL_SPACE
  1

  0
ENDBLK
  5
21
330
1F
100
AcDbEntity
  8
0
100
AcDbBlockEnd
  0
BLOCK
  5
1C
330
1B
100
AcDbEntity
 67
     1
  8
0
100
AcDbBlockBegin
  2
*PAPER_SPACE
 70
     0
 10
0.0
 20
0.0
 30
0.0
  3
*PAPER_SPACE
  1

  0
ENDBLK
  5
1D
330
1B
100
AcDbEntity
 67
     1
  8
0
100
AcDbBlockEnd
  0
BLOCK
  5
45
330
42
100
AcDbEntity
  8
0
100
AcDbBlockBegin
  2
_ORIGIN
 70
     0
 10
0.0
 20
0.0
 30
0.0
  3
_ORIGIN
  1

  0
CIRCLE
  5
43
330
42
100
AcDbEntity
  8
0
 62
     0
100
AcDbCircle
 10
0.0
 20
0.0
 30
0.0
 40
0.5
  0
LINE
  5
44
330
42
100
AcDbEntity
  8
0
 62
     0
100
AcDbLine
 10
0.0
 20
0.0
 30
0.0
 11
-1.0
 21
0.0
 31
0.0
  0
ENDBLK
  5
46
330
42
100
AcDbEntity
  8
0
100
AcDbBlockEnd
  0
BLOCK
  5
4A
330
47
100
AcDbEntity
  8
0
100
AcDbBlockBegin
  2
_DOTBLANK
 70
     0
 10
0.0
 20
0.0
 30
0.0
  3
_DOTBLANK
  1

  0
CIRCLE
  5
48
330
47
100
AcDbEntity
  8
0
 62
     0
100
AcDbCircle
 10
0.0
 20
0.0
 30
0.0
 40
0.5
  0
LINE
  5
49
330
47
100
AcDbEntity
  8
0
 62
     0
100
AcDbLine
 10
-0.5
 20
0.0
 30
0.0
 11
-1.0
 21
0.0
 31
0.0
  0
ENDBLK
  5
4B
330
47
100
AcDbEntity
  8
0
100
AcDbBlockEnd
  0
BLOCK
  5
4F
330
4C
100
AcDbEntity
  8
0
100
AcDbBlockBegin
  2
_DOT
 70
     0
 10
0.0
 20
0.0
 30
0.0
  3
_DOT
  1

  0
LWPOLYLINE
  5
4D
330
4C
100
AcDbEntity
  8
0
 62
     0
100
AcDbPolyline
 90
        2
 70
     1
 43
0.5
 10
-0.25
 20
0.0
 42
1.0
 10
0.25
 20
0.0
 42
1.0
  0
LINE
  5
4E
330
4C
100
AcDbEntity
  8
0
 62
     0
100
AcDbLine
 10
-0.5
 20
0.0
 30
0.0
 11
-1.0
 21
0.0
 31
0.0
  0
ENDBLK
  5
50
330
4C
100
AcDbEntity
  8
0
100
AcDbBlockEnd
  0
BLOCK
  5
55
330
51
100
AcDbEntity
  8
0
100
AcDbBlockBegin
  2
_OPEN
 70
     0
 10
0.0
 20
0.0
 30
0.0
  3
_OPEN
  1

  0
LINE
  5
52
330
51
100
AcDbEntity
  8
0
 62
     0
100
AcDbLine
 10
0.0
 20
0.0
 30
0.0
 11
-1.0
 21
0.1666666666666667
 31
0.0
  0
LINE
  5
53
330
51
100
AcDbEntity
  8
0
 62
     0
100
AcDbLine
 10
0.0
 20
0.0
 30
0.0
 11
-1.0
 21
-0.1666666666666667
 31
0.0
  0
LINE
  5
54
330
51
100
AcDbEntity
  8
0
 62
     0
100
AcDbLine
 10
0.0
 20
0.0
 30
0.0
 11
-1.0
 21
0.0
 31
0.0
  0
ENDBLK
  5
56
330
51
100
AcDbEntity
  8
0
100
AcDbBlockEnd
  0
BLOCK
  5
5C
330
57
100
AcDbEntity
  8
0
100
AcDbBlockBegin
  2
_CLOSED
 70
     0
 10
0.0
 20
0.0
 30
0.0
  3
_CLOSED
  1

  0
LINE
  5
58
330
57
100
AcDbEntity
  8
0
 62
     0
100
AcDbLine
 10
0.0
 20
0.0
 30
0.0
 11
-1.0
 21
0.1666666666666667
 31
0.0
  0
LINE
  5
59
330
57
100
AcDbEntity
  8
0
 62
     0
100
AcDbLine
 10
0.0
 20
0.0
 30
0.0
 11
-1.0
 21
-0.1666666666666667
 31
0.0
  0
LINE
  5
5A
330
57
100
AcDbEntity
  8
0
 62
     0
100
AcDbLine
 10
-1.0
 20
0.1666666666666667
 30
0.0
 11
-1.0
 21
-0.1666666666666667
 31
0.0
  0
LINE
  5
5B
330
57
100
AcDbEntity
  8
0
 62
     0
100
AcDbLine
 10
0.0
 20
0.0
 30
0.0
 11
-1.0
 21
0.0
 31
0.0
  0
ENDBLK
  5
5D
330
57
100
AcDbEntity
  8
0
100
AcDbBlockEnd
  0
BLOCK
  5
62
330
5E
100
AcDbEntity
  8
0
100
AcDbBlockBegin
  2
_CLOSEDBLANK
 70
     0
 10
0.0
 20
0.0
 30
0.0
  3
_CLOSEDBLANK
  1

  0
LINE
  5
5F
330
5E
100
AcDbEntity
  8
0
 62
     0
100
AcDbLine
 10
0.0
 20
0.0
 30
0.0
 11
-1.0
 21
0.1666666666666667
 31
0.0
  0
LINE
  5
60
330
5E
100
AcDbEntity
  8
0
 62
     0
100
AcDbLine
 10
0.0
 20
0.0
 30
0.0
 11
-1.0
 21
-0.1666666666666667
 31
0.0
  0
LINE
  5
61
330
5E
100
AcDbEntity
  8
0
 62
     0
100
AcDbLine
 10
-1.0
 20
0.1666666666666667
 30
0.0
 11
-1.0
 21
-0.1666666666666667
 31
0.0
  0
ENDBLK
  5
63
330
5E
100
AcDbEntity
  8
0
100
AcDbBlockEnd
  0
BLOCK
  5
66
330
64
100
AcDbEntity
  8
0
100
AcDbBlockBegin
  2
_ARROWFILLED
 70
     0
 10
0.0
 20
0.0
 30
0.0
  3
_ARROWFILLED
  1

  0
SOLID
  5
65
330
64
100
AcDbEntity
  8
0
 62
     0
100
AcDbTrace
 10
0.0
 20
0.0
 30
0.0
 11
-1.0
 21
-0.1666666666666667
 31
0.0
 12
-1.0
 22
0.1666666666666667
 32
0.0
 13
0.0
 23
0.0
 33
0.0
  0
ENDBLK
  5
67
330
64
100
AcDbEntity
  8
0
100
AcDbBlockEnd
  0
BLOCK
  5
6E
330
68
100
AcDbEntity
  8
0
100
AcDbBlockBegin
  2
_BOXBLANK
 70
     0
 10
0.0
 20
0.0
 30
0.0
  3
_BOXBLANK
  1

  0
LINE
  5
69
330
68
100
AcDbEntity
  8
0
 62
     0
100
AcDbLine
 10
-0.5
 20
-0.5
 30
0.0
 11
0.5
 21
-0.5
 31
0.0
  0
LINE
  5
6A
330
68
100
AcDbEntity
  8
0
 62
     0
100
AcDbLine
 10
0.5
 20
-0.5
 30
0.0
 11
0.5
 21
0.5
 31
0.0
  0
LINE
  5
6B
330
68
100
AcDbEntity
  8
0
 62
     0
100
AcDbLine
 10
0.5
 20
0.5
 30
0.0
 11
-0.5
 21
0.5
 31
0.0
  0
LINE
  5
6C
330
68
100
AcDbEntity
  8
0
 62
     0
100
AcDbLine
 10
-0.5
 20
0.5
 30
0.0
 11
-0.5
 21
-0.5
 31
0.0
  0
LINE
  5
6D
330
68
100
AcDbEntity
  8
0
 62
     0
100
AcDbLine
 10
-0.5
 20
0.0
 30
0.0
 11
-1.0
 21
0.0
 31
0.0
  0
ENDBLK
  5
6F
330
68
100
AcDbEntity
  8
0
100
AcDbBlockEnd
  0
BLOCK
  5
73
330
70
100
AcDbEntity
  8
0
100
AcDbBlockBegin
  2
_BOXFILLED
 70
     0
 10
0.0
 20
0.0
 30
0.0
  3
_BOXFILLED
  1

  0
SOLID
  5
71
330
70
100
AcDbEntity
  8
0
 62
     0
100
AcDbTrace
 10
-0.5
 20
0.5
 30
0.0
 11
0.5
 21
0.5
 31
0.0
 12
-0.5
 22
-0.5
 32
0.0
 13
0.5
 23
-0.5
 33
0.0
  0
LINE
  5
72
330
70
100
AcDbEntity
  8
0
 62
     0
100
AcDbLine
 10
-0.5
 20
0.0
 30
0.0
 11
-1.0
 21
0.0
 31
0.0
  0
ENDBLK
  5
74
330
70
100
AcDbEntity
  8
0
100
AcDbBlockEnd
  0
BLOCK
  5
78
330
75
100
AcDbEntity
  8
0
100
AcDbBlockBegin
  2
_INTEGRAL
 70
     0
 10
0.0
 20
0.0
 30
0.0
  3
_INTEGRAL
  1

  0
ARC
  5
76
330
75
100
AcDbEntity
  8
0
 62
     0
100
AcDbCircle
 10
0.444888
 20
-0.0913346
 30
0.0
 40
0.4541666
100
AcDbArc
 50
101.9999999999999
 51
167.9999999999998
  0
ARC
  5
77
330
75
100
AcDbEntity
  8
0
 62
     0
100
AcDbCircle
 10
-0.444888
 20
0.0913346
 30
0.0
 40
0.4541666
100
AcDbArc
 50
281.9999999999997
 51
347.9999999999997
  0
ENDBLK
  5
79
330
75
100
AcDbEntity
  8
0
100
AcDbBlockEnd
  0
BLOCK
  5
7C
330
7A
100
AcDbEntity
  8
0
100
AcDbBlockBegin
  2
_OBLIQUE
 70
     0
 10
0.0
 20
0.0
 30
0.0
  3
_OBLIQUE
  1

  0
LINE
  5
7B
330
7A
100
AcDbEntity
  8
0
 62
     0
100
AcDbLine
 10
-0.5
 20
-0.5
 30
0.0
 11
0.5
 21
0.5
 31
0.0
  0
ENDBLK
  5
7D
330
7A
100
AcDbEntity
  8
0
100
AcDbBlockEnd
  0
BLOCK
  5
7F
330
7E
100
AcDbEntity
  8
0
100
AcDbBlockBegin
  2
_NONE
 70
     0
 10
0.0
 20
0.0
 30
0.0
  3
_NONE
  1

  0
ENDBLK
  5
80
330
7E
100
AcDbEntity
  8
0
100
AcDbBlockEnd
  0
BLOCK
  5
84
330
81
100
AcDbEntity
  8
0
100
AcDbBlockBegin
  2
MARK_OPEN
 70
     0
 10
0.0
 20
0.0
 30
0.0
  3
MARK_OPEN
  1

  0
LINE
  5
82
330
81
100
AcDbEntity
  8
0
 62
     0
100
AcDbLine
 10
0.0
 20
0.0
 30
0.0
 11
-1.0
 21
0.1666666666666667
 31
0.0
  0
LINE
  5
83
330
81
100
AcDbEntity
  8
0
 62
     0
100
AcDbLine
 10
0.0
 20
0.0
 30
0.0
 11
-1.0
 21
-0.1666666666666667
 31
0.0
  0
ENDBLK
  5
85
330
81
100
AcDbEntity
  8
0
100
AcDbBlockEnd
  0
BLOCK
  5
88
330
86
100
AcDbEntity
  8
0
100
AcDbBlockBegin
  2
MARK_ORIGIN
 70
     0
 10
0.0
 20
0.0
 30
0.0
  3
MARK_ORIGIN
  1

  0
CIRCLE
  5
87
330
86
100
AcDbEntity
  8
0
 62
     0
100
AcDbCircle
 10
0.0
 20
0.0
 30
0.0
 40
0.5
  0
ENDBLK
  5
89
330
86
100
AcDbEntity
  8
0
100
AcDbBlockEnd
  0
BLOCK
  5
8C
330
8A
100
AcDbEntity
  8
0
100
AcDbBlockBegin
  2
MARK_DOT
 70
     0
 10
0.0
 20
0.0
 30
0.0
  3
MARK_DOT
  1

  0
LWPOLYLINE
  5
8B
330
8A
100
AcDbEntity
  8
0
 62
     0
100
AcDbPolyline
 90
        2
 70
     1
 43
0.5
 10
-0.25
 20
0.0
 42
1.0
 10
0.25
 20
0.0
 42
1.0
  0
ENDBLK
  5
8D
330
8A
100
AcDbEntity
  8
0
100
AcDbBlockEnd
  0
BLOCK
  5
19E
330
19D
100
AcDbEntity
  8
0
100
AcDbBlockBegin
  2
DIM1
 70
     0
 10
0.0
 20
0.0
 30
0.0
  3
DIM1
  1

  0
LINE
  5
1A0
330
19D
100
AcDbEntity
  8
8
  6
CONTINUOUS
 62
     4
100
AcDbLine
 10
270.7789237985958
 20
126.1322344451811
 30
0.0
 11
270.7789237985958
 21
97.5113374324769
 31
0.0
  0
LINE
  5
1A1
330
19D
100
AcDbEntity
  8
8
  6
CONTINUOUS
 62
     4
100
AcDbLine
 10
445.7789237985962
 20
126.1322344451811
 30
0.0
 11
445.7789237985962
 21
97.5113374324769
 31
0.0
  0
LINE
  5
1A2
330
19D
100
AcDbEntity
  8
8
  6
CONTINUOUS
 62
     4
100
AcDbLine
 10
270.7789237985958
 20
100.5113374324769
 30
0.0
 11
445.7789237985962
 21
100.5113374324769
 31
0.0
  0
MTEXT
  5
1A3
330
19D
100
AcDbEntity
  8
8
  6
CONTINUOUS
 62
     4
100
AcDbMText
 10
358.278923798596
 20
100.5113374324769
 30
0.0
 40
6.0
 41
72.85714285714286
 71
     8
 72
     1
  1
175
  7
ＭＳ_ゴシック
1001
ACAD
1000
ACAD_MTEXT_DEFINED_HEIGHT_BEGIN
1070
    46
1040
6.0
1000
ACAD_MTEXT_DEFINED_HEIGHT_END
  0
INSERT
  5
1A4
330
19D
100
AcDbEntity
  8
8
  6
CONTINUOUS
 62
     4
100
AcDbBlockReference
  2
_ARROWFILLED
 10
270.7789237985958
 20
100.5113374324769
 30
0.0
 41
4.0
 42
4.0
 43
4.0
 50
179.9999999999998
  0
INSERT
  5
1A5
330
19D
100
AcDbEntity
  8
8
  6
CONTINUOUS
 62
     4
100
AcDbBlockReference
  2
_ARROWFILLED
 10
445.7789237985962
 20
100.5113374324769
 30
0.0
 41
4.0
 42
4.0
 43
4.0
 50
359.9999999999997
  0
ENDBLK
  5
19F
330
19D
100
AcDbEntity
  8
0
100
AcDbBlockEnd
  0
BLOCK
  5
1A8
330
1A7
100
AcDbEntity
  8
0
100
AcDbBlockBegin
  2
DIM2
 70
     0
 10
0.0
 20
0.0
 30
0.0
  3
DIM2
  1

  0
LINE
  5
1AA
330
1A7
100
AcDbEntity
  8
8
  6
CONTINUOUS
 62
     4
100
AcDbLine
 10
233.2789237985958
 20
126.1322344451811
 30
0.0
 11
233.2789237985957
 21
81.51133743247692
 31
0.0
  0
LINE
  5
1AB
330
1A7
100
AcDbEntity
  8
8
  6
CONTINUOUS
 62
     4
100
AcDbLine
 10
483.2789237985962
 20
126.1322344451811
 30
0.0
 11
483.2789237985962
 21
81.51133743247692
 31
0.0
  0
LINE
  5
1AC
330
1A7
100
AcDbEntity
  8
8
  6
CONTINUOUS
 62
     4
100
AcDbLine
 10
233.2789237985957
 20
84.51133743247692
 30
0.0
 11
483.2789237985962
 21
84.51133743247692
 31
0.0
  0
MTEXT
  5
1AD
330
1A7
100
AcDbEntity
  8
8
  6
CONTINUOUS
 62
     4
100
AcDbMText
 10
358.2789237985962
 20
84.51133743247692
 30
0.0
 40
6.0
 41
77.14285714285714
 71
     8
 72
     1
  1
250
  7
ＭＳ_ゴシック
1001
ACAD
1000
ACAD_MTEXT_DEFINED_HEIGHT_BEGIN
1070
    46
1040
6.0
1000
ACAD_MTEXT_DEFINED_HEIGHT_END
  0
INSERT
  5
1AE
330
1A7
100
AcDbEntity
  8
8
  6
CONTINUOUS
 62
     4
100
AcDbBlockReference
  2
_ARROWFILLED
 10
233.2789237985957
 20
84.51133743247692
 30
0.0
 41
4.0
 42
4.0
 43
4.0
 50
179.9999999999998
  0
INSERT
  5
1AF
330
1A7
100
AcDbEntity
  8
8
  6
CONTINUOUS
 62
     4
100
AcDbBlockReference
  2
_ARROWFILLED
 10
483.2789237985962
 20
84.51133743247692
 30
0.0
 41
4.0
 42
4.0
 43
4.0
 50
359.9999999999997
  0
ENDBLK
  5
1A9
330
1A7
100
AcDbEntity
  8
0
100
AcDbBlockEnd
  0
BLOCK
  5
1B2
330
1B1
100
AcDbEntity
  8
0
100
AcDbBlockBegin
  2
DIM3
 70
     0
 10
0.0
 20
0.0
 30
0.0
  3
DIM3
  1

  0
LINE
  5
1B4
330
1B1
100
AcDbEntity
  8
8
  6
CONTINUOUS
 62
     4
100
AcDbLine
 10
208.2789237985958
 20
157.2322344451811
 30
0.0
 11
208.2789237985957
 21
65.51133743247692
 31
0.0
  0
LINE
  5
1B5
330
1B1
100
AcDbEntity
  8
8
  6
CONTINUOUS
 62
     4
100
AcDbLine
 10
508.2789237985962
 20
157.2322344451811
 30
0.0
 11
508.2789237985961
 21
65.51133743247692
 31
0.0
  0
LINE
  5
1B6
330
1B1
100
AcDbEntity
  8
8
  6
CONTINUOUS
 62
     4
100
AcDbLine
 10
208.2789237985957
 20
68.51133743247692
 30
0.0
 11
508.2789237985961
 21
68.51133743247692
 31
0.0
  0
MTEXT
  5
1B7
330
1B1
100
AcDbEntity
  8
8
  6
CONTINUOUS
 62
     4
100
AcDbMText
 10
358.2789237985962
 20
68.51133743247692
 30
0.0
 40
6.0
 41
77.14285714285714
 71
     8
 72
     1
  1
300
  7
ＭＳ_ゴシック
1001
ACAD
1000
ACAD_MTEXT_DEFINED_HEIGHT_BEGIN
1070
    46
1040
6.0
1000
ACAD_MTEXT_DEFINED_HEIGHT_END
  0
INSERT
  5
1B8
330
1B1
100
AcDbEntity
  8
8
  6
CONTINUOUS
 62
     4
100
AcDbBlockReference
  2
_ARROWFILLED
 10
208.2789237985957
 20
68.51133743247692
 30
0.0
 41
4.0
 42
4.0
 43
4.0
 50
179.9999999999998
  0
INSERT
  5
1B9
330
1B1
100
AcDbEntity
  8
8
  6
CONTINUOUS
 62
     4
100
AcDbBlockReference
  2
_ARROWFILLED
 10
508.2789237985961
 20
68.51133743247692
 30
0.0
 41
4.0
 42
4.0
 43
4.0
 50
359.9999999999997
  0
ENDBLK
  5
1B3
330
1B1
100
AcDbEntity
  8
0
100
AcDbBlockEnd
  0
BLOCK
  5
1BC
330
1BB
100
AcDbEntity
  8
0
100
AcDbBlockBegin
  2
DIM4
 70
     0
 10
0.0
 20
0.0
 30
0.0
  3
DIM4
  1

  0
LINE
  5
1BE
330
1BB
100
AcDbEntity
  8
8
  6
CONTINUOUS
 62
     4
100
AcDbLine
 10
510.2789237985962
 20
159.2322344451811
 30
0.0
 11
551.2865994718923
 21
159.2322344451809
 31
0.0
  0
LINE
  5
1BF
330
1BB
100
AcDbEntity
  8
8
  6
CONTINUOUS
 62
     4
100
AcDbLine
 10
510.2789237985962
 20
459.2322344451811
 30
0.0
 11
551.2865994718923
 21
459.232234445181
 31
0.0
  0
LINE
  5
1C0
330
1BB
100
AcDbEntity
  8
8
  6
CONTINUOUS
 62
     4
100
AcDbLine
 10
548.2865994718923
 20
159.2322344451809
 30
0.0
 11
548.2865994718923
 21
459.232234445181
 31
0.0
  0
MTEXT
  5
1C1
330
1BB
100
AcDbEntity
  8
8
  6
CONTINUOUS
 62
     4
100
AcDbMText
 10
548.2865994718923
 20
309.2322344451818
 30
0.0
 40
6.0
 41
77.14285714285714
 71
     8
 72
     1
  1
300
  7
ＭＳ_ゴシック
 11
1.615544574432587E-15
 21
1.0
 31
0.0
1001
ACAD
1000
ACAD_MTEXT_DEFINED_HEIGHT_BEGIN
1070
    46
1040
6.0
1000
ACAD_MTEXT_DEFINED_HEIGHT_END
  0
INSERT
  5
1C2
330
1BB
100
AcDbEntity
  8
8
  6
CONTINUOUS
 62
     4
100
AcDbBlockReference
  2
_ARROWFILLED
 10
548.2865994718923
 20
159.2322344451809
 30
0.0
 41
4.0
 42
4.0
 43
4.0
 50
269.9999999999998
  0
INSERT
  5
1C3
330
1BB
100
AcDbEntity
  8
8
  6
CONTINUOUS
 62
     4
100
AcDbBlockReference
  2
_ARROWFILLED
 10
548.2865994718923
 20
459.232234445181
 30
0.0
 41
4.0
 42
4.0
 43
4.0
 50
89.99999999999991
  0
ENDBLK
  5
1BD
330
1BB
100
AcDbEntity
  8
0
100
AcDbBlockEnd
  0
BLOCK
  5
1C6
330
1C5
100
AcDbEntity
  8
0
100
AcDbBlockBegin
  2
DIM5
 70
     0
 10
0.0
 20
0.0
 30
0.0
  3
DIM5
  1

  0
LINE
  5
1C8
330
1C5
100
AcDbEntity
  8
8
  6
CONTINUOUS
 62
     4
100
AcDbLine
 10
525.2789237985962
 20
474.2322344451811
 30
0.0
 11
567.2865994718923
 21
474.232234445181
 31
0.0
  0
LINE
  5
1C9
330
1C5
100
AcDbEntity
  8
8
  6
CONTINUOUS
 62
     4
100
AcDbLine
 10
525.2789237985962
 20
144.2322344451802
 30
0.0
 11
567.2865994718923
 21
144.2322344451801
 31
0.0
  0
LINE
  5
1CA
330
1C5
100
AcDbEntity
  8
8
  6
CONTINUOUS
 62
     4
100
AcDbLine
 10
564.2865994718923
 20
474.232234445181
 30
0.0
 11
564.2865994718923
 21
144.2322344451801
 31
0.0
  0
MTEXT
  5
1CB
330
1C5
100
AcDbEntity
  8
8
  6
CONTINUOUS
 62
     4
100
AcDbMText
 10
564.2865994718923
 20
309.2322344451807
 30
0.0
 40
6.0
 41
77.14285714285714
 71
     8
 72
     1
  1
330
  7
ＭＳ_ゴシック
 11
1.615544574432587E-15
 21
1.0
 31
0.0
1001
ACAD
1000
ACAD_MTEXT_DEFINED_HEIGHT_BEGIN
1070
    46
1040
6.0
1000
ACAD_MTEXT_DEFINED_HEIGHT_END
  0
INSERT
  5
1CC
330
1C5
100
AcDbEntity
  8
8
  6
CONTINUOUS
 62
     4
100
AcDbBlockReference
  2
_ARROWFILLED
 10
564.2865994718923
 20
474.232234445181
 30
0.0
 41
4.0
 42
4.0
 43
4.0
 50
89.99999999999991
  0
INSERT
  5
1CD
330
1C5
100
AcDbEntity
  8
8
  6
CONTINUOUS
 62
     4
100
AcDbBlockReference
  2
_ARROWFILLED
 10
564.2865994718923
 20
144.2322344451801
 30
0.0
 41
4.0
 42
4.0
 43
4.0
 50
269.9999999999998
  0
ENDBLK
  5
1C7
330
1C5
100
AcDbEntity
  8
0
100
AcDbBlockEnd
  0
BLOCK
  5
1D0
330
1CF
100
AcDbEntity
  8
0
100
AcDbBlockBegin
  2
DIM6
 70
     0
 10
0.0
 20
0.0
 30
0.0
  3
DIM6
  1

  0
LINE
  5
1D2
330
1CF
100
AcDbEntity
  8
8
  6
CONTINUOUS
 62
     4
100
AcDbLine
 10
505.2789237985962
 20
489.2322344451809
 30
0.0
 11
599.2865994718923
 21
489.2322344451806
 31
0.0
  0
LINE
  5
1D3
330
1CF
100
AcDbEntity
  8
8
  6
CONTINUOUS
 62
     4
100
AcDbLine
 10
505.2789237985962
 20
129.232234445182
 30
0.0
 11
599.2865994718923
 21
129.2322344451817
 31
0.0
  0
LINE
  5
1D4
330
1CF
100
AcDbEntity
  8
8
  6
CONTINUOUS
 62
     4
100
AcDbLine
 10
596.2865994718923
 20
489.2322344451806
 30
0.0
 11
596.2865994718923
 21
129.2322344451817
 31
0.0
  0
MTEXT
  5
1D5
330
1CF
100
AcDbEntity
  8
8
  6
CONTINUOUS
 62
     4
100
AcDbMText
 10
596.2865994718923
 20
309.232234445182
 30
0.0
 40
6.0
 41
77.14285714285714
 71
     8
 72
     1
  1
360
  7
ＭＳ_ゴシック
 11
1.615544574432587E-15
 21
1.0
 31
0.0
1001
ACAD
1000
ACAD_MTEXT_DEFINED_HEIGHT_BEGIN
1070
    46
1040
6.0
1000
ACAD_MTEXT_DEFINED_HEIGHT_END
  0
INSERT
  5
1D6
330
1CF
100
AcDbEntity
  8
8
  6
CONTINUOUS
 62
     4
100
AcDbBlockReference
  2
_ARROWFILLED
 10
596.2865994718923
 20
489.2322344451806
 30
0.0
 41
4.0
 42
4.0
 43
4.0
 50
89.99999999999991
  0
INSERT
  5
1D7
330
1CF
100
AcDbEntity
  8
8
  6
CONTINUOUS
 62
     4
100
AcDbBlockReference
  2
_ARROWFILLED
 10
596.2865994718923
 20
129.2322344451817
 30
0.0
 41
4.0
 42
4.0
 43
4.0
 50
269.9999999999998
  0
ENDBLK
  5
1D1
330
1CF
100
AcDbEntity
  8
0
100
AcDbBlockEnd
  0
BLOCK
  5
1DA
330
1D9
100
AcDbEntity
  8
0
100
AcDbBlockBegin
  2
DIM7
 70
     0
 10
0.0
 20
0.0
 30
0.0
  3
DIM7
  1

  0
LINE
  5
1DC
330
1D9
100
AcDbEntity
  8
8
  6
CONTINUOUS
 62
     4
100
AcDbLine
 10
383.2789237985944
 20
509.2322344451811
 30
0.0
 11
598.3293309388882
 21
509.2322344451804
 31
0.0
  0
LINE
  5
1DD
330
1D9
100
AcDbEntity
  8
8
  6
CONTINUOUS
 62
     4
100
AcDbLine
 10
505.2789237985962
 20
489.2322344451809
 30
0.0
 11
598.3293309388882
 21
489.2322344451806
 31
0.0
  0
LINE
  5
1DE
330
1D9
100
AcDbEntity
  8
8
  6
CONTINUOUS
 62
     4
100
AcDbLine
 10
595.3293309388882
 20
509.2322344451804
 30
0.0
 11
595.3293309388882
 21
489.2322344451806
 31
0.0
  0
MTEXT
  5
1DF
330
1D9
100
AcDbEntity
  8
8
  6
CONTINUOUS
 62
     4
100
AcDbMText
 10
595.3293309388882
 20
499.2322344451809
 30
0.0
 40
6.0
 41
48.57142857142856
 71
     8
 72
     1
  1
20
  7
ＭＳ_ゴシック
 11
1.615544574432587E-15
 21
1.0
 31
0.0
1001
ACAD
1000
ACAD_MTEXT_DEFINED_HEIGHT_BEGIN
1070
    46
1040
6.0
1000
ACAD_MTEXT_DEFINED_HEIGHT_END
  0
INSERT
  5
1E0
330
1D9
100
AcDbEntity
  8
8
  6
CONTINUOUS
 62
     4
100
AcDbBlockReference
  2
_ARROWFILLED
 10
595.3293309388882
 20
509.2322344451804
 30
0.0
 41
4.0
 42
4.0
 43
4.0
 50
89.99999999999991
  0
INSERT
  5
1E1
330
1D9
100
AcDbEntity
  8
8
  6
CONTINUOUS
 62
     4
100
AcDbBlockReference
  2
_ARROWFILLED
 10
595.3293309388882
 20
489.2322344451806
 30
0.0
 41
4.0
 42
4.0
 43
4.0
 50
269.9999999999998
  0
ENDBLK
  5
1DB
330
1D9
100
AcDbEntity
  8
0
100
AcDbBlockEnd
  0
BLOCK
  5
1E4
330
1E3
100
AcDbEntity
  8
0
100
AcDbBlockBegin
  2
DIM8
 70
     0
 10
0.0
 20
0.0
 30
0.0
  3
DIM8
  1

  0
LINE
  5
1E6
330
1E3
100
AcDbEntity
  8
8
  6
CONTINUOUS
 62
     4
100
AcDbLine
 10
645.6022197237253
 20
142.2322344451811
 30
0.0
 11
645.6022197237252
 21
93.70367124930885
 31
0.0
  0
LINE
  5
1E7
330
1E3
100
AcDbEntity
  8
8
  6
CONTINUOUS
 62
     4
100
AcDbLine
 10
690.6022197237253
 20
127.2322344451811
 30
0.0
 11
690.6022197237253
 21
93.70367124930885
 31
0.0
  0
LINE
  5
1E8
330
1E3
100
AcDbEntity
  8
8
  6
CONTINUOUS
 62
     4
100
AcDbLine
 10
645.6022197237252
 20
96.70367124930885
 30
0.0
 11
690.6022197237253
 21
96.70367124930885
 31
0.0
  0
MTEXT
  5
1E9
330
1E3
100
AcDbEntity
  8
8
  6
CONTINUOUS
 62
     4
100
AcDbMText
 10
668.1022197237253
 20
96.70367124930885
 30
0.0
 40
6.0
 41
48.57142857142856
 71
     8
 72
     1
  1
45
  7
ＭＳ_ゴシック
1001
ACAD
1000
ACAD_MTEXT_DEFINED_HEIGHT_BEGIN
1070
    46
1040
6.0
1000
ACAD_MTEXT_DEFINED_HEIGHT_END
  0
INSERT
  5
1EA
330
1E3
100
AcDbEntity
  8
8
  6
CONTINUOUS
 62
     4
100
AcDbBlockReference
  2
_ARROWFILLED
 10
645.6022197237252
 20
96.70367124930885
 30
0.0
 41
4.0
 42
4.0
 43
4.0
 50
179.9999999999998
  0
INSERT
  5
1EB
330
1E3
100
AcDbEntity
  8
8
  6
CONTINUOUS
 62
     4
100
AcDbBlockReference
  2
_ARROWFILLED
 10
690.6022197237253
 20
96.70367124930885
 30
0.0
 41
4.0
 42
4.0
 43
4.0
 50
359.9999999999997
  0
ENDBLK
  5
1E5
330
1E3
100
AcDbEntity
  8
0
100
AcDbBlockEnd
  0
BLOCK
  5
1EE
330
1ED
100
AcDbEntity
  8
0
100
AcDbBlockBegin
  2
DIM9
 70
     0
 10
0.0
 20
0.0
 30
0.0
  3
DIM9
  1

  0
LINE
  5
1F0
330
1ED
100
AcDbEntity
  8
8
  6
CONTINUOUS
 62
     4
100
AcDbLine
 10
657.1022197237235
 20
511.2322344451811
 30
0.0
 11
657.1022197237235
 21
524.9499435056066
 31
0.0
  0
LINE
  5
1F1
330
1ED
100
AcDbEntity
  8
8
  6
CONTINUOUS
 62
     4
100
AcDbLine
 10
690.6022197237253
 20
491.2322344451809
 30
0.0
 11
690.6022197237253
 21
524.9499435056066
 31
0.0
  0
LINE
  5
1F2
330
1ED
100
AcDbEntity
  8
8
  6
CONTINUOUS
 62
     4
100
AcDbLine
 10
657.1022197237235
 20
521.9499435056066
 30
0.0
 11
690.6022197237253
 21
521.9499435056066
 31
0.0
  0
MTEXT
  5
1F3
330
1ED
100
AcDbEntity
  8
8
  6
CONTINUOUS
 62
     4
100
AcDbMText
 10
673.8522197237244
 20
521.9499435056066
 30
0.0
 40
6.0
 41
91.42857142857142
 71
     8
 72
     1
  1
33.5
  7
ＭＳ_ゴシック
1001
ACAD
1000
ACAD_MTEXT_DEFINED_HEIGHT_BEGIN
1070
    46
1040
6.0
1000
ACAD_MTEXT_DEFINED_HEIGHT_END
  0
INSERT
  5
1F4
330
1ED
100
AcDbEntity
  8
8
  6
CONTINUOUS
 62
     4
100
AcDbBlockReference
  2
_ARROWFILLED
 10
657.1022197237235
 20
521.9499435056066
 30
0.0
 41
4.0
 42
4.0
 43
4.0
 50
179.9999999999998
  0
INSERT
  5
1F5
330
1ED
100
AcDbEntity
  8
8
  6
CONTINUOUS
 62
     4
100
AcDbBlockReference
  2
_ARROWFILLED
 10
690.6022197237253
 20
521.9499435056066
 30
0.0
 41
4.0
 42
4.0
 43
4.0
 50
359.9999999999997
  0
ENDBLK
  5
1EF
330
1ED
100
AcDbEntity
  8
0
100
AcDbBlockEnd
  0
BLOCK
  5
1F8
330
1F7
100
AcDbEntity
  8
0
100
AcDbBlockBegin
  2
DIM10
 70
     0
 10
0.0
 20
0.0
 30
0.0
  3
DIM10
  1

  0
LINE
  5
1FA
330
1F7
100
AcDbEntity
  8
8
  6
CONTINUOUS
 62
     4
100
AcDbLine
 10
193.2789237985958
 20
142.2322344451802
 30
0.0
 11
193.2789237985957
 21
49.51133743247692
 31
0.0
  0
LINE
  5
1FB
330
1F7
100
AcDbEntity
  8
8
  6
CONTINUOUS
 62
     4
100
AcDbLine
 10
523.2789237985962
 20
142.2322344451802
 30
0.0
 11
523.2789237985961
 21
49.51133743247692
 31
0.0
  0
LINE
  5
1FC
330
1F7
100
AcDbEntity
  8
8
  6
CONTINUOUS
 62
     4
100
AcDbLine
 10
193.2789237985957
 20
52.51133743247692
 30
0.0
 11
523.2789237985961
 21
52.51133743247692
 31
0.0
  0
MTEXT
  5
1FD
330
1F7
100
AcDbEntity
  8
8
  6
CONTINUOUS
 62
     4
100
AcDbMText
 10
358.2789237985962
 20
52.51133743247692
 30
0.0
 40
6.0
 41
77.14285714285714
 71
     8
 72
     1
  1
330
  7
ＭＳ_ゴシック
1001
ACAD
1000
ACAD_MTEXT_DEFINED_HEIGHT_BEGIN
1070
    46
1040
6.0
1000
ACAD_MTEXT_DEFINED_HEIGHT_END
  0
INSERT
  5
1FE
330
1F7
100
AcDbEntity
  8
8
  6
CONTINUOUS
 62
     4
100
AcDbBlockReference
  2
_ARROWFILLED
 10
193.2789237985957
 20
52.51133743247692
 30
0.0
 41
4.0
 42
4.0
 43
4.0
 50
179.9999999999998
  0
INSERT
  5
1FF
330
1F7
100
AcDbEntity
  8
8
  6
CONTINUOUS
 62
     4
100
AcDbBlockReference
  2
_ARROWFILLED
 10
523.2789237985961
 20
52.51133743247692
 30
0.0
 41
4.0
 42
4.0
 43
4.0
 50
359.9999999999997
  0
ENDBLK
  5
1F9
330
1F7
100
AcDbEntity
  8
0
100
AcDbBlockEnd
  0
BLOCK
  5
202
330
201
100
AcDbEntity
  8
0
100
AcDbBlockBegin
  2
DIM11
 70
     0
 10
0.0
 20
0.0
 30
0.0
  3
DIM11
  1

  0
LINE
  5
204
330
201
100
AcDbEntity
  8
8
  6
CONTINUOUS
 62
     4
100
AcDbLine
 10
493.3789237985957
 20
136.2322344451811
 30
0.0
 11
583.2865994718923
 21
136.2322344451808
 31
0.0
  0
LINE
  5
205
330
201
100
AcDbEntity
  8
8
  6
CONTINUOUS
 62
     4
100
AcDbLine
 10
493.3789237985957
 20
482.2322344451811
 30
0.0
 11
583.2865994718923
 21
482.2322344451808
 31
0.0
  0
LINE
  5
206
330
201
100
AcDbEntity
  8
8
  6
CONTINUOUS
 62
     4
100
AcDbLine
 10
580.2865994718923
 20
136.2322344451808
 30
0.0
 11
580.2865994718923
 21
482.2322344451808
 31
0.0
  0
MTEXT
  5
207
330
201
100
AcDbEntity
  8
8
  6
CONTINUOUS
 62
     4
100
AcDbMText
 10
580.2865994718923
 20
309.2322344451818
 30
0.0
 40
6.0
 41
77.14285714285714
 71
     8
 72
     1
  1
346
  7
ＭＳ_ゴシック
 11
1.615544574432587E-15
 21
1.0
 31
0.0
1001
ACAD
1000
ACAD_MTEXT_DEFINED_HEIGHT_BEGIN
1070
    46
1040
6.0
1000
ACAD_MTEXT_DEFINED_HEIGHT_END
  0
INSERT
  5
208
330
201
100
AcDbEntity
  8
8
  6
CONTINUOUS
 62
     4
100
AcDbBlockReference
  2
_ARROWFILLED
 10
580.2865994718923
 20
136.2322344451808
 30
0.0
 41
4.0
 42
4.0
 43
4.0
 50
269.9999999999998
  0
INSERT
  5
209
330
201
100
AcDbEntity
  8
8
  6
CONTINUOUS
 62
     4
100
AcDbBlockReference
  2
_ARROWFILLED
 10
580.2865994718923
 20
482.2322344451808
 30
0.0
 41
4.0
 42
4.0
 43
4.0
 50
89.99999999999991
  0
ENDBLK
  5
203
330
201
100
AcDbEntity
  8
0
100
AcDbBlockEnd
  0
BLOCK
  5
20C
330
20B
100
AcDbEntity
  8
0
100
AcDbBlockBegin
  2
DIM12
 70
     0
 10
0.0
 20
0.0
 30
0.0
  3
DIM12
  1

  0
LINE
  5
20E
330
20B
100
AcDbEntity
  8
8
  6
CONTINUOUS
 62
     4
100
AcDbLine
 10
690.6022197237253
 20
127.2322344451811
 30
0.0
 11
690.6022197237253
 21
110.6483012503688
 31
0.0
  0
LINE
  5
20F
330
20B
100
AcDbEntity
  8
8
  6
CONTINUOUS
 62
     4
100
AcDbLine
 10
689.6022197237253
 20
127.2322344451811
 30
0.0
 11
689.6022197237253
 21
110.6483012503688
 31
0.0
  0
LINE
  5
210
330
20B
100
AcDbEntity
  8
8
  6
CONTINUOUS
 62
     4
100
AcDbLine
 10
703.1022197237253
 20
113.6483012503688
 30
0.0
 11
681.6022197237253
 21
113.6483012503688
 31
0.0
  0
MTEXT
  5
211
330
20B
100
AcDbEntity
  8
8
  6
CONTINUOUS
 62
     4
100
AcDbMText
 10
700.1022197237253
 20
113.6483012503688
 30
0.0
 40
6.0
 41
7.142857142857143
 71
     7
 72
     1
  1
1
  7
ＭＳ_ゴシック
1001
ACAD
1000
ACAD_MTEXT_DEFINED_HEIGHT_BEGIN
1070
    46
1040
6.0
1000
ACAD_MTEXT_DEFINED_HEIGHT_END
  0
INSERT
  5
212
330
20B
100
AcDbEntity
  8
8
  6
CONTINUOUS
 62
     4
100
AcDbBlockReference
  2
_ARROWFILLED
 10
690.6022197237253
 20
113.6483012503688
 30
0.0
 41
4.0
 42
4.0
 43
4.0
 50
179.9999999999995
  0
INSERT
  5
213
330
20B
100
AcDbEntity
  8
8
  6
CONTINUOUS
 62
     4
100
AcDbBlockReference
  2
_ARROWFILLED
 10
689.6022197237253
 20
113.6483012503688
 30
0.0
 41
4.0
 42
4.0
 43
4.0
 50
359.9999999999997
  0
ENDBLK
  5
20D
330
20B
100
AcDbEntity
  8
0
100
AcDbBlockEnd
  0
BLOCK
  5
21D
330
21C
100
AcDbEntity
  8
0
100
AcDbBlockBegin
  2
DIM13
 70
     0
 10
0.0
 20
0.0
 30
0.0
  3
DIM13
  1

  0
LINE
  5
21F
330
21C
100
AcDbEntity
  8
8
  6
CONTINUOUS
 62
     4
100
AcDbLine
 10
380.3902614818884
 20
296.5303154619894
 30
0.0
 11
148.3916697755226
 21
429.8025470328337
 31
0.0
  0
MTEXT
  5
220
330
21C
100
AcDbEntity
  8
8
  6
CONTINUOUS
 62
     4
100
AcDbMText
 10
156.1956713107987
 20
425.3195168034678
 30
0.0
 40
6.0
 41
75.71428571428571
 71
     9
 72
     1
  1
\U+220535
  7
ＭＳ_ゴシック
 11
0.8671112816976376
 21
-0.4981144699290316
 31
0.0
1001
ACAD
1000
ACAD_MTEXT_DEFINED_HEIGHT_BEGIN
1070
    46
1040
6.0
1000
ACAD_MTEXT_DEFINED_HEIGHT_END
  0
INSERT
  5
221
330
21C
100
AcDbEntity
  8
8
  6
CONTINUOUS
 62
     4
100
AcDbBlockReference
  2
_ARROWFILLED
 10
373.4533712283073
 20
300.5152312214217
 30
0.0
 41
4.0
 42
4.0
 43
4.0
 50
150.1246674581339
  0
INSERT
  5
222
330
21C
100
AcDbEntity
  8
8
  6
CONTINUOUS
 62
     4
100
AcDbBlockReference
  2
_ARROWFILLED
 10
343.1044763688892
 20
317.9492376689384
 30
0.0
 41
4.0
 42
4.0
 43
4.0
 50
330.1246674581339
  0
ENDBLK
  5
21E
330
21C
100
AcDbEntity
  8
0
100
AcDbBlockEnd
  0
BLOCK
  5
225
330
224
100
AcDbEntity
  8
0
100
AcDbBlockBegin
  2
DIM14
 70
     0
 10
0.0
 20
0.0
 30
0.0
  3
DIM14
  1

  0
LINE
  5
227
330
224
100
AcDbEntity
  8
8
  6
CONTINUOUS
 62
     4
100
AcDbLine
 10
387.0118520924974
 20
299.0014558014279
 30
0.0
 11
147.9120014825744
 21
384.1364486682469
 31
0.0
  0
MTEXT
  5
228
330
224
100
AcDbEntity
  8
8
  6
CONTINUOUS
 62
     4
100
AcDbMText
 10
156.3905704873304
 20
381.1175303799204
 30
0.0
 40
6.0
 41
75.71428571428571
 71
     9
 72
     1
  1
\U+220545
  7
ＭＳ_ゴシック
 11
0.9420632227509089
 21
-0.3354353653689058
 31
0.0
1001
ACAD
1000
ACAD_MTEXT_DEFINED_HEIGHT_BEGIN
1070
    46
1040
6.0
1000
ACAD_MTEXT_DEFINED_HEIGHT_END
  0
INSERT
  5
229
330
224
100
AcDbEntity
  8
8
  6
CONTINUOUS
 62
     4
100
AcDbBlockReference
  2
_ARROWFILLED
 10
379.4753463104901
 20
301.6849387243792
 30
0.0
 41
4.0
 42
4.0
 43
4.0
 50
160.4009855447928
  0
INSERT
  5
22A
330
224
100
AcDbEntity
  8
8
  6
CONTINUOUS
 62
     4
100
AcDbBlockReference
  2
_ARROWFILLED
 10
337.0825012866992
 20
316.7795301659801
 30
0.0
 41
4.0
 42
4.0
 43
4.0
 50
340.4009855447928
  0
ENDBLK
  5
226
330
224
100
AcDbEntity
  8
0
100
AcDbBlockEnd
  0
ENDSEC
  0
SECTION
  2
ENTITIES
  0
POLYLINE
  5
A0
330
1F
100
AcDbEntity
  8
9
  6
CONTINUOUS
 62
     7
100
AcDb2dPolyline
 66
     1
 10
0.0
 20
0.0
 30
0.0
  0
VERTEX
  5
A1
330
A0
100
AcDbEntity
  8
9
  6
CONTINUOUS
 62
     7
100
AcDbVertex
100
AcDb2dVertex
 10
508.2789237985962
 20
159.2322344451811
 30
0.0
  0
VERTEX
  5
A2
330
A0
100
AcDbEntity
  8
9
  6
CONTINUOUS
 62
     7
100
AcDbVertex
100
AcDb2dVertex
 10
508.2789237985962
 20
459.2322344451811
 30
0.0
  0
VERTEX
  5
A3
330
A0
100
AcDbEntity
  8
9
  6
CONTINUOUS
 62
     7
100
AcDbVertex
100
AcDb2dVertex
 10
208.2789237985958
 20
459.2322344451811
 30
0.0
  0
VERTEX
  5
A4
330
A0
100
AcDbEntity
  8
9
  6
CONTINUOUS
 62
     7
100
AcDbVertex
100
AcDb2dVertex
 10
208.2789237985958
 20
159.2322344451811
 30
0.0
  0
VERTEX
  5
A5
330
A0
100
AcDbEntity
  8
9
  6
CONTINUOUS
 62
     7
100
AcDbVertex
100
AcDb2dVertex
 10
508.2789237985962
 20
159.2322344451811
 30
0.0
  0
SEQEND
  5
A6
330
A0
100
AcDbEntity
  8
9
  6
CONTINUOUS
 62
     7
  0
LINE
  5
A7
330
1F
100
AcDbEntity
  8
9
  6
CONTINUOUS
 62
     7
100
AcDbLine
 10
523.2789237985962
 20
474.2322344451811
 30
0.0
 11
523.2789237985962
 21
144.2322344451802
 31
0.0
  0
LINE
  5
A8
330
1F
100
AcDbEntity
  8
9
  6
CONTINUOUS
 62
     7
100
AcDbLine
 10
523.2789237985962
 20
144.2322344451802
 30
0.0
 11
193.2789237985958
 21
144.2322344451802
 31
0.0
  0
LINE
  5
A9
330
1F
100
AcDbEntity
  8
9
  6
CONTINUOUS
 62
     7
100
AcDbLine
 10
523.2789237985962
 20
474.2322344451811
 30
0.0
 11
193.2789237985958
 21
474.2322344451811
 31
0.0
  0
LINE
  5
AA
330
1F
100
AcDbEntity
  8
9
  6
CONTINUOUS
 62
     7
100
AcDbLine
 10
193.2789237985958
 20
474.2322344451811
 30
0.0
 11
193.2789237985958
 21
144.2322344451802
 31
0.0
  0
LINE
  5
AB
330
1F
100
AcDbEntity
  8
9
  6
CONTINUOUS
 62
     7
100
AcDbLine
 10
684.0522197237242
 20
143.9155677785145
 30
0.0
 11
677.1522197237246
 21
143.9155677785145
 31
0.0
  0
ARC
  5
AC
330
1F
100
AcDbEntity
  8
9
  6
CONTINUOUS
 62
     7
100
AcDbCircle
 10
680.6022197237253
 20
146.8825853223741
 30
0.0
 40
4.550350877192955
100
AcDbArc
 50
220.6956985254072
 51
319.3043014745895
  0
LINE
  5
AD
330
1F
100
AcDbEntity
  8
9
  6
CONTINUOUS
 62
     7
100
AcDbLine
 10
684.0522197237242
 20
144.2322344451811
 30
0.0
 11
684.0522197237242
 21
143.9155677785145
 31
0.0
  0
LINE
  5
AE
330
1F
100
AcDbEntity
  8
9
  6
CONTINUOUS
 62
     7
100
AcDbLine
 10
677.1522197237246
 20
144.2322344451811
 30
0.0
 11
677.1522197237246
 21
143.9155677785145
 31
0.0
  0
LINE
  5
AF
330
1F
100
AcDbEntity
  8
9
  6
CONTINUOUS
 62
     7
100
AcDbLine
 10
645.6022197237253
 20
474.2322344451811
 30
0.0
 11
645.6022197237253
 21
144.2322344451811
 31
0.0
  0
LINE
  5
B0
330
1F
100
AcDbEntity
  8
3
  6
HIDDEN
 62
     3
100
AcDbLine
 10
646.6022197237253
 20
471.2322344451811
 30
0.0
 11
646.6022197237253
 21
147.2322344451811
 31
0.0
  0
LINE
  5
B1
330
1F
100
AcDbEntity
  8
3
  6
HIDDEN
 62
     3
100
AcDbLine
 10
651.6022197237253
 20
471.2322344451811
 30
0.0
 11
651.6022197237253
 21
147.2322344451811
 31
0.0
  0
LINE
  5
B2
330
1F
100
AcDbEntity
  8
9
  6
CONTINUOUS
 62
     7
100
AcDbLine
 10
690.6022197237253
 20
489.2322344451809
 30
0.0
 11
690.6022197237253
 21
129.2322344451811
 31
0.0
  0
LINE
  5
B3
330
1F
100
AcDbEntity
  8
9
  6
CONTINUOUS
 62
     7
100
AcDbLine
 10
689.6022197237253
 20
489.2322344451809
 30
0.0
 11
689.6022197237253
 21
129.2322344451811
 31
0.0
  0
LINE
  5
B4
330
1F
100
AcDbEntity
  8
9
  6
CONTINUOUS
 62
     7
100
AcDbLine
 10
689.6022197237253
 20
473.2322344451809
 30
0.0
 11
690.6022197237253
 21
473.2322344451809
 31
0.0
  0
LINE
  5
B5
330
1F
100
AcDbEntity
  8
9
  6
CONTINUOUS
 62
     7
100
AcDbLine
 10
645.6022197237253
 20
474.2322344451811
 30
0.0
 11
689.6022197237253
 21
474.2322344451811
 31
0.0
  0
LINE
  5
B6
330
1F
100
AcDbEntity
  8
3
  6
HIDDEN
 62
     3
100
AcDbLine
 10
646.6022197237253
 20
471.2322344451811
 30
0.0
 11
651.6022197237253
 21
471.2322344451811
 31
0.0
  0
LINE
  5
B7
330
1F
100
AcDbEntity
  8
9
  6
CONTINUOUS
 62
     7
100
AcDbLine
 10
689.6022197237253
 20
489.2322344451809
 30
0.0
 11
690.6022197237253
 21
489.2322344451809
 31
0.0
  0
LINE
  5
B8
330
1F
100
AcDbEntity
  8
9
  6
CONTINUOUS
 62
     7
100
AcDbLine
 10
689.6022197237253
 20
145.2322344451811
 30
0.0
 11
690.6022197237253
 21
145.2322344451811
 31
0.0
  0
LINE
  5
B9
330
1F
100
AcDbEntity
  8
9
  6
CONTINUOUS
 62
     7
100
AcDbLine
 10
645.6022197237253
 20
144.2322344451811
 30
0.0
 11
689.6022197237253
 21
144.2322344451811
 31
0.0
  0
LINE
  5
BA
330
1F
100
AcDbEntity
  8
3
  6
HIDDEN
 62
     3
100
AcDbLine
 10
646.6022197237253
 20
147.2322344451811
 30
0.0
 11
651.6022197237253
 21
147.2322344451811
 31
0.0
  0
LINE
  5
BB
330
1F
100
AcDbEntity
  8
9
  6
CONTINUOUS
 62
     7
100
AcDbLine
 10
689.6022197237253
 20
129.2322344451811
 30
0.0
 11
690.6022197237253
 21
129.2322344451811
 31
0.0
  0
LINE
  5
BC
330
1F
100
AcDbEntity
  8
9
  6
CONTINUOUS
 62
     7
100
AcDbLine
 10
508.2789237985962
 20
134.2322344451811
 30
0.0
 11
508.2789237985962
 21
144.2322344451811
 31
0.0
  0
ARC
  5
BD
330
1F
100
AcDbEntity
  8
9
  6
CONTINUOUS
 62
     7
100
AcDbCircle
 10
503.2789237985962
 20
134.2322344451811
 30
0.0
 40
5.0
100
AcDbArc
 50
269.9999999999998
 51
0.0
  0
LINE
  5
BE
330
1F
100
AcDbEntity
  8
9
  6
CONTINUOUS
 62
     7
100
AcDbLine
 10
213.2789237985958
 20
129.2322344451811
 30
0.0
 11
503.2789237985962
 21
129.232234445182
 31
0.0
  0
LINE
  5
BF
330
1F
100
AcDbEntity
  8
9
  6
CONTINUOUS
 62
     7
100
AcDbLine
 10
208.2789237985958
 20
134.2322344451811
 30
0.0
 11
208.2789237985958
 21
144.2322344451811
 31
0.0
  0
ARC
  5
C0
330
1F
100
AcDbEntity
  8
9
  6
CONTINUOUS
 62
     7
100
AcDbCircle
 10
213.2789237985949
 20
134.2322344451811
 30
0.0
 40
5.0
100
AcDbArc
 50
179.9999999999998
 51
269.9999999999998
  0
LINE
  5
C1
330
1F
100
AcDbEntity
  8
9
  6
CONTINUOUS
 62
     7
100
AcDbLine
 10
503.2789237985962
 20
489.2322344451809
 30
0.0
 11
425.7789237985962
 21
489.2322344451809
 31
0.0
  0
ARC
  5
C2
330
1F
100
AcDbEntity
  8
9
  6
CONTINUOUS
 62
     7
100
AcDbCircle
 10
425.7789237985962
 20
484.2322344451811
 30
0.0
 40
5.0
100
AcDbArc
 50
89.99999999999991
 51
179.9999999999998
  0
LINE
  5
C3
330
1F
100
AcDbEntity
  8
9
  6
CONTINUOUS
 62
     7
100
AcDbLine
 10
508.2789237985962
 20
484.2322344451811
 30
0.0
 11
508.2789237985962
 21
474.2322344451811
 31
0.0
  0
LINE
  5
C4
330
1F
100
AcDbEntity
  8
9
  6
CONTINUOUS
 62
     7
100
AcDbLine
 10
420.7789237985962
 20
484.2322344451811
 30
0.0
 11
420.7789237985962
 21
474.2322344451811
 31
0.0
  0
ARC
  5
C5
330
1F
100
AcDbEntity
  8
9
  6
CONTINUOUS
 62
     7
100
AcDbCircle
 10
503.2789237985962
 20
484.2322344451811
 30
0.0
 40
5.0
100
AcDbArc
 50
0.0
 51
89.99999999999991
  0
LINE
  5
C6
330
1F
100
AcDbEntity
  8
9
  6
CONTINUOUS
 62
     7
100
AcDbLine
 10
213.2789237985958
 20
489.2322344451809
 30
0.0
 11
290.7789237985958
 21
489.2322344451809
 31
0.0
  0
ARC
  5
C7
330
1F
100
AcDbEntity
  8
9
  6
CONTINUOUS
 62
     7
100
AcDbCircle
 10
290.7789237985958
 20
484.2322344451811
 30
0.0
 40
5.0
100
AcDbArc
 50
0.0
 51
89.99999999999991
  0
LINE
  5
C8
330
1F
100
AcDbEntity
  8
9
  6
CONTINUOUS
 62
     7
100
AcDbLine
 10
208.2789237985958
 20
484.2322344451811
 30
0.0
 11
208.2789237985958
 21
474.2322344451811
 31
0.0
  0
LINE
  5
C9
330
1F
100
AcDbEntity
  8
9
  6
CONTINUOUS
 62
     7
100
AcDbLine
 10
295.7789237985958
 20
484.2322344451811
 30
0.0
 11
295.7789237985958
 21
474.2322344451811
 31
0.0
  0
ARC
  5
CA
330
1F
100
AcDbEntity
  8
9
  6
CONTINUOUS
 62
     7
100
AcDbCircle
 10
213.2789237985949
 20
484.2322344451811
 30
0.0
 40
5.0
100
AcDbArc
 50
89.99999999999991
 51
179.9999999999998
  0
LINE
  5
CB
330
1F
100
AcDbEntity
  8
9
  6
CONTINUOUS
 62
     7
100
AcDbLine
 10
689.1022197237235
 20
509.2322344451811
 30
0.0
 11
657.1022197237235
 21
509.2322344451811
 31
0.0
  0
LINE
  5
CC
330
1F
100
AcDbEntity
  8
9
  6
CONTINUOUS
 62
     7
100
AcDbLine
 10
657.1022197237235
 20
474.2322344451811
 30
0.0
 11
657.1022197237235
 21
509.2322344451811
 31
0.0
  0
LINE
  5
CD
330
1F
100
AcDbEntity
  8
9
  6
CONTINUOUS
 62
     7
100
AcDbLine
 10
658.6022197237235
 20
509.2322344451811
 30
0.0
 11
658.6022197237235
 21
474.2322344451811
 31
0.0
  0
LINE
  5
CE
330
1F
100
AcDbEntity
  8
9
  6
CONTINUOUS
 62
     7
100
AcDbLine
 10
689.1022197237235
 20
509.2322344451811
 30
0.0
 11
689.1022197237235
 21
474.2322344451811
 31
0.0
  0
LINE
  5
CF
330
1F
100
AcDbEntity
  8
9
  6
CONTINUOUS
 62
     7
100
AcDbLine
 10
687.6022197237235
 20
509.2322344451811
 30
0.0
 11
687.6022197237235
 21
474.2322344451811
 31
0.0
  0
LINE
  5
D0
330
1F
100
AcDbEntity
  8
9
  6
CONTINUOUS
 62
     7
100
AcDbLine
 10
381.2789237985944
 20
509.2322344451811
 30
0.0
 11
335.278923798594
 21
509.2322344451811
 31
0.0
  0
LINE
  5
D1
330
1F
100
AcDbEntity
  8
9
  6
CONTINUOUS
 62
     7
100
AcDbLine
 10
336.778923798594
 20
509.2322344451811
 30
0.0
 11
336.778923798594
 21
474.2322344451802
 31
0.0
  0
LINE
  5
D2
330
1F
100
AcDbEntity
  8
9
  6
CONTINUOUS
 62
     7
100
AcDbLine
 10
335.278923798594
 20
509.2322344451811
 30
0.0
 11
335.278923798594
 21
474.2322344451811
 31
0.0
  0
LINE
  5
D3
330
1F
100
AcDbEntity
  8
9
  6
CONTINUOUS
 62
     7
100
AcDbLine
 10
379.7789237985944
 20
509.2322344451811
 30
0.0
 11
379.7789237985944
 21
474.2322344451802
 31
0.0
  0
LINE
  5
D4
330
1F
100
AcDbEntity
  8
9
  6
CONTINUOUS
 62
     7
100
AcDbLine
 10
381.2789237985944
 20
509.2322344451811
 30
0.0
 11
381.2789237985944
 21
474.2322344451811
 31
0.0
  0
LINE
  5
D5
330
1F
100
AcDbEntity
  8
9
  6
CONTINUOUS
 62
     7
100
AcDbLine
 10
385.5449304380654
 20
502.0822344451796
 30
0.0
 11
392.7789237985962
 21
502.0822344451796
 31
0.0
  0
LINE
  5
D6
330
1F
100
AcDbEntity
  8
9
  6
CONTINUOUS
 62
     7
100
AcDbLine
 10
388.0789237985955
 20
501.5437729067187
 30
0.0
 11
387.1462810560588
 21
502.0822344451796
 31
0.0
  0
LINE
  5
D7
330
1F
100
AcDbEntity
  8
9
  6
CONTINUOUS
 62
     7
100
AcDbLine
 10
393.5789237985955
 20
501.2822344451803
 30
0.0
 11
392.7789237985962
 21
502.0822344451796
 31
0.0
  0
LINE
  5
D8
330
1F
100
AcDbEntity
  8
9
  6
CONTINUOUS
 62
     7
100
AcDbLine
 10
388.0789237985955
 20
501.5437729067187
 30
0.0
 11
393.3173853370572
 21
501.5437729067187
 31
0.0
  0
LINE
  5
D9
330
1F
100
AcDbEntity
  8
9
  6
CONTINUOUS
 62
     7
100
AcDbLine
 10
383.5789237985955
 20
505.7322344451809
 30
0.0
 11
381.2789237985962
 21
505.7322344451809
 31
0.0
  0
LINE
  5
DA
330
1F
100
AcDbEntity
  8
9
  6
CONTINUOUS
 62
     7
100
AcDbLine
 10
383.5789237985955
 20
476.7322344451809
 30
0.0
 11
381.2789237985962
 21
476.7322344451809
 31
0.0
  0
LINE
  5
DB
330
1F
100
AcDbEntity
  8
9
  6
CONTINUOUS
 62
     7
100
AcDbLine
 10
388.0789237985955
 20
480.9206959836417
 30
0.0
 11
387.1462810560588
 21
480.3822344451806
 31
0.0
  0
LINE
  5
DC
330
1F
100
AcDbEntity
  8
9
  6
CONTINUOUS
 62
     7
100
AcDbLine
 10
383.5789237985955
 20
505.7322344451809
 30
0.0
 11
383.5789237985955
 21
476.7322344451809
 31
0.0
  0
LINE
  5
DD
330
1F
100
AcDbEntity
  8
9
  6
CONTINUOUS
 62
     7
100
AcDbLine
 10
388.0789237985955
 20
480.3822344451806
 30
0.0
 11
388.0789237985955
 21
502.0822344451796
 31
0.0
  0
LINE
  5
DE
330
1F
100
AcDbEntity
  8
9
  6
CONTINUOUS
 62
     7
100
AcDbLine
 10
393.5789237985955
 20
481.18223444518
 30
0.0
 11
392.7789237985962
 21
480.3822344451806
 31
0.0
  0
LINE
  5
DF
330
1F
100
AcDbEntity
  8
9
  6
CONTINUOUS
 62
     7
100
AcDbLine
 10
392.7789237985962
 20
480.3822344451806
 30
0.0
 11
392.7789237985962
 21
502.0822344451796
 31
0.0
  0
LINE
  5
E0
330
1F
100
AcDbEntity
  8
9
  6
CONTINUOUS
 62
     7
100
AcDbLine
 10
385.552208967385
 20
480.3822344451806
 30
0.0
 11
392.7789237985962
 21
480.3822344451806
 31
0.0
  0
LINE
  5
E1
330
1F
100
AcDbEntity
  8
9
  6
CONTINUOUS
 62
     7
100
AcDbLine
 10
388.0789237985955
 20
480.9206959836417
 30
0.0
 11
393.3173853370572
 21
480.9206959836417
 31
0.0
  0
LINE
  5
E2
330
1F
100
AcDbEntity
  8
9
  6
CONTINUOUS
 62
     7
100
AcDbLine
 10
393.5789237985955
 20
481.18223444518
 30
0.0
 11
393.5789237985955
 21
501.2822344451803
 31
0.0
  0
ARC
  5
E3
330
1F
100
AcDbEntity
  8
9
  6
CONTINUOUS
 62
     7
100
AcDbCircle
 10
661.6022197237235
 20
502.7322344451811
 30
0.0
 40
3.0
100
AcDbArc
 50
89.99999999999991
 51
180.0000017075469
  0
LINE
  5
E4
330
1F
100
AcDbEntity
  8
9
  6
CONTINUOUS
 62
     7
100
AcDbLine
 10
672.8744733665426
 20
499.5291092542145
 30
0.0
 11
672.962143150382
 21
500.5311794688702
 31
0.0
  0
ARC
  5
E5
330
1F
100
AcDbEntity
  8
9
  6
CONTINUOUS
 62
     7
100
AcDbCircle
 10
673.1022197237235
 20
491.2322344451811
 30
0.0
 40
9.299999999999955
100
AcDbArc
 50
170.0933760556555
 51
189.9066270147609
  0
LINE
  5
E6
330
1F
100
AcDbEntity
  8
9
  6
CONTINUOUS
 62
     7
100
AcDbLine
 10
664.9578965474248
 20
492.8322344451796
 30
0.0
 11
663.9408879428083
 21
492.8322344451796
 31
0.0
  0
LINE
  5
E7
330
1F
100
AcDbEntity
  8
9
  6
CONTINUOUS
 62
     7
100
AcDbLine
 10
664.9578965474248
 20
489.6322344451806
 30
0.0
 11
663.9408879428083
 21
489.6322344451806
 31
0.0
  0
ARC
  5
E8
330
1F
100
AcDbEntity
  8
9
  6
CONTINUOUS
 62
     7
100
AcDbCircle
 10
661.6022197237235
 20
479.7322344451811
 30
0.0
 40
3.0
100
AcDbArc
 50
180.0000017075469
 51
270.0000030704373
  0
LINE
  5
E9
330
1F
100
AcDbEntity
  8
9
  6
CONTINUOUS
 62
     7
100
AcDbLine
 10
658.6022197237235
 20
502.7322344451811
 30
0.0
 11
658.6022197237235
 21
479.7322344451811
 31
0.0
  0
LINE
  5
EA
330
1F
100
AcDbEntity
  8
9
  6
CONTINUOUS
 62
     7
100
AcDbLine
 10
674.7672432929157
 20
499.3635133429949
 30
0.0
 11
674.8549130767551
 21
500.3655835576489
 31
0.0
  0
ARC
  5
EB
330
1F
100
AcDbEntity
  8
9
  6
CONTINUOUS
 62
     7
100
AcDbCircle
 10
684.6022197237235
 20
502.7322344451811
 30
0.0
 40
3.0
100
AcDbArc
 50
359.9999982924523
 51
89.99999999999991
  0
ARC
  5
EC
330
1F
100
AcDbEntity
  8
9
  6
CONTINUOUS
 62
     7
100
AcDbCircle
 10
673.1022197237235
 20
491.2322344451811
 30
0.0
 40
9.299999999999955
100
AcDbArc
 50
29.13697746152202
 51
40.86302066209809
  0
LINE
  5
ED
330
1F
100
AcDbEntity
  8
9
  6
CONTINUOUS
 62
     7
100
AcDbLine
 10
679.3116020298912
 20
496.7398266029074
 30
0.0
 11
680.1355854002377
 21
497.316785970185
 31
0.0
  0
LINE
  5
EE
330
1F
100
AcDbEntity
  8
9
  6
CONTINUOUS
 62
     7
100
AcDbLine
 10
680.4013972589582
 20
495.1834377187595
 30
0.0
 11
681.2253806293047
 21
495.7603970860351
 31
0.0
  0
ARC
  5
EF
330
1F
100
AcDbEntity
  8
9
  6
CONTINUOUS
 62
     7
100
AcDbCircle
 10
673.1022197237235
 20
491.2322344451811
 30
0.0
 40
9.299999999999955
100
AcDbArc
 50
279.1369755850747
 51
290.8630187856839
  0
LINE
  5
F0
330
1F
100
AcDbEntity
  8
9
  6
CONTINUOUS
 62
     7
100
AcDbLine
 10
674.3186705363696
 20
483.0218600675768
 30
0.0
 11
674.5790160858687
 21
482.0502372493217
 31
0.0
  0
LINE
  5
F1
330
1F
100
AcDbEntity
  8
9
  6
CONTINUOUS
 62
     7
100
AcDbLine
 10
676.1539296063202
 20
483.5136162532714
 30
0.0
 11
676.4142751558193
 21
482.5419934350163
 31
0.0
  0
ARC
  5
F2
330
1F
100
AcDbEntity
  8
9
  6
CONTINUOUS
 62
     7
100
AcDbCircle
 10
673.1022197237235
 20
491.2322344451811
 30
0.0
 40
9.299999999999955
100
AcDbArc
 50
314.13697618219
 51
325.863019382687
  0
LINE
  5
F3
330
1F
100
AcDbEntity
  8
9
  6
CONTINUOUS
 62
     7
100
AcDbLine
 10
678.807955170294
 20
485.2044170115029
 30
0.0
 11
679.5785177129601
 21
484.5578382661522
 31
0.0
  0
ARC
  5
F4
330
1F
100
AcDbEntity
  8
9
  6
CONTINUOUS
 62
     7
100
AcDbCircle
 10
684.6022197237235
 20
479.7322344451811
 30
0.0
 40
3.0
100
AcDbArc
 50
270.0000030704373
 51
359.9999982924523
  0
LINE
  5
F5
330
1F
100
AcDbEntity
  8
9
  6
CONTINUOUS
 62
     7
100
AcDbLine
 10
680.0292516286991
 20
486.6599014534283
 30
0.0
 11
680.7998141713633
 21
486.0133227080794
 31
0.0
  0
LINE
  5
F6
330
1F
100
AcDbEntity
  8
9
  6
CONTINUOUS
 62
     7
100
AcDbLine
 10
687.6022197237235
 20
479.7322344451811
 30
0.0
 11
687.6022197237235
 21
502.7322344451811
 31
0.0
  0
LINE
  5
F7
330
1F
100
AcDbEntity
  8
9
  6
CONTINUOUS
 62
     7
100
AcDbLine
 10
684.6022197237235
 20
505.7322344451809
 30
0.0
 11
661.6022197237235
 21
505.7322344451809
 31
0.0
  0
LINE
  5
F8
330
1F
100
AcDbEntity
  8
9
  6
CONTINUOUS
 62
     7
100
AcDbLine
 10
661.6022197237235
 20
476.7322344451809
 30
0.0
 11
684.6022197237235
 21
476.7322344451809
 31
0.0
  0
CIRCLE
  5
F9
330
1F
100
AcDbEntity
  8
9
  6
CONTINUOUS
 62
     7
100
AcDbCircle
 10
673.1022197237235
 20
491.2322344451811
 30
0.0
 40
10.85000000000002
  0
CIRCLE
  5
FA
330
1F
100
AcDbEntity
  8
9
  6
CONTINUOUS
 62
     7
100
AcDbCircle
 10
673.1022197237235
 20
491.2322344451811
 30
0.0
 40
8.299999999999955
  0
ARC
  5
FB
330
1F
100
AcDbEntity
  8
9
  6
CONTINUOUS
 62
     7
100
AcDbCircle
 10
673.1022197237235
 20
491.2322344451811
 30
0.0
 40
9.299999999999955
100
AcDbArc
 50
79.13697831440595
 51
90.86302151497314
  0
CIRCLE
  5
FC
330
1F
100
AcDbEntity
  8
9
  6
CONTINUOUS
 62
     7
100
AcDbCircle
 10
673.1022197237235
 20
491.2322344451811
 30
0.0
 40
7.149999999999977
  0
CIRCLE
  5
FD
330
1F
100
AcDbEntity
  8
9
  6
CONTINUOUS
 62
     7
100
AcDbCircle
 10
673.1022197237235
 20
491.2322344451811
 30
0.0
 40
10.04999999999995
  0
ARC
  5
FE
330
1F
100
AcDbEntity
  8
9
  6
CONTINUOUS
 62
     7
100
AcDbCircle
 10
673.1022197237235
 20
491.2322344451811
 30
0.0
 40
10.31153846153859
100
AcDbArc
 50
269.9999999999998
 51
179.9999999999998
  0
ARC
  5
FF
330
1F
100
AcDbEntity
  8
9
  6
CONTINUOUS
 62
     7
100
AcDbCircle
 10
679.8022197237242
 20
358.432234445181
 30
0.0
 40
0.5
100
AcDbArc
 50
0.0
 51
89.99999999999991
  0
ARC
  5
100
330
1F
100
AcDbEntity
  8
9
  6
CONTINUOUS
 62
     7
100
AcDbCircle
 10
681.4022197237246
 20
358.432234445181
 30
0.0
 40
0.5
100
AcDbArc
 50
89.99999999999991
 51
179.9999999999998
  0
CIRCLE
  5
101
330
1F
100
AcDbEntity
  8
9
  6
CONTINUOUS
 62
     7
100
AcDbCircle
 10
680.6022197237253
 20
359.2322344451811
 30
0.0
 40
3.450000000000045
  0
LINE
  5
102
330
1F
100
AcDbEntity
  8
9
  6
CONTINUOUS
 62
     7
100
AcDbLine
 10
680.3022197237242
 20
358.432234445181
 30
0.0
 11
680.3022197237242
 21
357.7822344451804
 31
0.0
  0
LINE
  5
103
330
1F
100
AcDbEntity
  8
9
  6
CONTINUOUS
 62
     7
100
AcDbLine
 10
680.9022197237246
 20
358.432234445181
 30
0.0
 11
680.9022197237246
 21
357.7822344451804
 31
0.0
  0
LINE
  5
104
330
1F
100
AcDbEntity
  8
9
  6
CONTINUOUS
 62
     7
100
AcDbLine
 10
680.3022197237242
 20
357.7822344451804
 30
0.0
 11
680.9022197237246
 21
357.7822344451804
 31
0.0
  0
LINE
  5
105
330
1F
100
AcDbEntity
  8
9
  6
CONTINUOUS
 62
     7
100
AcDbLine
 10
679.8022197237242
 20
359.5322344451804
 30
0.0
 11
679.1522197237246
 21
359.5322344451804
 31
0.0
  0
LINE
  5
106
330
1F
100
AcDbEntity
  8
9
  6
CONTINUOUS
 62
     7
100
AcDbLine
 10
679.8022197237242
 20
358.932234445181
 30
0.0
 11
679.1522197237246
 21
358.932234445181
 31
0.0
  0
ARC
  5
107
330
1F
100
AcDbEntity
  8
9
  6
CONTINUOUS
 62
     7
100
AcDbCircle
 10
681.4022197237246
 20
360.0322344451804
 30
0.0
 40
0.5
100
AcDbArc
 50
179.9999999999998
 51
269.9999999999998
  0
ARC
  5
108
330
1F
100
AcDbEntity
  8
9
  6
CONTINUOUS
 62
     7
100
AcDbCircle
 10
679.8022197237242
 20
360.0322344451804
 30
0.0
 40
0.5
100
AcDbArc
 50
269.9999999999998
 51
0.0
  0
LINE
  5
109
330
1F
100
AcDbEntity
  8
9
  6
CONTINUOUS
 62
     7
100
AcDbLine
 10
680.9022197237246
 20
360.0322344451804
 30
0.0
 11
680.9022197237246
 21
360.682234445181
 31
0.0
  0
LINE
  5
10A
330
1F
100
AcDbEntity
  8
9
  6
CONTINUOUS
 62
     7
100
AcDbLine
 10
680.3022197237242
 20
360.0322344451804
 30
0.0
 11
680.3022197237242
 21
360.682234445181
 31
0.0
  0
LINE
  5
10B
330
1F
100
AcDbEntity
  8
9
  6
CONTINUOUS
 62
     7
100
AcDbLine
 10
681.4022197237246
 20
359.5322344451804
 30
0.0
 11
682.0522197237242
 21
359.5322344451804
 31
0.0
  0
LINE
  5
10C
330
1F
100
AcDbEntity
  8
9
  6
CONTINUOUS
 62
     7
100
AcDbLine
 10
681.4022197237246
 20
358.932234445181
 30
0.0
 11
682.0522197237242
 21
358.932234445181
 31
0.0
  0
LINE
  5
10D
330
1F
100
AcDbEntity
  8
9
  6
CONTINUOUS
 62
     7
100
AcDbLine
 10
682.0522197237242
 20
358.932234445181
 30
0.0
 11
682.0522197237242
 21
359.5322344451804
 31
0.0
  0
LINE
  5
10E
330
1F
100
AcDbEntity
  8
9
  6
CONTINUOUS
 62
     7
100
AcDbLine
 10
680.9022197237246
 20
360.682234445181
 30
0.0
 11
680.3022197237242
 21
360.682234445181
 31
0.0
  0
LINE
  5
10F
330
1F
100
AcDbEntity
  8
9
  6
CONTINUOUS
 62
     7
100
AcDbLine
 10
679.1522197237246
 20
359.5322344451804
 30
0.0
 11
679.1522197237246
 21
358.932234445181
 31
0.0
  0
ARC
  5
110
330
1F
100
AcDbEntity
  8
9
  6
CONTINUOUS
 62
     7
100
AcDbCircle
 10
679.8022197237242
 20
258.4322344451809
 30
0.0
 40
0.5
100
AcDbArc
 50
0.0
 51
89.99999999999991
  0
ARC
  5
111
330
1F
100
AcDbEntity
  8
9
  6
CONTINUOUS
 62
     7
100
AcDbCircle
 10
681.4022197237246
 20
258.4322344451809
 30
0.0
 40
0.5
100
AcDbArc
 50
89.99999999999991
 51
179.9999999999998
  0
CIRCLE
  5
112
330
1F
100
AcDbEntity
  8
9
  6
CONTINUOUS
 62
     7
100
AcDbCircle
 10
680.6022197237253
 20
259.2322344451811
 30
0.0
 40
3.450000000000045
  0
LINE
  5
113
330
1F
100
AcDbEntity
  8
9
  6
CONTINUOUS
 62
     7
100
AcDbLine
 10
680.3022197237242
 20
258.4322344451809
 30
0.0
 11
680.3022197237242
 21
257.7822344451804
 31
0.0
  0
LINE
  5
114
330
1F
100
AcDbEntity
  8
9
  6
CONTINUOUS
 62
     7
100
AcDbLine
 10
680.9022197237246
 20
258.4322344451809
 30
0.0
 11
680.9022197237246
 21
257.7822344451804
 31
0.0
  0
LINE
  5
115
330
1F
100
AcDbEntity
  8
9
  6
CONTINUOUS
 62
     7
100
AcDbLine
 10
680.3022197237242
 20
257.7822344451804
 30
0.0
 11
680.9022197237246
 21
257.7822344451804
 31
0.0
  0
LINE
  5
116
330
1F
100
AcDbEntity
  8
9
  6
CONTINUOUS
 62
     7
100
AcDbLine
 10
679.8022197237242
 20
259.5322344451804
 30
0.0
 11
679.1522197237246
 21
259.5322344451804
 31
0.0
  0
LINE
  5
117
330
1F
100
AcDbEntity
  8
9
  6
CONTINUOUS
 62
     7
100
AcDbLine
 10
679.8022197237242
 20
258.9322344451809
 30
0.0
 11
679.1522197237246
 21
258.9322344451809
 31
0.0
  0
ARC
  5
118
330
1F
100
AcDbEntity
  8
9
  6
CONTINUOUS
 62
     7
100
AcDbCircle
 10
681.4022197237246
 20
260.0322344451804
 30
0.0
 40
0.5
100
AcDbArc
 50
179.9999999999998
 51
269.9999999999998
  0
ARC
  5
119
330
1F
100
AcDbEntity
  8
9
  6
CONTINUOUS
 62
     7
100
AcDbCircle
 10
679.8022197237242
 20
260.0322344451804
 30
0.0
 40
0.5
100
AcDbArc
 50
269.9999999999998
 51
0.0
  0
LINE
  5
11A
330
1F
100
AcDbEntity
  8
9
  6
CONTINUOUS
 62
     7
100
AcDbLine
 10
680.9022197237246
 20
260.0322344451804
 30
0.0
 11
680.9022197237246
 21
260.6822344451809
 31
0.0
  0
LINE
  5
11B
330
1F
100
AcDbEntity
  8
9
  6
CONTINUOUS
 62
     7
100
AcDbLine
 10
680.3022197237242
 20
260.0322344451804
 30
0.0
 11
680.3022197237242
 21
260.6822344451809
 31
0.0
  0
LINE
  5
11C
330
1F
100
AcDbEntity
  8
9
  6
CONTINUOUS
 62
     7
100
AcDbLine
 10
681.4022197237246
 20
259.5322344451804
 30
0.0
 11
682.0522197237242
 21
259.5322344451804
 31
0.0
  0
LINE
  5
11D
330
1F
100
AcDbEntity
  8
9
  6
CONTINUOUS
 62
     7
100
AcDbLine
 10
681.4022197237246
 20
258.9322344451809
 30
0.0
 11
682.0522197237242
 21
258.9322344451809
 31
0.0
  0
LINE
  5
11E
330
1F
100
AcDbEntity
  8
9
  6
CONTINUOUS
 62
     7
100
AcDbLine
 10
682.0522197237242
 20
258.9322344451809
 30
0.0
 11
682.0522197237242
 21
259.5322344451804
 31
0.0
  0
LINE
  5
11F
330
1F
100
AcDbEntity
  8
9
  6
CONTINUOUS
 62
     7
100
AcDbLine
 10
680.9022197237246
 20
260.6822344451809
 30
0.0
 11
680.3022197237242
 21
260.6822344451809
 31
0.0
  0
LINE
  5
120
330
1F
100
AcDbEntity
  8
9
  6
CONTINUOUS
 62
     7
100
AcDbLine
 10
679.1522197237246
 20
259.5322344451804
 30
0.0
 11
679.1522197237246
 21
258.9322344451809
 31
0.0
  0
CIRCLE
  5
121
330
1F
100
AcDbEntity
  8
9
  6
CONTINUOUS
 62
     7
100
AcDbCircle
 10
661.6022197237235
 20
502.7322344451811
 30
0.0
 40
2.75
  0
LINE
  5
122
330
1F
100
AcDbEntity
  8
9
  6
CONTINUOUS
 62
     7
100
AcDbLine
 10
660.0112294660539
 20
504.3232247028507
 30
0.0
 11
663.193209981393
 21
501.1412441875115
 31
0.0
  0
LINE
  5
123
330
1F
100
AcDbEntity
  8
9
  6
CONTINUOUS
 62
     7
100
AcDbLine
 10
660.0112294660539
 20
501.1412441875115
 30
0.0
 11
663.193209981393
 21
504.3232247028507
 31
0.0
  0
CIRCLE
  5
124
330
1F
100
AcDbEntity
  8
9
  6
CONTINUOUS
 62
     7
100
AcDbCircle
 10
661.6022197237235
 20
479.7322344451811
 30
0.0
 40
2.75
  0
LINE
  5
125
330
1F
100
AcDbEntity
  8
9
  6
CONTINUOUS
 62
     7
100
AcDbLine
 10
660.0112294660539
 20
481.3232247028507
 30
0.0
 11
663.193209981393
 21
478.1412441875115
 31
0.0
  0
LINE
  5
126
330
1F
100
AcDbEntity
  8
9
  6
CONTINUOUS
 62
     7
100
AcDbLine
 10
660.0112294660539
 20
478.1412441875115
 30
0.0
 11
663.193209981393
 21
481.3232247028507
 31
0.0
  0
CIRCLE
  5
127
330
1F
100
AcDbEntity
  8
9
  6
CONTINUOUS
 62
     7
100
AcDbCircle
 10
684.6022197237235
 20
479.7322344451811
 30
0.0
 40
2.75
  0
LINE
  5
128
330
1F
100
AcDbEntity
  8
9
  6
CONTINUOUS
 62
     7
100
AcDbLine
 10
683.0112294660539
 20
481.3232247028507
 30
0.0
 11
686.193209981393
 21
478.1412441875115
 31
0.0
  0
LINE
  5
129
330
1F
100
AcDbEntity
  8
9
  6
CONTINUOUS
 62
     7
100
AcDbLine
 10
683.0112294660539
 20
478.1412441875115
 30
0.0
 11
686.193209981393
 21
481.3232247028507
 31
0.0
  0
CIRCLE
  5
12A
330
1F
100
AcDbEntity
  8
9
  6
CONTINUOUS
 62
     7
100
AcDbCircle
 10
684.6022197237235
 20
502.7322344451811
 30
0.0
 40
2.75
  0
LINE
  5
12B
330
1F
100
AcDbEntity
  8
9
  6
CONTINUOUS
 62
     7
100
AcDbLine
 10
683.0112294660539
 20
504.3232247028507
 30
0.0
 11
686.193209981393
 21
501.1412441875115
 31
0.0
  0
LINE
  5
12C
330
1F
100
AcDbEntity
  8
9
  6
CONTINUOUS
 62
     7
100
AcDbLine
 10
683.0112294660539
 20
501.1412441875115
 30
0.0
 11
686.193209981393
 21
504.3232247028507
 31
0.0
  0
LINE
  5
12D
330
1F
100
AcDbEntity
  8
9
  6
CONTINUOUS
 62
     7
100
AcDbLine
 10
383.5789237985955
 20
505.5212565775298
 30
0.0
 11
383.5789237985955
 21
500.0212565775297
 31
0.0
  0
ARC
  5
12E
330
1F
100
AcDbEntity
  8
9
  6
CONTINUOUS
 62
     7
100
AcDbCircle
 10
378.578923798596
 20
502.7712565775297
 30
0.0
 40
7.0
100
AcDbArc
 50
343.4486440000077
 51
16.55135599999193
  0
LINE
  5
12F
330
1F
100
AcDbEntity
  8
9
  6
CONTINUOUS
 62
     7
100
AcDbLine
 10
383.5789237985955
 20
505.5212565775298
 30
0.0
 11
384.3826487985953
 21
505.4791345775299
 31
0.0
  0
ARC
  5
130
330
1F
100
AcDbEntity
  8
9
  6
CONTINUOUS
 62
     7
100
AcDbCircle
 10
384.3303127985964
 20
504.4805045775299
 30
0.0
 40
1.0
100
AcDbArc
 50
16.55135599998752
 51
86.99999999999442
  0
LINE
  5
131
330
1F
100
AcDbEntity
  8
9
  6
CONTINUOUS
 62
     7
100
AcDbLine
 10
383.5789237985955
 20
500.0212565775297
 30
0.0
 11
384.3826487985953
 21
500.0633785775305
 31
0.0
  0
ARC
  5
132
330
1F
100
AcDbEntity
  8
9
  6
CONTINUOUS
 62
     7
100
AcDbCircle
 10
384.3303127985964
 20
501.0620085775306
 30
0.0
 40
1.0
100
AcDbArc
 50
273.0000000000052
 51
343.4486440000121
  0
LINE
  5
133
330
1F
100
AcDbEntity
  8
9
  6
CONTINUOUS
 62
     7
100
AcDbLine
 10
383.5789237985955
 20
482.5212565775298
 30
0.0
 11
383.5789237985955
 21
477.0212565775298
 31
0.0
  0
ARC
  5
134
330
1F
100
AcDbEntity
  8
9
  6
CONTINUOUS
 62
     7
100
AcDbCircle
 10
378.578923798596
 20
479.7712565775298
 30
0.0
 40
7.0
100
AcDbArc
 50
343.4486440000077
 51
16.55135599999193
  0
LINE
  5
135
330
1F
100
AcDbEntity
  8
9
  6
CONTINUOUS
 62
     7
100
AcDbLine
 10
383.5789237985955
 20
482.5212565775298
 30
0.0
 11
384.3826487985953
 21
482.47913457753
 31
0.0
  0
ARC
  5
136
330
1F
100
AcDbEntity
  8
9
  6
CONTINUOUS
 62
     7
100
AcDbCircle
 10
384.3303127985964
 20
481.4805045775299
 30
0.0
 40
1.0
100
AcDbArc
 50
16.55135599998752
 51
86.99999999999442
  0
LINE
  5
137
330
1F
100
AcDbEntity
  8
9
  6
CONTINUOUS
 62
     7
100
AcDbLine
 10
383.5789237985955
 20
477.0212565775298
 30
0.0
 11
384.3826487985953
 21
477.0633785775305
 31
0.0
  0
ARC
  5
138
330
1F
100
AcDbEntity
  8
9
  6
CONTINUOUS
 62
     7
100
AcDbCircle
 10
384.3303127985964
 20
478.0620085775305
 30
0.0
 40
1.0
100
AcDbArc
 50
273.0000000000052
 51
343.4486440000121
  0
LINE
  5
139
330
1F
100
AcDbEntity
  8
9
  6
CONTINUOUS
 62
     7
100
AcDbLine
 10
361.7289237985956
 20
143.9155677785136
 30
0.0
 11
354.828923798595
 21
143.9155677785136
 31
0.0
  0
ARC
  5
13A
330
1F
100
AcDbEntity
  8
9
  6
CONTINUOUS
 62
     7
100
AcDbCircle
 10
358.2789237985958
 20
146.8825853223732
 30
0.0
 40
4.550350877192955
100
AcDbArc
 50
220.6956985254072
 51
319.3043014745854
  0
LINE
  5
13B
330
1F
100
AcDbEntity
  8
9
  6
CONTINUOUS
 62
     7
100
AcDbLine
 10
361.7289237985956
 20
144.2322344451802
 30
0.0
 11
361.7289237985956
 21
143.9155677785136
 31
0.0
  0
LINE
  5
13C
330
1F
100
AcDbEntity
  8
9
  6
CONTINUOUS
 62
     7
100
AcDbLine
 10
354.828923798595
 20
144.2322344451802
 30
0.0
 11
354.828923798595
 21
143.9155677785136
 31
0.0
  0
LINE
  5
13D
330
1F
100
AcDbEntity
  8
9
  6
CONTINUOUS
 62
     7
100
AcDbLine
 10
206.7289237985965
 20
143.9155677785136
 30
0.0
 11
199.8289237985969
 21
143.9155677785136
 31
0.0
  0
ARC
  5
13E
330
1F
100
AcDbEntity
  8
9
  6
CONTINUOUS
 62
     7
100
AcDbCircle
 10
203.2789237985976
 20
146.8825853223732
 30
0.0
 40
4.550350877192983
100
AcDbArc
 50
220.6956985254075
 51
319.3043014745853
  0
LINE
  5
13F
330
1F
100
AcDbEntity
  8
9
  6
CONTINUOUS
 62
     7
100
AcDbLine
 10
206.7289237985965
 20
144.2322344451802
 30
0.0
 11
206.7289237985965
 21
143.9155677785136
 31
0.0
  0
LINE
  5
140
330
1F
100
AcDbEntity
  8
9
  6
CONTINUOUS
 62
     7
100
AcDbLine
 10
199.8289237985969
 20
144.2322344451802
 30
0.0
 11
199.8289237985969
 21
143.9155677785136
 31
0.0
  0
LINE
  5
141
330
1F
100
AcDbEntity
  8
9
  6
CONTINUOUS
 62
     7
100
AcDbLine
 10
228.2289237985965
 20
143.9155677785136
 30
0.0
 11
221.3289237985969
 21
143.9155677785136
 31
0.0
  0
ARC
  5
142
330
1F
100
AcDbEntity
  8
9
  6
CONTINUOUS
 62
     7
100
AcDbCircle
 10
224.7789237985976
 20
146.8825853223732
 30
0.0
 40
4.550350877192983
100
AcDbArc
 50
220.6956985254075
 51
319.3043014745853
  0
LINE
  5
143
330
1F
100
AcDbEntity
  8
9
  6
CONTINUOUS
 62
     7
100
AcDbLine
 10
228.2289237985965
 20
144.2322344451802
 30
0.0
 11
228.2289237985965
 21
143.9155677785136
 31
0.0
  0
LINE
  5
144
330
1F
100
AcDbEntity
  8
9
  6
CONTINUOUS
 62
     7
100
AcDbLine
 10
221.3289237985969
 20
144.2322344451802
 30
0.0
 11
221.3289237985969
 21
143.9155677785136
 31
0.0
  0
LINE
  5
145
330
1F
100
AcDbEntity
  8
9
  6
CONTINUOUS
 62
     7
100
AcDbLine
 10
206.7289237985965
 20
474.5489011118477
 30
0.0
 11
199.8289237985969
 21
474.5489011118477
 31
0.0
  0
ARC
  5
146
330
1F
100
AcDbEntity
  8
9
  6
CONTINUOUS
 62
     7
100
AcDbCircle
 10
203.2789237985976
 20
471.5818835679881
 30
0.0
 40
4.550350877192983
100
AcDbArc
 50
40.6956985254073
 51
139.3043014745927
  0
LINE
  5
147
330
1F
100
AcDbEntity
  8
9
  6
CONTINUOUS
 62
     7
100
AcDbLine
 10
206.7289237985965
 20
474.2322344451811
 30
0.0
 11
206.7289237985965
 21
474.5489011118477
 31
0.0
  0
LINE
  5
148
330
1F
100
AcDbEntity
  8
9
  6
CONTINUOUS
 62
     7
100
AcDbLine
 10
199.8289237985969
 20
474.2322344451811
 30
0.0
 11
199.8289237985969
 21
474.5489011118477
 31
0.0
  0
LINE
  5
149
330
1F
100
AcDbEntity
  8
9
  6
CONTINUOUS
 62
     7
100
AcDbLine
 10
228.2289237985965
 20
474.5489011118477
 30
0.0
 11
221.3289237985969
 21
474.5489011118477
 31
0.0
  0
ARC
  5
14A
330
1F
100
AcDbEntity
  8
9
  6
CONTINUOUS
 62
     7
100
AcDbCircle
 10
224.7789237985976
 20
471.5818835679881
 30
0.0
 40
4.550350877192983
100
AcDbArc
 50
40.6956985254073
 51
139.3043014745927
  0
LINE
  5
14B
330
1F
100
AcDbEntity
  8
9
  6
CONTINUOUS
 62
     7
100
AcDbLine
 10
228.2289237985965
 20
474.2322344451811
 30
0.0
 11
228.2289237985965
 21
474.5489011118477
 31
0.0
  0
LINE
  5
14C
330
1F
100
AcDbEntity
  8
9
  6
CONTINUOUS
 62
     7
100
AcDbLine
 10
221.3289237985969
 20
474.2322344451811
 30
0.0
 11
221.3289237985969
 21
474.5489011118477
 31
0.0
  0
LINE
  5
14D
330
1F
100
AcDbEntity
  8
9
  6
CONTINUOUS
 62
     7
100
AcDbLine
 10
323.7289237985956
 20
474.5489011118477
 30
0.0
 11
316.828923798595
 21
474.5489011118477
 31
0.0
  0
ARC
  5
14E
330
1F
100
AcDbEntity
  8
9
  6
CONTINUOUS
 62
     7
100
AcDbCircle
 10
320.2789237985958
 20
471.5818835679881
 30
0.0
 40
4.550350877192955
100
AcDbArc
 50
40.6956985254073
 51
139.3043014745927
  0
LINE
  5
14F
330
1F
100
AcDbEntity
  8
9
  6
CONTINUOUS
 62
     7
100
AcDbLine
 10
323.7289237985956
 20
474.2322344451811
 30
0.0
 11
323.7289237985956
 21
474.5489011118477
 31
0.0
  0
LINE
  5
150
330
1F
100
AcDbEntity
  8
9
  6
CONTINUOUS
 62
     7
100
AcDbLine
 10
316.828923798595
 20
474.2322344451811
 30
0.0
 11
316.828923798595
 21
474.5489011118477
 31
0.0
  0
LINE
  5
151
330
1F
100
AcDbEntity
  8
9
  6
CONTINUOUS
 62
     7
100
AcDbLine
 10
509.8289237985955
 20
143.9155677785136
 30
0.0
 11
516.7289237985951
 21
143.9155677785136
 31
0.0
  0
ARC
  5
152
330
1F
100
AcDbEntity
  8
9
  6
CONTINUOUS
 62
     7
100
AcDbCircle
 10
513.2789237985944
 20
146.8825853223732
 30
0.0
 40
4.550350877192955
100
AcDbArc
 50
220.6956985254072
 51
319.3043014745895
  0
LINE
  5
153
330
1F
100
AcDbEntity
  8
9
  6
CONTINUOUS
 62
     7
100
AcDbLine
 10
509.8289237985955
 20
144.2322344451802
 30
0.0
 11
509.8289237985955
 21
143.9155677785136
 31
0.0
  0
LINE
  5
154
330
1F
100
AcDbEntity
  8
9
  6
CONTINUOUS
 62
     7
100
AcDbLine
 10
516.7289237985951
 20
144.2322344451802
 30
0.0
 11
516.7289237985951
 21
143.9155677785136
 31
0.0
  0
LINE
  5
155
330
1F
100
AcDbEntity
  8
9
  6
CONTINUOUS
 62
     7
100
AcDbLine
 10
488.3289237985955
 20
143.9155677785136
 30
0.0
 11
495.2289237985951
 21
143.9155677785136
 31
0.0
  0
ARC
  5
156
330
1F
100
AcDbEntity
  8
9
  6
CONTINUOUS
 62
     7
100
AcDbCircle
 10
491.7789237985944
 20
146.8825853223732
 30
0.0
 40
4.550350877192955
100
AcDbArc
 50
220.6956985254072
 51
319.3043014745891
  0
LINE
  5
157
330
1F
100
AcDbEntity
  8
9
  6
CONTINUOUS
 62
     7
100
AcDbLine
 10
488.3289237985955
 20
144.2322344451802
 30
0.0
 11
488.3289237985955
 21
143.9155677785136
 31
0.0
  0
LINE
  5
158
330
1F
100
AcDbEntity
  8
9
  6
CONTINUOUS
 62
     7
100
AcDbLine
 10
495.2289237985951
 20
144.2322344451802
 30
0.0
 11
495.2289237985951
 21
143.9155677785136
 31
0.0
  0
LINE
  5
159
330
1F
100
AcDbEntity
  8
9
  6
CONTINUOUS
 62
     7
100
AcDbLine
 10
509.8289237985955
 20
474.5489011118477
 30
0.0
 11
516.7289237985951
 21
474.5489011118477
 31
0.0
  0
ARC
  5
15A
330
1F
100
AcDbEntity
  8
9
  6
CONTINUOUS
 62
     7
100
AcDbCircle
 10
513.2789237985944
 20
471.5818835679881
 30
0.0
 40
4.550350877192955
100
AcDbArc
 50
40.6956985254073
 51
139.3043014745927
  0
LINE
  5
15B
330
1F
100
AcDbEntity
  8
9
  6
CONTINUOUS
 62
     7
100
AcDbLine
 10
509.8289237985955
 20
474.2322344451811
 30
0.0
 11
509.8289237985955
 21
474.5489011118477
 31
0.0
  0
LINE
  5
15C
330
1F
100
AcDbEntity
  8
9
  6
CONTINUOUS
 62
     7
100
AcDbLine
 10
516.7289237985951
 20
474.2322344451811
 30
0.0
 11
516.7289237985951
 21
474.5489011118477
 31
0.0
  0
LINE
  5
15D
330
1F
100
AcDbEntity
  8
9
  6
CONTINUOUS
 62
     7
100
AcDbLine
 10
488.3289237985955
 20
474.5489011118477
 30
0.0
 11
495.2289237985951
 21
474.5489011118477
 31
0.0
  0
ARC
  5
15E
330
1F
100
AcDbEntity
  8
9
  6
CONTINUOUS
 62
     7
100
AcDbCircle
 10
491.7789237985944
 20
471.5818835679881
 30
0.0
 40
4.550350877192955
100
AcDbArc
 50
40.6956985254073
 51
139.3043014745927
  0
LINE
  5
15F
330
1F
100
AcDbEntity
  8
9
  6
CONTINUOUS
 62
     7
100
AcDbLine
 10
488.3289237985955
 20
474.2322344451811
 30
0.0
 11
488.3289237985955
 21
474.5489011118477
 31
0.0
  0
LINE
  5
160
330
1F
100
AcDbEntity
  8
9
  6
CONTINUOUS
 62
     7
100
AcDbLine
 10
495.2289237985951
 20
474.2322344451811
 30
0.0
 11
495.2289237985951
 21
474.5489011118477
 31
0.0
  0
LINE
  5
161
330
1F
100
AcDbEntity
  8
9
  6
CONTINUOUS
 62
     7
100
AcDbLine
 10
392.8289237985955
 20
474.5489011118477
 30
0.0
 11
399.728923798597
 21
474.5489011118477
 31
0.0
  0
ARC
  5
162
330
1F
100
AcDbEntity
  8
9
  6
CONTINUOUS
 62
     7
100
AcDbCircle
 10
396.2789237985962
 20
471.5818835679881
 30
0.0
 40
4.550350877192955
100
AcDbArc
 50
40.6956985254073
 51
139.3043014745927
  0
LINE
  5
163
330
1F
100
AcDbEntity
  8
9
  6
CONTINUOUS
 62
     7
100
AcDbLine
 10
392.8289237985955
 20
474.2322344451811
 30
0.0
 11
392.8289237985955
 21
474.5489011118477
 31
0.0
  0
LINE
  5
164
330
1F
100
AcDbEntity
  8
9
  6
CONTINUOUS
 62
     7
100
AcDbLine
 10
399.728923798597
 20
474.2322344451811
 30
0.0
 11
399.728923798597
 21
474.5489011118477
 31
0.0
  0
LINE
  5
165
330
1F
100
AcDbEntity
  8
9
  6
CONTINUOUS
 62
     7
100
AcDbLine
 10
523.5955904652637
 20
262.68223444518
 30
0.0
 11
523.5955904652637
 21
255.7822344451804
 31
0.0
  0
ARC
  5
166
330
1F
100
AcDbEntity
  8
9
  6
CONTINUOUS
 62
     7
100
AcDbCircle
 10
520.6285729214032
 20
259.2322344451811
 30
0.0
 40
4.550350877192955
100
AcDbArc
 50
310.6956985253349
 51
49.30430147466474
  0
LINE
  5
167
330
1F
100
AcDbEntity
  8
9
  6
CONTINUOUS
 62
     7
100
AcDbLine
 10
523.2789237985962
 20
262.68223444518
 30
0.0
 11
523.5955904652637
 21
262.68223444518
 31
0.0
  0
LINE
  5
168
330
1F
100
AcDbEntity
  8
9
  6
CONTINUOUS
 62
     7
100
AcDbLine
 10
523.2789237985962
 20
255.7822344451804
 30
0.0
 11
523.5955904652637
 21
255.7822344451804
 31
0.0
  0
LINE
  5
169
330
1F
100
AcDbEntity
  8
9
  6
CONTINUOUS
 62
     7
100
AcDbLine
 10
523.5955904652637
 20
362.68223444518
 30
0.0
 11
523.5955904652637
 21
355.7822344451804
 31
0.0
  0
ARC
  5
16A
330
1F
100
AcDbEntity
  8
9
  6
CONTINUOUS
 62
     7
100
AcDbCircle
 10
520.6285729214032
 20
359.2322344451811
 30
0.0
 40
4.550350877192955
100
AcDbArc
 50
310.6956985253349
 51
49.30430147466474
  0
LINE
  5
16B
330
1F
100
AcDbEntity
  8
9
  6
CONTINUOUS
 62
     7
100
AcDbLine
 10
523.2789237985962
 20
362.68223444518
 30
0.0
 11
523.5955904652637
 21
362.68223444518
 31
0.0
  0
LINE
  5
16C
330
1F
100
AcDbEntity
  8
9
  6
CONTINUOUS
 62
     7
100
AcDbLine
 10
523.2789237985962
 20
355.7822344451804
 30
0.0
 11
523.5955904652637
 21
355.7822344451804
 31
0.0
  0
LINE
  5
16D
330
1F
100
AcDbEntity
  8
4
  6
DASHDOT
 62
     1
100
AcDbLine
 10
358.2789237985962
 20
499.2322344451811
 30
0.0
 11
358.2789237985958
 21
119.2322344451815
 31
0.0
  0
LINE
  5
16E
330
1F
100
AcDbEntity
  8
4
  6
DASHDOT
 62
     1
100
AcDbLine
 10
183.2789237985958
 20
309.2322344451807
 30
0.0
 11
533.2789237985962
 21
309.2322344451807
 31
0.0
  0
LINE
  5
16F
330
1F
100
AcDbEntity
  8
9
  6
CONTINUOUS
 62
     7
100
AcDbLine
 10
684.0522197237351
 20
474.2322344451807
 30
0.0
 11
677.1522197237337
 21
474.2322344451811
 31
0.0
  0
LINE
  5
170
330
1F
100
AcDbEntity
  8
9
  6
CONTINUOUS
 62
     7
100
AcDbLine
 10
684.0522197237351
 20
474.5489011118473
 30
0.0
 11
677.1522197237337
 21
474.5489011118477
 31
0.0
  0
ARC
  5
171
330
1F
100
AcDbEntity
  8
9
  6
CONTINUOUS
 62
     7
100
AcDbCircle
 10
680.6022197237344
 20
471.5818835679881
 30
0.0
 40
4.550350877192955
100
AcDbArc
 50
40.6956985254073
 51
139.3043014745927
  0
LINE
  5
172
330
1F
100
AcDbEntity
  8
9
  6
CONTINUOUS
 62
     7
100
AcDbLine
 10
684.0522197237351
 20
474.2322344451807
 30
0.0
 11
684.0522197237351
 21
474.5489011118473
 31
0.0
  0
LINE
  5
173
330
1F
100
AcDbEntity
  8
9
  6
CONTINUOUS
 62
     7
100
AcDbLine
 10
677.1522197237337
 20
474.2322344451811
 30
0.0
 11
677.1522197237337
 21
474.5489011118477
 31
0.0
  0
LINE
  5
174
330
1F
100
AcDbEntity
  8
9
  6
CONTINUOUS
 62
     7
100
AcDbLine
 10
192.9622571319283
 20
262.68223444518
 30
0.0
 11
192.9622571319283
 21
255.7822344451804
 31
0.0
  0
ARC
  5
175
330
1F
100
AcDbEntity
  8
9
  6
CONTINUOUS
 62
     7
100
AcDbCircle
 10
195.9292746757887
 20
259.2322344451811
 30
0.0
 40
4.550350877192983
100
AcDbArc
 50
130.6956985253307
 51
229.304301474669
  0
LINE
  5
176
330
1F
100
AcDbEntity
  8
9
  6
CONTINUOUS
 62
     7
100
AcDbLine
 10
193.2789237985958
 20
262.68223444518
 30
0.0
 11
192.9622571319283
 21
262.68223444518
 31
0.0
  0
LINE
  5
177
330
1F
100
AcDbEntity
  8
9
  6
CONTINUOUS
 62
     7
100
AcDbLine
 10
193.2789237985958
 20
255.7822344451804
 30
0.0
 11
192.9622571319283
 21
255.7822344451804
 31
0.0
  0
LINE
  5
178
330
1F
100
AcDbEntity
  8
9
  6
CONTINUOUS
 62
     7
100
AcDbLine
 10
192.9622571319283
 20
362.68223444518
 30
0.0
 11
192.9622571319283
 21
355.7822344451804
 31
0.0
  0
ARC
  5
179
330
1F
100
AcDbEntity
  8
9
  6
CONTINUOUS
 62
     7
100
AcDbCircle
 10
195.9292746757887
 20
359.2322344451811
 30
0.0
 40
4.550350877192983
100
AcDbArc
 50
130.6956985253307
 51
229.304301474669
  0
LINE
  5
17A
330
1F
100
AcDbEntity
  8
9
  6
CONTINUOUS
 62
     7
100
AcDbLine
 10
193.2789237985958
 20
362.68223444518
 30
0.0
 11
192.9622571319283
 21
362.68223444518
 31
0.0
  0
LINE
  5
17B
330
1F
100
AcDbEntity
  8
9
  6
CONTINUOUS
 62
     7
100
AcDbLine
 10
193.2789237985958
 20
355.7822344451804
 30
0.0
 11
192.9622571319283
 21
355.7822344451804
 31
0.0
  0
CIRCLE
  5
17C
330
1F
100
AcDbEntity
  8
9
  6
CONTINUOUS
 62
     7
100
AcDbCircle
 10
233.2789237985958
 20
482.2322344451811
 30
0.0
 40
3.099999999999994
  0
CIRCLE
  5
17D
330
1F
100
AcDbEntity
  8
9
  6
CONTINUOUS
 62
     7
100
AcDbCircle
 10
270.7789237985958
 20
482.2322344451811
 30
0.0
 40
3.100000000000023
  0
CIRCLE
  5
17E
330
1F
100
AcDbEntity
  8
9
  6
CONTINUOUS
 62
     7
100
AcDbCircle
 10
445.7789237985962
 20
482.2322344451811
 30
0.0
 40
3.100000000000023
  0
CIRCLE
  5
17F
330
1F
100
AcDbEntity
  8
9
  6
CONTINUOUS
 62
     7
100
AcDbCircle
 10
483.2789237985962
 20
482.2322344451811
 30
0.0
 40
3.100000000000023
  0
CIRCLE
  5
180
330
1F
100
AcDbEntity
  8
9
  6
CONTINUOUS
 62
     7
100
AcDbCircle
 10
233.2789237985958
 20
136.2322344451811
 30
0.0
 40
3.099999999999994
  0
CIRCLE
  5
181
330
1F
100
AcDbEntity
  8
9
  6
CONTINUOUS
 62
     7
100
AcDbCircle
 10
270.7789237985958
 20
136.2322344451811
 30
0.0
 40
3.100000000000023
  0
CIRCLE
  5
182
330
1F
100
AcDbEntity
  8
9
  6
CONTINUOUS
 62
     7
100
AcDbCircle
 10
445.7789237985962
 20
136.2322344451811
 30
0.0
 40
3.100000000000023
  0
CIRCLE
  5
183
330
1F
100
AcDbEntity
  8
9
  6
CONTINUOUS
 62
     7
100
AcDbCircle
 10
483.2789237985962
 20
136.2322344451811
 30
0.0
 40
3.100000000000023
  0
LINE
  5
184
330
1F
100
AcDbEntity
  8
4
  6
DASHDOT
 62
     1
100
AcDbLine
 10
225.1789237985959
 20
136.2322344451811
 30
0.0
 11
241.3789237985957
 21
136.2322344451811
 31
0.0
  0
LINE
  5
185
330
1F
100
AcDbEntity
  8
4
  6
DASHDOT
 62
     1
100
AcDbLine
 10
233.2789237985958
 20
144.3322344451811
 30
0.0
 11
233.2789237985958
 21
128.1322344451811
 31
0.0
  0
LINE
  5
186
330
1F
100
AcDbEntity
  8
4
  6
DASHDOT
 62
     1
100
AcDbLine
 10
262.6789237985959
 20
136.2322344451811
 30
0.0
 11
278.8789237985957
 21
136.2322344451811
 31
0.0
  0
LINE
  5
187
330
1F
100
AcDbEntity
  8
4
  6
DASHDOT
 62
     1
100
AcDbLine
 10
270.7789237985958
 20
144.3322344451811
 30
0.0
 11
270.7789237985958
 21
128.1322344451811
 31
0.0
  0
LINE
  5
188
330
1F
100
AcDbEntity
  8
4
  6
DASHDOT
 62
     1
100
AcDbLine
 10
437.6789237985959
 20
136.2322344451811
 30
0.0
 11
453.8789237985957
 21
136.2322344451811
 31
0.0
  0
LINE
  5
189
330
1F
100
AcDbEntity
  8
4
  6
DASHDOT
 62
     1
100
AcDbLine
 10
445.7789237985962
 20
144.3322344451811
 30
0.0
 11
445.7789237985962
 21
128.1322344451811
 31
0.0
  0
LINE
  5
18A
330
1F
100
AcDbEntity
  8
4
  6
DASHDOT
 62
     1
100
AcDbLine
 10
475.1789237985959
 20
136.2322344451811
 30
0.0
 11
491.3789237985957
 21
136.2322344451811
 31
0.0
  0
LINE
  5
18B
330
1F
100
AcDbEntity
  8
4
  6
DASHDOT
 62
     1
100
AcDbLine
 10
483.2789237985962
 20
144.3322344451811
 30
0.0
 11
483.2789237985962
 21
128.1322344451811
 31
0.0
  0
LINE
  5
18C
330
1F
100
AcDbEntity
  8
4
  6
DASHDOT
 62
     1
100
AcDbLine
 10
225.1789237985959
 20
482.2322344451811
 30
0.0
 11
241.3789237985957
 21
482.2322344451811
 31
0.0
  0
LINE
  5
18D
330
1F
100
AcDbEntity
  8
4
  6
DASHDOT
 62
     1
100
AcDbLine
 10
233.2789237985958
 20
490.3322344451811
 30
0.0
 11
233.2789237985958
 21
474.1322344451811
 31
0.0
  0
LINE
  5
18E
330
1F
100
AcDbEntity
  8
4
  6
DASHDOT
 62
     1
100
AcDbLine
 10
262.6789237985959
 20
482.2322344451811
 30
0.0
 11
278.8789237985957
 21
482.2322344451811
 31
0.0
  0
LINE
  5
18F
330
1F
100
AcDbEntity
  8
4
  6
DASHDOT
 62
     1
100
AcDbLine
 10
270.7789237985958
 20
490.3322344451811
 30
0.0
 11
270.7789237985958
 21
474.1322344451811
 31
0.0
  0
LINE
  5
190
330
1F
100
AcDbEntity
  8
4
  6
DASHDOT
 62
     1
100
AcDbLine
 10
437.6789237985959
 20
482.2322344451811
 30
0.0
 11
453.8789237985957
 21
482.2322344451811
 31
0.0
  0
LINE
  5
191
330
1F
100
AcDbEntity
  8
4
  6
DASHDOT
 62
     1
100
AcDbLine
 10
445.7789237985962
 20
490.3322344451811
 30
0.0
 11
445.7789237985962
 21
474.1322344451811
 31
0.0
  0
LINE
  5
192
330
1F
100
AcDbEntity
  8
4
  6
DASHDOT
 62
     1
100
AcDbLine
 10
475.1789237985959
 20
482.2322344451811
 30
0.0
 11
491.3789237985957
 21
482.2322344451811
 31
0.0
  0
LINE
  5
193
330
1F
100
AcDbEntity
  8
4
  6
DASHDOT
 62
     1
100
AcDbLine
 10
483.2789237985962
 20
490.3322344451811
 30
0.0
 11
483.2789237985962
 21
474.1322344451811
 31
0.0
  0
LINE
  5
194
330
1F
100
AcDbEntity
  8
4
  6
DASHDOT
 62
     1
100
AcDbLine
 10
635.6022197237253
 20
309.2322344451807
 30
0.0
 11
700.6022197237253
 21
309.2322344451807
 31
0.0
  0
LINE
  5
195
330
1F
100
AcDbEntity
  8
3
  6
HIDDEN
 62
     3
100
AcDbLine
 10
690.6022197237253
 20
291.7322344451799
 30
0.0
 11
645.6022197237253
 21
291.7322344451799
 31
0.0
  0
LINE
  5
196
330
1F
100
AcDbEntity
  8
3
  6
HIDDEN
 62
     3
100
AcDbLine
 10
689.6022197237244
 20
286.7322344451799
 30
0.0
 11
651.6022197237253
 21
286.7322344451799
 31
0.0
  0
CIRCLE
  5
197
330
1F
100
AcDbEntity
  8
9
  6
CONTINUOUS
 62
     7
100
AcDbCircle
 10
358.2789237985958
 20
309.2322344451799
 30
0.0
 40
17.5
  0
CIRCLE
  5
198
330
1F
100
AcDbEntity
  8
3
  6
HIDDEN
 62
     3
100
AcDbCircle
 10
358.2789237985958
 20
309.2322344451799
 30
0.0
 40
22.5
  0
HATCH
  5
199
330
1F
100
AcDbEntity
  8
10
  6
CONTINUOUS
 62
     2
100
AcDbHatch
 10
0.0
 20
0.0
 30
0.0
210
0.0
220
0.0
230
1.0
  2

 70
     0
 71
     0
 91
        4
 92
        0
 93
       40
 72
     1
 10
508.2789237985962
 20
459.2322344451811
 11
358.2789237985962
 21
459.2322344451811
 72
     1
 10
358.2789237985962
 20
459.2322344451811
 11
358.2789237985962
 21
331.7322344451799
 72
     1
 10
358.2789237985958
 20
331.7322344451799
 11
359.2603600143158
 21
331.7108194307717
 72
     1
 10
359.2603600143158
 20
331.7108194307717
 11
360.2399280104181
 21
331.6466151522442
 72
     1
 10
360.2399280104181
 20
331.6466151522442
 11
361.215763123547
 21
331.5397438260907
 72
     1
 10
361.215763123547
 20
331.5397438260907
 11
362.1860077961018
 21
331.3904088879546
 72
     1
 10
362.1860077961018
 20
331.3904088879546
 11
363.1488151122032
 21
331.1988946053784
 72
     1
 10
363.1488151122032
 20
331.1988946053784
 11
364.1023523134027
 21
330.9655655366839
 72
     1
 10
364.1023523134027
 20
330.9655655366839
 11
365.0448042874421
 21
330.690865837015
 72
     1
 10
365.0448042874421
 20
330.690865837015
 11
365.9743770234235
 21
330.3753184128628
 72
     1
 10
365.9743770234235
 20
330.3753184128628
 11
366.8893010268105
 21
330.0195239266838
 72
     1
 10
366.8893010268105
 20
330.0195239266838
 11
367.7878346877618
 21
329.6241596535045
 72
     1
 10
367.7878346877618
 20
329.6241596535045
 11
368.6682675963843
 21
329.1899781916898
 72
     1
 10
368.6682675963843
 20
329.1899781916898
 11
369.5289237985961
 21
328.7178060303297
 72
     1
 10
369.5289237985961
 20
328.7178060303297
 11
370.3681649863997
 21
328.2085419759698
 72
     1
 10
370.3681649863997
 20
328.2085419759698
 11
371.1843936164947
 21
327.6631554416821
 72
     1
 10
371.1843936164947
 20
327.6631554416821
 11
371.9760559512924
 21
327.0826846017326
 72
     1
 10
371.9760559512924
 20
327.0826846017326
 11
372.7416450165433
 21
326.4682344153567
 72
     1
 10
372.7416450165433
 20
326.4682344153567
 11
373.4797034699486
 21
325.8209745234075
 72
     1
 10
373.4797034699486
 20
325.8209745234075
 11
374.1888263752936
 21
325.142137021877
 72
     1
 10
374.1888263752936
 20
325.142137021877
 11
374.8676638768241
 21
324.433014116532
 72
     1
 10
374.8676638768241
 20
324.433014116532
 11
375.5149237687733
 21
323.6949556631268
 72
     1
 10
375.5149237687733
 20
323.6949556631268
 11
376.1293739551491
 21
322.9293665978759
 72
     1
 10
376.1293739551491
 20
322.9293665978759
 11
376.7098447950987
 21
322.1377042630781
 72
     1
 10
376.7098447950987
 20
322.1377042630781
 11
377.2552313293863
 21
321.3214756329831
 72
     1
 10
377.2552313293863
 20
321.3214756329831
 11
377.7644953837462
 21
320.4822344451795
 72
     1
 10
377.7644953837462
 20
320.4822344451795
 11
378.2366675451063
 21
319.6215782429678
 72
     1
 10
378.2366675451063
 20
319.6215782429678
 11
378.670849006921
 21
318.7411453343452
 72
     1
 10
378.670849006921
 20
318.7411453343452
 11
379.0662132801003
 21
317.842611673394
 72
     1
 10
379.0662132801003
 20
317.842611673394
 11
379.4220077662794
 21
316.927687670007
 72
     1
 10
379.4220077662794
 20
316.927687670007
 11
379.7375551904315
 21
315.9981149340255
 72
     1
 10
379.7375551904315
 20
315.9981149340255
 11
380.0122548901005
 21
315.0556629599861
 72
     1
 10
380.0122548901005
 20
315.0556629599861
 11
380.245583958795
 21
314.1021257587867
 72
     1
 10
380.245583958795
 20
314.1021257587867
 11
380.4370982413711
 21
313.1393184426852
 72
     1
 10
380.4370982413711
 20
313.1393184426852
 11
380.5864331795072
 21
312.1690737701305
 72
     1
 10
380.5864331795072
 20
312.1690737701305
 11
380.6933045056607
 21
311.1932386570016
 72
     1
 10
380.6933045056607
 20
311.1932386570016
 11
380.7575087841882
 21
310.2136706608993
 72
     1
 10
380.7575087841882
 20
310.2136706608993
 11
380.7789237985965
 21
309.2322344451792
 72
     1
 10
380.7789237985958
 20
309.2322344451807
 11
508.2789237985962
 21
309.2322344451807
 72
     1
 10
508.2789237985962
 20
309.2322344451807
 11
508.2789237985962
 21
459.2322344451811
 97
        0
 92
        0
 93
       40
 72
     1
 10
358.2789237985962
 20
459.2322344451811
 11
208.2789237985958
 21
459.2322344451811
 72
     1
 10
208.2789237985958
 20
459.2322344451811
 11
208.2789237985958
 21
309.2322344451807
 72
     1
 10
208.2789237985958
 20
309.2322344451807
 11
335.7789237985958
 21
309.2322344451807
 72
     1
 10
335.7789237985958
 20
309.23223444518
 11
335.800338813004
 21
310.2136706609001
 72
     1
 10
335.800338813004
 20
310.2136706609001
 11
335.8645430915316
 21
311.1932386570024
 72
     1
 10
335.8645430915316
 20
311.1932386570024
 11
335.9714144176851
 21
312.1690737701313
 72
     1
 10
335.9714144176851
 20
312.1690737701313
 11
336.1207493558211
 21
313.139318442686
 72
     1
 10
336.1207493558211
 20
313.139318442686
 11
336.3122636383973
 21
314.1021257587875
 72
     1
 10
336.3122636383973
 20
314.1021257587875
 11
336.5455927070918
 21
315.0556629599868
 72
     1
 10
336.5455927070918
 20
315.0556629599868
 11
336.8202924067608
 21
315.9981149340263
 72
     1
 10
336.8202924067608
 20
315.9981149340263
 11
337.1358398309129
 21
316.9276876700077
 72
     1
 10
337.1358398309129
 20
316.9276876700077
 11
337.4916343170919
 21
317.8426116733947
 72
     1
 10
337.4916343170919
 20
317.8426116733947
 11
337.8869985902713
 21
318.7411453343459
 72
     1
 10
337.8869985902713
 20
318.7411453343459
 11
338.3211800520859
 21
319.6215782429684
 72
     1
 10
338.3211800520859
 20
319.6215782429684
 11
338.793352213446
 21
320.4822344451802
 72
     1
 10
338.793352213446
 20
320.4822344451802
 11
339.302616267806
 21
321.3214756329837
 72
     1
 10
339.302616267806
 20
321.3214756329837
 11
339.8480028020936
 21
322.1377042630787
 72
     1
 10
339.8480028020936
 20
322.1377042630787
 11
340.4284736420431
 21
322.9293665978764
 72
     1
 10
340.4284736420431
 20
322.9293665978764
 11
341.0429238284189
 21
323.6949556631274
 72
     1
 10
341.0429238284189
 20
323.6949556631274
 11
341.6901837203682
 21
324.4330141165325
 72
     1
 10
341.6901837203682
 20
324.4330141165325
 11
342.3690212218986
 21
325.1421370218775
 72
     1
 10
342.3690212218986
 20
325.1421370218775
 11
343.0781441272436
 21
325.820974523408
 72
     1
 10
343.0781441272436
 20
325.820974523408
 11
343.8162025806488
 21
326.4682344153572
 72
     1
 10
343.8162025806488
 20
326.4682344153572
 11
344.5817916458998
 21
327.082684601733
 72
     1
 10
344.5817916458998
 20
327.082684601733
 11
345.3734539806974
 21
327.6631554416825
 72
     1
 10
345.3734539806974
 20
327.6631554416825
 11
346.1896826107925
 21
328.2085419759702
 72
     1
 10
346.1896826107925
 20
328.2085419759702
 11
347.028923798596
 21
328.7178060303301
 72
     1
 10
347.028923798596
 20
328.7178060303301
 11
347.8895800008078
 21
329.1899781916902
 72
     1
 10
347.8895800008078
 20
329.1899781916902
 11
348.7700129094303
 21
329.6241596535049
 72
     1
 10
348.7700129094303
 20
329.6241596535049
 11
349.6685465703815
 21
330.0195239266842
 72
     1
 10
349.6685465703815
 20
330.0195239266842
 11
350.5834705737685
 21
330.3753184128632
 72
     1
 10
350.5834705737685
 20
330.3753184128632
 11
351.5130433097499
 21
330.6908658370154
 72
     1
 10
351.5130433097499
 20
330.6908658370154
 11
352.4554952837894
 21
330.9655655366843
 72
     1
 10
352.4554952837894
 20
330.9655655366843
 11
353.4090324849888
 21
331.1988946053788
 72
     1
 10
353.4090324849888
 20
331.1988946053788
 11
354.3718398010902
 21
331.3904088879549
 72
     1
 10
354.3718398010902
 20
331.3904088879549
 11
355.3420844736449
 21
331.539743826091
 72
     1
 10
355.3420844736449
 20
331.539743826091
 11
356.3179195867738
 21
331.6466151522445
 72
     1
 10
356.3179195867738
 20
331.6466151522445
 11
357.2974875828761
 21
331.7108194307721
 72
     1
 10
357.2974875828761
 20
331.7108194307721
 11
358.2789237985962
 21
331.7322344451803
 72
     1
 10
358.2789237985962
 20
331.7322344451799
 11
358.2789237985962
 21
459.2322344451811
 97
        0
 92
        0
 93
       40
 72
     1
 10
335.7789237985958
 20
309.2322344451802
 11
335.800338813004
 21
308.2507982294601
 72
     1
 10
335.800338813004
 20
308.2507982294601
 11
335.8645430915316
 21
307.2712302333579
 72
     1
 10
335.8645430915316
 20
307.2712302333579
 11
335.9714144176851
 21
306.295395120229
 72
     1
 10
335.9714144176851
 20
306.295395120229
 11
336.1207493558211
 21
305.3251504476742
 72
     1
 10
336.1207493558211
 20
305.3251504476742
 11
336.3122636383973
 21
304.3623431315728
 72
     1
 10
336.3122636383973
 20
304.3623431315728
 11
336.5455927070918
 21
303.4088059303734
 72
     1
 10
336.5455927070918
 20
303.4088059303734
 11
336.8202924067607
 21
302.466353956334
 72
     1
 10
336.8202924067607
 20
302.466353956334
 11
337.1358398309129
 21
301.5367812203526
 72
     1
 10
337.1358398309129
 20
301.5367812203526
 11
337.4916343170918
 21
300.6218572169656
 72
     1
 10
337.4916343170918
 20
300.6218572169656
 11
337.8869985902712
 21
299.7233235560143
 72
     1
 10
337.8869985902712
 20
299.7233235560143
 11
338.3211800520858
 21
298.8428906473918
 72
     1
 10
338.3211800520858
 20
298.8428906473918
 11
338.7933522134459
 21
297.9822344451801
 72
     1
 10
338.7933522134459
 20
297.9822344451801
 11
339.3026162678059
 21
297.1429932573765
 72
     1
 10
339.3026162678059
 20
297.1429932573765
 11
339.8480028020935
 21
296.3267646272815
 72
     1
 10
339.8480028020935
 20
296.3267646272815
 11
340.428473642043
 21
295.5351022924838
 72
     1
 10
340.428473642043
 20
295.5351022924838
 11
341.0429238284188
 21
294.7695132272329
 72
     1
 10
341.0429238284188
 20
294.7695132272329
 11
341.690183720368
 21
294.0314547738277
 72
     1
 10
341.690183720368
 20
294.0314547738277
 11
342.3690212218985
 21
293.3223318684827
 72
     1
 10
342.3690212218985
 20
293.3223318684827
 11
343.0781441272434
 21
292.6434943669523
 72
     1
 10
343.0781441272434
 20
292.6434943669523
 11
343.8162025806487
 21
291.996234475003
 72
     1
 10
343.8162025806487
 20
291.996234475003
 11
344.5817916458996
 21
291.3817842886272
 72
     1
 10
344.5817916458996
 20
291.3817842886272
 11
345.3734539806973
 21
290.8013134486777
 72
     1
 10
345.3734539806973
 20
290.8013134486777
 11
346.1896826107923
 21
290.2559269143901
 72
     1
 10
346.1896826107923
 20
290.2559269143901
 11
347.0289237985958
 21
289.7466628600301
 72
     1
 10
347.0289237985958
 20
289.7466628600301
 11
347.8895800008076
 21
289.27449069867
 72
     1
 10
347.8895800008076
 20
289.27449069867
 11
348.7700129094301
 21
288.8403092368554
 72
     1
 10
348.7700129094301
 20
288.8403092368554
 11
349.6685465703814
 21
288.444944963676
 72
     1
 10
349.6685465703814
 20
288.444944963676
 11
350.5834705737683
 21
288.089150477497
 72
     1
 10
350.5834705737683
 20
288.089150477497
 11
351.5130433097497
 21
287.7736030533449
 72
     1
 10
351.5130433097497
 20
287.7736030533449
 11
352.4554952837892
 21
287.4989033536759
 72
     1
 10
352.4554952837892
 20
287.4989033536759
 11
353.4090324849885
 21
287.2655742849814
 72
     1
 10
353.4090324849885
 20
287.2655742849814
 11
354.3718398010899
 21
287.0740600024052
 72
     1
 10
354.3718398010899
 20
287.0740600024052
 11
355.3420844736447
 21
286.9247250642692
 72
     1
 10
355.3420844736447
 20
286.9247250642692
 11
356.3179195867736
 21
286.8178537381157
 72
     1
 10
356.3179195867736
 20
286.8178537381157
 11
357.2974875828758
 21
286.7536494595881
 72
     1
 10
357.2974875828758
 20
286.7536494595881
 11
358.2789237985959
 21
286.7322344451799
 72
     1
 10
358.2789237985958
 20
286.7322344451799
 11
358.2789237985958
 21
159.2322344451811
 72
     1
 10
358.2789237985958
 20
159.2322344451811
 11
208.2789237985958
 21
159.2322344451811
 72
     1
 10
208.2789237985958
 20
159.2322344451811
 11
208.2789237985958
 21
309.2322344451807
 72
     1
 10
208.2789237985958
 20
309.2322344451807
 11
335.7789237985958
 21
309.2322344451807
 97
        0
 92
        0
 93
       40
 72
     1
 10
508.2789237985962
 20
309.2322344451807
 11
380.7789237985958
 21
309.2322344451807
 72
     1
 10
380.7789237985958
 20
309.2322344451813
 11
380.7575087841876
 21
308.2507982294613
 72
     1
 10
380.7575087841876
 20
308.2507982294613
 11
380.6933045056601
 21
307.271230233359
 72
     1
 10
380.6933045056601
 20
307.271230233359
 11
380.5864331795065
 21
306.2953951202301
 72
     1
 10
380.5864331795065
 20
306.2953951202301
 11
380.4370982413704
 21
305.3251504476753
 72
     1
 10
380.4370982413704
 20
305.3251504476753
 11
380.2455839587943
 21
304.3623431315739
 72
     1
 10
380.2455839587943
 20
304.3623431315739
 11
380.0122548900998
 21
303.4088059303744
 72
     1
 10
380.0122548900998
 20
303.4088059303744
 11
379.7375551904308
 21
302.466353956335
 72
     1
 10
379.7375551904308
 20
302.466353956335
 11
379.4220077662787
 21
301.5367812203535
 72
     1
 10
379.4220077662787
 20
301.5367812203535
 11
379.0662132800996
 21
300.6218572169665
 72
     1
 10
379.0662132800996
 20
300.6218572169665
 11
378.6708490069203
 21
299.7233235560153
 72
     1
 10
378.6708490069203
 20
299.7233235560153
 11
378.2366675451057
 21
298.8428906473927
 72
     1
 10
378.2366675451057
 20
298.8428906473927
 11
377.7644953837455
 21
297.9822344451809
 72
     1
 10
377.7644953837455
 20
297.9822344451809
 11
377.2552313293855
 21
297.1429932573773
 72
     1
 10
377.2552313293855
 20
297.1429932573773
 11
376.7098447950979
 21
296.3267646272823
 72
     1
 10
376.7098447950979
 20
296.3267646272823
 11
376.1293739551484
 21
295.5351022924846
 72
     1
 10
376.1293739551484
 20
295.5351022924846
 11
375.5149237687725
 21
294.7695132272337
 72
     1
 10
375.5149237687725
 20
294.7695132272337
 11
374.8676638768233
 21
294.0314547738284
 72
     1
 10
374.8676638768233
 20
294.0314547738284
 11
374.1888263752928
 21
293.3223318684834
 72
     1
 10
374.1888263752928
 20
293.3223318684834
 11
373.4797034699478
 21
292.643494366953
 72
     1
 10
373.4797034699478
 20
292.643494366953
 11
372.7416450165425
 21
291.9962344750037
 72
     1
 10
372.7416450165425
 20
291.9962344750037
 11
371.9760559512916
 21
291.3817842886279
 72
     1
 10
371.9760559512916
 20
291.3817842886279
 11
371.1843936164939
 21
290.8013134486783
 72
     1
 10
371.1843936164939
 20
290.8013134486783
 11
370.3681649863988
 21
290.2559269143907
 72
     1
 10
370.3681649863988
 20
290.2559269143907
 11
369.5289237985953
 21
289.7466628600308
 72
     1
 10
369.5289237985953
 20
289.7466628600308
 11
368.6682675963835
 21
289.2744906986706
 72
     1
 10
368.6682675963835
 20
289.2744906986706
 11
367.7878346877609
 21
288.8403092368559
 72
     1
 10
367.7878346877609
 20
288.8403092368559
 11
366.8893010268096
 21
288.4449449636766
 72
     1
 10
366.8893010268096
 20
288.4449449636766
 11
365.9743770234226
 21
288.0891504774976
 72
     1
 10
365.9743770234226
 20
288.0891504774976
 11
365.0448042874412
 21
287.7736030533455
 72
     1
 10
365.0448042874412
 20
287.7736030533455
 11
364.1023523134017
 21
287.4989033536765
 72
     1
 10
364.1023523134017
 20
287.4989033536765
 11
363.1488151122023
 21
287.2655742849821
 72
     1
 10
363.1488151122023
 20
287.2655742849821
 11
362.1860077961009
 21
287.0740600024059
 72
     1
 10
362.1860077961009
 20
287.0740600024059
 11
361.215763123546
 21
286.9247250642698
 72
     1
 10
361.215763123546
 20
286.9247250642698
 11
360.2399280104171
 21
286.8178537381162
 72
     1
 10
360.2399280104171
 20
286.8178537381162
 11
359.2603600143149
 21
286.7536494595888
 72
     1
 10
359.2603600143149
 20
286.7536494595888
 11
358.2789237985947
 21
286.7322344451806
 72
     1
 10
358.2789237985958
 20
286.7322344451799
 11
358.2789237985958
 21
159.2322344451811
 72
     1
 10
358.2789237985958
 20
159.2322344451811
 11
508.2789237985962
 21
159.2322344451811
 72
     1
 10
508.2789237985962
 20
159.2322344451811
 11
508.2789237985962
 21
309.2322344451807
 97
        0
 75
     0
 76
     2
 52
0.0
 41
0.5
 77
     0
 78
     2
 53
45.0
 43
-3699.559753911371
 44
294.6744021436689
 45
-4.490128060534516
 46
4.490128060534573
 79
     0
 53
135.0
 43
-3699.559753911371
 44
294.6744021436689
 45
-4.490128060534516
 46
-4.490128060534516
 79
     0
 98
        0
  0
LINE
  5
19A
330
1F
100
AcDbEntity
  8
3
  6
HIDDEN
 62
     3
100
AcDbLine
 10
690.6022197237253
 20
326.7322344451814
 30
0.0
 11
645.6022197237253
 21
326.7322344451814
 31
0.0
  0
LINE
  5
19B
330
1F
100
AcDbEntity
  8
3
  6
HIDDEN
 62
     3
100
AcDbLine
 10
689.6022197237244
 20
331.7322344451814
 30
0.0
 11
651.6022197237253
 21
331.7322344451814
 31
0.0
  0
DIMENSION
  5
1A6
330
1F
100
AcDbEntity
  8
8
  6
CONTINUOUS
 62
     4
100
AcDbDimension
  2
DIM1
 10
445.7789237985962
 20
100.5113374324769
 30
0.0
 11
358.278923798596
 21
100.5113374324769
 31
0.0
 70
   160
  1
<>
  3
STANDARD
100
AcDbAlignedDimension
 13
270.7789237985958
 23
128.1322344451811
 33
0.0
 14
445.7789237985962
 24
128.1322344451811
 34
0.0
100
AcDbRotatedDimension
1001
ACAD
1000
DSTYLE
1002
{
1070
   287
1070
     4
1070
     7
1000

1070
     6
1000

1070
   279
1070
     1
1070
   340
1005
19C
1070
   140
1040
6.0
1070
    40
1040
1.0
1070
   147
1040
0.0
1070
    76
1070
     0
1070
    75
1070
     0
1070
   173
1070
     1
1070
   289
1070
     2
1070
   288
1070
     1
1070
    77
1070
     1
1070
   172
1070
     1
1070
   174
1070
     0
1070
    74
1070
     0
1070
    73
1070
     0
1070
   284
1070
     8
1070
    78
1070
     8
1070
    42
1040
2.0
1070
    44
1040
3.0
1070
    43
1040
30.0
1070
   271
1070
     2
1070
    41
1040
4.0
1002
}
  0
DIMENSION
  5
1B0
330
1F
100
AcDbEntity
  8
8
  6
CONTINUOUS
 62
     4
100
AcDbDimension
  2
DIM2
 10
483.2789237985962
 20
84.51133743247692
 30
0.0
 11
358.2789237985962
 21
84.51133743247692
 31
0.0
 70
   160
  1
<>
  3
STANDARD
100
AcDbAlignedDimension
 13
233.2789237985958
 23
128.1322344451811
 33
0.0
 14
483.2789237985962
 24
128.1322344451811
 34
0.0
100
AcDbRotatedDimension
1001
ACAD
1000
DSTYLE
1002
{
1070
   287
1070
     4
1070
     7
1000

1070
     6
1000

1070
   279
1070
     1
1070
   340
1005
19C
1070
   140
1040
6.0
1070
    40
1040
1.0
1070
   147
1040
0.0
1070
    76
1070
     0
1070
    75
1070
     0
1070
   173
1070
     1
1070
   289
1070
     2
1070
   288
1070
     1
1070
    77
1070
     1
1070
   172
1070
     1
1070
   174
1070
     0
1070
    74
1070
     0
1070
    73
1070
     0
1070
   284
1070
     8
1070
    78
1070
     8
1070
    42
1040
2.0
1070
    44
1040
3.0
1070
    43
1040
30.0
1070
   271
1070
     2
1070
    41
1040
4.0
1002
}
  0
DIMENSION
  5
1BA
330
1F
100
AcDbEntity
  8
8
  6
CONTINUOUS
 62
     4
100
AcDbDimension
  2
DIM3
 10
508.2789237985961
 20
68.51133743247692
 30
0.0
 11
358.2789237985962
 21
68.51133743247692
 31
0.0
 70
   160
  1
<>
  3
STANDARD
100
AcDbAlignedDimension
 13
208.2789237985958
 23
159.2322344451811
 33
0.0
 14
508.2789237985962
 24
159.2322344451811
 34
0.0
100
AcDbRotatedDimension
1001
ACAD
1000
DSTYLE
1002
{
1070
   287
1070
     4
1070
     7
1000

1070
     6
1000

1070
   279
1070
     1
1070
   340
1005
19C
1070
   140
1040
6.0
1070
    40
1040
1.0
1070
   147
1040
0.0
1070
    76
1070
     0
1070
    75
1070
     0
1070
   173
1070
     1
1070
   289
1070
     2
1070
   288
1070
     1
1070
    77
1070
     1
1070
   172
1070
     1
1070
   174
1070
     0
1070
    74
1070
     0
1070
    73
1070
     0
1070
   284
1070
     8
1070
    78
1070
     8
1070
    42
1040
2.0
1070
    44
1040
3.0
1070
    43
1040
30.0
1070
   271
1070
     2
1070
    41
1040
4.0
1002
}
  0
DIMENSION
  5
1C4
330
1F
100
AcDbEntity
  8
8
  6
CONTINUOUS
 62
     4
100
AcDbDimension
  2
DIM4
 10
548.2865994718923
 20
459.232234445181
 30
0.0
 11
548.2865994718923
 21
309.2322344451818
 31
0.0
 70
   160
  1
<>
  3
STANDARD
100
AcDbAlignedDimension
 13
508.2789237985962
 23
159.2322344451811
 33
0.0
 14
508.2789237985962
 24
459.2322344451811
 34
0.0
 50
89.99999999999991
100
AcDbRotatedDimension
1001
ACAD
1000
DSTYLE
1002
{
1070
   287
1070
     4
1070
     7
1000

1070
     6
1000

1070
   279
1070
     1
1070
   340
1005
19C
1070
   140
1040
6.0
1070
    40
1040
1.0
1070
   147
1040
0.0
1070
    76
1070
     0
1070
    75
1070
     0
1070
   173
1070
     1
1070
   289
1070
     2
1070
   288
1070
     1
1070
    77
1070
     1
1070
   172
1070
     1
1070
   174
1070
     0
1070
    74
1070
     0
1070
    73
1070
     0
1070
   284
1070
     8
1070
    78
1070
     8
1070
    42
1040
2.0
1070
    44
1040
3.0
1070
    43
1040
30.0
1070
   271
1070
     2
1070
    41
1040
4.0
1002
}
  0
DIMENSION
  5
1CE
330
1F
100
AcDbEntity
  8
8
  6
CONTINUOUS
 62
     4
100
AcDbDimension
  2
DIM5
 10
564.2865994718923
 20
144.2322344451801
 30
0.0
 11
564.2865994718923
 21
309.2322344451807
 31
0.0
 70
   160
  1
<>
 53
89.99999999999991
  3
STANDARD
100
AcDbAlignedDimension
 13
523.2789237985962
 23
474.2322344451811
 33
0.0
 14
523.2789237985962
 24
144.2322344451802
 34
0.0
 50
-89.99999999999991
100
AcDbRotatedDimension
1001
ACAD
1000
DSTYLE
1002
{
1070
   287
1070
     4
1070
     7
1000

1070
     6
1000

1070
   279
1070
     1
1070
   340
1005
19C
1070
   140
1040
6.0
1070
    40
1040
1.0
1070
   147
1040
0.0
1070
    76
1070
     0
1070
    75
1070
     0
1070
   173
1070
     1
1070
   289
1070
     2
1070
   288
1070
     1
1070
    77
1070
     1
1070
   172
1070
     1
1070
   174
1070
     0
1070
    74
1070
     0
1070
    73
1070
     0
1070
   284
1070
     8
1070
    78
1070
     8
1070
    42
1040
2.0
1070
    44
1040
3.0
1070
    43
1040
30.0
1070
   271
1070
     2
1070
    41
1040
4.0
1002
}
  0
DIMENSION
  5
1D8
330
1F
100
AcDbEntity
  8
8
  6
CONTINUOUS
 62
     4
100
AcDbDimension
  2
DIM6
 10
596.2865994718923
 20
129.2322344451817
 30
0.0
 11
596.2865994718923
 21
309.232234445182
 31
0.0
 70
   160
  1
<>
 53
89.99999999999991
  3
STANDARD
100
AcDbAlignedDimension
 13
503.2789237985962
 23
489.2322344451809
 33
0.0
 14
503.2789237985962
 24
129.232234445182
 34
0.0
 50
-89.99999999999991
100
AcDbRotatedDimension
1001
ACAD
1000
DSTYLE
1002
{
1070
   287
1070
     4
1070
     7
1000

1070
     6
1000

1070
   279
1070
     1
1070
   340
1005
19C
1070
   140
1040
6.0
1070
    40
1040
1.0
1070
   147
1040
0.0
1070
    76
1070
     0
1070
    75
1070
     0
1070
   173
1070
     1
1070
   289
1070
     2
1070
   288
1070
     1
1070
    77
1070
     1
1070
   172
1070
     1
1070
   174
1070
     0
1070
    74
1070
     0
1070
    73
1070
     0
1070
   284
1070
     8
1070
    78
1070
     8
1070
    42
1040
2.0
1070
    44
1040
3.0
1070
    43
1040
30.0
1070
   271
1070
     2
1070
    41
1040
4.0
1002
}
  0
DIMENSION
  5
1E2
330
1F
100
AcDbEntity
  8
8
  6
CONTINUOUS
 62
     4
100
AcDbDimension
  2
DIM7
 10
595.3293309388882
 20
489.2322344451806
 30
0.0
 11
595.3293309388882
 21
499.2322344451809
 31
0.0
 70
   160
  1
<>
 53
89.99999999999991
  3
STANDARD
100
AcDbAlignedDimension
 13
381.2789237985944
 23
509.2322344451811
 33
0.0
 14
503.2789237985962
 24
489.2322344451809
 34
0.0
 50
-89.99999999999991
100
AcDbRotatedDimension
1001
ACAD
1000
DSTYLE
1002
{
1070
   287
1070
     4
1070
     7
1000

1070
     6
1000

1070
   279
1070
     1
1070
   340
1005
19C
1070
   140
1040
6.0
1070
    40
1040
1.0
1070
   147
1040
0.0
1070
    76
1070
     0
1070
    75
1070
     0
1070
   173
1070
     1
1070
   289
1070
     2
1070
   288
1070
     1
1070
    77
1070
     1
1070
   172
1070
     1
1070
   174
1070
     0
1070
    74
1070
     0
1070
    73
1070
     0
1070
   284
1070
     8
1070
    78
1070
     8
1070
    42
1040
2.0
1070
    44
1040
3.0
1070
    43
1040
30.0
1070
   271
1070
     2
1070
    41
1040
4.0
1002
}
  0
DIMENSION
  5
1EC
330
1F
100
AcDbEntity
  8
8
  6
CONTINUOUS
 62
     4
100
AcDbDimension
  2
DIM8
 10
690.6022197237253
 20
96.70367124930885
 30
0.0
 11
668.1022197237253
 21
96.70367124930885
 31
0.0
 70
   160
  1
<>
  3
STANDARD
100
AcDbAlignedDimension
 13
645.6022197237253
 23
144.2322344451811
 33
0.0
 14
690.6022197237253
 24
129.2322344451811
 34
0.0
100
AcDbRotatedDimension
1001
ACAD
1000
DSTYLE
1002
{
1070
   287
1070
     4
1070
     7
1000

1070
     6
1000

1070
   279
1070
     1
1070
   340
1005
19C
1070
   140
1040
6.0
1070
    40
1040
1.0
1070
   147
1040
0.0
1070
    76
1070
     0
1070
    75
1070
     0
1070
   173
1070
     1
1070
   289
1070
     2
1070
   288
1070
     1
1070
    77
1070
     1
1070
   172
1070
     1
1070
   174
1070
     0
1070
    74
1070
     0
1070
    73
1070
     0
1070
   284
1070
     8
1070
    78
1070
     8
1070
    42
1040
2.0
1070
    44
1040
3.0
1070
    43
1040
30.0
1070
   271
1070
     2
1070
    41
1040
4.0
1002
}
  0
DIMENSION
  5
1F6
330
1F
100
AcDbEntity
  8
8
  6
CONTINUOUS
 62
     4
100
AcDbDimension
  2
DIM9
 10
690.6022197237253
 20
521.9499435056066
 30
0.0
 11
673.8522197237244
 21
521.9499435056066
 31
0.0
 70
   160
  1
<>
  3
STANDARD
100
AcDbAlignedDimension
 13
657.1022197237235
 23
509.2322344451811
 33
0.0
 14
690.6022197237253
 24
489.2322344451809
 34
0.0
100
AcDbRotatedDimension
1001
ACAD
1000
DSTYLE
1002
{
1070
   287
1070
     4
1070
     7
1000

1070
     6
1000

1070
   279
1070
     1
1070
   340
1005
19C
1070
   140
1040
6.0
1070
    40
1040
1.0
1070
   147
1040
0.0
1070
    76
1070
     0
1070
    75
1070
     0
1070
   173
1070
     1
1070
   289
1070
     2
1070
   288
1070
     1
1070
    77
1070
     1
1070
   172
1070
     1
1070
   174
1070
     0
1070
    74
1070
     0
1070
    73
1070
     0
1070
   284
1070
     8
1070
    78
1070
     8
1070
    42
1040
2.0
1070
    44
1040
3.0
1070
    43
1040
30.0
1070
   271
1070
     2
1070
    41
1040
4.0
1002
}
  0
DIMENSION
  5
200
330
1F
100
AcDbEntity
  8
8
  6
CONTINUOUS
 62
     4
100
AcDbDimension
  2
DIM10
 10
523.2789237985961
 20
52.51133743247692
 30
0.0
 11
358.2789237985962
 21
52.51133743247692
 31
0.0
 70
   160
  1
<>
  3
STANDARD
100
AcDbAlignedDimension
 13
193.2789237985958
 23
144.2322344451802
 33
0.0
 14
523.2789237985962
 24
144.2322344451802
 34
0.0
100
AcDbRotatedDimension
1001
ACAD
1000
DSTYLE
1002
{
1070
   287
1070
     4
1070
     7
1000

1070
     6
1000

1070
   279
1070
     1
1070
   340
1005
19C
1070
   140
1040
6.0
1070
    40
1040
1.0
1070
   147
1040
0.0
1070
    76
1070
     0
1070
    75
1070
     0
1070
   173
1070
     1
1070
   289
1070
     2
1070
   288
1070
     1
1070
    77
1070
     1
1070
   172
1070
     1
1070
   174
1070
     0
1070
    74
1070
     0
1070
    73
1070
     0
1070
   284
1070
     8
1070
    78
1070
     8
1070
    42
1040
2.0
1070
    44
1040
3.0
1070
    43
1040
30.0
1070
   271
1070
     2
1070
    41
1040
4.0
1002
}
  0
DIMENSION
  5
20A
330
1F
100
AcDbEntity
  8
8
  6
CONTINUOUS
 62
     4
100
AcDbDimension
  2
DIM11
 10
580.2865994718923
 20
482.2322344451808
 30
0.0
 11
580.2865994718923
 21
309.2322344451818
 31
0.0
 70
   160
  1
<>
  3
STANDARD
100
AcDbAlignedDimension
 13
491.3789237985957
 23
136.2322344451811
 33
0.0
 14
491.3789237985957
 24
482.2322344451811
 34
0.0
 50
89.99999999999991
100
AcDbRotatedDimension
1001
ACAD
1000
DSTYLE
1002
{
1070
   287
1070
     4
1070
     7
1000

1070
     6
1000

1070
   279
1070
     1
1070
   340
1005
19C
1070
   140
1040
6.0
1070
    40
1040
1.0
1070
   147
1040
0.0
1070
    76
1070
     0
1070
    75
1070
     0
1070
   173
1070
     1
1070
   289
1070
     2
1070
   288
1070
     1
1070
    77
1070
     1
1070
   172
1070
     1
1070
   174
1070
     0
1070
    74
1070
     0
1070
    73
1070
     0
1070
   284
1070
     8
1070
    78
1070
     8
1070
    42
1040
2.0
1070
    44
1040
3.0
1070
    43
1040
30.0
1070
   271
1070
     2
1070
    41
1040
4.0
1002
}
  0
DIMENSION
  5
214
330
1F
100
AcDbEntity
  8
8
  6
CONTINUOUS
 62
     4
100
AcDbDimension
  2
DIM12
 10
689.6022197237253
 20
113.6483012503688
 30
0.0
 11
701.6022197237253
 21
113.6483012503688
 31
0.0
 70
   160
  1
<>
  3
STANDARD
100
AcDbAlignedDimension
 13
690.6022197237253
 23
129.2322344451811
 33
0.0
 14
689.6022197237253
 24
129.2322344451811
 34
0.0
 50
179.9999999999998
100
AcDbRotatedDimension
1001
ACAD
1000
DSTYLE
1002
{
1070
   287
1070
     4
1070
     7
1000

1070
     6
1000

1070
   279
1070
     1
1070
   340
1005
19C
1070
   140
1040
6.0
1070
    40
1040
1.0
1070
   147
1040
0.0
1070
    76
1070
     0
1070
    75
1070
     0
1070
   173
1070
     1
1070
   289
1070
     2
1070
   288
1070
     1
1070
    77
1070
     1
1070
   172
1070
     1
1070
   174
1070
     0
1070
    74
1070
     0
1070
    73
1070
     0
1070
   284
1070
     8
1070
    78
1070
     8
1070
    42
1040
2.0
1070
    44
1040
3.0
1070
    43
1040
30.0
1070
   271
1070
     2
1070
    41
1040
4.0
1002
}
  0
INSERT
  5
215
330
1F
100
AcDbEntity
  8
8
  6
CONTINUOUS
 62
     4
100
AcDbBlockReference
  2
_OPEN
 10
485.0765219098757
 20
484.7578316082938
 30
0.0
 41
6.0
 42
6.0
 43
6.0
 50
234.7271238867414
  0
POLYLINE
  5
216
330
1F
100
AcDbEntity
  8
8
  6
CONTINUOUS
 62
     4
100
AcDb2dPolyline
 66
     1
 10
0.0
 20
0.0
 30
0.0
  0
VERTEX
  5
217
330
216
100
AcDbEntity
  8
8
  6
CONTINUOUS
 62
     4
100
AcDbVertex
100
AcDb2dVertex
 10
485.0765219098757
 20
484.7578316082938
 30
0.0
  0
VERTEX
  5
218
330
216
100
AcDbEntity
  8
8
  6
CONTINUOUS
 62
     4
100
AcDbVertex
100
AcDb2dVertex
 10
512.4566245722763
 20
523.466980373946
 30
0.0
  0
VERTEX
  5
219
330
216
100
AcDbEntity
  8
8
  6
CONTINUOUS
 62
     4
100
AcDbVertex
100
AcDb2dVertex
 10
541.8166245722762
 20
523.466980373946
 30
0.0
  0
SEQEND
  5
21A
330
216
100
AcDbEntity
  8
8
  6
CONTINUOUS
 62
     4
  0
MTEXT
  5
21B
330
1F
100
AcDbEntity
  8
8
  6
CONTINUOUS
 62
     4
100
AcDbMText
 10
514.8166245722763
 20
523.466980373946
 30
0.0
 40
9.0
 41
38.24970281414999
 71
     7
 72
     1
  1
{\fＭＳ ゴシック;\T0.760103;8-\U+00D86.2}
1001
ACAD
1000
ACAD_MTEXT_DEFINED_HEIGHT_BEGIN
1070
    46
1040
9.0
1000
ACAD_MTEXT_DEFINED_HEIGHT_END
  0
DIMENSION
  5
223
330
1F
100
AcDbEntity
  8
8
  6
CONTINUOUS
 62
     4
100
AcDbDimension
  2
DIM13
 10
373.4533712283073
 20
300.5152312214217
 30
0.0
 11
153.7880139529464
 21
430.1623657632413
 31
0.0
 70
   163
  1
\U+2205<>
  3
STANDARD
100
AcDbDiametricDimension
 15
343.1044763688892
 25
317.9492376689384
 35
0.0
 40
0.0
1001
ACAD
1000
DSTYLE
1002
{
1070
   287
1070
     2
1070
     7
1000

1070
     6
1000

1070
   340
1005
19C
1070
   140
1040
6.0
1070
    40
1040
1.0
1070
   147
1040
0.0
1070
    76
1070
     0
1070
    75
1070
     0
1070
   173
1070
     1
1070
   289
1070
     2
1070
   288
1070
     1
1070
    77
1070
     1
1070
   172
1070
     1
1070
   174
1070
     0
1070
    74
1070
     0
1070
    73
1070
     0
1070
   284
1070
     8
1070
    78
1070
     8
1070
    42
1040
2.0
1070
    44
1040
3.0
1070
    43
1040
30.0
1070
   271
1070
     2
1070
    41
1040
4.0
1002
}
  0
DIMENSION
  5
22B
330
1F
100
AcDbEntity
  8
8
  6
CONTINUOUS
 62
     4
100
AcDbDimension
  2
DIM14
 10
379.4753463104901
 20
301.6849387243792
 30
0.0
 11
153.157592081058
 21
385.4531791923332
 31
0.0
 70
   163
  1
\U+2205<>
  3
STANDARD
100
AcDbDiametricDimension
 15
337.0825012866992
 25
316.7795301659801
 35
0.0
 40
0.0
1001
ACAD
1000
DSTYLE
1002
{
1070
   287
1070
     2
1070
     7
1000

1070
     6
1000

1070
   340
1005
19C
1070
   140
1040
6.0
1070
    40
1040
1.0
1070
   147
1040
0.0
1070
    76
1070
     0
1070
    75
1070
     0
1070
   173
1070
     1
1070
   289
1070
     2
1070
   288
1070
     1
1070
    77
1070
     1
1070
   172
1070
     1
1070
   174
1070
     0
1070
    74
1070
     0
1070
    73
1070
     0
1070
   284
1070
     8
1070
    78
1070
     8
1070
    42
1040
2.0
1070
    44
1040
3.0
1070
    43
1040
30.0
1070
   271
1070
     2
1070
    41
1040
4.0
1002
}
  0
VIEWPORT
  5
3F
330
1B
100
AcDbEntity
 67
     1
  8
0
100
AcDbViewport
 10
420.0
 20
297.0
 30
0.0
 40
840.0
 41
594.0
 68
     1
 69
     1
1001
ACAD
1000
MVIEW
1002
{
1070
    16
1010
0.0
1020
0.0
1030
0.0
1010
0.0
1020
0.0
1030
1.0
1040
0.0
1040
9.0
1040
420.0
1040
297.0
1040
50.0
1040
0.0
1040
0.0
1070
     0
1070
   100
1070
     0
1070
     3
1070
     0
1070
     0
1070
     0
1070
     0
1040
0.0
1040
0.0
1040
0.0
1040
0.5
1040
0.5
1040
0.5
1040
0.5
1070
     0
1002
{
1002
}
1002
}
  0
ENDSEC
  0
SECTION
  2
OBJECTS
  0
DICTIONARY
  5
C
330
0
100
AcDbDictionary
  3
ACAD_GROUP
350
D
  3
ACAD_LAYOUT
350
1A
  3
ACAD_MATERIAL
350
3B
  3
ACAD_MLEADERSTYLE
350
24E
  3
ACAD_MLINESTYLE
350
17
  3
ACAD_PLOTSETTINGS
350
19
  3
ACAD_VISUALSTYLE
350
2A
  3
ACDBHEADERROUNDTRIPXREC
350
22C
  3
ACDBVARIABLEDICTIONARY
350
24C
  0
DICTIONARY
  5
D
102
{ACAD_REACTORS
330
C
102
}
330
C
100
AcDbDictionary
  0
DICTIONARY
  5
1A
102
{ACAD_REACTORS
330
C
102
}
330
C
100
AcDbDictionary
  0
DICTIONARY
  5
3B
102
{ACAD_REACTORS
330
C
102
}
330
C
100
AcDbDictionary
  3
BYBLOCK
350
3D
  3
BYLAYER
350
3C
  3
GLOBAL
350
3E
  0
DICTIONARY
  5
24E
102
{ACAD_REACTORS
330
C
102
}
330
C
100
AcDbDictionary
  0
DICTIONARY
  5
17
102
{ACAD_REACTORS
330
C
102
}
330
C
100
AcDbDictionary
  3
STANDARD
350
18
  0
DICTIONARY
  5
19
102
{ACAD_REACTORS
330
C
102
}
330
C
100
AcDbDictionary
  0
DICTIONARY
  5
2A
102
{ACAD_REACTORS
330
C
102
}
330
C
100
AcDbDictionary
  3
2DWIREFRAME
350
2F
  3
3D_HIDDEN
350
31
  3
3DWIREFRAME
350
30
  3
BASIC
350
32
  3
BRIGHTEN
350
36
  3
COLORCHANGE
350
3A
  3
CONCEPTUAL
350
34
  3
DIM
350
35
  3
FACEPATTERN
350
39
  3
FLAT
350
2B
  3
FLATWITHEDGES
350
2C
  3
GOURAUD
350
2D
  3
GOURAUDWITHEDGES
350
2E
  3
LINEPATTERN
350
38
  3
REALISTIC
350
33
  3
THICKEN
350
37
  0
DICTIONARY
  5
22C
102
{ACAD_REACTORS
330
C
102
}
330
C
100
AcDbDictionary
  3
CEPSNTYPE
350
235
  3
DIMSTYLEDATA
350
24B
  3
FINGERPRINTGUID
350
236
  3
HYPERLINKBASE
350
22F
  3
INSUNITS
350
234
  3
LAYOUTDICT
350
231
  3
LWETCUNION
350
233
  3
PLOTSETDICT
350
232
  3
PSVPSCALE
350
238
  3
PUCSBASE
350
23B
  3
PUCSORGBACK
350
241
  3
PUCSORGBOTTOM
350
23D
  3
PUCSORGFRONT
350
240
  3
PUCSORGLEFT
350
23E
  3
PUCSORGRIGHT
350
23F
  3
PUCSORGTOP
350
23C
  3
PUCSORTHOREF
350
239
  3
PUCSORTHOVIEW
350
23A
  3
STYLESHEET
350
230
  3
TSTACKALIGN
350
22D
  3
TSTACKSIZE
350
22E
  3
UCSBASE
350
244
  3
UCSORGBACK
350
24A
  3
UCSORGBOTTOM
350
246
  3
UCSORGFRONT
350
249
  3
UCSORGLEFT
350
247
  3
UCSORGRIGHT
350
248
  3
UCSORGTOP
350
245
  3
UCSORTHOREF
350
242
  3
UCSORTHOVIEW
350
243
  3
VERSIONGUID
350
237
  0
DICTIONARY
  5
24C
102
{ACAD_REACTORS
330
C
102
}
330
C
100
AcDbDictionary
  3
DIMASSOC
350
24F
  3
HIDETEXT
350
250
  0
MATERIAL
  5
3D
102
{ACAD_REACTORS
330
3B
102
}
102
{ACAD_XDICTIONARY
360
253
102
}
330
3B
100
AcDbMaterial
  1
ByBlock
  0
MATERIAL
  5
3C
102
{ACAD_REACTORS
330
3B
102
}
102
{ACAD_XDICTIONARY
360
251
102
}
330
3B
100
AcDbMaterial
  1
ByLayer
  0
MATERIAL
  5
3E
102
{ACAD_REACTORS
330
3B
102
}
102
{ACAD_XDICTIONARY
360
255
102
}
330
3B
100
AcDbMaterial
  1
Global
  0
MLINESTYLE
  5
18
102
{ACAD_REACTORS
330
17
102
}
330
17
100
AcDbMlineStyle
  2
Standard
 70
     0
  3

 62
   256
 51
90.0
 52
90.0
 71
     2
 49
0.5
 62
   256
  6
BYLAYER
 49
-0.5
 62
   256
  6
BYLAYER
  0
ACAD_PROXY_OBJECT
  5
2F
102
{ACAD_REACTORS
330
2A
102
}
330
2A
100
AcDbProxyObject
 90
      499
 91
      501
 93
      436
310
42CC9915DA5C99599C985B595049028333333333333E3BF0000000000000FB0107901411070040501600405405064090741402480A0340
1001
ACAD
1000
AcDbSavedByObjectVersion
1070
     0
  0
ACAD_PROXY_OBJECT
  5
31
102
{ACAD_REACTORS
330
2A
102
}
330
2A
100
AcDbProxyObject
 90
      499
 91
      501
 93
      500
310
424CD108121A5919195B90640502408333333333333E3BF0000000000000FB01079024090700405020000000000001110200405405064090740C02480A0340
1001
ACAD
1000
AcDbSavedByObjectVersion
1070
     0
  0
ACAD_PROXY_OBJECT
  5
30
102
{ACAD_REACTORS
330
2A
102
}
330
2A
100
AcDbProxyObject
 90
      499
 91
      501
 93
      436
310
42CCD915DA5C99599C985B595059028333333333333E3BF0000000000000FB0107901411070040501600405405064090741402480A0340
1001
ACAD
1000
AcDbSavedByObjectVersion
1070
     0
  0
ACAD_PROXY_OBJECT
  5
32
102
{ACAD_REACTORS
330
2A
102
}
330
2A
100
AcDbProxyObject
 90
      499
 91
      501
 93
      388
310
4150985CDA58D07406404333333333333E3BF0000000000000FB0107A41107004050150841D405064090741402480A0350
1001
ACAD
1000
AcDbSavedByObjectVersion
1070
     0
  0
ACAD_PROXY_OBJECT
  5
36
102
{ACAD_REACTORS
330
2A
102
}
330
2A
100
AcDbProxyObject
 90
      499
 91
      501
 93
      428
310
42109C9A59DA1D195B90C409028333333333333E3BF0000000000000FB010790141107004050150841D405064090741402480A029950
1001
ACAD
1000
AcDbSavedByObjectVersion
1070
     0
  0
ACAD_PROXY_OBJECT
  5
3A
102
{ACAD_REACTORS
330
2A
102
}
330
2A
100
AcDbProxyObject
 90
      499
 91
      501
 93
      452
310
42D0DBDB1BDC90DA185B99D95104090240C333333333333E3BF0000000000000FB0108901411070040501508421405064090741402480A0350
1001
ACAD
1000
AcDbSavedByObjectVersion
1070
     0
  0
ACAD_PROXY_OBJECT
  5
34
102
{ACAD_REACTORS
330
2A
102
}
330
2A
100
AcDbProxyObject
 90
      499
 91
      501
 93
      500
310
4290DBDB98D95C1D1D585B10940D028333333333333E3BF0000000000000FB0107902409070040501000000000000111010841D405064090740C02480A0340
1001
ACAD
1000
AcDbSavedByObjectVersion
1070
     0
  0
ACAD_PROXY_OBJECT
  5
35
102
{ACAD_REACTORS
330
2A
102
}
330
2A
100
AcDbProxyObject
 90
      499
 91
      501
 93
      412
310
40D11A5B50B409028333333333333E3BF0000000000000FB010790141107004050150841D405064090741402480A02677FFFFFD0
1001
ACAD
1000
AcDbSavedByObjectVersion
1070
     0
  0
ACAD_PROXY_OBJECT
  5
39
102
{ACAD_REACTORS
330
2A
102
}
330
2A
100
AcDbProxyObject
 90
      499
 91
      501
 93
      444
310
42D19858D95C185D1D195C9B90F409028333333333333E3BF0000000000000FB010790141107004050150841D405064090741402480A0350
1001
ACAD
1000
AcDbSavedByObjectVersion
1070
     0
  0
ACAD_PROXY_OBJECT
  5
2B
102
{ACAD_REACTORS
330
2A
102
}
330
2A
100
AcDbProxyObject
 90
      499
 91
      501
 93
      388
310
41119B185D240901404333333333333E3BF0000000000000F9010740A41107004050150841D405064090741402480A1B50
1001
ACAD
1000
AcDbSavedByObjectVersion
1070
     0
  0
ACAD_PROXY_OBJECT
  5
2C
102
{ACAD_REACTORS
330
2A
102
}
330
2A
100
AcDbProxyObject
 90
      499
 91
      501
 93
      476
310
43519B185D15DA5D1A115919D95CD0140901404333333333333E3BF0000000000000F9010740901411070040501600405405064090741402480A1B50
1001
ACAD
1000
AcDbSavedByObjectVersion
1070
     0
  0
ACAD_PROXY_OBJECT
  5
2D
102
{ACAD_REACTORS
330
2A
102
}
330
2A
100
AcDbProxyObject
 90
      499
 91
      501
 93
      412
310
41D1DBDD5C985D5910240902404333333333333E3BF0000000000000F9010740A411070040501641D405064090741402480A1B50
1001
ACAD
1000
AcDbSavedByObjectVersion
1070
     0
  0
ACAD_PROXY_OBJECT
  5
2E
102
{ACAD_REACTORS
330
2A
102
}
330
2A
100
AcDbProxyObject
 90
      499
 91
      501
 93
      500
310
4411DBDD5C985D5915DA5D1A115919D95CD0340902404333333333333E3BF0000000000000F9010740901411070040501600405405064090741402480A1B50
1001
ACAD
1000
AcDbSavedByObjectVersion
1070
     0
  0
ACAD_PROXY_OBJECT
  5
38
102
{ACAD_REACTORS
330
2A
102
}
330
2A
100
AcDbProxyObject
 90
      499
 91
      501
 93
      444
310
42D31A5B995C185D1D195C9B90E409028333333333333E3BF0000000000000FB010790141107004050750841D405064090741402483A0350
1001
ACAD
1000
AcDbSavedByObjectVersion
1070
     0
  0
ACAD_PROXY_OBJECT
  5
33
102
{ACAD_REACTORS
330
2A
102
}
330
2A
100
AcDbProxyObject
 90
      499
 91
      501
 93
      420
310
425499585B1A5CDD1A58D08409028333333333333E3BF0000000000000FB01079019070040501508421405064090741402480A1B40
1001
ACAD
1000
AcDbSavedByObjectVersion
1070
     0
  0
ACAD_PROXY_OBJECT
  5
37
102
{ACAD_REACTORS
330
2A
102
}
330
2A
100
AcDbProxyObject
 90
      499
 91
      501
 93
      412
310
41D51A1A58DAD95B90D409028333333333333E3BF0000000000000FB010790141107004050150C41D405064090741402480A0350
1001
ACAD
1000
AcDbSavedByObjectVersion
1070
     0
  0
XRECORD
  5
235
102
{ACAD_REACTORS
330
22C
102
}
330
22C
100
AcDbXrecord
 90
        0
  0
XRECORD
  5
24B
102
{ACAD_REACTORS
330
22C
102
}
330
22C
100
AcDbXrecord
1000
DSTYLE
1002
{
1070
   171
 70
     2
1070
   143
 40
25.4
1070
   274
 70
     2
1070
    41
 40
1.55291427
1070
   289
 70
     2
1070
   141
 40
0.09
1070
    43
 40
30.0
1070
   278
 70
    46
1070
    44
 40
2.0
1070
    42
 40
2.0
1070
   147
 40
0.09
1070
    77
 70
     3
1070
   272
 70
     4
1070
   146
 40
0.5
1070
   279
 70
     2
1070
   283
 70
     1
1070
   145
 40
0.7
1070
   340
340
11
1070
   140
 40
2.8
1070
   288
 70
     1
1002
}
  0
XRECORD
  5
236
102
{ACAD_REACTORS
330
22C
102
}
330
22C
100
AcDbXrecord
  1
{A0597333-09D3-4E3C-BBFB-70E8094FCD9E}
  0
XRECORD
  5
22F
102
{ACAD_REACTORS
330
22C
102
}
330
22C
100
AcDbXrecord
  1

  0
XRECORD
  5
234
102
{ACAD_REACTORS
330
22C
102
}
330
22C
100
AcDbXrecord
 90
        4
  0
XRECORD
  5
231
102
{ACAD_REACTORS
330
22C
102
}
330
22C
100
AcDbXrecord
340
1A
  0
XRECORD
  5
233
102
{ACAD_REACTORS
330
22C
102
}
330
22C
100
AcDbXrecord
 90
    10781
  0
XRECORD
  5
232
102
{ACAD_REACTORS
330
22C
102
}
330
22C
100
AcDbXrecord
340
19
  0
XRECORD
  5
238
102
{ACAD_REACTORS
330
22C
102
}
330
22C
100
AcDbXrecord
 40
0.0
  0
XRECORD
  5
23B
102
{ACAD_REACTORS
330
22C
102
}
330
22C
100
AcDbXrecord
340
0
  0
XRECORD
  5
241
102
{ACAD_REACTORS
330
22C
102
}
330
22C
100
AcDbXrecord
 10
0.0
 20
0.0
 30
0.0
  0
XRECORD
  5
23D
102
{ACAD_REACTORS
330
22C
102
}
330
22C
100
AcDbXrecord
 10
0.0
 20
0.0
 30
0.0
  0
XRECORD
  5
240
102
{ACAD_REACTORS
330
22C
102
}
330
22C
100
AcDbXrecord
 10
0.0
 20
0.0
 30
0.0
  0
XRECORD
  5
23E
102
{ACAD_REACTORS
330
22C
102
}
330
22C
100
AcDbXrecord
 10
0.0
 20
0.0
 30
0.0
  0
XRECORD
  5
23F
102
{ACAD_REACTORS
330
22C
102
}
330
22C
100
AcDbXrecord
 10
0.0
 20
0.0
 30
0.0
  0
XRECORD
  5
23C
102
{ACAD_REACTORS
330
22C
102
}
330
22C
100
AcDbXrecord
 10
0.0
 20
0.0
 30
0.0
  0
XRECORD
  5
239
102
{ACAD_REACTORS
330
22C
102
}
330
22C
100
AcDbXrecord
340
0
  0
XRECORD
  5
23A
102
{ACAD_REACTORS
330
22C
102
}
330
22C
100
AcDbXrecord
 70
     0
  0
XRECORD
  5
230
102
{ACAD_REACTORS
330
22C
102
}
330
22C
100
AcDbXrecord
  1

  0
XRECORD
  5
22D
102
{ACAD_REACTORS
330
22C
102
}
330
22C
100
AcDbXrecord
 90
        1
  0
XRECORD
  5
22E
102
{ACAD_REACTORS
330
22C
102
}
330
22C
100
AcDbXrecord
 90
       70
  0
XRECORD
  5
244
102
{ACAD_REACTORS
330
22C
102
}
330
22C
100
AcDbXrecord
340
0
  0
XRECORD
  5
24A
102
{ACAD_REACTORS
330
22C
102
}
330
22C
100
AcDbXrecord
 10
0.0
 20
0.0
 30
0.0
  0
XRECORD
  5
246
102
{ACAD_REACTORS
330
22C
102
}
330
22C
100
AcDbXrecord
 10
0.0
 20
0.0
 30
0.0
  0
XRECORD
  5
249
102
{ACAD_REACTORS
330
22C
102
}
330
22C
100
AcDbXrecord
 10
0.0
 20
0.0
 30
0.0
  0
XRECORD
  5
247
102
{ACAD_REACTORS
330
22C
102
}
330
22C
100
AcDbXrecord
 10
0.0
 20
0.0
 30
0.0
  0
XRECORD
  5
248
102
{ACAD_REACTORS
330
22C
102
}
330
22C
100
AcDbXrecord
 10
0.0
 20
0.0
 30
0.0
  0
XRECORD
  5
245
102
{ACAD_REACTORS
330
22C
102
}
330
22C
100
AcDbXrecord
 10
0.0
 20
0.0
 30
0.0
  0
XRECORD
  5
242
102
{ACAD_REACTORS
330
22C
102
}
330
22C
100
AcDbXrecord
340
0
  0
XRECORD
  5
243
102
{ACAD_REACTORS
330
22C
102
}
330
22C
100
AcDbXrecord
 70
     0
  0
XRECORD
  5
237
102
{ACAD_REACTORS
330
22C
102
}
330
22C
100
AcDbXrecord
  1
{FAEB1C32-E019-11D5-929B-00C0DF256EC4}
  0
DICTIONARYVAR
  5
24F
102
{ACAD_REACTORS
330
24C
102
}
330
24C
100
DictionaryVariables
280
     0
  1
1
  0
DICTIONARYVAR
  5
250
102
{ACAD_REACTORS
330
24C
102
}
330
24C
100
DictionaryVariables
280
     0
  1
1
  0
DICTIONARY
  5
253
330
3D
100
AcDbDictionary
280
     1
  3
ACAD_XREC_ROUNDTRIP
360
254
  0
DICTIONARY
  5
251
330
3C
100
AcDbDictionary
280
     1
  3
ACAD_XREC_ROUNDTRIP
360
252
  0
DICTIONARY
  5
255
330
3E
100
AcDbDictionary
280
     1
  3
ACAD_XREC_ROUNDTRIP
360
256
  0
XRECORD
  5
254
102
{ACAD_REACTORS
330
253
102
}
330
253
100
AcDbXrecord
102
MATERIAL
148
0.0
149
0.0
149
0.0
 93
        0
 94
      127
282
     0
 72
     1
 77
     1
171
     1
175
     1
179
     1
273
     0
  0
XRECORD
  5
252
102
{ACAD_REACTORS
330
251
102
}
330
251
100
AcDbXrecord
102
MATERIAL
148
0.0
149
0.0
149
0.0
 93
        0
 94
      127
282
     0
 72
     1
 77
     1
171
     1
175
     1
179
     1
273
     0
  0
XRECORD
  5
256
102
{ACAD_REACTORS
330
255
102
}
330
255
100
AcDbXrecord
102
MATERIAL
148
0.0
149
0.0
149
0.0
 93
        0
 94
      127
282
     0
 72
     1
 77
     1
171
     1
175
     1
179
     1
273
     0
  0
ENDSEC
  0
EOF
