  0
SECTION
  2
HEADER
  9
$ACADVER
  1
AC1027
  9
$ACADMAINTVER
 70
     8
  9
$DWGCODEPAGE
  3
ANSI_932
  9
$REQUIREDVERSIONS
160
                 0
  9
$INSBASE
 10
0.0
 20
0.0
 30
0.0
  9
$EXTMIN
 10
184.4779852066813
 20
56.83015230946671
 30
0.0
  9
$EXTMAX
 10
696.4940742273639
 20
543.1043250952994
 30
0.0
  9
$LIMMIN
 10
0.0
 20
0.0
  9
$LIMMAX
 10
420.0
 20
297.0
  9
$ORTHOMODE
 70
     0
  9
$REGENMODE
 70
     1
  9
$FILLMODE
 70
     1
  9
$QTEXTMODE
 70
     0
  9
$MIRRTEXT
 70
     1
  9
$LTSCALE
 40
0.5
  9
$ATTMODE
 70
     1
  9
$TEXTSIZE
 40
5.6
  9
$TRACEWID
 40
0.05
  9
$TEXTSTYLE
  7
Standard
  9
$CLAYER
  8
0
  9
$CELTYPE
  6
ByLayer
  9
$CECOLOR
 62
   256
  9
$CELTSCALE
 40
1.0
  9
$DISPSILH
 70
     0
  9
$DIMSCALE
 40
1.0
  9
$DIMASZ
 40
1.55291427
  9
$DIMEXO
 40
2.0
  9
$DIMDLI
 40
30.0
  9
$DIMRND
 40
0.0
  9
$DIMDLE
 40
0.0
  9
$DIMEXE
 40
2.0
  9
$DIMTP
 40
0.0
  9
$DIMTM
 40
0.0
  9
$DIMTXT
 40
2.8
  9
$DIMCEN
 40
0.09
  9
$DIMTSZ
 40
0.0
  9
$DIMTOL
 70
     0
  9
$DIMLIM
 70
     0
  9
$DIMTIH
 70
     0
  9
$DIMTOH
 70
     0
  9
$DIMSE1
 70
     0
  9
$DIMSE2
 70
     0
  9
$DIMTAD
 70
     3
  9
$DIMZIN
 70
     8
  9
$DIMBLK
  1

  9
$DIMASO
 70
     1
  9
$DIMSHO
 70
     1
  9
$DIMPOST
  1

  9
$DIMAPOST
  1

  9
$DIMALT
 70
     0
  9
$DIMALTD
 70
     2
  9
$DIMALTF
 40
25.4
  9
$DIMLFAC
 40
1.0
  9
$DIMTOFL
 70
     1
  9
$DIMTVP
 40
0.7
  9
$DIMTIX
 70
     0
  9
$DIMSOXD
 70
     0
  9
$DIMSAH
 70
     0
  9
$DIMBLK1
  1

  9
$DIMBLK2
  1

  9
$DIMSTYLE
  2
Standard
  9
$DIMCLRD
 70
     0
  9
$DIMCLRE
 70
     0
  9
$DIMCLRT
 70
     0
  9
$DIMTFAC
 40
0.5
  9
$DIMGAP
 40
0.09
  9
$DIMJUST
 70
     0
  9
$DIMSD1
 70
     0
  9
$DIMSD2
 70
     0
  9
$DIMTOLJ
 70
     1
  9
$DIMTZIN
 70
     8
  9
$DIMALTZ
 70
     0
  9
$DIMALTTZ
 70
     0
  9
$DIMUPT
 70
     1
  9
$DIMDEC
 70
     2
  9
$DIMTDEC
 70
     4
  9
$DIMALTU
 70
     2
  9
$DIMALTTD
 70
     2
  9
$DIMTXSTY
  7
Standard
  9
$DIMAUNIT
 70
     0
  9
$DIMADEC
 70
     0
  9
$DIMALTRND
 40
0.0
  9
$DIMAZIN
 70
     0
  9
$DIMDSEP
 70
    46
  9
$DIMATFIT
 70
     2
  9
$DIMFRAC
 70
     0
  9
$DIMLDRBLK
  1

  9
$DIMLUNIT
 70
     2
  9
$DIMLWD
 70
    -2
  9
$DIMLWE
 70
    -2
  9
$DIMTMOVE
 70
     2
  9
$DIMFXL
 40
1.0
  9
$DIMFXLON
 70
     0
  9
$DIMJOGANG
 40
0.7853981633974483
  9
$DIMTFILL
 70
     0
  9
$DIMTFILLCLR
 70
     0
  9
$DIMARCSYM
 70
     0
  9
$DIMLTYPE
  6

  9
$DIMLTEX1
  6

  9
$DIMLTEX2
  6

  9
$DIMTXTDIRECTION
 70
     0
  9
$LUNITS
 70
     2
  9
$LUPREC
 70
     4
  9
$SKETCHINC
 40
0.1
  9
$FILLETRAD
 40
0.5
  9
$AUNITS
 70
     0
  9
$AUPREC
 70
     0
  9
$MENU
  1
.
  9
$ELEVATION
 40
0.0
  9
$PELEVATION
 40
0.0
  9
$THICKNESS
 40
0.0
  9
$LIMCHECK
 70
     0
  9
$CHAMFERA
 40
0.0
  9
$CHAMFERB
 40
0.0
  9
$CHAMFERC
 40
0.0
  9
$CHAMFERD
 40
0.0
  9
$SKPOLY
 70
     0
  9
$TDCREATE
 40
2460053.963634259
  9
$TDUCREATE
 40
2460053.588634259
  9
$TDUPDATE
 40
2460053.588643993
  9
$TDUUPDATE
 40
2460053.213643993
  9
$TDINDWG
 40
0.0000000116
  9
$TDUSRTIMER
 40
0.0000000116
  9
$USRTIMER
 70
     1
  9
$ANGBASE
 50
0.0
  9
$ANGDIR
 70
     0
  9
$PDMODE
 70
     0
  9
$PDSIZE
 40
0.0
  9
$PLINEWID
 40
0.0
  9
$SPLFRAME
 70
     0
  9
$SPLINETYPE
 70
     6
  9
$SPLINESEGS
 70
     8
  9
$HANDSEED
  5
243
  9
$SURFTAB1
 70
     6
  9
$SURFTAB2
 70
     6
  9
$SURFTYPE
 70
     6
  9
$SURFU
 70
     6
  9
$SURFV
 70
     6
  9
$UCSBASE
  2

  9
$UCSNAME
  2

  9
$UCSORG
 10
0.0
 20
0.0
 30
0.0
  9
$UCSXDIR
 10
1.0
 20
0.0
 30
0.0
  9
$UCSYDIR
 10
0.0
 20
1.0
 30
0.0
  9
$UCSORTHOREF
  2

  9
$UCSORTHOVIEW
 70
     0
  9
$UCSORGTOP
 10
0.0
 20
0.0
 30
0.0
  9
$UCSORGBOTTOM
 10
0.0
 20
0.0
 30
0.0
  9
$UCSORGLEFT
 10
0.0
 20
0.0
 30
0.0
  9
$UCSORGRIGHT
 10
0.0
 20
0.0
 30
0.0
  9
$UCSORGFRONT
 10
0.0
 20
0.0
 30
0.0
  9
$UCSORGBACK
 10
0.0
 20
0.0
 30
0.0
  9
$PUCSBASE
  2

  9
$PUCSNAME
  2

  9
$PUCSORG
 10
0.0
 20
0.0
 30
0.0
  9
$PUCSXDIR
 10
1.0
 20
0.0
 30
0.0
  9
$PUCSYDIR
 10
0.0
 20
1.0
 30
0.0
  9
$PUCSORTHOREF
  2

  9
$PUCSORTHOVIEW
 70
     0
  9
$PUCSORGTOP
 10
0.0
 20
0.0
 30
0.0
  9
$PUCSORGBOTTOM
 10
0.0
 20
0.0
 30
0.0
  9
$PUCSORGLEFT
 10
0.0
 20
0.0
 30
0.0
  9
$PUCSORGRIGHT
 10
0.0
 20
0.0
 30
0.0
  9
$PUCSORGFRONT
 10
0.0
 20
0.0
 30
0.0
  9
$PUCSORGBACK
 10
0.0
 20
0.0
 30
0.0
  9
$USERI1
 70
     0
  9
$USERI2
 70
     0
  9
$USERI3
 70
     0
  9
$USERI4
 70
     0
  9
$USERI5
 70
     0
  9
$USERR1
 40
0.0
  9
$USERR2
 40
0.0
  9
$USERR3
 40
0.0
  9
$USERR4
 40
0.0
  9
$USERR5
 40
0.0
  9
$WORLDVIEW
 70
     1
  9
$SHADEDGE
 70
     3
  9
$SHADEDIF
 70
    70
  9
$TILEMODE
 70
     1
  9
$MAXACTVP
 70
    64
  9
$PINSBASE
 10
0.0
 20
0.0
 30
0.0
  9
$PLIMCHECK
 70
     0
  9
$PEXTMIN
 10
0.0
 20
0.0
 30
0.0
  9
$PEXTMAX
 10
420.0
 20
297.0
 30
0.0
  9
$PLIMMIN
 10
0.0
 20
0.0
  9
$PLIMMAX
 10
420.0
 20
297.0
  9
$UNITMODE
 70
     0
  9
$VISRETAIN
 70
     1
  9
$PLINEGEN
 70
     0
  9
$PSLTSCALE
 70
     1
  9
$TREEDEPTH
 70
  3020
  9
$CMLSTYLE
  2
Standard
  9
$CMLJUST
 70
     0
  9
$CMLSCALE
 40
1.0
  9
$PROXYGRAPHICS
 70
     1
  9
$MEASUREMENT
 70
     1
  9
$CELWEIGHT
370
    -1
  9
$ENDCAPS
280
     0
  9
$JOINSTYLE
280
     0
  9
$LWDISPLAY
290
     0
  9
$INSUNITS
 70
     4
  9
$HYPERLINKBASE
  1

  9
$STYLESHEET
  1

  9
$XEDIT
290
     1
  9
$CEPSNTYPE
380
     0
  9
$PSTYLEMODE
290
     1
  9
$FINGERPRINTGUID
  2
{A51C2A27-47C0-4C2C-979C-DDA0D6CFE257}
  9
$VERSIONGUID
  2
{FAEB1C32-E019-11D5-929B-00C0DF256EC4}
  9
$EXTNAMES
290
     1
  9
$PSVPSCALE
 40
0.0
  9
$OLESTARTUP
290
     0
  9
$SORTENTS
280
   127
  9
$INDEXCTL
280
     0
  9
$HIDETEXT
280
     1
  9
$XCLIPFRAME
280
     2
  9
$HALOGAP
280
     0
  9
$OBSCOLOR
 70
   257
  9
$OBSLTYPE
280
     0
  9
$INTERSECTIONDISPLAY
280
     0
  9
$INTERSECTIONCOLOR
 70
   257
  9
$DIMASSOC
280
     1
  9
$PROJECTNAME
  1

  9
$CAMERADISPLAY
290
     0
  9
$LENSLENGTH
 40
50.0
  9
$CAMERAHEIGHT
 40
0.0
  9
$STEPSPERSEC
 40
2.0
  9
$STEPSIZE
 40
6.0
  9
$3DDWFPREC
 40
2.0
  9
$PSOLWIDTH
 40
0.25
  9
$PSOLHEIGHT
 40
4.0
  9
$LOFTANG1
 40
1.570796326794897
  9
$LOFTANG2
 40
1.570796326794897
  9
$LOFTMAG1
 40
0.0
  9
$LOFTMAG2
 40
0.0
  9
$LOFTPARAM
 70
     7
  9
$LOFTNORMALS
280
     1
  9
$LATITUDE
 40
37.795
  9
$LONGITUDE
 40
-122.394
  9
$NORTHDIRECTION
 40
0.0
  9
$TIMEZONE
 70
 -8000
  9
$LIGHTGLYPHDISPLAY
280
     1
  9
$TILEMODELIGHTSYNCH
280
     1
  9
$CMATERIAL
347
44
  9
$SOLIDHIST
280
     1
  9
$SHOWHIST
280
     1
  9
$DWFFRAME
280
     2
  9
$DGNFRAME
280
     2
  9
$REALWORLDSCALE
290
     1
  9
$INTERFERECOLOR
 62
   256
  9
$CSHADOW
280
     0
  9
$SHADOWPLANELOCATION
 40
0.0
  0
ENDSEC
  0
SECTION
  2
CLASSES
  0
CLASS
  1
ACDBDICTIONARYWDFLT
  2
AcDbDictionaryWithDefault
  3
ObjectDBX Classes
 90
        0
 91
        4
280
     0
281
     0
  0
CLASS
  1
VISUALSTYLE
  2
AcDbVisualStyle
  3
ObjectDBX Classes
 90
     4095
 91
        4
280
     0
281
     0
  0
CLASS
  1
MATERIAL
  2
AcDbMaterial
  3
ObjectDBX Classes
 90
     1153
 91
        4
280
     0
281
     0
  0
CLASS
  1
SCALE
  2
AcDbScale
  3
ObjectDBX Classes
 90
     1153
 91
        4
280
     0
281
     0
  0
CLASS
  1
SUN
  2
AcDbSun
  3
SCENEOE
 90
     1153
 91
        4
280
     0
281
     0
  0
CLASS
  1
DICTIONARYVAR
  2
AcDbDictionaryVar
  3
ObjectDBX Classes
 90
        0
 91
        4
280
     0
281
     0
  0
ENDSEC
  0
SECTION
  2
TABLES
  0
TABLE
  2
VPORT
  5
8
330
0
100
AcDbSymbolTable
 70
     1
  0
VPORT
  5
29
330
8
100
AcDbSymbolTableRecord
100
AcDbViewportTableRecord
  2
*Active
 70
     0
 10
0.0
 20
0.0
 11
1.0
 21
1.0
 12
10.42990654205607
 22
4.5
 13
0.0
 23
0.0
 14
0.5
 24
0.5
 15
0.5
 25
0.5
 16
0.0
 26
0.0
 36
1.0
 17
0.0
 27
0.0
 37
0.0
 40
9.0
 41
1.972972972850329
 42
50.0
 43
0.0
 44
0.0
 50
0.0
 51
0.0
 71
     0
 72
   100
 73
     1
 74
     3
 75
     0
 76
     0
 77
     0
 78
     0
281
     0
 65
     1
110
0.0
120
0.0
130
0.0
111
1.0
121
0.0
131
0.0
112
0.0
122
1.0
132
0.0
 79
     0
146
0.0
 60
     3
 61
     5
292
     1
282
     1
141
0.0
142
0.0
 63
   250
361
69
  0
ENDTAB
  0
TABLE
  2
LTYPE
  5
5
330
0
100
AcDbSymbolTable
 70
     9
  0
LTYPE
  5
14
330
5
100
AcDbSymbolTableRecord
100
AcDbLinetypeTableRecord
  2
ByBlock
 70
     0
  3

 72
    65
 73
     0
 40
0.0
  0
LTYPE
  5
15
330
5
100
AcDbSymbolTableRecord
100
AcDbLinetypeTableRecord
  2
ByLayer
 70
     0
  3

 72
    65
 73
     0
 40
0.0
  0
LTYPE
  5
16
330
5
100
AcDbSymbolTableRecord
100
AcDbLinetypeTableRecord
  2
Continuous
 70
     0
  3
Solid line
 72
    65
 73
     0
 40
0.0
  0
LTYPE
  5
B9
330
5
100
AcDbSymbolTableRecord
100
AcDbLinetypeTableRecord
  2
DOT
 70
     0
  3
DOT
 72
    65
 73
     2
 40
4.0
 49
6.0
 74
     0
 49
-2.0
 74
     0
  0
LTYPE
  5
BA
330
5
100
AcDbSymbolTableRecord
100
AcDbLinetypeTableRecord
  2
HIDDEN
 70
     0
  3
HIDDEN
 72
    65
 73
     2
 40
4.2
 49
8.4
 74
     0
 49
-4.2
 74
     0
  0
LTYPE
  5
BB
330
5
100
AcDbSymbolTableRecord
100
AcDbLinetypeTableRecord
  2
DASHDOT
 70
     0
  3
DASHDOT
 72
    65
 73
     4
 40
14.5
 49
30.0
 74
     0
 49
-9.0
 74
     0
 49
2.5
 74
     0
 49
-9.0
 74
     0
  0
LTYPE
  5
BC
330
5
100
AcDbSymbolTableRecord
100
AcDbLinetypeTableRecord
  2
PHANTOM
 70
     0
  3
PHANTOM
 72
    65
 73
     6
 40
12.0
 49
30.0
 74
     0
 49
-9.0
 74
     0
 49
2.5
 74
     0
 49
-5.0
 74
     0
 49
2.5
 74
     0
 49
-9.0
 74
     0
  0
LTYPE
  5
BD
330
5
100
AcDbSymbolTableRecord
100
AcDbLinetypeTableRecord
  2
ACAD_ISO14W100
 70
     0
  3
ACAD_ISO14W100
 72
    65
 73
     8
 40
1.5
 49
12.0
 74
     0
 49
-3.0
 74
     0
 49
0.5
 74
     0
 49
-3.0
 74
     0
 49
0.5
 74
     0
 49
-3.0
 74
     0
 49
0.5
 74
     0
 49
-3.0
 74
     0
  0
LTYPE
  5
BE
330
5
100
AcDbSymbolTableRecord
100
AcDbLinetypeTableRecord
  2
ACAD_ISO06W100
 70
     0
  3
ACAD_ISO06W100
 72
    65
 73
     8
 40
13.5
 49
24.0
 74
     0
 49
-3.0
 74
     0
 49
0.5
 74
     0
 49
-3.0
 74
     0
 49
0.5
 74
     0
 49
-3.0
 74
     0
 49
0.5
 74
     0
 49
-3.0
 74
     0
  0
LTYPE
  5
BF
330
5
100
AcDbSymbolTableRecord
100
AcDbLinetypeTableRecord
  2
ACAD_ISO11W100
 70
     0
  3
ACAD_ISO11W100
 72
    65
 73
     6
 40
15.5
 49
12.0
 74
     0
 49
-3.0
 74
     0
 49
12.0
 74
     0
 49
-3.0
 74
     0
 49
0.5
 74
     0
 49
-3.0
 74
     0
  0
LTYPE
  5
C0
330
5
100
AcDbSymbolTableRecord
100
AcDbLinetypeTableRecord
  2
ACAD_ISO13W100
 70
     0
  3
ACAD_ISO13W100
 72
    65
 73
     8
 40
13.0
 49
12.0
 74
     0
 49
-3.0
 74
     0
 49
12.0
 74
     0
 49
-3.0
 74
     0
 49
0.5
 74
     0
 49
-3.0
 74
     0
 49
0.5
 74
     0
 49
-3.0
 74
     0
  0
ENDTAB
  0
TABLE
  2
LAYER
  5
2
330
0
100
AcDbSymbolTable
 70
    10
  0
LAYER
  5
10
330
2
100
AcDbSymbolTableRecord
100
AcDbLayerTableRecord
  2
0
 70
     0
 62
     7
  6
Continuous
370
    -3
390
F
347
46
348
0
  0
LAYER
  5
C1
330
2
100
AcDbSymbolTableRecord
100
AcDbLayerTableRecord
  2
1
 70
     0
 62
     7
  6
Continuous
370
     9
390
F
347
46
348
0
  0
LAYER
  5
C2
330
2
100
AcDbSymbolTableRecord
100
AcDbLayerTableRecord
  2
2
 70
     0
 62
     7
  6
Continuous
370
     9
390
F
347
46
348
0
  0
LAYER
  5
C3
330
2
100
AcDbSymbolTableRecord
100
AcDbLayerTableRecord
  2
3
 70
     0
 62
   151
  6
Continuous
370
    20
390
F
347
46
348
0
  0
LAYER
  5
C4
330
2
100
AcDbSymbolTableRecord
100
AcDbLayerTableRecord
  2
4
 70
     0
 62
     1
  6
DASHDOT
370
     9
390
F
347
46
348
0
  0
LAYER
  5
C5
330
2
100
AcDbSymbolTableRecord
100
AcDbLayerTableRecord
  2
5
 70
     0
 62
     6
  6
Continuous
370
     9
390
F
347
46
348
0
  0
LAYER
  5
C6
330
2
100
AcDbSymbolTableRecord
100
AcDbLayerTableRecord
  2
6
 70
     0
 62
     3
  6
Continuous
370
    40
390
F
347
46
348
0
  0
LAYER
  5
C7
330
2
100
AcDbSymbolTableRecord
100
AcDbLayerTableRecord
  2
7
 70
     0
 62
     4
  6
Continuous
370
     9
390
F
347
46
348
0
  0
LAYER
  5
C8
330
2
100
AcDbSymbolTableRecord
100
AcDbLayerTableRecord
  2
8
 70
     0
 62
     2
  6
Continuous
370
     9
390
F
347
46
348
0
  0
LAYER
  5
C9
330
2
100
AcDbSymbolTableRecord
100
AcDbLayerTableRecord
  2
9
 70
     0
 62
     7
  6
Continuous
370
    25
390
F
347
46
348
0
  0
ENDTAB
  0
TABLE
  2
STYLE
  5
3
330
0
100
AcDbSymbolTable
 70
     3
  0
STYLE
  5
11
330
3
100
AcDbSymbolTableRecord
100
AcDbTextStyleTableRecord
  2
Standard
 70
     0
 40
0.0
 41
1.0
 50
0.0
 71
     0
 42
5.6
  3
txt
  4
bigfont
  0
STYLE
  5
6C
330
3
100
AcDbSymbolTableRecord
100
AcDbTextStyleTableRecord
  2
T_STANDARD
 70
     4
 40
10.0
 41
1.0
 50
0.0
 71
     0
 42
5.6
  3
txt
  4
bigfont
1001
ACAD
1000

1071
      256
  0
STYLE
  5
196
330
3
100
AcDbSymbolTableRecord
100
AcDbTextStyleTableRecord
  2
ＭＳ ゴシック
 70
     0
 40
0.0
 41
1.0
 50
0.0
 71
     0
 42
5.6
  3

  4

1001
ACAD
1000
ＭＳ ゴシック
1071
      256
  0
ENDTAB
  0
TABLE
  2
VIEW
  5
6
330
0
100
AcDbSymbolTable
 70
     0
  0
ENDTAB
  0
TABLE
  2
UCS
  5
7
330
0
100
AcDbSymbolTable
 70
     0
  0
ENDTAB
  0
TABLE
  2
APPID
  5
9
330
0
100
AcDbSymbolTable
 70
     2
  0
APPID
  5
12
330
9
100
AcDbSymbolTableRecord
100
AcDbRegAppTableRecord
  2
ACAD
 70
     0
  0
APPID
  5
6B
330
9
100
AcDbSymbolTableRecord
100
AcDbRegAppTableRecord
  2
ODA
 70
     0
  0
ENDTAB
  0
TABLE
  2
DIMSTYLE
  5
A
330
0
100
AcDbSymbolTable
 70
     1
100
AcDbDimStyleTable
  0
DIMSTYLE
105
27
102
{ACAD_REACTORS
330
1A0
330
1AA
330
1B4
330
1BE
330
1C9
330
1D4
330
1DE
330
1E8
330
1F2
330
201
330
20B
330
215
102
}
330
A
100
AcDbSymbolTableRecord
100
AcDbDimStyleTableRecord
  2
Standard
 70
     0
178
     0
340
11
  0
ENDTAB
  0
TABLE
  2
BLOCK_RECORD
  5
1
330
0
100
AcDbSymbolTable
 70
    28
  0
BLOCK_RECORD
  5
1F
330
1
100
AcDbSymbolTableRecord
100
AcDbBlockTableRecord
  2
*Model_Space
340
22
 70
     0
280
     1
281
     0
  0
BLOCK_RECORD
  5
1B
330
1
100
AcDbSymbolTableRecord
100
AcDbBlockTableRecord
  2
*Paper_Space
340
1E
 70
     0
280
     1
281
     0
  0
BLOCK_RECORD
  5
23
330
1
100
AcDbSymbolTableRecord
100
AcDbBlockTableRecord
  2
*Paper_Space0
340
26
 70
     0
280
     1
281
     0
  0
BLOCK_RECORD
  5
6D
330
1
100
AcDbSymbolTableRecord
100
AcDbBlockTableRecord
  2
_ORIGIN
340
0
 70
     0
280
     1
281
     0
  0
BLOCK_RECORD
  5
72
330
1
100
AcDbSymbolTableRecord
100
AcDbBlockTableRecord
  2
_DOTBLANK
340
0
 70
     0
280
     1
281
     0
  0
BLOCK_RECORD
  5
77
330
1
100
AcDbSymbolTableRecord
100
AcDbBlockTableRecord
  2
_DOT
340
0
 70
     0
280
     1
281
     0
  0
BLOCK_RECORD
  5
7C
330
1
100
AcDbSymbolTableRecord
100
AcDbBlockTableRecord
  2
_OPEN
340
0
102
{BLKREFS
331
236
102
}
 70
     0
280
     1
281
     0
  0
BLOCK_RECORD
  5
82
330
1
100
AcDbSymbolTableRecord
100
AcDbBlockTableRecord
  2
_CLOSED
340
0
 70
     0
280
     1
281
     0
  0
BLOCK_RECORD
  5
89
330
1
100
AcDbSymbolTableRecord
100
AcDbBlockTableRecord
  2
_CLOSEDBLANK
340
0
 70
     0
280
     1
281
     0
  0
BLOCK_RECORD
  5
8F
330
1
100
AcDbSymbolTableRecord
100
AcDbBlockTableRecord
  2
_ARROWFILLED
340
0
102
{BLKREFS
331
19E
331
19F
331
1A8
331
1A9
331
1B2
331
1B3
331
1BC
331
1BD
331
1C7
331
1C8
331
1D2
331
1D3
331
1DC
331
1DD
331
1E6
331
1E7
331
1F0
331
1F1
331
1FF
331
200
331
209
331
20A
331
213
331
214
102
}
 70
     0
280
     1
281
     0
  0
BLOCK_RECORD
  5
93
330
1
100
AcDbSymbolTableRecord
100
AcDbBlockTableRecord
  2
_BOXBLANK
340
0
 70
     0
280
     1
281
     0
  0
BLOCK_RECORD
  5
9B
330
1
100
AcDbSymbolTableRecord
100
AcDbBlockTableRecord
  2
_BOXFILLED
340
0
 70
     0
280
     1
281
     0
  0
BLOCK_RECORD
  5
A0
330
1
100
AcDbSymbolTableRecord
100
AcDbBlockTableRecord
  2
_INTEGRAL
340
0
 70
     0
280
     1
281
     0
  0
BLOCK_RECORD
  5
A5
330
1
100
AcDbSymbolTableRecord
100
AcDbBlockTableRecord
  2
_OBLIQUE
340
0
 70
     0
280
     1
281
     0
  0
BLOCK_RECORD
  5
A9
330
1
100
AcDbSymbolTableRecord
100
AcDbBlockTableRecord
  2
_NONE
340
0
 70
     0
280
     1
281
     0
  0
BLOCK_RECORD
  5
AC
330
1
100
AcDbSymbolTableRecord
100
AcDbBlockTableRecord
  2
MARK_OPEN
340
0
 70
     0
280
     1
281
     0
  0
BLOCK_RECORD
  5
B1
330
1
100
AcDbSymbolTableRecord
100
AcDbBlockTableRecord
  2
MARK_ORIGIN
340
0
 70
     0
280
     1
281
     0
  0
BLOCK_RECORD
  5
B5
330
1
100
AcDbSymbolTableRecord
100
AcDbBlockTableRecord
  2
MARK_DOT
340
0
 70
     0
280
     1
281
     0
  0
BLOCK_RECORD
  5
197
330
1
100
AcDbSymbolTableRecord
100
AcDbBlockTableRecord
  2
Dim1
340
0
 70
     0
280
     1
281
     0
  0
BLOCK_RECORD
  5
1A1
330
1
100
AcDbSymbolTableRecord
100
AcDbBlockTableRecord
  2
Dim2
340
0
 70
     0
280
     1
281
     0
  0
BLOCK_RECORD
  5
1AB
330
1
100
AcDbSymbolTableRecord
100
AcDbBlockTableRecord
  2
Dim3
340
0
 70
     0
280
     1
281
     0
  0
BLOCK_RECORD
  5
1B5
330
1
100
AcDbSymbolTableRecord
100
AcDbBlockTableRecord
  2
Dim4
340
0
 70
     0
280
     1
281
     0
  0
BLOCK_RECORD
  5
1BF
330
1
100
AcDbSymbolTableRecord
100
AcDbBlockTableRecord
  2
Dim5
340
0
 70
     0
280
     1
281
     0
  0
BLOCK_RECORD
  5
1CA
330
1
100
AcDbSymbolTableRecord
100
AcDbBlockTableRecord
  2
Dim6
340
0
 70
     0
280
     1
281
     0
  0
BLOCK_RECORD
  5
1D5
330
1
100
AcDbSymbolTableRecord
100
AcDbBlockTableRecord
  2
Dim7
340
0
 70
     0
280
     1
281
     0
  0
BLOCK_RECORD
  5
1DF
330
1
100
AcDbSymbolTableRecord
100
AcDbBlockTableRecord
  2
Dim8
340
0
 70
     0
280
     1
281
     0
  0
BLOCK_RECORD
  5
1E9
330
1
100
AcDbSymbolTableRecord
100
AcDbBlockTableRecord
  2
Dim9
340
0
 70
     0
280
     1
281
     0
  0
BLOCK_RECORD
  5
1F8
330
1
100
AcDbSymbolTableRecord
100
AcDbBlockTableRecord
  2
Dim10
340
0
 70
     0
280
     1
281
     0
  0
BLOCK_RECORD
  5
202
330
1
100
AcDbSymbolTableRecord
100
AcDbBlockTableRecord
  2
Dim11
340
0
 70
     0
280
     1
281
     0
  0
BLOCK_RECORD
  5
20C
330
1
100
AcDbSymbolTableRecord
100
AcDbBlockTableRecord
  2
Dim12
340
0
 70
     0
280
     1
281
     0
  0
ENDTAB
  0
ENDSEC
  0
SECTION
  2
BLOCKS
  0
BLOCK
  5
20
330
1F
100
AcDbEntity
  8
0
100
AcDbBlockBegin
  2
*Model_Space
 70
     0
 10
0.0
 20
0.0
 30
0.0
  3
*Model_Space
  1
*Model_Space
  0
ENDBLK
  5
21
330
1F
100
AcDbEntity
  8
0
100
AcDbBlockEnd
  0
BLOCK
  5
1C
330
1B
100
AcDbEntity
 67
     1
  8
0
100
AcDbBlockBegin
  2
*Paper_Space
 70
     0
 10
0.0
 20
0.0
 30
0.0
  3
*Paper_Space
  1
*Paper_Space
  0
ENDBLK
  5
1D
330
1B
100
AcDbEntity
 67
     1
  8
0
100
AcDbBlockEnd
  0
BLOCK
  5
24
330
23
100
AcDbEntity
  8
0
100
AcDbBlockBegin
  2
*Paper_Space0
 70
     0
 10
0.0
 20
0.0
 30
0.0
  3
*Paper_Space0
  1
*Paper_Space0
  0
ENDBLK
  5
25
330
23
100
AcDbEntity
  8
0
100
AcDbBlockEnd
  0
BLOCK
  5
70
330
6D
100
AcDbEntity
  8
0
100
AcDbBlockBegin
  2
_ORIGIN
 70
     0
 10
0.0
 20
0.0
 30
0.0
  3
_ORIGIN
  1
_ORIGIN
  0
CIRCLE
  5
6E
330
6D
100
AcDbEntity
  8
0
 62
     0
100
AcDbCircle
 10
0.0
 20
0.0
 30
0.0
 40
0.5
  0
LINE
  5
6F
330
6D
100
AcDbEntity
  8
0
 62
     0
100
AcDbLine
 10
0.0
 20
0.0
 30
0.0
 11
-1.0
 21
0.0
 31
0.0
  0
ENDBLK
  5
71
330
6D
100
AcDbEntity
  8
0
100
AcDbBlockEnd
  0
BLOCK
  5
75
330
72
100
AcDbEntity
  8
0
100
AcDbBlockBegin
  2
_DOTBLANK
 70
     0
 10
0.0
 20
0.0
 30
0.0
  3
_DOTBLANK
  1
_DOTBLANK
  0
CIRCLE
  5
73
330
72
100
AcDbEntity
  8
0
 62
     0
100
AcDbCircle
 10
0.0
 20
0.0
 30
0.0
 40
0.5
  0
LINE
  5
74
330
72
100
AcDbEntity
  8
0
 62
     0
100
AcDbLine
 10
-0.5
 20
0.0
 30
0.0
 11
-1.0
 21
0.0
 31
0.0
  0
ENDBLK
  5
76
330
72
100
AcDbEntity
  8
0
100
AcDbBlockEnd
  0
BLOCK
  5
7A
330
77
100
AcDbEntity
  8
0
100
AcDbBlockBegin
  2
_DOT
 70
     0
 10
0.0
 20
0.0
 30
0.0
  3
_DOT
  1
_DOT
  0
LWPOLYLINE
  5
78
330
77
100
AcDbEntity
  8
0
 62
     0
100
AcDbPolyline
 90
        2
 70
     1
 43
0.5
 10
-0.25
 20
0.0
 42
1.0
 10
0.25
 20
0.0
 42
1.0
  0
LINE
  5
79
330
77
100
AcDbEntity
  8
0
 62
     0
100
AcDbLine
 10
-0.5
 20
0.0
 30
0.0
 11
-1.0
 21
0.0
 31
0.0
  0
ENDBLK
  5
7B
330
77
100
AcDbEntity
  8
0
100
AcDbBlockEnd
  0
BLOCK
  5
80
330
7C
100
AcDbEntity
  8
0
100
AcDbBlockBegin
  2
_OPEN
 70
     0
 10
0.0
 20
0.0
 30
0.0
  3
_OPEN
  1
_OPEN
  0
LINE
  5
7D
330
7C
100
AcDbEntity
  8
0
 62
     0
100
AcDbLine
 10
0.0
 20
0.0
 30
0.0
 11
-1.0
 21
0.1666666666666667
 31
0.0
  0
LINE
  5
7E
330
7C
100
AcDbEntity
  8
0
 62
     0
100
AcDbLine
 10
0.0
 20
0.0
 30
0.0
 11
-1.0
 21
-0.1666666666666667
 31
0.0
  0
LINE
  5
7F
330
7C
100
AcDbEntity
  8
0
 62
     0
100
AcDbLine
 10
0.0
 20
0.0
 30
0.0
 11
-1.0
 21
0.0
 31
0.0
  0
ENDBLK
  5
81
330
7C
100
AcDbEntity
  8
0
100
AcDbBlockEnd
  0
BLOCK
  5
87
330
82
100
AcDbEntity
  8
0
100
AcDbBlockBegin
  2
_CLOSED
 70
     0
 10
0.0
 20
0.0
 30
0.0
  3
_CLOSED
  1
_CLOSED
  0
LINE
  5
83
330
82
100
AcDbEntity
  8
0
 62
     0
100
AcDbLine
 10
0.0
 20
0.0
 30
0.0
 11
-1.0
 21
0.1666666666666667
 31
0.0
  0
LINE
  5
84
330
82
100
AcDbEntity
  8
0
 62
     0
100
AcDbLine
 10
0.0
 20
0.0
 30
0.0
 11
-1.0
 21
-0.1666666666666667
 31
0.0
  0
LINE
  5
85
330
82
100
AcDbEntity
  8
0
 62
     0
100
AcDbLine
 10
-1.0
 20
0.1666666666666667
 30
0.0
 11
-1.0
 21
-0.1666666666666667
 31
0.0
  0
LINE
  5
86
330
82
100
AcDbEntity
  8
0
 62
     0
100
AcDbLine
 10
0.0
 20
0.0
 30
0.0
 11
-1.0
 21
0.0
 31
0.0
  0
ENDBLK
  5
88
330
82
100
AcDbEntity
  8
0
100
AcDbBlockEnd
  0
BLOCK
  5
8D
330
89
100
AcDbEntity
  8
0
100
AcDbBlockBegin
  2
_CLOSEDBLANK
 70
     0
 10
0.0
 20
0.0
 30
0.0
  3
_CLOSEDBLANK
  1
_CLOSEDBLANK
  0
LINE
  5
8A
330
89
100
AcDbEntity
  8
0
 62
     0
100
AcDbLine
 10
0.0
 20
0.0
 30
0.0
 11
-1.0
 21
0.1666666666666667
 31
0.0
  0
LINE
  5
8B
330
89
100
AcDbEntity
  8
0
 62
     0
100
AcDbLine
 10
0.0
 20
0.0
 30
0.0
 11
-1.0
 21
-0.1666666666666667
 31
0.0
  0
LINE
  5
8C
330
89
100
AcDbEntity
  8
0
 62
     0
100
AcDbLine
 10
-1.0
 20
0.1666666666666667
 30
0.0
 11
-1.0
 21
-0.1666666666666667
 31
0.0
  0
ENDBLK
  5
8E
330
89
100
AcDbEntity
  8
0
100
AcDbBlockEnd
  0
BLOCK
  5
91
330
8F
100
AcDbEntity
  8
0
100
AcDbBlockBegin
  2
_ARROWFILLED
 70
     0
 10
0.0
 20
0.0
 30
0.0
  3
_ARROWFILLED
  1
_ARROWFILLED
  0
SOLID
  5
90
330
8F
100
AcDbEntity
  8
0
 62
     0
100
AcDbTrace
 10
0.0
 20
0.0
 30
0.0
 11
-1.0
 21
-0.1666666666666667
 31
0.0
 12
-1.0
 22
0.1666666666666667
 32
0.0
 13
0.0
 23
0.0
 33
0.0
  0
ENDBLK
  5
92
330
8F
100
AcDbEntity
  8
0
100
AcDbBlockEnd
  0
BLOCK
  5
99
330
93
100
AcDbEntity
  8
0
100
AcDbBlockBegin
  2
_BOXBLANK
 70
     0
 10
0.0
 20
0.0
 30
0.0
  3
_BOXBLANK
  1
_BOXBLANK
  0
LINE
  5
94
330
93
100
AcDbEntity
  8
0
 62
     0
100
AcDbLine
 10
-0.5
 20
-0.5
 30
0.0
 11
0.5
 21
-0.5
 31
0.0
  0
LINE
  5
95
330
93
100
AcDbEntity
  8
0
 62
     0
100
AcDbLine
 10
0.5
 20
-0.5
 30
0.0
 11
0.5
 21
0.5
 31
0.0
  0
LINE
  5
96
330
93
100
AcDbEntity
  8
0
 62
     0
100
AcDbLine
 10
0.5
 20
0.5
 30
0.0
 11
-0.5
 21
0.5
 31
0.0
  0
LINE
  5
97
330
93
100
AcDbEntity
  8
0
 62
     0
100
AcDbLine
 10
-0.5
 20
0.5
 30
0.0
 11
-0.5
 21
-0.5
 31
0.0
  0
LINE
  5
98
330
93
100
AcDbEntity
  8
0
 62
     0
100
AcDbLine
 10
-0.5
 20
0.0
 30
0.0
 11
-1.0
 21
0.0
 31
0.0
  0
ENDBLK
  5
9A
330
93
100
AcDbEntity
  8
0
100
AcDbBlockEnd
  0
BLOCK
  5
9E
330
9B
100
AcDbEntity
  8
0
100
AcDbBlockBegin
  2
_BOXFILLED
 70
     0
 10
0.0
 20
0.0
 30
0.0
  3
_BOXFILLED
  1
_BOXFILLED
  0
SOLID
  5
9C
330
9B
100
AcDbEntity
  8
0
 62
     0
100
AcDbTrace
 10
-0.5
 20
0.5
 30
0.0
 11
0.5
 21
0.5
 31
0.0
 12
-0.5
 22
-0.5
 32
0.0
 13
0.5
 23
-0.5
 33
0.0
  0
LINE
  5
9D
330
9B
100
AcDbEntity
  8
0
 62
     0
100
AcDbLine
 10
-0.5
 20
0.0
 30
0.0
 11
-1.0
 21
0.0
 31
0.0
  0
ENDBLK
  5
9F
330
9B
100
AcDbEntity
  8
0
100
AcDbBlockEnd
  0
BLOCK
  5
A3
330
A0
100
AcDbEntity
  8
0
100
AcDbBlockBegin
  2
_INTEGRAL
 70
     0
 10
0.0
 20
0.0
 30
0.0
  3
_INTEGRAL
  1
_INTEGRAL
  0
ARC
  5
A1
330
A0
100
AcDbEntity
  8
0
 62
     0
100
AcDbCircle
 10
0.444888
 20
-0.0913346
 30
0.0
 40
0.4541666
100
AcDbArc
 50
101.9999999999999
 51
167.9999999999998
  0
ARC
  5
A2
330
A0
100
AcDbEntity
  8
0
 62
     0
100
AcDbCircle
 10
-0.444888
 20
0.0913346
 30
0.0
 40
0.4541666
100
AcDbArc
 50
281.9999999999997
 51
347.9999999999997
  0
ENDBLK
  5
A4
330
A0
100
AcDbEntity
  8
0
100
AcDbBlockEnd
  0
BLOCK
  5
A7
330
A5
100
AcDbEntity
  8
0
100
AcDbBlockBegin
  2
_OBLIQUE
 70
     0
 10
0.0
 20
0.0
 30
0.0
  3
_OBLIQUE
  1
_OBLIQUE
  0
LINE
  5
A6
330
A5
100
AcDbEntity
  8
0
 62
     0
100
AcDbLine
 10
-0.5
 20
-0.5
 30
0.0
 11
0.5
 21
0.5
 31
0.0
  0
ENDBLK
  5
A8
330
A5
100
AcDbEntity
  8
0
100
AcDbBlockEnd
  0
BLOCK
  5
AA
330
A9
100
AcDbEntity
  8
0
100
AcDbBlockBegin
  2
_NONE
 70
     0
 10
0.0
 20
0.0
 30
0.0
  3
_NONE
  1
_NONE
  0
ENDBLK
  5
AB
330
A9
100
AcDbEntity
  8
0
100
AcDbBlockEnd
  0
BLOCK
  5
AF
330
AC
100
AcDbEntity
  8
0
100
AcDbBlockBegin
  2
MARK_OPEN
 70
     0
 10
0.0
 20
0.0
 30
0.0
  3
MARK_OPEN
  1
MARK_OPEN
  0
LINE
  5
AD
330
AC
100
AcDbEntity
  8
0
 62
     0
100
AcDbLine
 10
0.0
 20
0.0
 30
0.0
 11
-1.0
 21
0.1666666666666667
 31
0.0
  0
LINE
  5
AE
330
AC
100
AcDbEntity
  8
0
 62
     0
100
AcDbLine
 10
0.0
 20
0.0
 30
0.0
 11
-1.0
 21
-0.1666666666666667
 31
0.0
  0
ENDBLK
  5
B0
330
AC
100
AcDbEntity
  8
0
100
AcDbBlockEnd
  0
BLOCK
  5
B3
330
B1
100
AcDbEntity
  8
0
100
AcDbBlockBegin
  2
MARK_ORIGIN
 70
     0
 10
0.0
 20
0.0
 30
0.0
  3
MARK_ORIGIN
  1
MARK_ORIGIN
  0
CIRCLE
  5
B2
330
B1
100
AcDbEntity
  8
0
 62
     0
100
AcDbCircle
 10
0.0
 20
0.0
 30
0.0
 40
0.5
  0
ENDBLK
  5
B4
330
B1
100
AcDbEntity
  8
0
100
AcDbBlockEnd
  0
BLOCK
  5
B7
330
B5
100
AcDbEntity
  8
0
100
AcDbBlockBegin
  2
MARK_DOT
 70
     0
 10
0.0
 20
0.0
 30
0.0
  3
MARK_DOT
  1
MARK_DOT
  0
LWPOLYLINE
  5
B6
330
B5
100
AcDbEntity
  8
0
 62
     0
100
AcDbPolyline
 90
        2
 70
     1
 43
0.5
 10
-0.25
 20
0.0
 42
1.0
 10
0.25
 20
0.0
 42
1.0
  0
ENDBLK
  5
B8
330
B5
100
AcDbEntity
  8
0
100
AcDbBlockEnd
  0
BLOCK
  5
198
330
197
100
AcDbEntity
  8
0
100
AcDbBlockBegin
  2
Dim1
 70
     0
 10
0.0
 20
0.0
 30
0.0
  3
Dim1
  1
Dim1
  0
LINE
  5
19A
330
197
100
AcDbEntity
  8
7
  6
Continuous
 62
     4
370
     9
100
AcDbLine
 10
271.9779852066813
 20
132.3936785437245
 30
0.0
 11
271.9779852066812
 21
103.7727815310202
 31
0.0
  0
LINE
  5
19B
330
197
100
AcDbEntity
  8
7
  6
Continuous
 62
     4
370
     9
100
AcDbLine
 10
446.9779852066813
 20
132.3936785437245
 30
0.0
 11
446.9779852066812
 21
103.7727815310202
 31
0.0
  0
LINE
  5
19C
330
197
100
AcDbEntity
  8
7
  6
Continuous
 62
     4
370
     9
100
AcDbLine
 10
271.9779852066812
 20
106.7727815310202
 30
0.0
 11
446.9779852066812
 21
106.7727815310202
 31
0.0
  0
MTEXT
  5
19D
330
197
100
AcDbEntity
  8
7
  6
Continuous
 62
     4
370
     9
100
AcDbMText
 10
359.4779852066813
 20
112.7727815310202
 30
0.0
 40
6.0
 41
72.85714285714286
 46
6.0
 71
     5
 72
     1
  1
175
  7
ＭＳ ゴシック
 73
     1
 44
1.0
1001
ACAD
1000
ACAD_MTEXT_DEFINED_HEIGHT_BEGIN
1070
    46
1040
6.0
1000
ACAD_MTEXT_DEFINED_HEIGHT_END
  0
INSERT
  5
19E
330
197
100
AcDbEntity
  8
7
  6
Continuous
 62
     4
370
     9
100
AcDbBlockReference
  2
_ARROWFILLED
 10
271.9779852066812
 20
106.7727815310202
 30
0.0
 41
4.0
 42
4.0
 43
4.0
 50
179.9999999999998
  0
INSERT
  5
19F
330
197
100
AcDbEntity
  8
7
  6
Continuous
 62
     4
370
     9
100
AcDbBlockReference
  2
_ARROWFILLED
 10
446.9779852066812
 20
106.7727815310202
 30
0.0
 41
4.0
 42
4.0
 43
4.0
 50
359.9999999999997
  0
ENDBLK
  5
199
330
197
100
AcDbEntity
  8
0
100
AcDbBlockEnd
  0
BLOCK
  5
1A2
330
1A1
100
AcDbEntity
  8
0
100
AcDbBlockBegin
  2
Dim2
 70
     0
 10
0.0
 20
0.0
 30
0.0
  3
Dim2
  1
Dim2
  0
LINE
  5
1A4
330
1A1
100
AcDbEntity
  8
7
  6
Continuous
 62
     4
370
     9
100
AcDbLine
 10
234.4779852066813
 20
132.3936785437245
 30
0.0
 11
234.4779852066812
 21
87.48326410190487
 31
0.0
  0
LINE
  5
1A5
330
1A1
100
AcDbEntity
  8
7
  6
Continuous
 62
     4
370
     9
100
AcDbLine
 10
484.4779852066813
 20
132.3936785437245
 30
0.0
 11
484.4779852066812
 21
87.48326410190487
 31
0.0
  0
LINE
  5
1A6
330
1A1
100
AcDbEntity
  8
7
  6
Continuous
 62
     4
370
     9
100
AcDbLine
 10
234.4779852066812
 20
90.48326410190487
 30
0.0
 11
484.4779852066812
 21
90.48326410190487
 31
0.0
  0
MTEXT
  5
1A7
330
1A1
100
AcDbEntity
  8
7
  6
Continuous
 62
     4
370
     9
100
AcDbMText
 10
359.4779852066813
 20
96.48326410190487
 30
0.0
 40
6.0
 41
77.14285714285714
 46
6.0
 71
     5
 72
     1
  1
250
  7
ＭＳ ゴシック
 73
     1
 44
1.0
1001
ACAD
1000
ACAD_MTEXT_DEFINED_HEIGHT_BEGIN
1070
    46
1040
6.0
1000
ACAD_MTEXT_DEFINED_HEIGHT_END
  0
INSERT
  5
1A8
330
1A1
100
AcDbEntity
  8
7
  6
Continuous
 62
     4
370
     9
100
AcDbBlockReference
  2
_ARROWFILLED
 10
234.4779852066812
 20
90.48326410190487
 30
0.0
 41
4.0
 42
4.0
 43
4.0
 50
179.9999999999998
  0
INSERT
  5
1A9
330
1A1
100
AcDbEntity
  8
7
  6
Continuous
 62
     4
370
     9
100
AcDbBlockReference
  2
_ARROWFILLED
 10
484.4779852066812
 20
90.48326410190487
 30
0.0
 41
4.0
 42
4.0
 43
4.0
 50
359.9999999999997
  0
ENDBLK
  5
1A3
330
1A1
100
AcDbEntity
  8
0
100
AcDbBlockEnd
  0
BLOCK
  5
1AC
330
1AB
100
AcDbEntity
  8
0
100
AcDbBlockBegin
  2
Dim3
 70
     0
 10
0.0
 20
0.0
 30
0.0
  3
Dim3
  1
Dim3
  0
LINE
  5
1AE
330
1AB
100
AcDbEntity
  8
7
  6
Continuous
 62
     4
370
     9
100
AcDbLine
 10
209.4779852066813
 20
163.4936785437244
 30
0.0
 11
209.4779852066812
 21
73.04711337508456
 31
0.0
  0
LINE
  5
1AF
330
1AB
100
AcDbEntity
  8
7
  6
Continuous
 62
     4
370
     9
100
AcDbLine
 10
509.4779852066813
 20
163.4936785437244
 30
0.0
 11
509.4779852066811
 21
73.04711337508456
 31
0.0
  0
LINE
  5
1B0
330
1AB
100
AcDbEntity
  8
7
  6
Continuous
 62
     4
370
     9
100
AcDbLine
 10
209.4779852066812
 20
76.04711337508456
 30
0.0
 11
509.4779852066811
 21
76.04711337508456
 31
0.0
  0
MTEXT
  5
1B1
330
1AB
100
AcDbEntity
  8
7
  6
Continuous
 62
     4
370
     9
100
AcDbMText
 10
359.4779852066813
 20
82.04711337508456
 30
0.0
 40
6.0
 41
77.14285714285714
 46
6.0
 71
     5
 72
     1
  1
300
  7
ＭＳ ゴシック
 73
     1
 44
1.0
1001
ACAD
1000
ACAD_MTEXT_DEFINED_HEIGHT_BEGIN
1070
    46
1040
6.0
1000
ACAD_MTEXT_DEFINED_HEIGHT_END
  0
INSERT
  5
1B2
330
1AB
100
AcDbEntity
  8
7
  6
Continuous
 62
     4
370
     9
100
AcDbBlockReference
  2
_ARROWFILLED
 10
209.4779852066812
 20
76.04711337508456
 30
0.0
 41
4.0
 42
4.0
 43
4.0
 50
179.9999999999998
  0
INSERT
  5
1B3
330
1AB
100
AcDbEntity
  8
7
  6
Continuous
 62
     4
370
     9
100
AcDbBlockReference
  2
_ARROWFILLED
 10
509.4779852066811
 20
76.04711337508456
 30
0.0
 41
4.0
 42
4.0
 43
4.0
 50
359.9999999999997
  0
ENDBLK
  5
1AD
330
1AB
100
AcDbEntity
  8
0
100
AcDbBlockEnd
  0
BLOCK
  5
1B6
330
1B5
100
AcDbEntity
  8
0
100
AcDbBlockBegin
  2
Dim4
 70
     0
 10
0.0
 20
0.0
 30
0.0
  3
Dim4
  1
Dim4
  0
LINE
  5
1B8
330
1B5
100
AcDbEntity
  8
7
  6
Continuous
 62
     4
370
     9
100
AcDbLine
 10
511.4779852066813
 20
165.4936785437244
 30
0.0
 11
548.3704375170646
 21
165.4936785437243
 31
0.0
  0
LINE
  5
1B9
330
1B5
100
AcDbEntity
  8
7
  6
Continuous
 62
     4
370
     9
100
AcDbLine
 10
511.4779852066813
 20
465.4936785437244
 30
0.0
 11
548.3704375170646
 21
465.4936785437243
 31
0.0
  0
LINE
  5
1BA
330
1B5
100
AcDbEntity
  8
7
  6
Continuous
 62
     4
370
     9
100
AcDbLine
 10
545.3704375170646
 20
165.4936785437243
 30
0.0
 11
545.3704375170646
 21
465.4936785437243
 31
0.0
  0
MTEXT
  5
1BB
330
1B5
100
AcDbEntity
  8
7
  6
Continuous
 62
     4
370
     9
100
AcDbMText
 10
539.3704375170646
 20
315.4936785437244
 30
0.0
 40
6.0
 41
77.14285714285714
 46
6.0
 71
     5
 72
     1
  1
300
  7
ＭＳ ゴシック
 11
1.615544574432587E-15
 21
1.0
 31
0.0
 73
     1
 44
1.0
1001
ACAD
1000
ACAD_MTEXT_DEFINED_HEIGHT_BEGIN
1070
    46
1040
6.0
1000
ACAD_MTEXT_DEFINED_HEIGHT_END
  0
INSERT
  5
1BC
330
1B5
100
AcDbEntity
  8
7
  6
Continuous
 62
     4
370
     9
100
AcDbBlockReference
  2
_ARROWFILLED
 10
545.3704375170646
 20
165.4936785437243
 30
0.0
 41
4.0
 42
4.0
 43
4.0
 50
269.9999999999998
  0
INSERT
  5
1BD
330
1B5
100
AcDbEntity
  8
7
  6
Continuous
 62
     4
370
     9
100
AcDbBlockReference
  2
_ARROWFILLED
 10
545.3704375170646
 20
465.4936785437243
 30
0.0
 41
4.0
 42
4.0
 43
4.0
 50
89.99999999999991
  0
ENDBLK
  5
1B7
330
1B5
100
AcDbEntity
  8
0
100
AcDbBlockEnd
  0
BLOCK
  5
1C0
330
1BF
100
AcDbEntity
  8
0
100
AcDbBlockBegin
  2
Dim5
 70
     0
 10
0.0
 20
0.0
 30
0.0
  3
Dim5
  1
Dim5
  0
LINE
  5
1C2
330
1BF
100
AcDbEntity
  8
7
  6
Continuous
 62
     4
370
     9
100
AcDbLine
 10
526.4779852066813
 20
480.4936785437244
 30
0.0
 11
566.5417502659811
 21
480.4936785437243
 31
0.0
  0
LINE
  5
1C3
330
1BF
100
AcDbEntity
  8
7
  6
Continuous
 62
     4
370
     9
100
AcDbLine
 10
526.4779852066813
 20
150.4936785437235
 30
0.0
 11
566.5417502659811
 21
150.4936785437234
 31
0.0
  0
LINE
  5
1C4
330
1BF
100
AcDbEntity
  8
7
  6
Continuous
 62
     4
370
     9
100
AcDbLine
 10
563.5417502659811
 20
480.4936785437243
 30
0.0
 11
563.5417502659811
 21
319.9936785437239
 31
0.0
  0
LINE
  5
1C5
330
1BF
100
AcDbEntity
  8
7
  6
Continuous
 62
     4
370
     9
100
AcDbLine
 10
563.5417502659811
 20
310.9936785437239
 30
0.0
 11
563.5417502659811
 21
150.4936785437234
 31
0.0
  0
MTEXT
  5
1C6
330
1BF
100
AcDbEntity
  8
7
  6
Continuous
 62
     4
370
     9
100
AcDbMText
 10
563.5417502659811
 20
315.4936785437239
 30
0.0
 40
6.0
 41
77.14285714285714
 46
6.0
 71
     5
 72
     1
  1
330
  7
ＭＳ ゴシック
 11
1.615544574432587E-15
 21
1.0
 31
0.0
 73
     1
 44
1.0
1001
ACAD
1000
ACAD_MTEXT_DEFINED_HEIGHT_BEGIN
1070
    46
1040
6.0
1000
ACAD_MTEXT_DEFINED_HEIGHT_END
  0
INSERT
  5
1C7
330
1BF
100
AcDbEntity
  8
7
  6
Continuous
 62
     4
370
     9
100
AcDbBlockReference
  2
_ARROWFILLED
 10
563.5417502659811
 20
480.4936785437243
 30
0.0
 41
4.0
 42
4.0
 43
4.0
 50
89.99999999999991
  0
INSERT
  5
1C8
330
1BF
100
AcDbEntity
  8
7
  6
Continuous
 62
     4
370
     9
100
AcDbBlockReference
  2
_ARROWFILLED
 10
563.5417502659811
 20
150.4936785437234
 30
0.0
 41
4.0
 42
4.0
 43
4.0
 50
269.9999999999998
  0
ENDBLK
  5
1C1
330
1BF
100
AcDbEntity
  8
0
100
AcDbBlockEnd
  0
BLOCK
  5
1CB
330
1CA
100
AcDbEntity
  8
0
100
AcDbBlockBegin
  2
Dim6
 70
     0
 10
0.0
 20
0.0
 30
0.0
  3
Dim6
  1
Dim6
  0
LINE
  5
1CD
330
1CA
100
AcDbEntity
  8
7
  6
Continuous
 62
     4
370
     9
100
AcDbLine
 10
506.4779852066822
 20
495.4936785437244
 30
0.0
 11
599.5283923469742
 21
495.4936785437241
 31
0.0
  0
LINE
  5
1CE
330
1CA
100
AcDbEntity
  8
7
  6
Continuous
 62
     4
370
     9
100
AcDbLine
 10
506.4779852066822
 20
135.4936785437253
 30
0.0
 11
599.5283923469742
 21
135.493678543725
 31
0.0
  0
LINE
  5
1CF
330
1CA
100
AcDbEntity
  8
7
  6
Continuous
 62
     4
370
     9
100
AcDbLine
 10
596.5283923469742
 20
495.4936785437241
 30
0.0
 11
596.5283923469742
 21
319.9936785437253
 31
0.0
  0
LINE
  5
1D0
330
1CA
100
AcDbEntity
  8
7
  6
Continuous
 62
     4
370
     9
100
AcDbLine
 10
596.5283923469742
 20
310.9936785437253
 30
0.0
 11
596.5283923469742
 21
135.493678543725
 31
0.0
  0
MTEXT
  5
1D1
330
1CA
100
AcDbEntity
  8
7
  6
Continuous
 62
     4
370
     9
100
AcDbMText
 10
596.5283923469742
 20
315.4936785437253
 30
0.0
 40
6.0
 41
77.14285714285714
 46
6.0
 71
     5
 72
     1
  1
360
  7
ＭＳ ゴシック
 11
1.615544574432587E-15
 21
1.0
 31
0.0
 73
     1
 44
1.0
1001
ACAD
1000
ACAD_MTEXT_DEFINED_HEIGHT_BEGIN
1070
    46
1040
6.0
1000
ACAD_MTEXT_DEFINED_HEIGHT_END
  0
INSERT
  5
1D2
330
1CA
100
AcDbEntity
  8
7
  6
Continuous
 62
     4
370
     9
100
AcDbBlockReference
  2
_ARROWFILLED
 10
596.5283923469742
 20
495.4936785437241
 30
0.0
 41
4.0
 42
4.0
 43
4.0
 50
89.99999999999991
  0
INSERT
  5
1D3
330
1CA
100
AcDbEntity
  8
7
  6
Continuous
 62
     4
370
     9
100
AcDbBlockReference
  2
_ARROWFILLED
 10
596.5283923469742
 20
135.493678543725
 30
0.0
 41
4.0
 42
4.0
 43
4.0
 50
269.9999999999998
  0
ENDBLK
  5
1CC
330
1CA
100
AcDbEntity
  8
0
100
AcDbBlockEnd
  0
BLOCK
  5
1D6
330
1D5
100
AcDbEntity
  8
0
100
AcDbBlockBegin
  2
Dim7
 70
     0
 10
0.0
 20
0.0
 30
0.0
  3
Dim7
  1
Dim7
  0
LINE
  5
1D8
330
1D5
100
AcDbEntity
  8
7
  6
Continuous
 62
     4
370
     9
100
AcDbLine
 10
384.4779852066795
 20
515.4936785437244
 30
0.0
 11
599.5283923469733
 21
515.4936785437237
 31
0.0
  0
LINE
  5
1D9
330
1D5
100
AcDbEntity
  8
7
  6
Continuous
 62
     4
370
     9
100
AcDbLine
 10
506.4779852066822
 20
495.4936785437244
 30
0.0
 11
599.5283923469733
 21
495.4936785437241
 31
0.0
  0
LINE
  5
1DA
330
1D5
100
AcDbEntity
  8
7
  6
Continuous
 62
     4
370
     9
100
AcDbLine
 10
596.5283923469733
 20
515.4936785437237
 30
0.0
 11
596.5283923469733
 21
495.4936785437241
 31
0.0
  0
MTEXT
  5
1DB
330
1D5
100
AcDbEntity
  8
7
  6
Continuous
 62
     4
370
     9
100
AcDbMText
 10
590.5283923469733
 20
505.4936785437244
 30
0.0
 40
6.0
 41
48.57142857142856
 46
6.0
 71
     5
 72
     1
  1
20
  7
ＭＳ ゴシック
 11
1.615544574432587E-15
 21
1.0
 31
0.0
 73
     1
 44
1.0
1001
ACAD
1000
ACAD_MTEXT_DEFINED_HEIGHT_BEGIN
1070
    46
1040
6.0
1000
ACAD_MTEXT_DEFINED_HEIGHT_END
  0
INSERT
  5
1DC
330
1D5
100
AcDbEntity
  8
7
  6
Continuous
 62
     4
370
     9
100
AcDbBlockReference
  2
_ARROWFILLED
 10
596.5283923469733
 20
515.4936785437237
 30
0.0
 41
4.0
 42
4.0
 43
4.0
 50
89.99999999999991
  0
INSERT
  5
1DD
330
1D5
100
AcDbEntity
  8
7
  6
Continuous
 62
     4
370
     9
100
AcDbBlockReference
  2
_ARROWFILLED
 10
596.5283923469733
 20
495.4936785437241
 30
0.0
 41
4.0
 42
4.0
 43
4.0
 50
269.9999999999998
  0
ENDBLK
  5
1D7
330
1D5
100
AcDbEntity
  8
0
100
AcDbBlockEnd
  0
BLOCK
  5
1E0
330
1DF
100
AcDbEntity
  8
0
100
AcDbBlockBegin
  2
Dim8
 70
     0
 10
0.0
 20
0.0
 30
0.0
  3
Dim8
  1
Dim8
  0
LINE
  5
1E2
330
1DF
100
AcDbEntity
  8
7
  6
Continuous
 62
     4
370
     9
100
AcDbLine
 10
638.9940742273639
 20
148.4936785437244
 30
0.0
 11
638.9940742273637
 21
99.9651153478521
 31
0.0
  0
LINE
  5
1E3
330
1DF
100
AcDbEntity
  8
7
  6
Continuous
 62
     4
370
     9
100
AcDbLine
 10
683.9940742273639
 20
133.4936785437244
 30
0.0
 11
683.9940742273639
 21
99.9651153478521
 31
0.0
  0
LINE
  5
1E4
330
1DF
100
AcDbEntity
  8
7
  6
Continuous
 62
     4
370
     9
100
AcDbLine
 10
638.9940742273637
 20
102.9651153478521
 30
0.0
 11
683.9940742273639
 21
102.9651153478521
 31
0.0
  0
MTEXT
  5
1E5
330
1DF
100
AcDbEntity
  8
7
  6
Continuous
 62
     4
370
     9
100
AcDbMText
 10
661.4940742273639
 20
108.9651153478521
 30
0.0
 40
6.0
 41
48.57142857142856
 46
6.0
 71
     5
 72
     1
  1
45
  7
ＭＳ ゴシック
 73
     1
 44
1.0
1001
ACAD
1000
ACAD_MTEXT_DEFINED_HEIGHT_BEGIN
1070
    46
1040
6.0
1000
ACAD_MTEXT_DEFINED_HEIGHT_END
  0
INSERT
  5
1E6
330
1DF
100
AcDbEntity
  8
7
  6
Continuous
 62
     4
370
     9
100
AcDbBlockReference
  2
_ARROWFILLED
 10
638.9940742273637
 20
102.9651153478521
 30
0.0
 41
4.0
 42
4.0
 43
4.0
 50
179.9999999999998
  0
INSERT
  5
1E7
330
1DF
100
AcDbEntity
  8
7
  6
Continuous
 62
     4
370
     9
100
AcDbBlockReference
  2
_ARROWFILLED
 10
683.9940742273639
 20
102.9651153478521
 30
0.0
 41
4.0
 42
4.0
 43
4.0
 50
359.9999999999997
  0
ENDBLK
  5
1E1
330
1DF
100
AcDbEntity
  8
0
100
AcDbBlockEnd
  0
BLOCK
  5
1EA
330
1E9
100
AcDbEntity
  8
0
100
AcDbBlockBegin
  2
Dim9
 70
     0
 10
0.0
 20
0.0
 30
0.0
  3
Dim9
  1
Dim9
  0
LINE
  5
1EC
330
1E9
100
AcDbEntity
  8
7
  6
Continuous
 62
     4
370
     9
100
AcDbLine
 10
650.494074227363
 20
517.4936785437244
 30
0.0
 11
650.494074227363
 21
531.2113876041499
 31
0.0
  0
LINE
  5
1ED
330
1E9
100
AcDbEntity
  8
7
  6
Continuous
 62
     4
370
     9
100
AcDbLine
 10
683.9940742273639
 20
497.4936785437244
 30
0.0
 11
683.9940742273639
 21
531.2113876041499
 31
0.0
  0
LINE
  5
1EE
330
1E9
100
AcDbEntity
  8
7
  6
Continuous
 62
     4
370
     9
100
AcDbLine
 10
650.494074227363
 20
528.2113876041499
 30
0.0
 11
683.9940742273639
 21
528.2113876041499
 31
0.0
  0
MTEXT
  5
1EF
330
1E9
100
AcDbEntity
  8
7
  6
Continuous
 62
     4
370
     9
100
AcDbMText
 10
667.2440742273634
 20
534.2113876041499
 30
0.0
 40
6.0
 41
91.42857142857142
 46
6.0
 71
     5
 72
     1
  1
33.5
  7
ＭＳ ゴシック
 73
     1
 44
1.0
1001
ACAD
1000
ACAD_MTEXT_DEFINED_HEIGHT_BEGIN
1070
    46
1040
6.0
1000
ACAD_MTEXT_DEFINED_HEIGHT_END
  0
INSERT
  5
1F0
330
1E9
100
AcDbEntity
  8
7
  6
Continuous
 62
     4
370
     9
100
AcDbBlockReference
  2
_ARROWFILLED
 10
650.494074227363
 20
528.2113876041499
 30
0.0
 41
4.0
 42
4.0
 43
4.0
 50
179.9999999999998
  0
INSERT
  5
1F1
330
1E9
100
AcDbEntity
  8
7
  6
Continuous
 62
     4
370
     9
100
AcDbBlockReference
  2
_ARROWFILLED
 10
683.9940742273639
 20
528.2113876041499
 30
0.0
 41
4.0
 42
4.0
 43
4.0
 50
359.9999999999997
  0
ENDBLK
  5
1EB
330
1E9
100
AcDbEntity
  8
0
100
AcDbBlockEnd
  0
BLOCK
  5
1F9
330
1F8
100
AcDbEntity
  8
0
100
AcDbBlockBegin
  2
Dim10
 70
     0
 10
0.0
 20
0.0
 30
0.0
  3
Dim10
  1
Dim10
  0
LINE
  5
1FB
330
1F8
100
AcDbEntity
  8
7
  6
Continuous
 62
     4
370
     9
100
AcDbLine
 10
194.4779852066813
 20
148.4936785437235
 30
0.0
 11
194.4779852066812
 21
56.83015230946671
 31
0.0
  0
LINE
  5
1FC
330
1F8
100
AcDbEntity
  8
7
  6
Continuous
 62
     4
370
     9
100
AcDbLine
 10
524.4779852066813
 20
148.4936785437235
 30
0.0
 11
524.4779852066812
 21
56.83015230946671
 31
0.0
  0
LINE
  5
1FD
330
1F8
100
AcDbEntity
  8
7
  6
Continuous
 62
     4
370
     9
100
AcDbLine
 10
194.4779852066812
 20
59.83015230946671
 30
0.0
 11
524.4779852066812
 21
59.83015230946671
 31
0.0
  0
MTEXT
  5
1FE
330
1F8
100
AcDbEntity
  8
7
  6
Continuous
 62
     4
370
     9
100
AcDbMText
 10
359.4779852066813
 20
65.83015230946671
 30
0.0
 40
6.0
 41
77.14285714285714
 46
6.0
 71
     5
 72
     1
  1
330
  7
ＭＳ ゴシック
 73
     1
 44
1.0
1001
ACAD
1000
ACAD_MTEXT_DEFINED_HEIGHT_BEGIN
1070
    46
1040
6.0
1000
ACAD_MTEXT_DEFINED_HEIGHT_END
  0
INSERT
  5
1FF
330
1F8
100
AcDbEntity
  8
7
  6
Continuous
 62
     4
370
     9
100
AcDbBlockReference
  2
_ARROWFILLED
 10
194.4779852066812
 20
59.83015230946671
 30
0.0
 41
4.0
 42
4.0
 43
4.0
 50
179.9999999999998
  0
INSERT
  5
200
330
1F8
100
AcDbEntity
  8
7
  6
Continuous
 62
     4
370
     9
100
AcDbBlockReference
  2
_ARROWFILLED
 10
524.4779852066812
 20
59.83015230946671
 30
0.0
 41
4.0
 42
4.0
 43
4.0
 50
359.9999999999997
  0
ENDBLK
  5
1FA
330
1F8
100
AcDbEntity
  8
0
100
AcDbBlockEnd
  0
BLOCK
  5
203
330
202
100
AcDbEntity
  8
0
100
AcDbBlockBegin
  2
Dim11
 70
     0
 10
0.0
 20
0.0
 30
0.0
  3
Dim11
  1
Dim11
  0
LINE
  5
205
330
202
100
AcDbEntity
  8
7
  6
Continuous
 62
     4
370
     9
100
AcDbLine
 10
494.5779852066812
 20
142.4936785437244
 30
0.0
 11
584.141399268964
 21
142.4936785437241
 31
0.0
  0
LINE
  5
206
330
202
100
AcDbEntity
  8
7
  6
Continuous
 62
     4
370
     9
100
AcDbLine
 10
494.5779852066812
 20
488.4936785437244
 30
0.0
 11
584.141399268964
 21
488.4936785437241
 31
0.0
  0
LINE
  5
207
330
202
100
AcDbEntity
  8
7
  6
Continuous
 62
     4
370
     9
100
AcDbLine
 10
581.141399268964
 20
142.4936785437241
 30
0.0
 11
581.141399268964
 21
488.4936785437241
 31
0.0
  0
MTEXT
  5
208
330
202
100
AcDbEntity
  8
7
  6
Continuous
 62
     4
370
     9
100
AcDbMText
 10
575.141399268964
 20
315.4936785437244
 30
0.0
 40
6.0
 41
77.14285714285714
 46
6.0
 71
     5
 72
     1
  1
346
  7
ＭＳ ゴシック
 11
1.615544574432587E-15
 21
1.0
 31
0.0
 73
     1
 44
1.0
1001
ACAD
1000
ACAD_MTEXT_DEFINED_HEIGHT_BEGIN
1070
    46
1040
6.0
1000
ACAD_MTEXT_DEFINED_HEIGHT_END
  0
INSERT
  5
209
330
202
100
AcDbEntity
  8
7
  6
Continuous
 62
     4
370
     9
100
AcDbBlockReference
  2
_ARROWFILLED
 10
581.141399268964
 20
142.4936785437241
 30
0.0
 41
4.0
 42
4.0
 43
4.0
 50
269.9999999999998
  0
INSERT
  5
20A
330
202
100
AcDbEntity
  8
7
  6
Continuous
 62
     4
370
     9
100
AcDbBlockReference
  2
_ARROWFILLED
 10
581.141399268964
 20
488.4936785437241
 30
0.0
 41
4.0
 42
4.0
 43
4.0
 50
89.99999999999991
  0
ENDBLK
  5
204
330
202
100
AcDbEntity
  8
0
100
AcDbBlockEnd
  0
BLOCK
  5
20D
330
20C
100
AcDbEntity
  8
0
100
AcDbBlockBegin
  2
Dim12
 70
     0
 10
0.0
 20
0.0
 30
0.0
  3
Dim12
  1
Dim12
  0
LINE
  5
20F
330
20C
100
AcDbEntity
  8
7
  6
Continuous
 62
     4
370
     9
100
AcDbLine
 10
683.9940742273639
 20
133.4936785437244
 30
0.0
 11
683.9940742273639
 21
116.9097453489121
 31
0.0
  0
LINE
  5
210
330
20C
100
AcDbEntity
  8
7
  6
Continuous
 62
     4
370
     9
100
AcDbLine
 10
682.9940742273639
 20
133.4936785437244
 30
0.0
 11
682.9940742273639
 21
116.9097453489121
 31
0.0
  0
LINE
  5
211
330
20C
100
AcDbEntity
  8
7
  6
Continuous
 62
     4
370
     9
100
AcDbLine
 10
693.4940742273639
 20
119.9097453489121
 30
0.0
 11
674.9940742273639
 21
119.9097453489121
 31
0.0
  0
MTEXT
  5
212
330
20C
100
AcDbEntity
  8
7
  6
Continuous
 62
     4
370
     9
100
AcDbMText
 10
693.4940742273639
 20
119.9097453489121
 30
0.0
 40
6.0
 41
7.142857142857143
 46
6.0
 71
     4
 72
     1
  1
1
  7
ＭＳ ゴシック
 73
     1
 44
1.0
1001
ACAD
1000
ACAD_MTEXT_DEFINED_HEIGHT_BEGIN
1070
    46
1040
6.0
1000
ACAD_MTEXT_DEFINED_HEIGHT_END
  0
INSERT
  5
213
330
20C
100
AcDbEntity
  8
7
  6
Continuous
 62
     4
370
     9
100
AcDbBlockReference
  2
_ARROWFILLED
 10
683.9940742273639
 20
119.9097453489121
 30
0.0
 41
4.0
 42
4.0
 43
4.0
 50
179.9999999999995
  0
INSERT
  5
214
330
20C
100
AcDbEntity
  8
7
  6
Continuous
 62
     4
370
     9
100
AcDbBlockReference
  2
_ARROWFILLED
 10
682.9940742273639
 20
119.9097453489121
 30
0.0
 41
4.0
 42
4.0
 43
4.0
 50
359.9999999999997
  0
ENDBLK
  5
20E
330
20C
100
AcDbEntity
  8
0
100
AcDbBlockEnd
  0
ENDSEC
  0
SECTION
  2
ENTITIES
  0
POLYLINE
  5
CA
330
1F
100
AcDbEntity
  8
9
  6
Continuous
 62
     7
370
    25
100
AcDb2dPolyline
 66
     1
 10
0.0
 20
0.0
 30
0.0
  0
VERTEX
  5
CB
330
CA
100
AcDbEntity
  8
9
  6
Continuous
 62
     7
370
    25
100
AcDbVertex
100
AcDb2dVertex
 10
509.4779852066813
 20
165.4936785437244
 30
0.0
  0
VERTEX
  5
CC
330
CA
100
AcDbEntity
  8
9
  6
Continuous
 62
     7
370
    25
100
AcDbVertex
100
AcDb2dVertex
 10
509.4779852066813
 20
465.4936785437244
 30
0.0
  0
VERTEX
  5
CD
330
CA
100
AcDbEntity
  8
9
  6
Continuous
 62
     7
370
    25
100
AcDbVertex
100
AcDb2dVertex
 10
209.4779852066813
 20
465.4936785437244
 30
0.0
  0
VERTEX
  5
CE
330
CA
100
AcDbEntity
  8
9
  6
Continuous
 62
     7
370
    25
100
AcDbVertex
100
AcDb2dVertex
 10
209.4779852066813
 20
165.4936785437244
 30
0.0
  0
VERTEX
  5
CF
330
CA
100
AcDbEntity
  8
9
  6
Continuous
 62
     7
370
    25
100
AcDbVertex
100
AcDb2dVertex
 10
509.4779852066813
 20
165.4936785437244
 30
0.0
  0
SEQEND
  5
D0
330
CA
100
AcDbEntity
  8
9
  6
Continuous
 62
     7
370
    25
  0
LINE
  5
D1
330
1F
100
AcDbEntity
  8
9
  6
Continuous
 62
     7
370
    25
100
AcDbLine
 10
524.4779852066813
 20
480.4936785437244
 30
0.0
 11
524.4779852066813
 21
150.4936785437235
 31
0.0
  0
LINE
  5
D2
330
1F
100
AcDbEntity
  8
9
  6
Continuous
 62
     7
370
    25
100
AcDbLine
 10
524.4779852066813
 20
150.4936785437235
 30
0.0
 11
194.4779852066813
 21
150.4936785437235
 31
0.0
  0
LINE
  5
D3
330
1F
100
AcDbEntity
  8
9
  6
Continuous
 62
     7
370
    25
100
AcDbLine
 10
524.4779852066813
 20
480.4936785437244
 30
0.0
 11
194.4779852066813
 21
480.4936785437244
 31
0.0
  0
LINE
  5
D4
330
1F
100
AcDbEntity
  8
9
  6
Continuous
 62
     7
370
    25
100
AcDbLine
 10
194.4779852066813
 20
480.4936785437244
 30
0.0
 11
194.4779852066813
 21
150.4936785437235
 31
0.0
  0
LINE
  5
D5
330
1F
100
AcDbEntity
  8
9
  6
Continuous
 62
     7
370
    25
100
AcDbLine
 10
677.4440742273637
 20
150.1770118770578
 30
0.0
 11
670.5440742273631
 21
150.1770118770578
 31
0.0
  0
ARC
  5
D6
330
1F
100
AcDbEntity
  8
9
  6
Continuous
 62
     7
370
    25
100
AcDbCircle
 10
673.9940742273639
 20
153.1440294209174
 30
0.0
 40
4.550350877192955
100
AcDbArc
 50
220.6956985254095
 51
319.3043014745897
  0
LINE
  5
D7
330
1F
100
AcDbEntity
  8
9
  6
Continuous
 62
     7
370
    25
100
AcDbLine
 10
677.4440742273637
 20
150.4936785437244
 30
0.0
 11
677.4440742273637
 21
150.1770118770578
 31
0.0
  0
LINE
  5
D8
330
1F
100
AcDbEntity
  8
9
  6
Continuous
 62
     7
370
    25
100
AcDbLine
 10
670.5440742273631
 20
150.4936785437244
 30
0.0
 11
670.5440742273631
 21
150.1770118770578
 31
0.0
  0
LINE
  5
D9
330
1F
100
AcDbEntity
  8
9
  6
Continuous
 62
     7
370
    25
100
AcDbLine
 10
638.9940742273639
 20
480.4936785437244
 30
0.0
 11
638.9940742273639
 21
150.4936785437244
 31
0.0
  0
LINE
  5
DA
330
1F
100
AcDbEntity
  8
9
  6
Continuous
 62
     7
370
    25
100
AcDbLine
 10
683.9940742273639
 20
495.4936785437244
 30
0.0
 11
683.9940742273639
 21
135.4936785437244
 31
0.0
  0
LINE
  5
DB
330
1F
100
AcDbEntity
  8
9
  6
Continuous
 62
     7
370
    25
100
AcDbLine
 10
682.9940742273639
 20
495.4936785437244
 30
0.0
 11
682.9940742273639
 21
135.4936785437244
 31
0.0
  0
LINE
  5
DC
330
1F
100
AcDbEntity
  8
9
  6
Continuous
 62
     7
370
    25
100
AcDbLine
 10
682.9940742273639
 20
479.4936785437244
 30
0.0
 11
683.9940742273639
 21
479.4936785437244
 31
0.0
  0
LINE
  5
DD
330
1F
100
AcDbEntity
  8
9
  6
Continuous
 62
     7
370
    25
100
AcDbLine
 10
638.9940742273639
 20
480.4936785437244
 30
0.0
 11
682.9940742273639
 21
480.4936785437244
 31
0.0
  0
LINE
  5
DE
330
1F
100
AcDbEntity
  8
9
  6
Continuous
 62
     7
370
    25
100
AcDbLine
 10
682.9940742273639
 20
495.4936785437244
 30
0.0
 11
683.9940742273639
 21
495.4936785437244
 31
0.0
  0
LINE
  5
DF
330
1F
100
AcDbEntity
  8
9
  6
Continuous
 62
     7
370
    25
100
AcDbLine
 10
682.9940742273639
 20
151.4936785437244
 30
0.0
 11
683.9940742273639
 21
151.4936785437244
 31
0.0
  0
LINE
  5
E0
330
1F
100
AcDbEntity
  8
9
  6
Continuous
 62
     7
370
    25
100
AcDbLine
 10
638.9940742273639
 20
150.4936785437244
 30
0.0
 11
682.9940742273639
 21
150.4936785437244
 31
0.0
  0
LINE
  5
E1
330
1F
100
AcDbEntity
  8
9
  6
Continuous
 62
     7
370
    25
100
AcDbLine
 10
682.9940742273639
 20
135.4936785437244
 30
0.0
 11
683.9940742273639
 21
135.4936785437244
 31
0.0
  0
LINE
  5
E2
330
1F
100
AcDbEntity
  8
9
  6
Continuous
 62
     7
370
    25
100
AcDbLine
 10
509.4779852066813
 20
140.4936785437244
 30
0.0
 11
509.4779852066813
 21
150.4936785437244
 31
0.0
  0
ARC
  5
E3
330
1F
100
AcDbEntity
  8
9
  6
Continuous
 62
     7
370
    25
100
AcDbCircle
 10
504.4779852066822
 20
140.4936785437244
 30
0.0
 40
5.0
100
AcDbArc
 50
269.9999999999998
 51
0.0
  0
LINE
  5
E4
330
1F
100
AcDbEntity
  8
9
  6
Continuous
 62
     7
370
    25
100
AcDbLine
 10
214.4779852066813
 20
135.4936785437244
 30
0.0
 11
504.4779852066822
 21
135.4936785437253
 31
0.0
  0
LINE
  5
E5
330
1F
100
AcDbEntity
  8
9
  6
Continuous
 62
     7
370
    25
100
AcDbLine
 10
209.4779852066813
 20
140.4936785437244
 30
0.0
 11
209.4779852066813
 21
150.4936785437244
 31
0.0
  0
ARC
  5
E6
330
1F
100
AcDbEntity
  8
9
  6
Continuous
 62
     7
370
    25
100
AcDbCircle
 10
214.4779852066804
 20
140.4936785437244
 30
0.0
 40
5.0
100
AcDbArc
 50
179.9999999999998
 51
269.9999999999998
  0
LINE
  5
E7
330
1F
100
AcDbEntity
  8
9
  6
Continuous
 62
     7
370
    25
100
AcDbLine
 10
504.4779852066813
 20
495.4936785437244
 30
0.0
 11
426.9779852066813
 21
495.4936785437244
 31
0.0
  0
ARC
  5
E8
330
1F
100
AcDbEntity
  8
9
  6
Continuous
 62
     7
370
    25
100
AcDbCircle
 10
426.9779852066813
 20
490.4936785437244
 30
0.0
 40
5.0
100
AcDbArc
 50
89.99999999999991
 51
179.9999999999998
  0
LINE
  5
E9
330
1F
100
AcDbEntity
  8
9
  6
Continuous
 62
     7
370
    25
100
AcDbLine
 10
509.4779852066813
 20
490.4936785437244
 30
0.0
 11
509.4779852066813
 21
480.4936785437244
 31
0.0
  0
LINE
  5
EA
330
1F
100
AcDbEntity
  8
9
  6
Continuous
 62
     7
370
    25
100
AcDbLine
 10
421.9779852066813
 20
490.4936785437244
 30
0.0
 11
421.9779852066813
 21
480.4936785437244
 31
0.0
  0
ARC
  5
EB
330
1F
100
AcDbEntity
  8
9
  6
Continuous
 62
     7
370
    25
100
AcDbCircle
 10
504.4779852066822
 20
490.4936785437244
 30
0.0
 40
5.0
100
AcDbArc
 50
0.0
 51
89.99999999999991
  0
LINE
  5
EC
330
1F
100
AcDbEntity
  8
9
  6
Continuous
 62
     7
370
    25
100
AcDbLine
 10
214.4779852066813
 20
495.4936785437244
 30
0.0
 11
291.9779852066813
 21
495.4936785437244
 31
0.0
  0
ARC
  5
ED
330
1F
100
AcDbEntity
  8
9
  6
Continuous
 62
     7
370
    25
100
AcDbCircle
 10
291.9779852066813
 20
490.4936785437244
 30
0.0
 40
5.0
100
AcDbArc
 50
0.0
 51
89.99999999999991
  0
LINE
  5
EE
330
1F
100
AcDbEntity
  8
9
  6
Continuous
 62
     7
370
    25
100
AcDbLine
 10
209.4779852066813
 20
490.4936785437244
 30
0.0
 11
209.4779852066813
 21
480.4936785437244
 31
0.0
  0
LINE
  5
EF
330
1F
100
AcDbEntity
  8
9
  6
Continuous
 62
     7
370
    25
100
AcDbLine
 10
296.9779852066813
 20
490.4936785437244
 30
0.0
 11
296.9779852066813
 21
480.4936785437244
 31
0.0
  0
ARC
  5
F0
330
1F
100
AcDbEntity
  8
9
  6
Continuous
 62
     7
370
    25
100
AcDbCircle
 10
214.4779852066804
 20
490.4936785437244
 30
0.0
 40
5.0
100
AcDbArc
 50
89.99999999999991
 51
179.9999999999998
  0
LINE
  5
F1
330
1F
100
AcDbEntity
  8
9
  6
Continuous
 62
     7
370
    25
100
AcDbLine
 10
682.494074227363
 20
515.4936785437244
 30
0.0
 11
650.494074227363
 21
515.4936785437244
 31
0.0
  0
LINE
  5
F2
330
1F
100
AcDbEntity
  8
9
  6
Continuous
 62
     7
370
    25
100
AcDbLine
 10
650.494074227363
 20
480.4936785437244
 30
0.0
 11
650.494074227363
 21
515.4936785437244
 31
0.0
  0
LINE
  5
F3
330
1F
100
AcDbEntity
  8
9
  6
Continuous
 62
     7
370
    25
100
AcDbLine
 10
651.994074227363
 20
515.4936785437244
 30
0.0
 11
651.994074227363
 21
480.4936785437244
 31
0.0
  0
LINE
  5
F4
330
1F
100
AcDbEntity
  8
9
  6
Continuous
 62
     7
370
    25
100
AcDbLine
 10
682.494074227363
 20
515.4936785437244
 30
0.0
 11
682.494074227363
 21
480.4936785437244
 31
0.0
  0
LINE
  5
F5
330
1F
100
AcDbEntity
  8
9
  6
Continuous
 62
     7
370
    25
100
AcDbLine
 10
680.994074227363
 20
515.4936785437244
 30
0.0
 11
680.994074227363
 21
480.4936785437244
 31
0.0
  0
LINE
  5
F6
330
1F
100
AcDbEntity
  8
9
  6
Continuous
 62
     7
370
    25
100
AcDbLine
 10
382.4779852066795
 20
515.4936785437244
 30
0.0
 11
336.4779852066795
 21
515.4936785437244
 31
0.0
  0
LINE
  5
F7
330
1F
100
AcDbEntity
  8
9
  6
Continuous
 62
     7
370
    25
100
AcDbLine
 10
337.9779852066795
 20
515.4936785437244
 30
0.0
 11
337.9779852066795
 21
480.4936785437235
 31
0.0
  0
LINE
  5
F8
330
1F
100
AcDbEntity
  8
9
  6
Continuous
 62
     7
370
    25
100
AcDbLine
 10
336.4779852066795
 20
515.4936785437244
 30
0.0
 11
336.4779852066795
 21
480.4936785437244
 31
0.0
  0
LINE
  5
F9
330
1F
100
AcDbEntity
  8
9
  6
Continuous
 62
     7
370
    25
100
AcDbLine
 10
380.9779852066795
 20
515.4936785437244
 30
0.0
 11
380.9779852066795
 21
480.4936785437235
 31
0.0
  0
LINE
  5
FA
330
1F
100
AcDbEntity
  8
9
  6
Continuous
 62
     7
370
    25
100
AcDbLine
 10
382.4779852066795
 20
515.4936785437244
 30
0.0
 11
382.4779852066795
 21
480.4936785437244
 31
0.0
  0
LINE
  5
FB
330
1F
100
AcDbEntity
  8
9
  6
Continuous
 62
     7
370
    25
100
AcDbLine
 10
386.7439918461505
 20
508.3436785437229
 30
0.0
 11
393.9779852066813
 21
508.3436785437229
 31
0.0
  0
LINE
  5
FC
330
1F
100
AcDbEntity
  8
9
  6
Continuous
 62
     7
370
    25
100
AcDbLine
 10
389.2779852066815
 20
507.805217005262
 30
0.0
 11
388.3453424641439
 21
508.3436785437229
 31
0.0
  0
LINE
  5
FD
330
1F
100
AcDbEntity
  8
9
  6
Continuous
 62
     7
370
    25
100
AcDbLine
 10
394.7779852066815
 20
507.5436785437237
 30
0.0
 11
393.9779852066813
 21
508.3436785437229
 31
0.0
  0
LINE
  5
FE
330
1F
100
AcDbEntity
  8
9
  6
Continuous
 62
     7
370
    25
100
AcDbLine
 10
389.2779852066815
 20
507.805217005262
 30
0.0
 11
394.5164467451432
 21
507.805217005262
 31
0.0
  0
LINE
  5
FF
330
1F
100
AcDbEntity
  8
9
  6
Continuous
 62
     7
370
    25
100
AcDbLine
 10
384.7779852066815
 20
511.9936785437244
 30
0.0
 11
382.4779852066813
 21
511.9936785437244
 31
0.0
  0
LINE
  5
100
330
1F
100
AcDbEntity
  8
9
  6
Continuous
 62
     7
370
    25
100
AcDbLine
 10
384.7779852066815
 20
482.9936785437244
 30
0.0
 11
382.4779852066813
 21
482.9936785437244
 31
0.0
  0
LINE
  5
101
330
1F
100
AcDbEntity
  8
9
  6
Continuous
 62
     7
370
    25
100
AcDbLine
 10
389.2779852066815
 20
487.182140082185
 30
0.0
 11
388.3453424641439
 21
486.643678543724
 31
0.0
  0
LINE
  5
102
330
1F
100
AcDbEntity
  8
9
  6
Continuous
 62
     7
370
    25
100
AcDbLine
 10
384.7779852066815
 20
511.9936785437244
 30
0.0
 11
384.7779852066815
 21
482.9936785437244
 31
0.0
  0
LINE
  5
103
330
1F
100
AcDbEntity
  8
9
  6
Continuous
 62
     7
370
    25
100
AcDbLine
 10
389.2779852066815
 20
486.643678543724
 30
0.0
 11
389.2779852066815
 21
508.3436785437229
 31
0.0
  0
LINE
  5
104
330
1F
100
AcDbEntity
  8
9
  6
Continuous
 62
     7
370
    25
100
AcDbLine
 10
394.7779852066815
 20
487.4436785437233
 30
0.0
 11
393.9779852066813
 21
486.643678543724
 31
0.0
  0
LINE
  5
105
330
1F
100
AcDbEntity
  8
9
  6
Continuous
 62
     7
370
    25
100
AcDbLine
 10
393.9779852066813
 20
486.643678543724
 30
0.0
 11
393.9779852066813
 21
508.3436785437229
 31
0.0
  0
LINE
  5
106
330
1F
100
AcDbEntity
  8
9
  6
Continuous
 62
     7
370
    25
100
AcDbLine
 10
386.7512703754701
 20
486.643678543724
 30
0.0
 11
393.9779852066813
 21
486.643678543724
 31
0.0
  0
LINE
  5
107
330
1F
100
AcDbEntity
  8
9
  6
Continuous
 62
     7
370
    25
100
AcDbLine
 10
389.2779852066815
 20
487.182140082185
 30
0.0
 11
394.5164467451432
 21
487.182140082185
 31
0.0
  0
LINE
  5
108
330
1F
100
AcDbEntity
  8
9
  6
Continuous
 62
     7
370
    25
100
AcDbLine
 10
394.7779852066815
 20
487.4436785437233
 30
0.0
 11
394.7779852066815
 21
507.5436785437237
 31
0.0
  0
ARC
  5
109
330
1F
100
AcDbEntity
  8
9
  6
Continuous
 62
     7
370
    25
100
AcDbCircle
 10
654.994074227363
 20
508.9936785437244
 30
0.0
 40
3.0
100
AcDbArc
 50
89.99999999999991
 51
180.0000015352185
  0
LINE
  5
10A
330
1F
100
AcDbEntity
  8
9
  6
Continuous
 62
     7
370
    25
100
AcDbLine
 10
666.2663278701812
 20
505.7905533527578
 30
0.0
 11
666.3539976540205
 21
506.7926235674136
 31
0.0
  0
ARC
  5
10B
330
1F
100
AcDbEntity
  8
9
  6
Continuous
 62
     7
370
    25
100
AcDbCircle
 10
666.494074227363
 20
497.4936785437244
 30
0.0
 40
9.299999999999955
100
AcDbArc
 50
170.0933760556509
 51
189.9066270147624
  0
LINE
  5
10C
330
1F
100
AcDbEntity
  8
9
  6
Continuous
 62
     7
370
    25
100
AcDbLine
 10
658.3497510510642
 20
499.0936785437229
 30
0.0
 11
657.3327424464478
 21
499.0936785437229
 31
0.0
  0
LINE
  5
10D
330
1F
100
AcDbEntity
  8
9
  6
Continuous
 62
     7
370
    25
100
AcDbLine
 10
658.3497510510642
 20
495.893678543724
 30
0.0
 11
657.3327424464478
 21
495.893678543724
 31
0.0
  0
ARC
  5
10E
330
1F
100
AcDbEntity
  8
9
  6
Continuous
 62
     7
370
    25
100
AcDbCircle
 10
654.994074227363
 20
485.9936785437244
 30
0.0
 40
3.0
100
AcDbArc
 50
180.0000015352185
 51
270.0000030704373
  0
LINE
  5
10F
330
1F
100
AcDbEntity
  8
9
  6
Continuous
 62
     7
370
    25
100
AcDbLine
 10
651.994074227363
 20
508.9936785437244
 30
0.0
 11
651.994074227363
 21
485.9936785437244
 31
0.0
  0
LINE
  5
110
330
1F
100
AcDbEntity
  8
9
  6
Continuous
 62
     7
370
    25
100
AcDbLine
 10
668.1590977965552
 20
505.6249574415383
 30
0.0
 11
668.2467675803946
 21
506.6270276561922
 31
0.0
  0
ARC
  5
111
330
1F
100
AcDbEntity
  8
9
  6
Continuous
 62
     7
370
    25
100
AcDbCircle
 10
677.994074227363
 20
508.9936785437244
 30
0.0
 40
3.0
100
AcDbArc
 50
359.9999984647287
 51
89.99999999999991
  0
ARC
  5
112
330
1F
100
AcDbEntity
  8
9
  6
Continuous
 62
     7
370
    25
100
AcDbCircle
 10
666.494074227363
 20
497.4936785437244
 30
0.0
 40
9.299999999999955
100
AcDbArc
 50
29.13697746152328
 51
40.86302066208643
  0
LINE
  5
113
330
1F
100
AcDbEntity
  8
9
  6
Continuous
 62
     7
370
    25
100
AcDbLine
 10
672.7034565335298
 20
503.0012707014507
 30
0.0
 11
673.5274399038772
 21
503.5782300687283
 31
0.0
  0
LINE
  5
114
330
1F
100
AcDbEntity
  8
9
  6
Continuous
 62
     7
370
    25
100
AcDbLine
 10
673.7932517625968
 20
501.4448818173028
 30
0.0
 11
674.6172351329442
 21
502.0218411845785
 31
0.0
  0
ARC
  5
115
330
1F
100
AcDbEntity
  8
9
  6
Continuous
 62
     7
370
    25
100
AcDbCircle
 10
666.494074227363
 20
497.4936785437244
 30
0.0
 40
9.299999999999955
100
AcDbArc
 50
279.136975585074
 51
290.8630187856824
  0
LINE
  5
116
330
1F
100
AcDbEntity
  8
9
  6
Continuous
 62
     7
370
    25
100
AcDbLine
 10
667.7105250400091
 20
489.2833041661202
 30
0.0
 11
667.9708705895082
 21
488.311681347865
 31
0.0
  0
LINE
  5
117
330
1F
100
AcDbEntity
  8
9
  6
Continuous
 62
     7
370
    25
100
AcDbLine
 10
669.5457841099587
 20
489.7750603518148
 30
0.0
 11
669.8061296594578
 21
488.8034375335596
 31
0.0
  0
ARC
  5
118
330
1F
100
AcDbEntity
  8
9
  6
Continuous
 62
     7
370
    25
100
AcDbCircle
 10
666.494074227363
 20
497.4936785437244
 30
0.0
 40
9.299999999999955
100
AcDbArc
 50
314.1369761821824
 51
325.8630193826851
  0
LINE
  5
119
330
1F
100
AcDbEntity
  8
9
  6
Continuous
 62
     7
370
    25
100
AcDbLine
 10
672.1998096739335
 20
491.4658611100463
 30
0.0
 11
672.9703722165987
 21
490.8192823646955
 31
0.0
  0
ARC
  5
11A
330
1F
100
AcDbEntity
  8
9
  6
Continuous
 62
     7
370
    25
100
AcDbCircle
 10
677.994074227363
 20
485.9936785437244
 30
0.0
 40
3.0
100
AcDbArc
 50
270.0000030704373
 51
359.9999984647287
  0
LINE
  5
11B
330
1F
100
AcDbEntity
  8
9
  6
Continuous
 62
     7
370
    25
100
AcDbLine
 10
673.4211061323376
 20
492.9213455519716
 30
0.0
 11
674.1916686750028
 21
492.2747668066227
 31
0.0
  0
LINE
  5
11C
330
1F
100
AcDbEntity
  8
9
  6
Continuous
 62
     7
370
    25
100
AcDbLine
 10
680.994074227363
 20
485.9936785437244
 30
0.0
 11
680.994074227363
 21
508.9936785437244
 31
0.0
  0
LINE
  5
11D
330
1F
100
AcDbEntity
  8
9
  6
Continuous
 62
     7
370
    25
100
AcDbLine
 10
677.994074227363
 20
511.9936785437244
 30
0.0
 11
654.994074227363
 21
511.9936785437244
 31
0.0
  0
LINE
  5
11E
330
1F
100
AcDbEntity
  8
9
  6
Continuous
 62
     7
370
    25
100
AcDbLine
 10
654.994074227363
 20
482.9936785437244
 30
0.0
 11
677.994074227363
 21
482.9936785437244
 31
0.0
  0
CIRCLE
  5
11F
330
1F
100
AcDbEntity
  8
9
  6
Continuous
 62
     7
370
    25
100
AcDbCircle
 10
666.494074227363
 20
497.4936785437244
 30
0.0
 40
10.85000000000002
  0
CIRCLE
  5
120
330
1F
100
AcDbEntity
  8
9
  6
Continuous
 62
     7
370
    25
100
AcDbCircle
 10
666.494074227363
 20
497.4936785437244
 30
0.0
 40
8.299999999999955
  0
ARC
  5
121
330
1F
100
AcDbEntity
  8
9
  6
Continuous
 62
     7
370
    25
100
AcDbCircle
 10
666.494074227363
 20
497.4936785437244
 30
0.0
 40
9.299999999999955
100
AcDbArc
 50
79.13697831440527
 51
90.86302151497524
  0
CIRCLE
  5
122
330
1F
100
AcDbEntity
  8
9
  6
Continuous
 62
     7
370
    25
100
AcDbCircle
 10
666.494074227363
 20
497.4936785437244
 30
0.0
 40
7.149999999999977
  0
CIRCLE
  5
123
330
1F
100
AcDbEntity
  8
9
  6
Continuous
 62
     7
370
    25
100
AcDbCircle
 10
666.494074227363
 20
497.4936785437244
 30
0.0
 40
10.04999999999995
  0
ARC
  5
124
330
1F
100
AcDbEntity
  8
9
  6
Continuous
 62
     7
370
    25
100
AcDbCircle
 10
666.494074227363
 20
497.4936785437244
 30
0.0
 40
10.31153846153859
100
AcDbArc
 50
269.9999999999998
 51
179.9999999999998
  0
ARC
  5
125
330
1F
100
AcDbEntity
  8
9
  6
Continuous
 62
     7
370
    25
100
AcDbCircle
 10
673.1940742273637
 20
364.6936785437242
 30
0.0
 40
0.5
100
AcDbArc
 50
0.0
 51
89.99999999999991
  0
ARC
  5
126
330
1F
100
AcDbEntity
  8
9
  6
Continuous
 62
     7
370
    25
100
AcDbCircle
 10
674.7940742273631
 20
364.6936785437242
 30
0.0
 40
0.5
100
AcDbArc
 50
89.99999999999991
 51
179.9999999999998
  0
CIRCLE
  5
127
330
1F
100
AcDbEntity
  8
9
  6
Continuous
 62
     7
370
    25
100
AcDbCircle
 10
673.9940742273639
 20
365.4936785437244
 30
0.0
 40
3.450000000000045
  0
LINE
  5
128
330
1F
100
AcDbEntity
  8
9
  6
Continuous
 62
     7
370
    25
100
AcDbLine
 10
673.6940742273637
 20
364.6936785437242
 30
0.0
 11
673.6940742273637
 21
364.0436785437237
 31
0.0
  0
LINE
  5
129
330
1F
100
AcDbEntity
  8
9
  6
Continuous
 62
     7
370
    25
100
AcDbLine
 10
674.2940742273631
 20
364.6936785437242
 30
0.0
 11
674.2940742273631
 21
364.0436785437237
 31
0.0
  0
LINE
  5
12A
330
1F
100
AcDbEntity
  8
9
  6
Continuous
 62
     7
370
    25
100
AcDbLine
 10
673.6940742273637
 20
364.0436785437237
 30
0.0
 11
674.2940742273631
 21
364.0436785437237
 31
0.0
  0
LINE
  5
12B
330
1F
100
AcDbEntity
  8
9
  6
Continuous
 62
     7
370
    25
100
AcDbLine
 10
673.1940742273637
 20
365.7936785437237
 30
0.0
 11
672.5440742273631
 21
365.7936785437237
 31
0.0
  0
LINE
  5
12C
330
1F
100
AcDbEntity
  8
9
  6
Continuous
 62
     7
370
    25
100
AcDbLine
 10
673.1940742273637
 20
365.1936785437242
 30
0.0
 11
672.5440742273631
 21
365.1936785437242
 31
0.0
  0
ARC
  5
12D
330
1F
100
AcDbEntity
  8
9
  6
Continuous
 62
     7
370
    25
100
AcDbCircle
 10
674.7940742273631
 20
366.2936785437237
 30
0.0
 40
0.5
100
AcDbArc
 50
179.9999999999998
 51
269.9999999999998
  0
ARC
  5
12E
330
1F
100
AcDbEntity
  8
9
  6
Continuous
 62
     7
370
    25
100
AcDbCircle
 10
673.1940742273637
 20
366.2936785437237
 30
0.0
 40
0.5
100
AcDbArc
 50
269.9999999999998
 51
0.0
  0
LINE
  5
12F
330
1F
100
AcDbEntity
  8
9
  6
Continuous
 62
     7
370
    25
100
AcDbLine
 10
674.2940742273631
 20
366.2936785437237
 30
0.0
 11
674.2940742273631
 21
366.9436785437242
 31
0.0
  0
LINE
  5
130
330
1F
100
AcDbEntity
  8
9
  6
Continuous
 62
     7
370
    25
100
AcDbLine
 10
673.6940742273637
 20
366.2936785437237
 30
0.0
 11
673.6940742273637
 21
366.9436785437242
 31
0.0
  0
LINE
  5
131
330
1F
100
AcDbEntity
  8
9
  6
Continuous
 62
     7
370
    25
100
AcDbLine
 10
674.7940742273631
 20
365.7936785437237
 30
0.0
 11
675.4440742273637
 21
365.7936785437237
 31
0.0
  0
LINE
  5
132
330
1F
100
AcDbEntity
  8
9
  6
Continuous
 62
     7
370
    25
100
AcDbLine
 10
674.7940742273631
 20
365.1936785437242
 30
0.0
 11
675.4440742273637
 21
365.1936785437242
 31
0.0
  0
LINE
  5
133
330
1F
100
AcDbEntity
  8
9
  6
Continuous
 62
     7
370
    25
100
AcDbLine
 10
675.4440742273637
 20
365.1936785437242
 30
0.0
 11
675.4440742273637
 21
365.7936785437237
 31
0.0
  0
LINE
  5
134
330
1F
100
AcDbEntity
  8
9
  6
Continuous
 62
     7
370
    25
100
AcDbLine
 10
674.2940742273631
 20
366.9436785437242
 30
0.0
 11
673.6940742273637
 21
366.9436785437242
 31
0.0
  0
LINE
  5
135
330
1F
100
AcDbEntity
  8
9
  6
Continuous
 62
     7
370
    25
100
AcDbLine
 10
672.5440742273631
 20
365.7936785437237
 30
0.0
 11
672.5440742273631
 21
365.1936785437242
 31
0.0
  0
ARC
  5
136
330
1F
100
AcDbEntity
  8
9
  6
Continuous
 62
     7
370
    25
100
AcDbCircle
 10
673.1940742273637
 20
264.6936785437242
 30
0.0
 40
0.5
100
AcDbArc
 50
0.0
 51
89.99999999999991
  0
ARC
  5
137
330
1F
100
AcDbEntity
  8
9
  6
Continuous
 62
     7
370
    25
100
AcDbCircle
 10
674.7940742273631
 20
264.6936785437242
 30
0.0
 40
0.5
100
AcDbArc
 50
89.99999999999991
 51
179.9999999999998
  0
CIRCLE
  5
138
330
1F
100
AcDbEntity
  8
9
  6
Continuous
 62
     7
370
    25
100
AcDbCircle
 10
673.9940742273639
 20
265.4936785437244
 30
0.0
 40
3.450000000000045
  0
LINE
  5
139
330
1F
100
AcDbEntity
  8
9
  6
Continuous
 62
     7
370
    25
100
AcDbLine
 10
673.6940742273637
 20
264.6936785437242
 30
0.0
 11
673.6940742273637
 21
264.0436785437237
 31
0.0
  0
LINE
  5
13A
330
1F
100
AcDbEntity
  8
9
  6
Continuous
 62
     7
370
    25
100
AcDbLine
 10
674.2940742273631
 20
264.6936785437242
 30
0.0
 11
674.2940742273631
 21
264.0436785437237
 31
0.0
  0
LINE
  5
13B
330
1F
100
AcDbEntity
  8
9
  6
Continuous
 62
     7
370
    25
100
AcDbLine
 10
673.6940742273637
 20
264.0436785437237
 30
0.0
 11
674.2940742273631
 21
264.0436785437237
 31
0.0
  0
LINE
  5
13C
330
1F
100
AcDbEntity
  8
9
  6
Continuous
 62
     7
370
    25
100
AcDbLine
 10
673.1940742273637
 20
265.7936785437237
 30
0.0
 11
672.5440742273631
 21
265.7936785437237
 31
0.0
  0
LINE
  5
13D
330
1F
100
AcDbEntity
  8
9
  6
Continuous
 62
     7
370
    25
100
AcDbLine
 10
673.1940742273637
 20
265.1936785437242
 30
0.0
 11
672.5440742273631
 21
265.1936785437242
 31
0.0
  0
ARC
  5
13E
330
1F
100
AcDbEntity
  8
9
  6
Continuous
 62
     7
370
    25
100
AcDbCircle
 10
674.7940742273631
 20
266.2936785437237
 30
0.0
 40
0.5
100
AcDbArc
 50
179.9999999999998
 51
269.9999999999998
  0
ARC
  5
13F
330
1F
100
AcDbEntity
  8
9
  6
Continuous
 62
     7
370
    25
100
AcDbCircle
 10
673.1940742273637
 20
266.2936785437237
 30
0.0
 40
0.5
100
AcDbArc
 50
269.9999999999998
 51
0.0
  0
LINE
  5
140
330
1F
100
AcDbEntity
  8
9
  6
Continuous
 62
     7
370
    25
100
AcDbLine
 10
674.2940742273631
 20
266.2936785437237
 30
0.0
 11
674.2940742273631
 21
266.9436785437242
 31
0.0
  0
LINE
  5
141
330
1F
100
AcDbEntity
  8
9
  6
Continuous
 62
     7
370
    25
100
AcDbLine
 10
673.6940742273637
 20
266.2936785437237
 30
0.0
 11
673.6940742273637
 21
266.9436785437242
 31
0.0
  0
LINE
  5
142
330
1F
100
AcDbEntity
  8
9
  6
Continuous
 62
     7
370
    25
100
AcDbLine
 10
674.7940742273631
 20
265.7936785437237
 30
0.0
 11
675.4440742273637
 21
265.7936785437237
 31
0.0
  0
LINE
  5
143
330
1F
100
AcDbEntity
  8
9
  6
Continuous
 62
     7
370
    25
100
AcDbLine
 10
674.7940742273631
 20
265.1936785437242
 30
0.0
 11
675.4440742273637
 21
265.1936785437242
 31
0.0
  0
LINE
  5
144
330
1F
100
AcDbEntity
  8
9
  6
Continuous
 62
     7
370
    25
100
AcDbLine
 10
675.4440742273637
 20
265.1936785437242
 30
0.0
 11
675.4440742273637
 21
265.7936785437237
 31
0.0
  0
LINE
  5
145
330
1F
100
AcDbEntity
  8
9
  6
Continuous
 62
     7
370
    25
100
AcDbLine
 10
674.2940742273631
 20
266.9436785437242
 30
0.0
 11
673.6940742273637
 21
266.9436785437242
 31
0.0
  0
LINE
  5
146
330
1F
100
AcDbEntity
  8
9
  6
Continuous
 62
     7
370
    25
100
AcDbLine
 10
672.5440742273631
 20
265.7936785437237
 30
0.0
 11
672.5440742273631
 21
265.1936785437242
 31
0.0
  0
CIRCLE
  5
147
330
1F
100
AcDbEntity
  8
9
  6
Continuous
 62
     7
370
    25
100
AcDbCircle
 10
654.994074227363
 20
508.9936785437244
 30
0.0
 40
2.75
  0
LINE
  5
148
330
1F
100
AcDbEntity
  8
9
  6
Continuous
 62
     7
370
    25
100
AcDbLine
 10
653.4030839696925
 20
510.5846688013939
 30
0.0
 11
656.5850644850325
 21
507.4026882860549
 31
0.0
  0
LINE
  5
149
330
1F
100
AcDbEntity
  8
9
  6
Continuous
 62
     7
370
    25
100
AcDbLine
 10
653.4030839696925
 20
507.4026882860549
 30
0.0
 11
656.5850644850325
 21
510.5846688013939
 31
0.0
  0
CIRCLE
  5
14A
330
1F
100
AcDbEntity
  8
9
  6
Continuous
 62
     7
370
    25
100
AcDbCircle
 10
654.994074227363
 20
485.9936785437244
 30
0.0
 40
2.75
  0
LINE
  5
14B
330
1F
100
AcDbEntity
  8
9
  6
Continuous
 62
     7
370
    25
100
AcDbLine
 10
653.4030839696925
 20
487.5846688013939
 30
0.0
 11
656.5850644850325
 21
484.4026882860549
 31
0.0
  0
LINE
  5
14C
330
1F
100
AcDbEntity
  8
9
  6
Continuous
 62
     7
370
    25
100
AcDbLine
 10
653.4030839696925
 20
484.4026882860549
 30
0.0
 11
656.5850644850325
 21
487.5846688013939
 31
0.0
  0
CIRCLE
  5
14D
330
1F
100
AcDbEntity
  8
9
  6
Continuous
 62
     7
370
    25
100
AcDbCircle
 10
677.994074227363
 20
485.9936785437244
 30
0.0
 40
2.75
  0
LINE
  5
14E
330
1F
100
AcDbEntity
  8
9
  6
Continuous
 62
     7
370
    25
100
AcDbLine
 10
676.4030839696925
 20
487.5846688013939
 30
0.0
 11
679.5850644850325
 21
484.4026882860549
 31
0.0
  0
LINE
  5
14F
330
1F
100
AcDbEntity
  8
9
  6
Continuous
 62
     7
370
    25
100
AcDbLine
 10
676.4030839696925
 20
484.4026882860549
 30
0.0
 11
679.5850644850325
 21
487.5846688013939
 31
0.0
  0
CIRCLE
  5
150
330
1F
100
AcDbEntity
  8
9
  6
Continuous
 62
     7
370
    25
100
AcDbCircle
 10
677.994074227363
 20
508.9936785437244
 30
0.0
 40
2.75
  0
LINE
  5
151
330
1F
100
AcDbEntity
  8
9
  6
Continuous
 62
     7
370
    25
100
AcDbLine
 10
676.4030839696925
 20
510.5846688013939
 30
0.0
 11
679.5850644850325
 21
507.4026882860549
 31
0.0
  0
LINE
  5
152
330
1F
100
AcDbEntity
  8
9
  6
Continuous
 62
     7
370
    25
100
AcDbLine
 10
676.4030839696925
 20
507.4026882860549
 30
0.0
 11
679.5850644850325
 21
510.5846688013939
 31
0.0
  0
LINE
  5
153
330
1F
100
AcDbEntity
  8
9
  6
Continuous
 62
     7
370
    25
100
AcDbLine
 10
384.7779852066815
 20
511.7827006760731
 30
0.0
 11
384.7779852066815
 21
506.2827006760731
 31
0.0
  0
ARC
  5
154
330
1F
100
AcDbEntity
  8
9
  6
Continuous
 62
     7
370
    25
100
AcDbCircle
 10
379.7779852066815
 20
509.0327006760731
 30
0.0
 40
7.0
100
AcDbArc
 50
343.4486440000077
 51
16.55135599999193
  0
LINE
  5
155
330
1F
100
AcDbEntity
  8
9
  6
Continuous
 62
     7
370
    25
100
AcDbLine
 10
384.7779852066815
 20
511.7827006760731
 30
0.0
 11
385.5817102066812
 21
511.7405786760733
 31
0.0
  0
ARC
  5
156
330
1F
100
AcDbEntity
  8
9
  6
Continuous
 62
     7
370
    25
100
AcDbCircle
 10
385.5293742066815
 20
510.7419486760732
 30
0.0
 40
1.0
100
AcDbArc
 50
16.55135599999064
 51
86.99999999999442
  0
LINE
  5
157
330
1F
100
AcDbEntity
  8
9
  6
Continuous
 62
     7
370
    25
100
AcDbLine
 10
384.7779852066815
 20
506.2827006760731
 30
0.0
 11
385.5817102066812
 21
506.3248226760738
 31
0.0
  0
ARC
  5
158
330
1F
100
AcDbEntity
  8
9
  6
Continuous
 62
     7
370
    25
100
AcDbCircle
 10
385.5293742066815
 20
507.3234526760739
 30
0.0
 40
1.0
100
AcDbArc
 50
273.0000000000052
 51
343.448644000009
  0
LINE
  5
159
330
1F
100
AcDbEntity
  8
9
  6
Continuous
 62
     7
370
    25
100
AcDbLine
 10
384.7779852066815
 20
488.7827006760731
 30
0.0
 11
384.7779852066815
 21
483.2827006760731
 31
0.0
  0
ARC
  5
15A
330
1F
100
AcDbEntity
  8
9
  6
Continuous
 62
     7
370
    25
100
AcDbCircle
 10
379.7779852066815
 20
486.0327006760731
 30
0.0
 40
7.0
100
AcDbArc
 50
343.4486440000077
 51
16.55135599999193
  0
LINE
  5
15B
330
1F
100
AcDbEntity
  8
9
  6
Continuous
 62
     7
370
    25
100
AcDbLine
 10
384.7779852066815
 20
488.7827006760731
 30
0.0
 11
385.5817102066812
 21
488.7405786760733
 31
0.0
  0
ARC
  5
15C
330
1F
100
AcDbEntity
  8
9
  6
Continuous
 62
     7
370
    25
100
AcDbCircle
 10
385.5293742066815
 20
487.7419486760732
 30
0.0
 40
1.0
100
AcDbArc
 50
16.55135599999064
 51
86.99999999999442
  0
LINE
  5
15D
330
1F
100
AcDbEntity
  8
9
  6
Continuous
 62
     7
370
    25
100
AcDbLine
 10
384.7779852066815
 20
483.2827006760731
 30
0.0
 11
385.5817102066812
 21
483.3248226760738
 31
0.0
  0
ARC
  5
15E
330
1F
100
AcDbEntity
  8
9
  6
Continuous
 62
     7
370
    25
100
AcDbCircle
 10
385.5293742066815
 20
484.3234526760739
 30
0.0
 40
1.0
100
AcDbArc
 50
273.0000000000052
 51
343.448644000009
  0
LINE
  5
15F
330
1F
100
AcDbEntity
  8
9
  6
Continuous
 62
     7
370
    25
100
AcDbLine
 10
362.9279852066811
 20
150.1770118770569
 30
0.0
 11
356.0279852066806
 21
150.1770118770569
 31
0.0
  0
ARC
  5
160
330
1F
100
AcDbEntity
  8
9
  6
Continuous
 62
     7
370
    25
100
AcDbCircle
 10
359.4779852066813
 20
153.1440294209165
 30
0.0
 40
4.550350877192955
100
AcDbArc
 50
220.69569852541
 51
319.3043014745893
  0
LINE
  5
161
330
1F
100
AcDbEntity
  8
9
  6
Continuous
 62
     7
370
    25
100
AcDbLine
 10
362.9279852066811
 20
150.4936785437235
 30
0.0
 11
362.9279852066811
 21
150.1770118770569
 31
0.0
  0
LINE
  5
162
330
1F
100
AcDbEntity
  8
9
  6
Continuous
 62
     7
370
    25
100
AcDbLine
 10
356.0279852066806
 20
150.4936785437235
 30
0.0
 11
356.0279852066806
 21
150.1770118770569
 31
0.0
  0
LINE
  5
163
330
1F
100
AcDbEntity
  8
9
  6
Continuous
 62
     7
370
    25
100
AcDbLine
 10
207.927985206682
 20
150.1770118770569
 30
0.0
 11
201.0279852066824
 21
150.1770118770569
 31
0.0
  0
ARC
  5
164
330
1F
100
AcDbEntity
  8
9
  6
Continuous
 62
     7
370
    25
100
AcDbCircle
 10
204.4779852066831
 20
153.1440294209165
 30
0.0
 40
4.550350877192983
100
AcDbArc
 50
220.6956985254097
 51
319.3043014745896
  0
LINE
  5
165
330
1F
100
AcDbEntity
  8
9
  6
Continuous
 62
     7
370
    25
100
AcDbLine
 10
207.927985206682
 20
150.4936785437235
 30
0.0
 11
207.927985206682
 21
150.1770118770569
 31
0.0
  0
LINE
  5
166
330
1F
100
AcDbEntity
  8
9
  6
Continuous
 62
     7
370
    25
100
AcDbLine
 10
201.0279852066824
 20
150.4936785437235
 30
0.0
 11
201.0279852066824
 21
150.1770118770569
 31
0.0
  0
LINE
  5
167
330
1F
100
AcDbEntity
  8
9
  6
Continuous
 62
     7
370
    25
100
AcDbLine
 10
229.427985206682
 20
150.1770118770569
 30
0.0
 11
222.5279852066824
 21
150.1770118770569
 31
0.0
  0
ARC
  5
168
330
1F
100
AcDbEntity
  8
9
  6
Continuous
 62
     7
370
    25
100
AcDbCircle
 10
225.9779852066831
 20
153.1440294209165
 30
0.0
 40
4.550350877192983
100
AcDbArc
 50
220.6956985254097
 51
319.3043014745896
  0
LINE
  5
169
330
1F
100
AcDbEntity
  8
9
  6
Continuous
 62
     7
370
    25
100
AcDbLine
 10
229.427985206682
 20
150.4936785437235
 30
0.0
 11
229.427985206682
 21
150.1770118770569
 31
0.0
  0
LINE
  5
16A
330
1F
100
AcDbEntity
  8
9
  6
Continuous
 62
     7
370
    25
100
AcDbLine
 10
222.5279852066824
 20
150.4936785437235
 30
0.0
 11
222.5279852066824
 21
150.1770118770569
 31
0.0
  0
LINE
  5
16B
330
1F
100
AcDbEntity
  8
9
  6
Continuous
 62
     7
370
    25
100
AcDbLine
 10
207.927985206682
 20
480.810345210391
 30
0.0
 11
201.0279852066824
 21
480.810345210391
 31
0.0
  0
ARC
  5
16C
330
1F
100
AcDbEntity
  8
9
  6
Continuous
 62
     7
370
    25
100
AcDbCircle
 10
204.4779852066831
 20
477.8433276665314
 30
0.0
 40
4.550350877192983
100
AcDbArc
 50
40.69569852541009
 51
139.3043014745899
  0
LINE
  5
16D
330
1F
100
AcDbEntity
  8
9
  6
Continuous
 62
     7
370
    25
100
AcDbLine
 10
207.927985206682
 20
480.4936785437244
 30
0.0
 11
207.927985206682
 21
480.810345210391
 31
0.0
  0
LINE
  5
16E
330
1F
100
AcDbEntity
  8
9
  6
Continuous
 62
     7
370
    25
100
AcDbLine
 10
201.0279852066824
 20
480.4936785437244
 30
0.0
 11
201.0279852066824
 21
480.810345210391
 31
0.0
  0
LINE
  5
16F
330
1F
100
AcDbEntity
  8
9
  6
Continuous
 62
     7
370
    25
100
AcDbLine
 10
229.427985206682
 20
480.810345210391
 30
0.0
 11
222.5279852066824
 21
480.810345210391
 31
0.0
  0
ARC
  5
170
330
1F
100
AcDbEntity
  8
9
  6
Continuous
 62
     7
370
    25
100
AcDbCircle
 10
225.9779852066831
 20
477.8433276665314
 30
0.0
 40
4.550350877192983
100
AcDbArc
 50
40.69569852541009
 51
139.3043014745899
  0
LINE
  5
171
330
1F
100
AcDbEntity
  8
9
  6
Continuous
 62
     7
370
    25
100
AcDbLine
 10
229.427985206682
 20
480.4936785437244
 30
0.0
 11
229.427985206682
 21
480.810345210391
 31
0.0
  0
LINE
  5
172
330
1F
100
AcDbEntity
  8
9
  6
Continuous
 62
     7
370
    25
100
AcDbLine
 10
222.5279852066824
 20
480.4936785437244
 30
0.0
 11
222.5279852066824
 21
480.810345210391
 31
0.0
  0
LINE
  5
173
330
1F
100
AcDbEntity
  8
9
  6
Continuous
 62
     7
370
    25
100
AcDbLine
 10
324.9279852066811
 20
480.810345210391
 30
0.0
 11
318.0279852066806
 21
480.810345210391
 31
0.0
  0
ARC
  5
174
330
1F
100
AcDbEntity
  8
9
  6
Continuous
 62
     7
370
    25
100
AcDbCircle
 10
321.4779852066813
 20
477.8433276665314
 30
0.0
 40
4.550350877192955
100
AcDbArc
 50
40.69569852541033
 51
139.3043014745897
  0
LINE
  5
175
330
1F
100
AcDbEntity
  8
9
  6
Continuous
 62
     7
370
    25
100
AcDbLine
 10
324.9279852066811
 20
480.4936785437244
 30
0.0
 11
324.9279852066811
 21
480.810345210391
 31
0.0
  0
LINE
  5
176
330
1F
100
AcDbEntity
  8
9
  6
Continuous
 62
     7
370
    25
100
AcDbLine
 10
318.0279852066806
 20
480.4936785437244
 30
0.0
 11
318.0279852066806
 21
480.810345210391
 31
0.0
  0
LINE
  5
177
330
1F
100
AcDbEntity
  8
9
  6
Continuous
 62
     7
370
    25
100
AcDbLine
 10
511.0279852066806
 20
150.1770118770569
 30
0.0
 11
517.9279852066802
 21
150.1770118770569
 31
0.0
  0
ARC
  5
178
330
1F
100
AcDbEntity
  8
9
  6
Continuous
 62
     7
370
    25
100
AcDbCircle
 10
514.4779852066795
 20
153.1440294209165
 30
0.0
 40
4.550350877192955
100
AcDbArc
 50
220.69569852541
 51
319.3043014745897
  0
LINE
  5
179
330
1F
100
AcDbEntity
  8
9
  6
Continuous
 62
     7
370
    25
100
AcDbLine
 10
511.0279852066806
 20
150.4936785437235
 30
0.0
 11
511.0279852066806
 21
150.1770118770569
 31
0.0
  0
LINE
  5
17A
330
1F
100
AcDbEntity
  8
9
  6
Continuous
 62
     7
370
    25
100
AcDbLine
 10
517.9279852066802
 20
150.4936785437235
 30
0.0
 11
517.9279852066802
 21
150.1770118770569
 31
0.0
  0
LINE
  5
17B
330
1F
100
AcDbEntity
  8
9
  6
Continuous
 62
     7
370
    25
100
AcDbLine
 10
489.5279852066806
 20
150.1770118770569
 30
0.0
 11
496.4279852066802
 21
150.1770118770569
 31
0.0
  0
ARC
  5
17C
330
1F
100
AcDbEntity
  8
9
  6
Continuous
 62
     7
370
    25
100
AcDbCircle
 10
492.9779852066795
 20
153.1440294209165
 30
0.0
 40
4.550350877192955
100
AcDbArc
 50
220.69569852541
 51
319.3043014745893
  0
LINE
  5
17D
330
1F
100
AcDbEntity
  8
9
  6
Continuous
 62
     7
370
    25
100
AcDbLine
 10
489.5279852066806
 20
150.4936785437235
 30
0.0
 11
489.5279852066806
 21
150.1770118770569
 31
0.0
  0
LINE
  5
17E
330
1F
100
AcDbEntity
  8
9
  6
Continuous
 62
     7
370
    25
100
AcDbLine
 10
496.4279852066802
 20
150.4936785437235
 30
0.0
 11
496.4279852066802
 21
150.1770118770569
 31
0.0
  0
LINE
  5
17F
330
1F
100
AcDbEntity
  8
9
  6
Continuous
 62
     7
370
    25
100
AcDbLine
 10
511.0279852066806
 20
480.810345210391
 30
0.0
 11
517.9279852066802
 21
480.810345210391
 31
0.0
  0
ARC
  5
180
330
1F
100
AcDbEntity
  8
9
  6
Continuous
 62
     7
370
    25
100
AcDbCircle
 10
514.4779852066795
 20
477.8433276665314
 30
0.0
 40
4.550350877192955
100
AcDbArc
 50
40.69569852540987
 51
139.3043014745897
  0
LINE
  5
181
330
1F
100
AcDbEntity
  8
9
  6
Continuous
 62
     7
370
    25
100
AcDbLine
 10
511.0279852066806
 20
480.4936785437244
 30
0.0
 11
511.0279852066806
 21
480.810345210391
 31
0.0
  0
LINE
  5
182
330
1F
100
AcDbEntity
  8
9
  6
Continuous
 62
     7
370
    25
100
AcDbLine
 10
517.9279852066802
 20
480.4936785437244
 30
0.0
 11
517.9279852066802
 21
480.810345210391
 31
0.0
  0
LINE
  5
183
330
1F
100
AcDbEntity
  8
9
  6
Continuous
 62
     7
370
    25
100
AcDbLine
 10
489.5279852066806
 20
480.810345210391
 30
0.0
 11
496.4279852066802
 21
480.810345210391
 31
0.0
  0
ARC
  5
184
330
1F
100
AcDbEntity
  8
9
  6
Continuous
 62
     7
370
    25
100
AcDbCircle
 10
492.9779852066795
 20
477.8433276665314
 30
0.0
 40
4.550350877192955
100
AcDbArc
 50
40.69569852541033
 51
139.3043014745897
  0
LINE
  5
185
330
1F
100
AcDbEntity
  8
9
  6
Continuous
 62
     7
370
    25
100
AcDbLine
 10
489.5279852066806
 20
480.4936785437244
 30
0.0
 11
489.5279852066806
 21
480.810345210391
 31
0.0
  0
LINE
  5
186
330
1F
100
AcDbEntity
  8
9
  6
Continuous
 62
     7
370
    25
100
AcDbLine
 10
496.4279852066802
 20
480.4936785437244
 30
0.0
 11
496.4279852066802
 21
480.810345210391
 31
0.0
  0
LINE
  5
187
330
1F
100
AcDbEntity
  8
9
  6
Continuous
 62
     7
370
    25
100
AcDbLine
 10
394.0279852066815
 20
480.810345210391
 30
0.0
 11
400.927985206682
 21
480.810345210391
 31
0.0
  0
ARC
  5
188
330
1F
100
AcDbEntity
  8
9
  6
Continuous
 62
     7
370
    25
100
AcDbCircle
 10
397.4779852066813
 20
477.8433276665314
 30
0.0
 40
4.550350877192955
100
AcDbArc
 50
40.69569852541033
 51
139.3043014745897
  0
LINE
  5
189
330
1F
100
AcDbEntity
  8
9
  6
Continuous
 62
     7
370
    25
100
AcDbLine
 10
394.0279852066815
 20
480.4936785437244
 30
0.0
 11
394.0279852066815
 21
480.810345210391
 31
0.0
  0
LINE
  5
18A
330
1F
100
AcDbEntity
  8
9
  6
Continuous
 62
     7
370
    25
100
AcDbLine
 10
400.927985206682
 20
480.4936785437244
 30
0.0
 11
400.927985206682
 21
480.810345210391
 31
0.0
  0
LINE
  5
18B
330
1F
100
AcDbEntity
  8
9
  6
Continuous
 62
     7
370
    25
100
AcDbLine
 10
524.7946518733488
 20
268.9436785437233
 30
0.0
 11
524.7946518733488
 21
262.0436785437237
 31
0.0
  0
ARC
  5
18C
330
1F
100
AcDbEntity
  8
9
  6
Continuous
 62
     7
370
    25
100
AcDbCircle
 10
521.8276343294883
 20
265.4936785437244
 30
0.0
 40
4.550350877192955
100
AcDbArc
 50
310.6956985253405
 51
49.30430147465916
  0
LINE
  5
18D
330
1F
100
AcDbEntity
  8
9
  6
Continuous
 62
     7
370
    25
100
AcDbLine
 10
524.4779852066813
 20
268.9436785437233
 30
0.0
 11
524.7946518733488
 21
268.9436785437233
 31
0.0
  0
LINE
  5
18E
330
1F
100
AcDbEntity
  8
9
  6
Continuous
 62
     7
370
    25
100
AcDbLine
 10
524.4779852066813
 20
262.0436785437237
 30
0.0
 11
524.7946518733488
 21
262.0436785437237
 31
0.0
  0
LINE
  5
18F
330
1F
100
AcDbEntity
  8
9
  6
Continuous
 62
     7
370
    25
100
AcDbLine
 10
524.7946518733488
 20
368.9436785437233
 30
0.0
 11
524.7946518733488
 21
362.0436785437237
 31
0.0
  0
ARC
  5
190
330
1F
100
AcDbEntity
  8
9
  6
Continuous
 62
     7
370
    25
100
AcDbCircle
 10
521.8276343294883
 20
365.4936785437244
 30
0.0
 40
4.550350877192955
100
AcDbArc
 50
310.6956985253405
 51
49.30430147465916
  0
LINE
  5
191
330
1F
100
AcDbEntity
  8
9
  6
Continuous
 62
     7
370
    25
100
AcDbLine
 10
524.4779852066813
 20
368.9436785437233
 30
0.0
 11
524.7946518733488
 21
368.9436785437233
 31
0.0
  0
LINE
  5
192
330
1F
100
AcDbEntity
  8
9
  6
Continuous
 62
     7
370
    25
100
AcDbLine
 10
524.4779852066813
 20
362.0436785437237
 30
0.0
 11
524.7946518733488
 21
362.0436785437237
 31
0.0
  0
LINE
  5
193
330
1F
100
AcDbEntity
  8
4
  6
DASHDOT
 62
     1
370
     9
100
AcDbLine
 10
359.4779852066813
 20
505.4936785437244
 30
0.0
 11
359.4779852066813
 21
125.4936785437249
 31
0.0
  0
LINE
  5
194
330
1F
100
AcDbEntity
  8
4
  6
DASHDOT
 62
     1
370
     9
100
AcDbLine
 10
184.4779852066813
 20
315.4936785437239
 30
0.0
 11
534.4779852066813
 21
315.4936785437239
 31
0.0
  0
HATCH
  5
195
330
1F
100
AcDbEntity
  8
8
  6
Continuous
 62
     2
370
     9
100
AcDbHatch
 10
0.0
 20
0.0
 30
0.0
210
0.0
220
0.0
230
1.0
  2

 70
     0
 71
     0
 91
        4
 92
        0
 93
        4
 72
     1
 10
509.4779852066813
 20
315.4936785437239
 11
509.4779852066813
 21
465.4936785437244
 72
     1
 10
509.4779852066813
 20
465.4936785437244
 11
359.4779852066813
 21
465.4936785437244
 72
     1
 10
359.4779852066813
 20
465.4936785437244
 11
359.4779852066813
 21
315.4936785437239
 72
     1
 10
359.4779852066813
 20
315.4936785437239
 11
509.4779852066813
 21
315.4936785437239
 97
        0
 92
        0
 93
        4
 72
     1
 10
509.4779852066813
 20
165.4936785437244
 11
509.4779852066813
 21
315.4936785437239
 72
     1
 10
509.4779852066813
 20
315.4936785437239
 11
359.4779852066813
 21
315.4936785437239
 72
     1
 10
359.4779852066813
 20
315.4936785437239
 11
359.4779852066813
 21
165.4936785437244
 72
     1
 10
359.4779852066813
 20
165.4936785437244
 11
509.4779852066813
 21
165.4936785437244
 97
        0
 92
        0
 93
        4
 72
     1
 10
359.4779852066813
 20
315.4936785437239
 11
209.4779852066813
 21
315.4936785437239
 72
     1
 10
209.4779852066813
 20
315.4936785437239
 11
209.4779852066813
 21
165.4936785437244
 72
     1
 10
209.4779852066813
 20
165.4936785437244
 11
359.4779852066813
 21
165.4936785437244
 72
     1
 10
359.4779852066813
 20
165.4936785437244
 11
359.4779852066813
 21
315.4936785437239
 97
        0
 92
        0
 93
        4
 72
     1
 10
359.4779852066813
 20
315.4936785437239
 11
359.4779852066813
 21
465.4936785437244
 72
     1
 10
359.4779852066813
 20
465.4936785437244
 11
209.4779852066813
 21
465.4936785437244
 72
     1
 10
209.4779852066813
 20
465.4936785437244
 11
209.4779852066813
 21
315.4936785437239
 72
     1
 10
209.4779852066813
 20
315.4936785437239
 11
359.4779852066813
 21
315.4936785437239
 97
        0
 75
     0
 76
     2
 52
0.0
 41
0.5
 77
     0
 78
     2
 53
45.0
 43
-4347.758248770383
 44
2627.003102423518
 45
-6.735192090802229
 46
6.735192090802229
 79
     0
 53
135.0
 43
-4347.758248770383
 44
2627.003102423518
 45
-6.735192090802229
 46
-6.735192090801775
 79
     0
 98
        0
  0
DIMENSION
  5
1A0
330
1F
100
AcDbEntity
  8
7
  6
Continuous
 62
     4
370
     9
100
AcDbDimension
280
     0
  2
Dim1
 10
446.9779852066812
 20
106.7727815310202
 30
0.0
 11
359.4779852066813
 21
112.7727815310202
 31
0.0
 70
   160
  1
<>
 71
     5
 42
-1.0
 73
     0
 74
     0
 75
     0
  3
Standard
100
AcDbAlignedDimension
 13
271.9779852066813
 23
134.3936785437245
 33
0.0
 14
446.9779852066813
 24
134.3936785437245
 34
0.0
100
AcDbRotatedDimension
1001
ACAD
1000
DSTYLE
1002
{
1070
   279
1070
     2
1070
   340
1005
196
1070
   140
1040
6.0
1070
    40
1040
1.0
1070
   147
1040
0.0
1070
    76
1070
     0
1070
    75
1070
     0
1070
   344
1005
0
1070
   343
1005
0
1070
   173
1070
     1
1070
   289
1070
     2
1070
   288
1070
     1
1070
    77
1070
     1
1070
   172
1070
     1
1070
   174
1070
     0
1070
    74
1070
     0
1070
    73
1070
     0
1070
   284
1070
     8
1070
    78
1070
     8
1070
    42
1040
2.0
1070
    44
1040
3.0
1070
    43
1040
30.0
1070
   271
1070
     2
1070
    41
1040
4.0
1002
}
  0
DIMENSION
  5
1AA
330
1F
100
AcDbEntity
  8
7
  6
Continuous
 62
     4
370
     9
100
AcDbDimension
280
     0
  2
Dim2
 10
484.4779852066812
 20
90.48326410190487
 30
0.0
 11
359.4779852066813
 21
96.48326410190487
 31
0.0
 70
   160
  1
<>
 71
     5
 42
-1.0
 73
     0
 74
     0
 75
     0
  3
Standard
100
AcDbAlignedDimension
 13
234.4779852066813
 23
134.3936785437245
 33
0.0
 14
484.4779852066813
 24
134.3936785437245
 34
0.0
100
AcDbRotatedDimension
1001
ACAD
1000
DSTYLE
1002
{
1070
   279
1070
     2
1070
   340
1005
196
1070
   140
1040
6.0
1070
    40
1040
1.0
1070
   147
1040
0.0
1070
    76
1070
     0
1070
    75
1070
     0
1070
   344
1005
0
1070
   343
1005
0
1070
   173
1070
     1
1070
   289
1070
     2
1070
   288
1070
     1
1070
    77
1070
     1
1070
   172
1070
     1
1070
   174
1070
     0
1070
    74
1070
     0
1070
    73
1070
     0
1070
   284
1070
     8
1070
    78
1070
     8
1070
    42
1040
2.0
1070
    44
1040
3.0
1070
    43
1040
30.0
1070
   271
1070
     2
1070
    41
1040
4.0
1002
}
  0
DIMENSION
  5
1B4
330
1F
100
AcDbEntity
  8
7
  6
Continuous
 62
     4
370
     9
100
AcDbDimension
280
     0
  2
Dim3
 10
509.4779852066811
 20
76.04711337508456
 30
0.0
 11
359.4779852066813
 21
82.04711337508456
 31
0.0
 70
   160
  1
<>
 71
     5
 42
-1.0
 73
     0
 74
     0
 75
     0
  3
Standard
100
AcDbAlignedDimension
 13
209.4779852066813
 23
165.4936785437244
 33
0.0
 14
509.4779852066813
 24
165.4936785437244
 34
0.0
100
AcDbRotatedDimension
1001
ACAD
1000
DSTYLE
1002
{
1070
   279
1070
     2
1070
   340
1005
196
1070
   140
1040
6.0
1070
    40
1040
1.0
1070
   147
1040
0.0
1070
    76
1070
     0
1070
    75
1070
     0
1070
   344
1005
0
1070
   343
1005
0
1070
   173
1070
     1
1070
   289
1070
     2
1070
   288
1070
     1
1070
    77
1070
     1
1070
   172
1070
     1
1070
   174
1070
     0
1070
    74
1070
     0
1070
    73
1070
     0
1070
   284
1070
     8
1070
    78
1070
     8
1070
    42
1040
2.0
1070
    44
1040
3.0
1070
    43
1040
30.0
1070
   271
1070
     2
1070
    41
1040
4.0
1002
}
  0
DIMENSION
  5
1BE
330
1F
100
AcDbEntity
  8
7
  6
Continuous
 62
     4
370
     9
100
AcDbDimension
280
     0
  2
Dim4
 10
545.3704375170646
 20
465.4936785437243
 30
0.0
 11
539.3704375170646
 21
315.4936785437244
 31
0.0
 70
   160
  1
<>
 71
     5
 42
-1.0
 73
     0
 74
     0
 75
     0
  3
Standard
100
AcDbAlignedDimension
 13
509.4779852066813
 23
165.4936785437244
 33
0.0
 14
509.4779852066813
 24
465.4936785437244
 34
0.0
 50
89.99999999999991
100
AcDbRotatedDimension
1001
ACAD
1000
DSTYLE
1002
{
1070
   279
1070
     2
1070
   340
1005
196
1070
   140
1040
6.0
1070
    40
1040
1.0
1070
   147
1040
0.0
1070
    76
1070
     0
1070
    75
1070
     0
1070
   344
1005
0
1070
   343
1005
0
1070
   173
1070
     1
1070
   289
1070
     2
1070
   288
1070
     1
1070
    77
1070
     1
1070
   172
1070
     1
1070
   174
1070
     0
1070
    74
1070
     0
1070
    73
1070
     0
1070
   284
1070
     8
1070
    78
1070
     8
1070
    42
1040
2.0
1070
    44
1040
3.0
1070
    43
1040
30.0
1070
   271
1070
     2
1070
    41
1040
4.0
1002
}
  0
DIMENSION
  5
1C9
330
1F
100
AcDbEntity
  8
7
  6
Continuous
 62
     4
370
     9
100
AcDbDimension
280
     0
  2
Dim5
 10
563.5417502659811
 20
150.4936785437234
 30
0.0
 11
563.5417502659811
 21
315.4936785437239
 31
0.0
 70
   160
  1
<>
 71
     5
 42
-1.0
 73
     0
 74
     0
 75
     0
 53
89.99999999999991
  3
Standard
100
AcDbAlignedDimension
 13
524.4779852066813
 23
480.4936785437244
 33
0.0
 14
524.4779852066813
 24
150.4936785437235
 34
0.0
 50
-89.99999999999991
100
AcDbRotatedDimension
1001
ACAD
1000
DSTYLE
1002
{
1070
   279
1070
     2
1070
   340
1005
196
1070
   140
1040
6.0
1070
    40
1040
1.0
1070
   147
1040
0.0
1070
    76
1070
     0
1070
    75
1070
     0
1070
   344
1005
0
1070
   343
1005
0
1070
   173
1070
     1
1070
   289
1070
     2
1070
   288
1070
     1
1070
    77
1070
     1
1070
   172
1070
     1
1070
   174
1070
     0
1070
    74
1070
     0
1070
    73
1070
     0
1070
   284
1070
     8
1070
    78
1070
     8
1070
    42
1040
2.0
1070
    44
1040
3.0
1070
    43
1040
30.0
1070
   271
1070
     2
1070
    41
1040
4.0
1002
}
  0
DIMENSION
  5
1D4
330
1F
100
AcDbEntity
  8
7
  6
Continuous
 62
     4
370
     9
100
AcDbDimension
280
     0
  2
Dim6
 10
596.5283923469742
 20
135.493678543725
 30
0.0
 11
596.5283923469742
 21
315.4936785437253
 31
0.0
 70
   160
  1
<>
 71
     5
 42
-1.0
 73
     0
 74
     0
 75
     0
 53
89.99999999999991
  3
Standard
100
AcDbAlignedDimension
 13
504.4779852066822
 23
495.4936785437244
 33
0.0
 14
504.4779852066822
 24
135.4936785437253
 34
0.0
 50
-89.99999999999991
100
AcDbRotatedDimension
1001
ACAD
1000
DSTYLE
1002
{
1070
   279
1070
     2
1070
   340
1005
196
1070
   140
1040
6.0
1070
    40
1040
1.0
1070
   147
1040
0.0
1070
    76
1070
     0
1070
    75
1070
     0
1070
   344
1005
0
1070
   343
1005
0
1070
   173
1070
     1
1070
   289
1070
     2
1070
   288
1070
     1
1070
    77
1070
     1
1070
   172
1070
     1
1070
   174
1070
     0
1070
    74
1070
     0
1070
    73
1070
     0
1070
   284
1070
     8
1070
    78
1070
     8
1070
    42
1040
2.0
1070
    44
1040
3.0
1070
    43
1040
30.0
1070
   271
1070
     2
1070
    41
1040
4.0
1002
}
  0
DIMENSION
  5
1DE
330
1F
100
AcDbEntity
  8
7
  6
Continuous
 62
     4
370
     9
100
AcDbDimension
280
     0
  2
Dim7
 10
596.5283923469733
 20
495.4936785437241
 30
0.0
 11
590.5283923469733
 21
505.4936785437244
 31
0.0
 70
   160
  1
<>
 71
     5
 42
-1.0
 73
     0
 74
     0
 75
     0
 53
89.99999999999991
  3
Standard
100
AcDbAlignedDimension
 13
382.4779852066795
 23
515.4936785437244
 33
0.0
 14
504.4779852066822
 24
495.4936785437244
 34
0.0
 50
-89.99999999999991
100
AcDbRotatedDimension
1001
ACAD
1000
DSTYLE
1002
{
1070
   279
1070
     2
1070
   340
1005
196
1070
   140
1040
6.0
1070
    40
1040
1.0
1070
   147
1040
0.0
1070
    76
1070
     0
1070
    75
1070
     0
1070
   344
1005
0
1070
   343
1005
0
1070
   173
1070
     1
1070
   289
1070
     2
1070
   288
1070
     1
1070
    77
1070
     1
1070
   172
1070
     1
1070
   174
1070
     0
1070
    74
1070
     0
1070
    73
1070
     0
1070
   284
1070
     8
1070
    78
1070
     8
1070
    42
1040
2.0
1070
    44
1040
3.0
1070
    43
1040
30.0
1070
   271
1070
     2
1070
    41
1040
4.0
1002
}
  0
DIMENSION
  5
1E8
330
1F
100
AcDbEntity
  8
7
  6
Continuous
 62
     4
370
     9
100
AcDbDimension
280
     0
  2
Dim8
 10
683.9940742273639
 20
102.9651153478521
 30
0.0
 11
661.4940742273639
 21
108.9651153478521
 31
0.0
 70
   160
  1
<>
 71
     5
 42
-1.0
 73
     0
 74
     0
 75
     0
  3
Standard
100
AcDbAlignedDimension
 13
638.9940742273639
 23
150.4936785437244
 33
0.0
 14
683.9940742273639
 24
135.4936785437244
 34
0.0
100
AcDbRotatedDimension
1001
ACAD
1000
DSTYLE
1002
{
1070
   279
1070
     2
1070
   340
1005
196
1070
   140
1040
6.0
1070
    40
1040
1.0
1070
   147
1040
0.0
1070
    76
1070
     0
1070
    75
1070
     0
1070
   344
1005
0
1070
   343
1005
0
1070
   173
1070
     1
1070
   289
1070
     2
1070
   288
1070
     1
1070
    77
1070
     1
1070
   172
1070
     1
1070
   174
1070
     0
1070
    74
1070
     0
1070
    73
1070
     0
1070
   284
1070
     8
1070
    78
1070
     8
1070
    42
1040
2.0
1070
    44
1040
3.0
1070
    43
1040
30.0
1070
   271
1070
     2
1070
    41
1040
4.0
1002
}
  0
DIMENSION
  5
1F2
330
1F
100
AcDbEntity
  8
7
  6
Continuous
 62
     4
370
     9
100
AcDbDimension
280
     0
  2
Dim9
 10
683.9940742273639
 20
528.2113876041499
 30
0.0
 11
667.2440742273634
 21
534.2113876041499
 31
0.0
 70
   160
  1
<>
 71
     5
 42
-1.0
 73
     0
 74
     0
 75
     0
  3
Standard
100
AcDbAlignedDimension
 13
650.494074227363
 23
515.4936785437244
 33
0.0
 14
683.9940742273639
 24
495.4936785437244
 34
0.0
100
AcDbRotatedDimension
1001
ACAD
1000
DSTYLE
1002
{
1070
   279
1070
     2
1070
   340
1005
196
1070
   140
1040
6.0
1070
    40
1040
1.0
1070
   147
1040
0.0
1070
    76
1070
     0
1070
    75
1070
     0
1070
   344
1005
0
1070
   343
1005
0
1070
   173
1070
     1
1070
   289
1070
     2
1070
   288
1070
     1
1070
    77
1070
     1
1070
   172
1070
     1
1070
   174
1070
     0
1070
    74
1070
     0
1070
    73
1070
     0
1070
   284
1070
     8
1070
    78
1070
     8
1070
    42
1040
2.0
1070
    44
1040
3.0
1070
    43
1040
30.0
1070
   271
1070
     2
1070
    41
1040
4.0
1002
}
  0
LINE
  5
1F3
330
1F
100
AcDbEntity
  8
9
  6
Continuous
 62
     7
370
    25
100
AcDbLine
 10
677.4440742273737
 20
480.4936785437239
 30
0.0
 11
670.5440742273731
 21
480.4936785437244
 31
0.0
  0
LINE
  5
1F4
330
1F
100
AcDbEntity
  8
9
  6
Continuous
 62
     7
370
    25
100
AcDbLine
 10
677.4440742273737
 20
480.8103452103906
 30
0.0
 11
670.5440742273731
 21
480.810345210391
 31
0.0
  0
ARC
  5
1F5
330
1F
100
AcDbEntity
  8
9
  6
Continuous
 62
     7
370
    25
100
AcDbCircle
 10
673.9940742273739
 20
477.8433276665314
 30
0.0
 40
4.550350877192955
100
AcDbArc
 50
40.69569852540987
 51
139.3043014745901
  0
LINE
  5
1F6
330
1F
100
AcDbEntity
  8
9
  6
Continuous
 62
     7
370
    25
100
AcDbLine
 10
677.4440742273737
 20
480.4936785437239
 30
0.0
 11
677.4440742273737
 21
480.8103452103906
 31
0.0
  0
LINE
  5
1F7
330
1F
100
AcDbEntity
  8
9
  6
Continuous
 62
     7
370
    25
100
AcDbLine
 10
670.5440742273731
 20
480.4936785437244
 30
0.0
 11
670.5440742273731
 21
480.810345210391
 31
0.0
  0
DIMENSION
  5
201
330
1F
100
AcDbEntity
  8
7
  6
Continuous
 62
     4
370
     9
100
AcDbDimension
280
     0
  2
Dim10
 10
524.4779852066812
 20
59.83015230946671
 30
0.0
 11
359.4779852066813
 21
65.83015230946671
 31
0.0
 70
   160
  1
<>
 71
     5
 42
-1.0
 73
     0
 74
     0
 75
     0
  3
Standard
100
AcDbAlignedDimension
 13
194.4779852066813
 23
150.4936785437235
 33
0.0
 14
524.4779852066813
 24
150.4936785437235
 34
0.0
100
AcDbRotatedDimension
1001
ACAD
1000
DSTYLE
1002
{
1070
   279
1070
     2
1070
   340
1005
196
1070
   140
1040
6.0
1070
    40
1040
1.0
1070
   147
1040
0.0
1070
    76
1070
     0
1070
    75
1070
     0
1070
   344
1005
0
1070
   343
1005
0
1070
   173
1070
     1
1070
   289
1070
     2
1070
   288
1070
     1
1070
    77
1070
     1
1070
   172
1070
     1
1070
   174
1070
     0
1070
    74
1070
     0
1070
    73
1070
     0
1070
   284
1070
     8
1070
    78
1070
     8
1070
    42
1040
2.0
1070
    44
1040
3.0
1070
    43
1040
30.0
1070
   271
1070
     2
1070
    41
1040
4.0
1002
}
  0
DIMENSION
  5
20B
330
1F
100
AcDbEntity
  8
7
  6
Continuous
 62
     4
370
     9
100
AcDbDimension
280
     0
  2
Dim11
 10
581.141399268964
 20
488.4936785437241
 30
0.0
 11
575.141399268964
 21
315.4936785437244
 31
0.0
 70
   160
  1
<>
 71
     5
 42
-1.0
 73
     0
 74
     0
 75
     0
  3
Standard
100
AcDbAlignedDimension
 13
492.5779852066812
 23
142.4936785437244
 33
0.0
 14
492.5779852066812
 24
488.4936785437244
 34
0.0
 50
89.99999999999991
100
AcDbRotatedDimension
1001
ACAD
1000
DSTYLE
1002
{
1070
   279
1070
     2
1070
   340
1005
196
1070
   140
1040
6.0
1070
    40
1040
1.0
1070
   147
1040
0.0
1070
    76
1070
     0
1070
    75
1070
     0
1070
   344
1005
0
1070
   343
1005
0
1070
   173
1070
     1
1070
   289
1070
     2
1070
   288
1070
     1
1070
    77
1070
     1
1070
   172
1070
     1
1070
   174
1070
     0
1070
    74
1070
     0
1070
    73
1070
     0
1070
   284
1070
     8
1070
    78
1070
     8
1070
    42
1040
2.0
1070
    44
1040
3.0
1070
    43
1040
30.0
1070
   271
1070
     2
1070
    41
1040
4.0
1002
}
  0
DIMENSION
  5
215
330
1F
100
AcDbEntity
  8
7
  6
Continuous
 62
     4
370
     9
100
AcDbDimension
280
     0
  2
Dim12
 10
682.9940742273639
 20
119.9097453489121
 30
0.0
 11
694.9940742273639
 21
119.9097453489121
 31
0.0
 70
   160
  1
<>
 71
     5
 42
-1.0
 73
     0
 74
     0
 75
     0
  3
Standard
100
AcDbAlignedDimension
 13
683.9940742273639
 23
135.4936785437244
 33
0.0
 14
682.9940742273639
 24
135.4936785437244
 34
0.0
 50
179.9999999999998
100
AcDbRotatedDimension
1001
ACAD
1000
DSTYLE
1002
{
1070
   279
1070
     2
1070
   340
1005
196
1070
   140
1040
6.0
1070
    40
1040
1.0
1070
   147
1040
0.0
1070
    76
1070
     0
1070
    75
1070
     0
1070
   344
1005
0
1070
   343
1005
0
1070
   173
1070
     1
1070
   289
1070
     2
1070
   288
1070
     1
1070
    77
1070
     1
1070
   172
1070
     1
1070
   174
1070
     0
1070
    74
1070
     0
1070
    73
1070
     0
1070
   284
1070
     8
1070
    78
1070
     8
1070
    42
1040
2.0
1070
    44
1040
3.0
1070
    43
1040
30.0
1070
   271
1070
     2
1070
    41
1040
4.0
1002
}
  0
LINE
  5
216
330
1F
100
AcDbEntity
  8
9
  6
Continuous
 62
     7
370
    25
100
AcDbLine
 10
194.1613185400138
 20
268.9436785437233
 30
0.0
 11
194.1613185400138
 21
262.0436785437237
 31
0.0
  0
ARC
  5
217
330
1F
100
AcDbEntity
  8
9
  6
Continuous
 62
     7
370
    25
100
AcDbCircle
 10
197.1283360838743
 20
265.4936785437244
 30
0.0
 40
4.550350877192983
100
AcDbArc
 50
130.6956985253406
 51
229.304301474659
  0
LINE
  5
218
330
1F
100
AcDbEntity
  8
9
  6
Continuous
 62
     7
370
    25
100
AcDbLine
 10
194.4779852066813
 20
268.9436785437233
 30
0.0
 11
194.1613185400138
 21
268.9436785437233
 31
0.0
  0
LINE
  5
219
330
1F
100
AcDbEntity
  8
9
  6
Continuous
 62
     7
370
    25
100
AcDbLine
 10
194.4779852066813
 20
262.0436785437237
 30
0.0
 11
194.1613185400138
 21
262.0436785437237
 31
0.0
  0
LINE
  5
21A
330
1F
100
AcDbEntity
  8
9
  6
Continuous
 62
     7
370
    25
100
AcDbLine
 10
194.1613185400138
 20
368.9436785437233
 30
0.0
 11
194.1613185400138
 21
362.0436785437237
 31
0.0
  0
ARC
  5
21B
330
1F
100
AcDbEntity
  8
9
  6
Continuous
 62
     7
370
    25
100
AcDbCircle
 10
197.1283360838743
 20
365.4936785437244
 30
0.0
 40
4.550350877192983
100
AcDbArc
 50
130.6956985253406
 51
229.304301474659
  0
LINE
  5
21C
330
1F
100
AcDbEntity
  8
9
  6
Continuous
 62
     7
370
    25
100
AcDbLine
 10
194.4779852066813
 20
368.9436785437233
 30
0.0
 11
194.1613185400138
 21
368.9436785437233
 31
0.0
  0
LINE
  5
21D
330
1F
100
AcDbEntity
  8
9
  6
Continuous
 62
     7
370
    25
100
AcDbLine
 10
194.4779852066813
 20
362.0436785437237
 30
0.0
 11
194.1613185400138
 21
362.0436785437237
 31
0.0
  0
CIRCLE
  5
21E
330
1F
100
AcDbEntity
  8
9
  6
Continuous
 62
     7
370
    25
100
AcDbCircle
 10
234.4779852066813
 20
488.4936785437244
 30
0.0
 40
3.099999999999994
  0
CIRCLE
  5
21F
330
1F
100
AcDbEntity
  8
9
  6
Continuous
 62
     7
370
    25
100
AcDbCircle
 10
271.9779852066813
 20
488.4936785437244
 30
0.0
 40
3.100000000000023
  0
CIRCLE
  5
220
330
1F
100
AcDbEntity
  8
9
  6
Continuous
 62
     7
370
    25
100
AcDbCircle
 10
446.9779852066813
 20
488.4936785437244
 30
0.0
 40
3.100000000000023
  0
CIRCLE
  5
221
330
1F
100
AcDbEntity
  8
9
  6
Continuous
 62
     7
370
    25
100
AcDbCircle
 10
484.4779852066813
 20
488.4936785437244
 30
0.0
 40
3.100000000000023
  0
CIRCLE
  5
222
330
1F
100
AcDbEntity
  8
9
  6
Continuous
 62
     7
370
    25
100
AcDbCircle
 10
234.4779852066813
 20
142.4936785437244
 30
0.0
 40
3.099999999999994
  0
CIRCLE
  5
223
330
1F
100
AcDbEntity
  8
9
  6
Continuous
 62
     7
370
    25
100
AcDbCircle
 10
271.9779852066813
 20
142.4936785437244
 30
0.0
 40
3.100000000000023
  0
CIRCLE
  5
224
330
1F
100
AcDbEntity
  8
9
  6
Continuous
 62
     7
370
    25
100
AcDbCircle
 10
446.9779852066813
 20
142.4936785437244
 30
0.0
 40
3.100000000000023
  0
CIRCLE
  5
225
330
1F
100
AcDbEntity
  8
9
  6
Continuous
 62
     7
370
    25
100
AcDbCircle
 10
484.4779852066813
 20
142.4936785437244
 30
0.0
 40
3.100000000000023
  0
LINE
  5
226
330
1F
100
AcDbEntity
  8
4
  6
DASHDOT
 62
     1
370
     9
100
AcDbLine
 10
226.3779852066814
 20
142.4936785437244
 30
0.0
 11
242.5779852066812
 21
142.4936785437244
 31
0.0
  0
LINE
  5
227
330
1F
100
AcDbEntity
  8
4
  6
DASHDOT
 62
     1
370
     9
100
AcDbLine
 10
234.4779852066813
 20
150.5936785437243
 30
0.0
 11
234.4779852066813
 21
134.3936785437245
 31
0.0
  0
LINE
  5
228
330
1F
100
AcDbEntity
  8
4
  6
DASHDOT
 62
     1
370
     9
100
AcDbLine
 10
263.8779852066814
 20
142.4936785437244
 30
0.0
 11
280.0779852066812
 21
142.4936785437244
 31
0.0
  0
LINE
  5
229
330
1F
100
AcDbEntity
  8
4
  6
DASHDOT
 62
     1
370
     9
100
AcDbLine
 10
271.9779852066813
 20
150.5936785437243
 30
0.0
 11
271.9779852066813
 21
134.3936785437245
 31
0.0
  0
LINE
  5
22A
330
1F
100
AcDbEntity
  8
4
  6
DASHDOT
 62
     1
370
     9
100
AcDbLine
 10
438.8779852066814
 20
142.4936785437244
 30
0.0
 11
455.0779852066812
 21
142.4936785437244
 31
0.0
  0
LINE
  5
22B
330
1F
100
AcDbEntity
  8
4
  6
DASHDOT
 62
     1
370
     9
100
AcDbLine
 10
446.9779852066813
 20
150.5936785437243
 30
0.0
 11
446.9779852066813
 21
134.3936785437245
 31
0.0
  0
LINE
  5
22C
330
1F
100
AcDbEntity
  8
4
  6
DASHDOT
 62
     1
370
     9
100
AcDbLine
 10
476.3779852066814
 20
142.4936785437244
 30
0.0
 11
492.5779852066812
 21
142.4936785437244
 31
0.0
  0
LINE
  5
22D
330
1F
100
AcDbEntity
  8
4
  6
DASHDOT
 62
     1
370
     9
100
AcDbLine
 10
484.4779852066813
 20
150.5936785437243
 30
0.0
 11
484.4779852066813
 21
134.3936785437245
 31
0.0
  0
LINE
  5
22E
330
1F
100
AcDbEntity
  8
4
  6
DASHDOT
 62
     1
370
     9
100
AcDbLine
 10
226.3779852066814
 20
488.4936785437244
 30
0.0
 11
242.5779852066812
 21
488.4936785437244
 31
0.0
  0
LINE
  5
22F
330
1F
100
AcDbEntity
  8
4
  6
DASHDOT
 62
     1
370
     9
100
AcDbLine
 10
234.4779852066813
 20
496.5936785437245
 30
0.0
 11
234.4779852066813
 21
480.3936785437243
 31
0.0
  0
LINE
  5
230
330
1F
100
AcDbEntity
  8
4
  6
DASHDOT
 62
     1
370
     9
100
AcDbLine
 10
263.8779852066814
 20
488.4936785437244
 30
0.0
 11
280.0779852066812
 21
488.4936785437244
 31
0.0
  0
LINE
  5
231
330
1F
100
AcDbEntity
  8
4
  6
DASHDOT
 62
     1
370
     9
100
AcDbLine
 10
271.9779852066813
 20
496.5936785437245
 30
0.0
 11
271.9779852066813
 21
480.3936785437243
 31
0.0
  0
LINE
  5
232
330
1F
100
AcDbEntity
  8
4
  6
DASHDOT
 62
     1
370
     9
100
AcDbLine
 10
438.8779852066814
 20
488.4936785437244
 30
0.0
 11
455.0779852066812
 21
488.4936785437244
 31
0.0
  0
LINE
  5
233
330
1F
100
AcDbEntity
  8
4
  6
DASHDOT
 62
     1
370
     9
100
AcDbLine
 10
446.9779852066813
 20
496.5936785437245
 30
0.0
 11
446.9779852066813
 21
480.3936785437243
 31
0.0
  0
LINE
  5
234
330
1F
100
AcDbEntity
  8
4
  6
DASHDOT
 62
     1
370
     9
100
AcDbLine
 10
476.3779852066814
 20
488.4936785437244
 30
0.0
 11
492.5779852066812
 21
488.4936785437244
 31
0.0
  0
LINE
  5
235
330
1F
100
AcDbEntity
  8
4
  6
DASHDOT
 62
     1
370
     9
100
AcDbLine
 10
484.4779852066813
 20
496.5936785437245
 30
0.0
 11
484.4779852066813
 21
480.3936785437243
 31
0.0
  0
INSERT
  5
236
330
1F
100
AcDbEntity
  8
7
  6
Continuous
 62
     4
370
     9
100
AcDbBlockReference
  2
_OPEN
 10
486.8111801036407
 20
490.865330294606
 30
0.0
 41
4.0
 42
4.0
 43
4.0
 50
235.5610106911963
  0
POLYLINE
  5
237
330
1F
100
AcDbEntity
  8
7
  6
Continuous
 62
     4
370
     9
100
AcDb2dPolyline
 66
     1
 10
0.0
 20
0.0
 30
0.0
  0
VERTEX
  5
238
330
237
100
AcDbEntity
  8
7
  6
Continuous
 62
     4
370
     9
100
AcDbVertex
100
AcDb2dVertex
 10
486.8111801036407
 20
490.865330294606
 30
0.0
  0
VERTEX
  5
239
330
237
100
AcDbEntity
  8
7
  6
Continuous
 62
     4
370
     9
100
AcDbVertex
100
AcDb2dVertex
 10
517.6950622526874
 20
535.9043250952993
 30
0.0
  0
VERTEX
  5
23A
330
237
100
AcDbEntity
  8
7
  6
Continuous
 62
     4
370
     9
100
AcDbVertex
100
AcDb2dVertex
 10
545.4150622526874
 20
535.9043250952993
 30
0.0
  0
SEQEND
  5
23B
330
237
100
AcDbEntity
  8
7
  6
Continuous
 62
     4
370
     9
  0
MTEXT
  5
23C
330
1F
100
AcDbEntity
  8
7
  6
Continuous
 62
     4
370
     9
100
AcDbMText
 10
522.4150622526874
 20
543.1043250952994
 30
0.0
 40
6.0
 41
32.587333062
 46
6.0
 71
     1
 72
     1
  1
{\fＭＳ ゴシック;\T1.016260;8-Ø6.2}
 73
     1
 44
1.0
1001
ACAD
1000
ACAD_MTEXT_DEFINED_HEIGHT_BEGIN
1070
    46
1040
6.0
1000
ACAD_MTEXT_DEFINED_HEIGHT_END
  0
VIEWPORT
  5
6A
330
1B
100
AcDbEntity
 67
     1
  8
0
100
AcDbViewport
 10
420.0
 20
297.0
 30
0.0
 40
840.0
 41
594.0
 68
     1
 69
     1
 12
420.0
 22
297.0
 13
0.0
 23
0.0
 14
0.5
 24
0.5
 15
0.5
 25
0.5
 16
0.0
 26
0.0
 36
1.0
 17
0.0
 27
0.0
 37
0.0
 42
50.0
 43
0.0
 44
0.0
 45
9.0
 50
0.0
 51
0.0
 72
   100
 90
   557152
  1

281
     0
 71
     1
 74
     0
110
0.0
120
0.0
130
0.0
111
1.0
121
0.0
131
0.0
112
0.0
122
1.0
132
0.0
 79
     0
146
0.0
170
     0
 61
     5
292
     1
282
     1
141
0.0
142
0.0
 63
   256
  0
ENDSEC
  0
SECTION
  2
OBJECTS
  0
DICTIONARY
  5
C
330
0
100
AcDbDictionary
281
     1
  3
ACAD_DETAILVIEWSTYLE
350
241
  3
ACAD_GROUP
350
D
  3
ACAD_LAYOUT
350
1A
  3
ACAD_MATERIAL
350
43
  3
ACAD_MLEADERSTYLE
350
240
  3
ACAD_MLINESTYLE
350
17
  3
ACAD_PLOTSETTINGS
350
19
  3
ACAD_PLOTSTYLENAME
350
E
  3
ACAD_SCALELIST
350
47
  3
ACAD_SECTIONVIEWSTYLE
350
242
  3
ACAD_TABLESTYLE
350
23F
  3
ACAD_VISUALSTYLE
350
2A
  3
AcDbVariableDictionary
350
23D
  0
SUN
  5
69
330
29
100
AcDbSun
 90
        1
290
     0
 63
     7
421
 16777215
 40
1.0
291
     1
 91
  2455826
 92
 54000000
292
     0
 70
     2
 71
   256
280
     1
  0
DICTIONARY
  5
241
102
{ACAD_REACTORS
330
C
102
}
330
C
100
AcDbDictionary
281
     1
  0
DICTIONARY
  5
D
102
{ACAD_REACTORS
330
C
102
}
330
C
100
AcDbDictionary
281
     1
  0
DICTIONARY
  5
1A
102
{ACAD_REACTORS
330
C
102
}
330
C
100
AcDbDictionary
281
     1
  3
Layout1
350
1E
  3
Layout2
350
26
  3
Model
350
22
  0
DICTIONARY
  5
43
102
{ACAD_REACTORS
330
C
102
}
330
C
100
AcDbDictionary
281
     1
  3
ByBlock
350
45
  3
ByLayer
350
44
  3
Global
350
46
  0
DICTIONARY
  5
240
102
{ACAD_REACTORS
330
C
102
}
330
C
100
AcDbDictionary
281
     1
  0
DICTIONARY
  5
17
102
{ACAD_REACTORS
330
C
102
}
330
C
100
AcDbDictionary
281
     1
  3
Standard
350
18
  0
DICTIONARY
  5
19
102
{ACAD_REACTORS
330
C
102
}
330
C
100
AcDbDictionary
281
     1
  0
ACDBDICTIONARYWDFLT
  5
E
102
{ACAD_REACTORS
330
C
102
}
330
C
100
AcDbDictionary
281
     1
  3
Normal
350
F
100
AcDbDictionaryWithDefault
340
F
  0
DICTIONARY
  5
47
102
{ACAD_REACTORS
330
C
102
}
330
C
100
AcDbDictionary
281
     1
  3
A0
350
48
  3
A1
350
49
  3
A2
350
4A
  3
A3
350
4B
  3
A4
350
4C
  3
A5
350
4D
  3
A6
350
4E
  3
A7
350
4F
  3
A8
350
50
  3
A9
350
51
  3
B0
350
52
  3
B1
350
53
  3
B2
350
54
  3
B3
350
55
  3
B4
350
56
  3
B5
350
57
  3
B6
350
58
  3
B7
350
59
  3
B8
350
5A
  3
B9
350
5B
  3
C0
350
5C
  3
C1
350
5D
  3
C2
350
5E
  3
C3
350
5F
  3
C4
350
60
  3
C5
350
61
  3
C6
350
62
  3
C7
350
63
  3
C8
350
64
  3
C9
350
65
  3
D0
350
66
  3
D1
350
67
  3
D2
350
68
  0
DICTIONARY
  5
242
102
{ACAD_REACTORS
330
C
102
}
330
C
100
AcDbDictionary
281
     1
  0
DICTIONARY
  5
23F
102
{ACAD_REACTORS
330
C
102
}
330
C
100
AcDbDictionary
281
     1
  0
DICTIONARY
  5
2A
102
{ACAD_REACTORS
330
C
102
}
330
C
100
AcDbDictionary
281
     1
  3
2dWireframe
350
2F
  3
Basic
350
32
  3
Brighten
350
36
  3
ColorChange
350
3A
  3
Conceptual
350
34
  3
Dim
350
35
  3
EdgeColorOff
350
3D
  3
Facepattern
350
39
  3
Flat
350
2B
  3
FlatWithEdges
350
2C
  3
Gouraud
350
2D
  3
GouraudWithEdges
350
2E
  3
Hidden
350
31
  3
JitterOff
350
3B
  3
Linepattern
350
38
  3
OverhangOff
350
3C
  3
Realistic
350
33
  3
Shaded
350
42
  3
Shaded with edges
350
41
  3
Shades of Gray
350
3E
  3
Sketchy
350
3F
  3
Thicken
350
37
  3
Wireframe
350
30
  3
X-Ray
350
40
  0
DICTIONARY
  5
23D
102
{ACAD_REACTORS
330
C
102
}
330
C
100
AcDbDictionary
281
     1
  3
CANNOSCALE
350
23E
  0
LAYOUT
  5
1E
102
{ACAD_REACTORS
330
1A
102
}
330
1A
100
AcDbPlotSettings
  1

  2
none_device
  4

  6

 40
0.0
 41
0.0
 42
0.0
 43
0.0
 44
0.0
 45
0.0
 46
0.0
 47
0.0
 48
0.0
 49
0.0
140
0.0
141
0.0
142
1.0
143
1.0
 70
   688
 72
     0
 73
     0
 74
     5
  7

 75
    16
 76
     0
 77
     2
 78
   300
147
1.0
148
0.0
149
0.0
100
AcDbLayout
  1
Layout1
 70
     1
 71
     1
 10
0.0
 20
0.0
 11
420.0
 21
297.0
 12
0.0
 22
0.0
 32
0.0
 14
0.0
 24
0.0
 34
0.0
 15
420.0
 25
297.0
 35
0.0
146
0.0
 13
0.0
 23
0.0
 33
0.0
 16
1.0
 26
0.0
 36
0.0
 17
0.0
 27
1.0
 37
0.0
 76
     0
330
1B
331
6A
  0
LAYOUT
  5
26
102
{ACAD_REACTORS
330
1A
102
}
330
1A
100
AcDbPlotSettings
  1

  2
none_device
  4

  6

 40
0.0
 41
0.0
 42
0.0
 43
0.0
 44
0.0
 45
0.0
 46
0.0
 47
0.0
 48
0.0
 49
0.0
140
0.0
141
0.0
142
1.0
143
1.0
 70
   688
 72
     0
 73
     0
 74
     5
  7

 75
    16
 76
     0
 77
     2
 78
   300
147
1.0
148
0.0
149
0.0
100
AcDbLayout
  1
Layout2
 70
     1
 71
     2
 10
0.0
 20
0.0
 11
0.0
 21
0.0
 12
0.0
 22
0.0
 32
0.0
 14
0.0
 24
0.0
 34
0.0
 15
0.0
 25
0.0
 35
0.0
146
0.0
 13
0.0
 23
0.0
 33
0.0
 16
1.0
 26
0.0
 36
0.0
 17
0.0
 27
1.0
 37
0.0
 76
     0
330
23
  0
LAYOUT
  5
22
102
{ACAD_REACTORS
330
1A
102
}
330
1A
100
AcDbPlotSettings
  1

  2
none_device
  4
Letter_(8.50_x_11.00_Inches)
  6

 40
6.35
 41
6.35
 42
6.35000508
 43
6.35000508
 44
215.9
 45
279.4
 46
0.0
 47
0.0
 48
0.0
 49
0.0
140
0.0
141
0.0
142
1.0
143
1.0
 70
  1712
 72
     0
 73
     0
 74
     0
  7

 75
     0
 76
     0
 77
     2
 78
   300
147
1.0
148
0.0
149
0.0
100
AcDbLayout
  1
Model
 70
     1
 71
     0
 10
0.0
 20
0.0
 11
420.0
 21
297.0
 12
0.0
 22
0.0
 32
0.0
 14
184.4779852066813
 24
56.83015230946671
 34
0.0
 15
696.4940742273639
 25
543.1043250952994
 35
0.0
146
0.0
 13
0.0
 23
0.0
 33
0.0
 16
1.0
 26
0.0
 36
0.0
 17
0.0
 27
1.0
 37
0.0
 76
     0
330
1F
331
29
  0
MATERIAL
  5
45
102
{ACAD_REACTORS
330
43
102
}
330
43
100
AcDbMaterial
  1
ByBlock
 72
     1
 94
      127
  0
MATERIAL
  5
44
102
{ACAD_REACTORS
330
43
102
}
330
43
100
AcDbMaterial
  1
ByLayer
 72
     1
 94
      127
  0
MATERIAL
  5
46
102
{ACAD_REACTORS
330
43
102
}
330
43
100
AcDbMaterial
  1
Global
 72
     1
 94
      127
  0
MLINESTYLE
  5
18
102
{ACAD_REACTORS
330
17
102
}
330
17
100
AcDbMlineStyle
  2
Standard
 70
     0
  3

 62
   256
 51
90.0
 52
90.0
 71
     2
 49
0.5
 62
   256
  6
BYLAYER
 49
-0.5
 62
   256
  6
BYLAYER
  0
ACDBPLACEHOLDER
  5
F
102
{ACAD_REACTORS
330
E
102
}
330
E
  0
SCALE
  5
48
102
{ACAD_REACTORS
330
47
102
}
330
47
100
AcDbScale
 70
     0
300
1:1
140
1.0
141
1.0
290
     1
  0
SCALE
  5
49
102
{ACAD_REACTORS
330
47
102
}
330
47
100
AcDbScale
 70
     0
300
1:2
140
1.0
141
2.0
290
     0
  0
SCALE
  5
4A
102
{ACAD_REACTORS
330
47
102
}
330
47
100
AcDbScale
 70
     0
300
1:4
140
1.0
141
4.0
290
     0
  0
SCALE
  5
4B
102
{ACAD_REACTORS
330
47
102
}
330
47
100
AcDbScale
 70
     0
300
1:5
140
1.0
141
5.0
290
     0
  0
SCALE
  5
4C
102
{ACAD_REACTORS
330
47
102
}
330
47
100
AcDbScale
 70
     0
300
1:8
140
1.0
141
8.0
290
     0
  0
SCALE
  5
4D
102
{ACAD_REACTORS
330
47
102
}
330
47
100
AcDbScale
 70
     0
300
1:10
140
1.0
141
10.0
290
     0
  0
SCALE
  5
4E
102
{ACAD_REACTORS
330
47
102
}
330
47
100
AcDbScale
 70
     0
300
1:16
140
1.0
141
16.0
290
     0
  0
SCALE
  5
4F
102
{ACAD_REACTORS
330
47
102
}
330
47
100
AcDbScale
 70
     0
300
1:20
140
1.0
141
20.0
290
     0
  0
SCALE
  5
50
102
{ACAD_REACTORS
330
47
102
}
330
47
100
AcDbScale
 70
     0
300
1:30
140
1.0
141
30.0
290
     0
  0
SCALE
  5
51
102
{ACAD_REACTORS
330
47
102
}
330
47
100
AcDbScale
 70
     0
300
1:40
140
1.0
141
40.0
290
     0
  0
SCALE
  5
52
102
{ACAD_REACTORS
330
47
102
}
330
47
100
AcDbScale
 70
     0
300
1:50
140
1.0
141
50.0
290
     0
  0
SCALE
  5
53
102
{ACAD_REACTORS
330
47
102
}
330
47
100
AcDbScale
 70
     0
300
1:100
140
1.0
141
100.0
290
     0
  0
SCALE
  5
54
102
{ACAD_REACTORS
330
47
102
}
330
47
100
AcDbScale
 70
     0
300
2:1
140
2.0
141
1.0
290
     0
  0
SCALE
  5
55
102
{ACAD_REACTORS
330
47
102
}
330
47
100
AcDbScale
 70
     0
300
4:1
140
4.0
141
1.0
290
     0
  0
SCALE
  5
56
102
{ACAD_REACTORS
330
47
102
}
330
47
100
AcDbScale
 70
     0
300
8:1
140
8.0
141
1.0
290
     0
  0
SCALE
  5
57
102
{ACAD_REACTORS
330
47
102
}
330
47
100
AcDbScale
 70
     0
300
10:1
140
10.0
141
1.0
290
     0
  0
SCALE
  5
58
102
{ACAD_REACTORS
330
47
102
}
330
47
100
AcDbScale
 70
     0
300
100:1
140
100.0
141
1.0
290
     0
  0
SCALE
  5
59
102
{ACAD_REACTORS
330
47
102
}
330
47
100
AcDbScale
 70
     0
300
1/128" = 1'-0"
140
0.0078125
141
12.0
290
     0
  0
SCALE
  5
5A
102
{ACAD_REACTORS
330
47
102
}
330
47
100
AcDbScale
 70
     0
300
1/64" = 1'-0"
140
0.015625
141
12.0
290
     0
  0
SCALE
  5
5B
102
{ACAD_REACTORS
330
47
102
}
330
47
100
AcDbScale
 70
     0
300
1/32" = 1'-0"
140
0.03125
141
12.0
290
     0
  0
SCALE
  5
5C
102
{ACAD_REACTORS
330
47
102
}
330
47
100
AcDbScale
 70
     0
300
1/16" = 1'-0"
140
0.0625
141
12.0
290
     0
  0
SCALE
  5
5D
102
{ACAD_REACTORS
330
47
102
}
330
47
100
AcDbScale
 70
     0
300
3/32" = 1'-0"
140
0.09375
141
12.0
290
     0
  0
SCALE
  5
5E
102
{ACAD_REACTORS
330
47
102
}
330
47
100
AcDbScale
 70
     0
300
1/8" = 1'-0"
140
0.125
141
12.0
290
     0
  0
SCALE
  5
5F
102
{ACAD_REACTORS
330
47
102
}
330
47
100
AcDbScale
 70
     0
300
3/16" = 1'-0"
140
0.1875
141
12.0
290
     0
  0
SCALE
  5
60
102
{ACAD_REACTORS
330
47
102
}
330
47
100
AcDbScale
 70
     0
300
1/4" = 1'-0"
140
0.25
141
12.0
290
     0
  0
SCALE
  5
61
102
{ACAD_REACTORS
330
47
102
}
330
47
100
AcDbScale
 70
     0
300
3/8" = 1'-0"
140
0.375
141
12.0
290
     0
  0
SCALE
  5
62
102
{ACAD_REACTORS
330
47
102
}
330
47
100
AcDbScale
 70
     0
300
1/2" = 1'-0"
140
0.5
141
12.0
290
     0
  0
SCALE
  5
63
102
{ACAD_REACTORS
330
47
102
}
330
47
100
AcDbScale
 70
     0
300
3/4" = 1'-0"
140
0.75
141
12.0
290
     0
  0
SCALE
  5
64
102
{ACAD_REACTORS
330
47
102
}
330
47
100
AcDbScale
 70
     0
300
1" = 1'-0"
140
1.0
141
12.0
290
     0
  0
SCALE
  5
65
102
{ACAD_REACTORS
330
47
102
}
330
47
100
AcDbScale
 70
     0
300
1-1/2" = 1'-0"
140
1.5
141
12.0
290
     0
  0
SCALE
  5
66
102
{ACAD_REACTORS
330
47
102
}
330
47
100
AcDbScale
 70
     0
300
3" = 1'-0"
140
3.0
141
12.0
290
     0
  0
SCALE
  5
67
102
{ACAD_REACTORS
330
47
102
}
330
47
100
AcDbScale
 70
     0
300
6" = 1'-0"
140
6.0
141
12.0
290
     0
  0
SCALE
  5
68
102
{ACAD_REACTORS
330
47
102
}
330
47
100
AcDbScale
 70
     0
300
1'-0" = 1'-0"
140
12.0
141
12.0
290
     0
  0
VISUALSTYLE
  5
2F
102
{ACAD_REACTORS
330
2A
102
}
330
2A
100
AcDbVisualStyle
  2
2dWireframe
 70
     4
177
     3
291
     0
 70
    58
 90
        0
176
     1
 90
        2
176
     1
 90
        0
176
     1
 90
        0
176
     1
 40
0.6
176
     1
 40
30.0
176
     1
 62
     7
420
 16777215
176
     1
 90
        1
176
     1
 90
        4
176
     1
 62
     7
176
     1
 62
   257
176
     1
 90
        1
176
     1
 90
        1
176
     1
 40
1.0
176
     1
 90
        0
176
     1
 62
   257
176
     1
 40
1.0
176
     1
 90
        1
176
     1
 90
        6
176
     1
 90
        2
176
     1
 62
     7
176
     1
 90
        5
176
     1
 90
        0
176
     1
 90
        0
176
     1
290
     0
176
     1
 90
        1
176
     1
 40
0.0
176
     1
 90
        0
176
     1
290
     1
176
     1
290
     1
176
     1
290
     0
176
     1
290
     0
176
     1
290
     0
176
     1
290
     0
176
     1
290
     0
176
     1
290
     0
176
     1
290
     0
176
     1
 90
       50
176
     1
 40
0.0
176
     1
 40
1.0
176
     1
 90
        0
176
     1
 62
    18
420
        0
176
     1
 90
       50
176
     1
 90
        3
176
     1
 62
     5
420
      255
176
     1
290
     0
176
     1
 90
       50
176
     1
 90
       50
176
     1
 90
       50
176
     1
290
     0
176
     1
 90
       50
176
     1
 62
   256
176
     0
 40
1.0
176
     0
 90
        2
176
     1
  1
strokes_ogs.tif
176
     1
290
     0
176
     1
 40
1.0
176
     1
 40
1.0
176
     1
  0
VISUALSTYLE
  5
32
102
{ACAD_REACTORS
330
2A
102
}
330
2A
100
AcDbVisualStyle
  2
Basic
 70
     7
177
     3
291
     1
 70
    58
 90
        1
176
     1
 90
        0
176
     1
 90
        1
176
     1
 90
        0
176
     1
 40
0.6
176
     1
 40
30.0
176
     1
 62
     7
420
 16777215
176
     1
 90
        0
176
     1
 90
        4
176
     1
 62
     7
176
     1
 62
   257
176
     1
 90
        1
176
     1
 90
        1
176
     1
 40
1.0
176
     1
 90
        8
176
     1
 62
     7
176
     1
 40
1.0
176
     1
 90
        1
176
     1
 90
        6
176
     1
 90
        2
176
     1
 62
     7
176
     1
 90
        5
176
     1
 90
        0
176
     1
 90
        0
176
     1
290
     0
176
     1
 90
        1
176
     1
 40
0.0
176
     1
 90
        0
176
     1
290
     0
176
     1
290
     1
176
     1
290
     1
176
     1
290
     0
176
     1
290
     0
176
     1
290
     0
176
     1
290
     0
176
     1
290
     0
176
     1
290
     0
176
     1
 90
       50
176
     1
 40
0.0
176
     1
 40
1.0
176
     1
 90
        0
176
     1
 62
    18
420
        0
176
     1
 90
       50
176
     1
 90
        3
176
     1
 62
     5
420
      255
176
     1
290
     0
176
     1
 90
       50
176
     1
 90
       50
176
     1
 90
       50
176
     1
290
     0
176
     1
 90
       50
176
     1
 62
   256
176
     0
 40
1.0
176
     0
 90
        2
176
     1
  1
strokes_ogs.tif
176
     1
290
     0
176
     1
 40
1.0
176
     1
 40
1.0
176
     1
  0
VISUALSTYLE
  5
36
102
{ACAD_REACTORS
330
2A
102
}
330
2A
100
AcDbVisualStyle
  2
Brighten
 70
    12
177
     3
291
     1
 70
    58
 90
        2
176
     1
 90
        2
176
     1
 90
        0
176
     1
 90
        0
176
     1
 40
0.6
176
     1
 40
30.0
176
     1
 62
     7
420
 16777215
176
     1
 90
        1
176
     1
 90
        4
176
     1
 62
     7
176
     1
 62
   257
176
     1
 90
        1
176
     1
 90
        1
176
     1
 40
1.0
176
     1
 90
        8
176
     1
 62
     7
176
     1
 40
1.0
176
     1
 90
        1
176
     1
 90
        6
176
     1
 90
        2
176
     1
 62
     7
176
     1
 90
        5
176
     1
 90
        0
176
     1
 90
        0
176
     1
290
     0
176
     1
 90
        1
176
     1
 40
50.0
176
     1
 90
        0
176
     1
290
     0
176
     1
290
     1
176
     1
290
     1
176
     1
290
     0
176
     1
290
     0
176
     1
290
     0
176
     1
290
     0
176
     1
290
     0
176
     1
290
     0
176
     1
 90
       50
176
     1
 40
0.0
176
     1
 40
1.0
176
     1
 90
        0
176
     1
 62
    18
420
        0
176
     1
 90
       50
176
     1
 90
        3
176
     1
 62
     5
420
      255
176
     1
290
     0
176
     1
 90
       50
176
     1
 90
       50
176
     1
 90
       50
176
     1
290
     0
176
     1
 90
       50
176
     1
 62
   256
176
     0
 40
1.0
176
     0
 90
        2
176
     1
  1
strokes_ogs.tif
176
     1
290
     0
176
     1
 40
1.0
176
     1
 40
1.0
176
     1
  0
VISUALSTYLE
  5
3A
102
{ACAD_REACTORS
330
2A
102
}
330
2A
100
AcDbVisualStyle
  2
ColorChange
 70
    16
177
     3
291
     1
 70
    58
 90
        2
176
     1
 90
        2
176
     1
 90
        3
176
     1
 90
        0
176
     1
 40
0.6
176
     1
 40
30.0
176
     1
 62
     8
420
  8421504
176
     1
 90
        1
176
     1
 90
        4
176
     1
 62
     7
176
     1
 62
   257
176
     1
 90
        1
176
     1
 90
        1
176
     1
 40
1.0
176
     1
 90
        8
176
     1
 62
     8
420
  8421504
176
     1
 40
1.0
176
     1
 90
        1
176
     1
 90
        6
176
     1
 90
        2
176
     1
 62
     7
176
     1
 90
        5
176
     1
 90
        0
176
     1
 90
        0
176
     1
290
     0
176
     1
 90
        1
176
     1
 40
0.0
176
     1
 90
        0
176
     1
290
     0
176
     1
290
     1
176
     1
290
     1
176
     1
290
     0
176
     1
290
     0
176
     1
290
     0
176
     1
290
     0
176
     1
290
     0
176
     1
290
     0
176
     1
 90
       50
176
     1
 40
0.0
176
     1
 40
1.0
176
     1
 90
        0
176
     1
 62
    18
420
        0
176
     1
 90
       50
176
     1
 90
        3
176
     1
 62
     5
420
      255
176
     1
290
     0
176
     1
 90
       50
176
     1
 90
       50
176
     1
 90
       50
176
     1
290
     0
176
     1
 90
       50
176
     1
 62
   256
176
     0
 40
1.0
176
     0
 90
        2
176
     1
  1
strokes_ogs.tif
176
     1
290
     0
176
     1
 40
1.0
176
     1
 40
1.0
176
     1
  0
VISUALSTYLE
  5
34
102
{ACAD_REACTORS
330
2A
102
}
330
2A
100
AcDbVisualStyle
  2
Conceptual
 70
     9
177
     3
291
     0
 70
    58
 90
        3
176
     1
 90
        2
176
     1
 90
        0
176
     1
 90
        0
176
     1
 40
0.6
176
     1
 40
30.0
176
     1
 62
     7
420
 16777215
176
     1
 90
        2
176
     1
 90
        2
176
     1
 62
     7
176
     1
 62
   257
176
     1
 90
        1
176
     1
 90
        1
176
     1
 40
179.0
176
     1
 90
        8
176
     1
 62
     7
176
     1
 40
1.0
176
     1
 90
        1
176
     1
 90
        6
176
     1
 90
        2
176
     1
 62
     7
176
     1
 90
        3
176
     1
 90
        0
176
     1
 90
        0
176
     1
290
     0
176
     1
 90
        1
176
     1
 40
0.0
176
     1
 90
        0
176
     1
290
     0
176
     1
290
     1
176
     1
290
     1
176
     1
290
     0
176
     1
290
     0
176
     1
290
     0
176
     1
290
     0
176
     1
290
     0
176
     1
290
     0
176
     1
 90
       50
176
     1
 40
0.0
176
     1
 40
1.0
176
     1
 90
        0
176
     1
 62
    18
420
        0
176
     1
 90
       50
176
     1
 90
        3
176
     1
 62
     5
420
      255
176
     1
290
     0
176
     1
 90
       50
176
     1
 90
       50
176
     1
 90
       50
176
     1
290
     0
176
     1
 90
       50
176
     1
 62
   256
176
     0
 40
1.0
176
     0
 90
        2
176
     1
  1
strokes_ogs.tif
176
     1
290
     0
176
     1
 40
1.0
176
     1
 40
1.0
176
     1
  0
VISUALSTYLE
  5
35
102
{ACAD_REACTORS
330
2A
102
}
330
2A
100
AcDbVisualStyle
  2
Dim
 70
    11
177
     3
291
     1
 70
    58
 90
        2
176
     1
 90
        2
176
     1
 90
        0
176
     1
 90
        0
176
     1
 40
0.6
176
     1
 40
30.0
176
     1
 62
     7
420
 16777215
176
     1
 90
        1
176
     1
 90
        4
176
     1
 62
     7
176
     1
 62
   257
176
     1
 90
        1
176
     1
 90
        1
176
     1
 40
1.0
176
     1
 90
        8
176
     1
 62
     7
176
     1
 40
1.0
176
     1
 90
        1
176
     1
 90
        6
176
     1
 90
        2
176
     1
 62
     7
176
     1
 90
        5
176
     1
 90
        0
176
     1
 90
        0
176
     1
290
     0
176
     1
 90
        1
176
     1
 40
-50.0
176
     1
 90
        0
176
     1
290
     0
176
     1
290
     1
176
     1
290
     1
176
     1
290
     0
176
     1
290
     0
176
     1
290
     0
176
     1
290
     0
176
     1
290
     0
176
     1
290
     0
176
     1
 90
       50
176
     1
 40
0.0
176
     1
 40
1.0
176
     1
 90
        0
176
     1
 62
    18
420
        0
176
     1
 90
       50
176
     1
 90
        3
176
     1
 62
     5
420
      255
176
     1
290
     0
176
     1
 90
       50
176
     1
 90
       50
176
     1
 90
       50
176
     1
290
     0
176
     1
 90
       50
176
     1
 62
   256
176
     0
 40
1.0
176
     0
 90
        2
176
     1
  1
strokes_ogs.tif
176
     1
290
     0
176
     1
 40
1.0
176
     1
 40
1.0
176
     1
  0
VISUALSTYLE
  5
3D
102
{ACAD_REACTORS
330
2A
102
}
330
2A
100
AcDbVisualStyle
  2
EdgeColorOff
 70
    22
177
     3
291
     1
 70
    58
 90
        2
176
     0
 90
        2
176
     0
 90
        0
176
     0
 90
        0
176
     0
 40
0.6
176
     0
 40
30.0
176
     0
 62
     7
420
 16777215
176
     0
 90
        1
176
     0
 90
        4
176
     0
 62
     7
176
     0
 62
   257
176
     0
 90
        1
176
     0
 90
        1
176
     0
 40
1.0
176
     0
 90
        8
176
     2
 62
     7
176
     0
 40
1.0
176
     0
 90
        1
176
     0
 90
        6
176
     0
 90
        2
176
     0
 62
     7
176
     0
 90
        5
176
     0
 90
        0
176
     0
 90
        0
176
     0
290
     0
176
     0
 90
        1
176
     0
 40
0.0
176
     0
 90
        0
176
     0
290
     0
176
     0
290
     1
176
     0
290
     1
176
     0
290
     0
176
     0
290
     0
176
     0
290
     0
176
     0
290
     0
176
     0
290
     0
176
     0
290
     0
176
     0
 90
       50
176
     0
 40
0.0
176
     0
 40
1.0
176
     0
 90
        0
176
     0
 62
    18
420
        0
176
     0
 90
       50
176
     0
 90
        3
176
     0
 62
     5
420
      255
176
     0
290
     0
176
     0
 90
       50
176
     0
 90
       50
176
     0
 90
       50
176
     0
290
     0
176
     0
 90
       50
176
     0
 62
   256
176
     0
 40
1.0
176
     0
 90
        2
176
     0
  1
strokes_ogs.tif
176
     0
290
     0
176
     0
 40
1.0
176
     0
 40
1.0
176
     0
  0
VISUALSTYLE
  5
39
102
{ACAD_REACTORS
330
2A
102
}
330
2A
100
AcDbVisualStyle
  2
Facepattern
 70
    15
177
     3
291
     1
 70
    58
 90
        2
176
     1
 90
        2
176
     1
 90
        0
176
     1
 90
        0
176
     1
 40
0.6
176
     1
 40
30.0
176
     1
 62
     7
420
 16777215
176
     1
 90
        1
176
     1
 90
        4
176
     1
 62
     7
176
     1
 62
   257
176
     1
 90
        1
176
     1
 90
        1
176
     1
 40
1.0
176
     1
 90
        8
176
     1
 62
     7
176
     1
 40
1.0
176
     1
 90
        1
176
     1
 90
        6
176
     1
 90
        2
176
     1
 62
     7
176
     1
 90
        5
176
     1
 90
        0
176
     1
 90
        0
176
     1
290
     0
176
     1
 90
        1
176
     1
 40
0.0
176
     1
 90
        0
176
     1
290
     0
176
     1
290
     1
176
     1
290
     1
176
     1
290
     0
176
     1
290
     0
176
     1
290
     0
176
     1
290
     0
176
     1
290
     0
176
     1
290
     0
176
     1
 90
       50
176
     1
 40
0.0
176
     1
 40
1.0
176
     1
 90
        0
176
     1
 62
    18
420
        0
176
     1
 90
       50
176
     1
 90
        3
176
     1
 62
     5
420
      255
176
     1
290
     0
176
     1
 90
       50
176
     1
 90
       50
176
     1
 90
       50
176
     1
290
     0
176
     1
 90
       50
176
     1
 62
   256
176
     0
 40
1.0
176
     0
 90
        2
176
     1
  1
strokes_ogs.tif
176
     1
290
     0
176
     1
 40
1.0
176
     1
 40
1.0
176
     1
  0
VISUALSTYLE
  5
2B
102
{ACAD_REACTORS
330
2A
102
}
330
2A
100
AcDbVisualStyle
  2
Flat
 70
     0
177
     3
291
     1
 70
    58
 90
        2
176
     1
 90
        1
176
     1
 90
        1
176
     1
 90
        2
176
     1
 40
0.6
176
     1
 40
30.0
176
     1
 62
     7
420
 16777215
176
     1
 90
        0
176
     1
 90
        0
176
     1
 62
     7
176
     1
 62
   257
176
     1
 90
        1
176
     1
 90
        1
176
     1
 40
1.0
176
     1
 90
        8
176
     1
 62
     7
176
     1
 40
1.0
176
     1
 90
        1
176
     1
 90
        6
176
     1
 90
        2
176
     1
 62
     7
176
     1
 90
        5
176
     1
 90
        0
176
     1
 90
        0
176
     1
290
     0
176
     1
 90
       13
176
     1
 40
0.0
176
     1
 90
        0
176
     1
290
     0
176
     1
290
     1
176
     1
290
     1
176
     1
290
     0
176
     1
290
     0
176
     1
290
     0
176
     1
290
     0
176
     1
290
     0
176
     1
290
     0
176
     1
 90
       50
176
     1
 40
0.0
176
     1
 40
1.0
176
     1
 90
        0
176
     1
 62
    18
420
        0
176
     1
 90
       50
176
     1
 90
        3
176
     1
 62
     5
420
      255
176
     1
290
     0
176
     1
 90
       50
176
     1
 90
       50
176
     1
 90
       50
176
     1
290
     0
176
     1
 90
       50
176
     1
 62
   256
176
     0
 40
1.0
176
     0
 90
        2
176
     1
  1
strokes_ogs.tif
176
     1
290
     0
176
     1
 40
1.0
176
     1
 40
1.0
176
     1
  0
VISUALSTYLE
  5
2C
102
{ACAD_REACTORS
330
2A
102
}
330
2A
100
AcDbVisualStyle
  2
FlatWithEdges
 70
     1
177
     3
291
     1
 70
    58
 90
        2
176
     1
 90
        1
176
     1
 90
        1
176
     1
 90
        2
176
     1
 40
0.6
176
     1
 40
30.0
176
     1
 62
     7
420
 16777215
176
     1
 90
        1
176
     1
 90
        0
176
     1
 62
     7
176
     1
 62
   257
176
     1
 90
        1
176
     1
 90
        1
176
     1
 40
1.0
176
     1
 90
        0
176
     1
 62
   257
176
     1
 40
1.0
176
     1
 90
        1
176
     1
 90
        6
176
     1
 90
        2
176
     1
 62
     7
176
     1
 90
        5
176
     1
 90
        0
176
     1
 90
        0
176
     1
290
     0
176
     1
 90
       13
176
     1
 40
0.0
176
     1
 90
        0
176
     1
290
     0
176
     1
290
     1
176
     1
290
     1
176
     1
290
     0
176
     1
290
     0
176
     1
290
     0
176
     1
290
     0
176
     1
290
     0
176
     1
290
     0
176
     1
 90
       50
176
     1
 40
0.0
176
     1
 40
1.0
176
     1
 90
        0
176
     1
 62
    18
420
        0
176
     1
 90
       50
176
     1
 90
        3
176
     1
 62
     5
420
      255
176
     1
290
     0
176
     1
 90
       50
176
     1
 90
       50
176
     1
 90
       50
176
     1
290
     0
176
     1
 90
       50
176
     1
 62
   256
176
     0
 40
1.0
176
     0
 90
        2
176
     1
  1
strokes_ogs.tif
176
     1
290
     0
176
     1
 40
1.0
176
     1
 40
1.0
176
     1
  0
VISUALSTYLE
  5
2D
102
{ACAD_REACTORS
330
2A
102
}
330
2A
100
AcDbVisualStyle
  2
Gouraud
 70
     2
177
     3
291
     1
 70
    58
 90
        2
176
     1
 90
        2
176
     1
 90
        1
176
     1
 90
        2
176
     1
 40
0.6
176
     1
 40
30.0
176
     1
 62
     7
420
 16777215
176
     1
 90
        0
176
     1
 90
        0
176
     1
 62
     7
176
     1
 62
   257
176
     1
 90
        1
176
     1
 90
        1
176
     1
 40
1.0
176
     1
 90
        0
176
     1
 62
     7
176
     1
 40
1.0
176
     1
 90
        1
176
     1
 90
        6
176
     1
 90
        2
176
     1
 62
     7
176
     1
 90
        5
176
     1
 90
        0
176
     1
 90
        0
176
     1
290
     0
176
     1
 90
       13
176
     1
 40
0.0
176
     1
 90
        0
176
     1
290
     0
176
     1
290
     1
176
     1
290
     1
176
     1
290
     0
176
     1
290
     0
176
     1
290
     0
176
     1
290
     0
176
     1
290
     0
176
     1
290
     0
176
     1
 90
       50
176
     1
 40
0.0
176
     1
 40
1.0
176
     1
 90
        0
176
     1
 62
    18
420
        0
176
     1
 90
       50
176
     1
 90
        3
176
     1
 62
     5
420
      255
176
     1
290
     0
176
     1
 90
       50
176
     1
 90
       50
176
     1
 90
       50
176
     1
290
     0
176
     1
 90
       50
176
     1
 62
   256
176
     0
 40
1.0
176
     0
 90
        2
176
     1
  1
strokes_ogs.tif
176
     1
290
     0
176
     1
 40
1.0
176
     1
 40
1.0
176
     1
  0
VISUALSTYLE
  5
2E
102
{ACAD_REACTORS
330
2A
102
}
330
2A
100
AcDbVisualStyle
  2
GouraudWithEdges
 70
     3
177
     3
291
     1
 70
    58
 90
        2
176
     1
 90
        2
176
     1
 90
        1
176
     1
 90
        2
176
     1
 40
0.6
176
     1
 40
30.0
176
     1
 62
     7
420
 16777215
176
     1
 90
        1
176
     1
 90
        0
176
     1
 62
     7
176
     1
 62
   257
176
     1
 90
        1
176
     1
 90
        1
176
     1
 40
1.0
176
     1
 90
        0
176
     1
 62
   257
176
     1
 40
1.0
176
     1
 90
        1
176
     1
 90
        6
176
     1
 90
        2
176
     1
 62
     7
176
     1
 90
        5
176
     1
 90
        0
176
     1
 90
        0
176
     1
290
     0
176
     1
 90
       13
176
     1
 40
0.0
176
     1
 90
        0
176
     1
290
     0
176
     1
290
     1
176
     1
290
     1
176
     1
290
     0
176
     1
290
     0
176
     1
290
     0
176
     1
290
     0
176
     1
290
     0
176
     1
290
     0
176
     1
 90
       50
176
     1
 40
0.0
176
     1
 40
1.0
176
     1
 90
        0
176
     1
 62
    18
420
        0
176
     1
 90
       50
176
     1
 90
        3
176
     1
 62
     5
420
      255
176
     1
290
     0
176
     1
 90
       50
176
     1
 90
       50
176
     1
 90
       50
176
     1
290
     0
176
     1
 90
       50
176
     1
 62
   256
176
     0
 40
1.0
176
     0
 90
        2
176
     1
  1
strokes_ogs.tif
176
     1
290
     0
176
     1
 40
1.0
176
     1
 40
1.0
176
     1
  0
VISUALSTYLE
  5
31
102
{ACAD_REACTORS
330
2A
102
}
330
2A
100
AcDbVisualStyle
  2
Hidden
 70
     6
177
     3
291
     0
 70
    58
 90
        1
176
     1
 90
        2
176
     1
 90
        2
176
     1
 90
        0
176
     1
 40
0.6
176
     1
 40
30.0
176
     1
 62
     7
420
 16777215
176
     1
 90
        2
176
     1
 90
        2
176
     1
 62
     7
176
     1
 62
   257
176
     1
 90
        2
176
     1
 90
        1
176
     1
 40
40.0
176
     1
 90
        0
176
     1
 62
   257
176
     1
 40
1.0
176
     1
 90
        1
176
     1
 90
        6
176
     1
 90
        2
176
     1
 62
     7
176
     1
 90
        3
176
     1
 90
        0
176
     1
 90
        0
176
     1
290
     0
176
     1
 90
        1
176
     1
 40
0.0
176
     1
 90
        0
176
     1
290
     0
176
     1
290
     1
176
     1
290
     1
176
     1
290
     0
176
     1
290
     0
176
     1
290
     0
176
     1
290
     0
176
     1
290
     0
176
     1
290
     0
176
     1
 90
       50
176
     1
 40
0.0
176
     1
 40
1.0
176
     1
 90
        0
176
     1
 62
    18
420
        0
176
     1
 90
       50
176
     1
 90
        3
176
     1
 62
     5
420
      255
176
     1
290
     0
176
     1
 90
       50
176
     1
 90
       50
176
     1
 90
       50
176
     1
290
     0
176
     1
 90
       50
176
     1
 62
   256
176
     0
 40
1.0
176
     0
 90
        2
176
     1
  1
strokes_ogs.tif
176
     1
290
     0
176
     1
 40
1.0
176
     1
 40
1.0
176
     1
  0
VISUALSTYLE
  5
3B
102
{ACAD_REACTORS
330
2A
102
}
330
2A
100
AcDbVisualStyle
  2
JitterOff
 70
    20
177
     3
291
     1
 70
    58
 90
        2
176
     0
 90
        2
176
     0
 90
        0
176
     0
 90
        0
176
     0
 40
0.6
176
     0
 40
30.0
176
     0
 62
     7
420
 16777215
176
     0
 90
        1
176
     0
 90
        4
176
     0
 62
     7
176
     0
 62
   257
176
     0
 90
        1
176
     0
 90
        1
176
     0
 40
1.0
176
     0
 90
       10
176
     2
 62
     7
176
     0
 40
1.0
176
     0
 90
        1
176
     0
 90
        6
176
     0
 90
        2
176
     0
 62
     7
176
     0
 90
        5
176
     0
 90
        0
176
     0
 90
        0
176
     0
290
     0
176
     0
 90
        1
176
     0
 40
0.0
176
     0
 90
        0
176
     0
290
     0
176
     0
290
     1
176
     0
290
     1
176
     0
290
     0
176
     0
290
     0
176
     0
290
     0
176
     0
290
     0
176
     0
290
     0
176
     0
290
     0
176
     0
 90
       50
176
     0
 40
0.0
176
     0
 40
1.0
176
     0
 90
        0
176
     0
 62
    18
420
        0
176
     0
 90
       50
176
     0
 90
        3
176
     0
 62
     5
420
      255
176
     0
290
     0
176
     0
 90
       50
176
     0
 90
       50
176
     0
 90
       50
176
     0
290
     0
176
     0
 90
       50
176
     0
 62
   256
176
     0
 40
1.0
176
     0
 90
        2
176
     0
  1
strokes_ogs.tif
176
     0
290
     0
176
     0
 40
1.0
176
     0
 40
1.0
176
     0
  0
VISUALSTYLE
  5
38
102
{ACAD_REACTORS
330
2A
102
}
330
2A
100
AcDbVisualStyle
  2
Linepattern
 70
    14
177
     3
291
     1
 70
    58
 90
        2
176
     1
 90
        2
176
     1
 90
        0
176
     1
 90
        0
176
     1
 40
0.6
176
     1
 40
30.0
176
     1
 62
     7
420
 16777215
176
     1
 90
        1
176
     1
 90
        4
176
     1
 62
     7
176
     1
 62
   257
176
     1
 90
        7
176
     1
 90
        7
176
     1
 40
1.0
176
     1
 90
        8
176
     1
 62
     7
176
     1
 40
1.0
176
     1
 90
        1
176
     1
 90
        6
176
     1
 90
        2
176
     1
 62
     7
176
     1
 90
        5
176
     1
 90
        0
176
     1
 90
        0
176
     1
290
     0
176
     1
 90
        1
176
     1
 40
0.0
176
     1
 90
        0
176
     1
290
     0
176
     1
290
     1
176
     1
290
     1
176
     1
290
     0
176
     1
290
     0
176
     1
290
     0
176
     1
290
     0
176
     1
290
     0
176
     1
290
     0
176
     1
 90
       50
176
     1
 40
0.0
176
     1
 40
1.0
176
     1
 90
        0
176
     1
 62
    18
420
        0
176
     1
 90
       50
176
     1
 90
        3
176
     1
 62
     5
420
      255
176
     1
290
     0
176
     1
 90
       50
176
     1
 90
       50
176
     1
 90
       50
176
     1
290
     0
176
     1
 90
       50
176
     1
 62
   256
176
     0
 40
1.0
176
     0
 90
        2
176
     1
  1
strokes_ogs.tif
176
     1
290
     0
176
     1
 40
1.0
176
     1
 40
1.0
176
     1
  0
VISUALSTYLE
  5
3C
102
{ACAD_REACTORS
330
2A
102
}
330
2A
100
AcDbVisualStyle
  2
OverhangOff
 70
    21
177
     3
291
     1
 70
    58
 90
        2
176
     0
 90
        2
176
     0
 90
        0
176
     0
 90
        0
176
     0
 40
0.6
176
     0
 40
30.0
176
     0
 62
     7
420
 16777215
176
     0
 90
        1
176
     0
 90
        4
176
     0
 62
     7
176
     0
 62
   257
176
     0
 90
        1
176
     0
 90
        1
176
     0
 40
1.0
176
     0
 90
        9
176
     2
 62
     7
176
     0
 40
1.0
176
     0
 90
        1
176
     0
 90
        6
176
     0
 90
        2
176
     0
 62
     7
176
     0
 90
        5
176
     0
 90
        0
176
     0
 90
        0
176
     0
290
     0
176
     0
 90
        1
176
     0
 40
0.0
176
     0
 90
        0
176
     0
290
     0
176
     0
290
     1
176
     0
290
     1
176
     0
290
     0
176
     0
290
     0
176
     0
290
     0
176
     0
290
     0
176
     0
290
     0
176
     0
290
     0
176
     0
 90
       50
176
     0
 40
0.0
176
     0
 40
1.0
176
     0
 90
        0
176
     0
 62
    18
420
        0
176
     0
 90
       50
176
     0
 90
        3
176
     0
 62
     5
420
      255
176
     0
290
     0
176
     0
 90
       50
176
     0
 90
       50
176
     0
 90
       50
176
     0
290
     0
176
     0
 90
       50
176
     0
 62
   256
176
     0
 40
1.0
176
     0
 90
        2
176
     0
  1
strokes_ogs.tif
176
     0
290
     0
176
     0
 40
1.0
176
     0
 40
1.0
176
     0
  0
VISUALSTYLE
  5
33
102
{ACAD_REACTORS
330
2A
102
}
330
2A
100
AcDbVisualStyle
  2
Realistic
 70
     8
177
     3
291
     0
 70
    58
 90
        2
176
     1
 90
        3
176
     1
 90
        0
176
     1
 90
        2
176
     1
 40
0.6
176
     1
 40
30.0
176
     1
 62
     7
420
 16777215
176
     1
 90
        0
176
     1
 90
        0
176
     1
 62
     7
176
     1
 62
   257
176
     1
 90
        1
176
     1
 90
        1
176
     1
 40
1.0
176
     1
 90
        8
176
     1
 62
   257
176
     1
 40
1.0
176
     1
 90
        1
176
     1
 90
        6
176
     1
 90
        2
176
     1
 62
     7
176
     1
 90
        3
176
     1
 90
        0
176
     1
 90
        0
176
     1
290
     0
176
     1
 90
       13
176
     1
 40
0.0
176
     1
 90
        0
176
     1
290
     0
176
     1
290
     1
176
     1
290
     1
176
     1
290
     0
176
     1
290
     0
176
     1
290
     0
176
     1
290
     0
176
     1
290
     0
176
     1
290
     0
176
     1
 90
       50
176
     1
 40
0.0
176
     1
 40
1.0
176
     1
 90
        0
176
     1
 62
    18
420
        0
176
     1
 90
       50
176
     1
 90
        3
176
     1
 62
     5
420
      255
176
     1
290
     0
176
     1
 90
       50
176
     1
 90
       50
176
     1
 90
       50
176
     1
290
     0
176
     1
 90
       50
176
     1
 62
   256
176
     0
 40
1.0
176
     0
 90
        2
176
     1
  1
strokes_ogs.tif
176
     1
290
     0
176
     1
 40
1.0
176
     1
 40
1.0
176
     1
  0
VISUALSTYLE
  5
42
102
{ACAD_REACTORS
330
2A
102
}
330
2A
100
AcDbVisualStyle
  2
Shaded
 70
    27
177
     3
291
     0
 70
    58
 90
        2
176
     1
 90
        2
176
     1
 90
        1
176
     1
 90
        2
176
     1
 40
0.6
176
     1
 40
30.0
176
     1
 62
     7
420
 16777215
176
     1
 90
        0
176
     1
 90
        4
176
     1
 62
     7
176
     1
 62
   257
176
     1
 90
        1
176
     1
 90
        1
176
     1
 40
1.0
176
     1
 90
        8
176
     1
 62
   257
176
     1
 40
1.0
176
     1
 90
        1
176
     1
 90
        6
176
     1
 90
        2
176
     1
 62
     8
420
  7895160
176
     1
 90
        3
176
     1
 90
        0
176
     1
 90
        0
176
     1
290
     0
176
     1
 90
        5
176
     1
 40
0.0
176
     1
 90
        0
176
     1
290
     0
176
     1
290
     1
176
     1
290
     1
176
     1
290
     0
176
     1
290
     0
176
     1
290
     0
176
     1
290
     0
176
     1
290
     0
176
     1
290
     0
176
     1
 90
       50
176
     1
 40
0.0
176
     1
 40
1.0
176
     1
 90
        0
176
     1
 62
    18
420
        0
176
     1
 90
       50
176
     1
 90
        3
176
     1
 62
     5
420
      255
176
     1
290
     0
176
     1
 90
       50
176
     1
 90
       50
176
     1
 90
       50
176
     1
290
     0
176
     1
 90
       50
176
     1
 62
   256
176
     0
 40
1.0
176
     0
 90
        2
176
     1
  1
strokes_ogs.tif
176
     1
290
     0
176
     1
 40
1.0
176
     1
 40
1.0
176
     1
  0
VISUALSTYLE
  5
41
102
{ACAD_REACTORS
330
2A
102
}
330
2A
100
AcDbVisualStyle
  2
Shaded with edges
 70
    26
177
     3
291
     0
 70
    58
 90
        2
176
     1
 90
        2
176
     1
 90
        1
176
     1
 90
        2
176
     1
 40
0.6
176
     1
 40
30.0
176
     1
 62
     7
420
 16777215
176
     1
 90
        1
176
     1
 90
       10
176
     1
 62
     7
176
     1
 62
   257
176
     1
 90
        2
176
     1
 90
        1
176
     1
 40
1.0
176
     1
 90
        8
176
     1
 62
   257
176
     1
 40
1.0
176
     1
 90
        1
176
     1
 90
        6
176
     1
 90
        2
176
     1
 62
     7
176
     1
 90
        3
176
     1
 90
        0
176
     1
 90
        0
176
     1
290
     0
176
     1
 90
        5
176
     1
 40
0.0
176
     1
 90
        0
176
     1
290
     0
176
     1
290
     1
176
     1
290
     1
176
     1
290
     0
176
     1
290
     0
176
     1
290
     0
176
     1
290
     0
176
     1
290
     0
176
     1
290
     0
176
     1
 90
       50
176
     1
 40
0.0
176
     1
 40
1.0
176
     1
 90
        0
176
     1
 62
    18
420
        0
176
     1
 90
       50
176
     1
 90
        3
176
     1
 62
     5
420
      255
176
     1
290
     0
176
     1
 90
       50
176
     1
 90
       50
176
     1
 90
       50
176
     1
290
     0
176
     1
 90
       50
176
     1
 62
   256
176
     0
 40
1.0
176
     0
 90
        2
176
     1
  1
strokes_ogs.tif
176
     1
290
     0
176
     1
 40
1.0
176
     1
 40
1.0
176
     1
  0
VISUALSTYLE
  5
3E
102
{ACAD_REACTORS
330
2A
102
}
330
2A
100
AcDbVisualStyle
  2
Shades of Gray
 70
    23
177
     3
291
     0
 70
    58
 90
        2
176
     1
 90
        2
176
     1
 90
        3
176
     1
 90
        0
176
     1
 40
0.6
176
     1
 40
30.0
176
     1
 62
     7
420
 16777215
176
     1
 90
        2
176
     1
 90
        2
176
     1
 62
     7
176
     1
 62
     7
176
     1
 90
        1
176
     1
 90
        1
176
     1
 40
40.0
176
     1
 90
        8
176
     1
 62
     7
176
     1
 40
1.0
176
     1
 90
        1
176
     1
 90
        6
176
     1
 90
        2
176
     1
 62
     7
176
     1
 90
        3
176
     1
 90
        0
176
     1
 90
        0
176
     1
290
     0
176
     1
 90
        1
176
     1
 40
0.0
176
     1
 90
        0
176
     1
290
     0
176
     1
290
     1
176
     1
290
     1
176
     1
290
     0
176
     1
290
     0
176
     1
290
     0
176
     1
290
     0
176
     1
290
     0
176
     1
290
     0
176
     1
 90
       50
176
     1
 40
0.0
176
     1
 40
1.0
176
     1
 90
        0
176
     1
 62
    18
420
        0
176
     1
 90
       50
176
     1
 90
        3
176
     1
 62
     5
420
      255
176
     1
290
     0
176
     1
 90
       50
176
     1
 90
       50
176
     1
 90
       50
176
     1
290
     0
176
     1
 90
       50
176
     1
 62
   256
176
     0
 40
1.0
176
     0
 90
        2
176
     1
  1
strokes_ogs.tif
176
     1
290
     0
176
     1
 40
1.0
176
     1
 40
1.0
176
     1
  0
VISUALSTYLE
  5
3F
102
{ACAD_REACTORS
330
2A
102
}
330
2A
100
AcDbVisualStyle
  2
Sketchy
 70
    24
177
     3
291
     0
 70
    58
 90
        1
176
     1
 90
        2
176
     1
 90
        2
176
     1
 90
        0
176
     1
 40
0.6
176
     1
 40
30.0
176
     1
 62
     7
420
 16777215
176
     1
 90
        2
176
     1
 90
        2
176
     1
 62
     7
176
     1
 62
     7
176
     1
 90
        1
176
     1
 90
        1
176
     1
 40
40.0
176
     1
 90
       11
176
     1
 62
     7
176
     1
 40
1.0
176
     1
 90
        1
176
     1
 90
        6
176
     1
 90
        2
176
     1
 62
     7
176
     1
 90
        6
176
     1
 90
        0
176
     1
 90
        0
176
     1
290
     0
176
     1
 90
        1
176
     1
 40
0.0
176
     1
 90
        0
176
     1
290
     0
176
     1
290
     1
176
     1
290
     1
176
     1
290
     0
176
     1
290
     0
176
     1
290
     0
176
     1
290
     0
176
     1
290
     0
176
     1
290
     0
176
     1
 90
       50
176
     1
 40
0.0
176
     1
 40
1.0
176
     1
 90
        0
176
     1
 62
    18
420
        0
176
     1
 90
       50
176
     1
 90
        3
176
     1
 62
     5
420
      255
176
     1
290
     0
176
     1
 90
       50
176
     1
 90
       50
176
     1
 90
       50
176
     1
290
     0
176
     1
 90
       50
176
     1
 62
   256
176
     0
 40
1.0
176
     0
 90
        2
176
     1
  1
strokes_ogs.tif
176
     1
290
     0
176
     1
 40
1.0
176
     1
 40
1.0
176
     1
  0
VISUALSTYLE
  5
37
102
{ACAD_REACTORS
330
2A
102
}
330
2A
100
AcDbVisualStyle
  2
Thicken
 70
    13
177
     3
291
     1
 70
    58
 90
        2
176
     1
 90
        2
176
     1
 90
        0
176
     1
 90
        0
176
     1
 40
0.6
176
     1
 40
30.0
176
     1
 62
     7
420
 16777215
176
     1
 90
        1
176
     1
 90
        4
176
     1
 62
     7
176
     1
 62
   257
176
     1
 90
        1
176
     1
 90
        1
176
     1
 40
1.0
176
     1
 90
       12
176
     1
 62
     7
176
     1
 40
1.0
176
     1
 90
        1
176
     1
 90
        6
176
     1
 90
        2
176
     1
 62
     7
176
     1
 90
        5
176
     1
 90
        0
176
     1
 90
        0
176
     1
290
     0
176
     1
 90
        1
176
     1
 40
0.0
176
     1
 90
        0
176
     1
290
     0
176
     1
290
     1
176
     1
290
     1
176
     1
290
     0
176
     1
290
     0
176
     1
290
     0
176
     1
290
     0
176
     1
290
     0
176
     1
290
     0
176
     1
 90
       50
176
     1
 40
0.0
176
     1
 40
1.0
176
     1
 90
        0
176
     1
 62
    18
420
        0
176
     1
 90
       50
176
     1
 90
        3
176
     1
 62
     5
420
      255
176
     1
290
     0
176
     1
 90
       50
176
     1
 90
       50
176
     1
 90
       50
176
     1
290
     0
176
     1
 90
       50
176
     1
 62
   256
176
     0
 40
1.0
176
     0
 90
        2
176
     1
  1
strokes_ogs.tif
176
     1
290
     0
176
     1
 40
1.0
176
     1
 40
1.0
176
     1
  0
VISUALSTYLE
  5
30
102
{ACAD_REACTORS
330
2A
102
}
330
2A
100
AcDbVisualStyle
  2
Wireframe
 70
     5
177
     3
291
     0
 70
    58
 90
        0
176
     1
 90
        2
176
     1
 90
        0
176
     1
 90
        0
176
     1
 40
0.6
176
     1
 40
30.0
176
     1
 62
     7
420
 16777215
176
     1
 90
        1
176
     1
 90
        4
176
     1
 62
     7
176
     1
 62
   257
176
     1
 90
        1
176
     1
 90
        1
176
     1
 40
1.0
176
     1
 90
        0
176
     1
 62
   257
176
     1
 40
1.0
176
     1
 90
        1
176
     1
 90
        6
176
     1
 90
        2
176
     1
 62
     7
176
     1
 90
        3
176
     1
 90
        0
176
     1
 90
        0
176
     1
290
     0
176
     1
 90
        1
176
     1
 40
0.0
176
     1
 90
        0
176
     1
290
     0
176
     1
290
     1
176
     1
290
     1
176
     1
290
     0
176
     1
290
     0
176
     1
290
     0
176
     1
290
     0
176
     1
290
     0
176
     1
290
     0
176
     1
 90
       50
176
     1
 40
0.0
176
     1
 40
1.0
176
     1
 90
        0
176
     1
 62
    18
420
        0
176
     1
 90
       50
176
     1
 90
        3
176
     1
 62
     5
420
      255
176
     1
290
     0
176
     1
 90
       50
176
     1
 90
       50
176
     1
 90
       50
176
     1
290
     0
176
     1
 90
       50
176
     1
 62
   256
176
     0
 40
1.0
176
     0
 90
        2
176
     1
  1
strokes_ogs.tif
176
     1
290
     0
176
     1
 40
1.0
176
     1
 40
1.0
176
     1
  0
VISUALSTYLE
  5
40
102
{ACAD_REACTORS
330
2A
102
}
330
2A
100
AcDbVisualStyle
  2
X-Ray
 70
    25
177
     3
291
     0
 70
    58
 90
        2
176
     1
 90
        2
176
     1
 90
        1
176
     1
 90
        1
176
     1
 40
0.5
176
     1
 40
30.0
176
     1
 62
     7
420
 16777215
176
     1
 90
        1
176
     1
 90
        0
176
     1
 62
     7
176
     1
 62
   257
176
     1
 90
        1
176
     1
 90
        1
176
     1
 40
1.0
176
     1
 90
        8
176
     1
 62
     7
176
     1
 40
1.0
176
     1
 90
        1
176
     1
 90
        6
176
     1
 90
        2
176
     1
 62
     7
176
     1
 90
        3
176
     1
 90
        0
176
     1
 90
        0
176
     1
290
     0
176
     1
 90
       13
176
     1
 40
0.0
176
     1
 90
        0
176
     1
290
     0
176
     1
290
     1
176
     1
290
     1
176
     1
290
     0
176
     1
290
     0
176
     1
290
     0
176
     1
290
     0
176
     1
290
     0
176
     1
290
     0
176
     1
 90
       50
176
     1
 40
0.0
176
     1
 40
1.0
176
     1
 90
        0
176
     1
 62
    18
420
        0
176
     1
 90
       50
176
     1
 90
        3
176
     1
 62
     5
420
      255
176
     1
290
     0
176
     1
 90
       50
176
     1
 90
       50
176
     1
 90
       50
176
     1
290
     0
176
     1
 90
       50
176
     1
 62
   256
176
     0
 40
1.0
176
     0
 90
        2
176
     1
  1
strokes_ogs.tif
176
     1
290
     0
176
     1
 40
1.0
176
     1
 40
1.0
176
     1
  0
DICTIONARYVAR
  5
23E
102
{ACAD_REACTORS
330
23D
102
}
330
23D
100
DictionaryVariables
280
     0
  1
1:1
  0
ENDSEC
  0
EOF
