  0
SECTION
  2
HEADER
  9
$ACADVER
  1
AC1014
  9
$ACADMAINTVER
 70
     9
  9
$DWGCODEPAGE
  3
ANSI_932
  9
$INSBASE
 10
0.0
 20
0.0
 30
0.0
  9
$EXTMIN
 10
83.52726712625758
 20
167.3584187917275
 30
0.0
  9
$EXTMAX
 10
764.0038544151205
 20
427.831981072417
 30
0.0
  9
$LIMMIN
 10
0.0
 20
0.0
  9
$LIMMAX
 10
420.0
 20
297.0
  9
$ORTHOMODE
 70
     0
  9
$REGENMODE
 70
     1
  9
$FILLMODE
 70
     1
  9
$QTEXTMODE
 70
     0
  9
$MIRRTEXT
 70
     1
  9
$DRAGMODE
 70
     2
  9
$LTSCALE
 40
0.5
  9
$OSMODE
 70
    37
  9
$ATTMODE
 70
     1
  9
$TEXTSIZE
 40
5.6
  9
$TRACEWID
 40
0.05
  9
$TEXTSTYLE
  7
STANDARD
  9
$CLAYER
  8
0
  9
$CELTYPE
  6
BYLAYER
  9
$CECOLOR
 62
   256
  9
$CELTSCALE
 40
1.0
  9
$DELOBJ
 70
     1
  9
$DISPSILH
 70
     0
  9
$DIMSCALE
 40
1.0
  9
$DIMASZ
 40
1.55291427
  9
$DIMEXO
 40
2.0
  9
$DIMDLI
 40
30.0
  9
$DIMRND
 40
0.0
  9
$DIMDLE
 40
0.0
  9
$DIMEXE
 40
2.0
  9
$DIMTP
 40
0.0
  9
$DIMTM
 40
0.0
  9
$DIMTXT
 40
2.8
  9
$DIMCEN
 40
0.09
  9
$DIMTSZ
 40
0.0
  9
$DIMTOL
 70
     0
  9
$DIMLIM
 70
     0
  9
$DIMTIH
 70
     0
  9
$DIMTOH
 70
     0
  9
$DIMSE1
 70
     0
  9
$DIMSE2
 70
     0
  9
$DIMTAD
 70
     3
  9
$DIMZIN
 70
     8
  9
$DIMBLK
  1

  9
$DIMASO
 70
     1
  9
$DIMSHO
 70
     1
  9
$DIMPOST
  1

  9
$DIMAPOST
  1

  9
$DIMALT
 70
     0
  9
$DIMALTD
 70
     2
  9
$DIMALTF
 40
25.4
  9
$DIMLFAC
 40
1.0
  9
$DIMTOFL
 70
     1
  9
$DIMTVP
 40
0.7
  9
$DIMTIX
 70
     0
  9
$DIMSOXD
 70
     0
  9
$DIMSAH
 70
     0
  9
$DIMBLK1
  1

  9
$DIMBLK2
  1

  9
$DIMSTYLE
  2
STANDARD
  9
$DIMCLRD
 70
     0
  9
$DIMCLRE
 70
     0
  9
$DIMCLRT
 70
     0
  9
$DIMTFAC
 40
0.5
  9
$DIMGAP
 40
0.09
  9
$DIMJUST
 70
     0
  9
$DIMSD1
 70
     0
  9
$DIMSD2
 70
     0
  9
$DIMTOLJ
 70
     1
  9
$DIMTZIN
 70
     8
  9
$DIMALTZ
 70
     0
  9
$DIMALTTZ
 70
     0
  9
$DIMFIT
 70
     5
  9
$DIMUPT
 70
     1
  9
$DIMUNIT
 70
     2
  9
$DIMDEC
 70
     2
  9
$DIMTDEC
 70
     4
  9
$DIMALTU
 70
     2
  9
$DIMALTTD
 70
     2
  9
$DIMTXSTY
  7
STANDARD
  9
$DIMAUNIT
 70
     0
  9
$LUNITS
 70
     2
  9
$LUPREC
 70
     4
  9
$SKETCHINC
 40
0.1
  9
$FILLETRAD
 40
0.5
  9
$AUNITS
 70
     0
  9
$AUPREC
 70
     0
  9
$MENU
  1
.
  9
$ELEVATION
 40
0.0
  9
$PELEVATION
 40
0.0
  9
$THICKNESS
 40
0.0
  9
$LIMCHECK
 70
     0
  9
$CHAMFERA
 40
0.5
  9
$CHAMFERB
 40
0.5
  9
$CHAMFERC
 40
1.0
  9
$CHAMFERD
 40
0.0
  9
$SKPOLY
 70
     0
  9
$TDCREATE
 40
2460164.790601852
  9
$TDUPDATE
 40
2460164.415610926
  9
$TDINDWG
 40
0.0000000116
  9
$TDUSRTIMER
 40
0.0000000116
  9
$USRTIMER
 70
     1
  9
$ANGBASE
 50
0.0
  9
$ANGDIR
 70
     0
  9
$PDMODE
 70
     0
  9
$PDSIZE
 40
0.0
  9
$PLINEWID
 40
0.0
  9
$COORDS
 70
     1
  9
$SPLFRAME
 70
     0
  9
$SPLINETYPE
 70
     6
  9
$SPLINESEGS
 70
     8
  9
$ATTDIA
 70
     0
  9
$ATTREQ
 70
     1
  9
$HANDLING
 70
     1
  9
$HANDSEED
  5
212
  9
$SURFTAB1
 70
     6
  9
$SURFTAB2
 70
     6
  9
$SURFTYPE
 70
     6
  9
$SURFU
 70
     6
  9
$SURFV
 70
     6
  9
$UCSNAME
  2

  9
$UCSORG
 10
0.0
 20
0.0
 30
0.0
  9
$UCSXDIR
 10
1.0
 20
0.0
 30
0.0
  9
$UCSYDIR
 10
0.0
 20
1.0
 30
0.0
  9
$PUCSNAME
  2

  9
$PUCSORG
 10
0.0
 20
0.0
 30
0.0
  9
$PUCSXDIR
 10
1.0
 20
0.0
 30
0.0
  9
$PUCSYDIR
 10
0.0
 20
1.0
 30
0.0
  9
$USERI1
 70
     0
  9
$USERI2
 70
     0
  9
$USERI3
 70
     0
  9
$USERI4
 70
     0
  9
$USERI5
 70
     0
  9
$USERR1
 40
0.0
  9
$USERR2
 40
0.0
  9
$USERR3
 40
0.0
  9
$USERR4
 40
0.0
  9
$USERR5
 40
0.0
  9
$WORLDVIEW
 70
     1
  9
$SHADEDGE
 70
     3
  9
$SHADEDIF
 70
    70
  9
$TILEMODE
 70
     1
  9
$MAXACTVP
 70
    64
  9
$PINSBASE
 10
0.0
 20
0.0
 30
0.0
  9
$PLIMCHECK
 70
     0
  9
$PEXTMIN
 10
0.0
 20
0.0
 30
0.0
  9
$PEXTMAX
 10
420.0
 20
297.0
 30
0.0
  9
$PLIMMIN
 10
0.0
 20
0.0
  9
$PLIMMAX
 10
420.0
 20
297.0
  9
$UNITMODE
 70
     0
  9
$VISRETAIN
 70
     1
  9
$PLINEGEN
 70
     0
  9
$PSLTSCALE
 70
     1
  9
$TREEDEPTH
 70
  3020
  9
$PICKSTYLE
 70
     1
  9
$CMLSTYLE
  2
STANDARD
  9
$CMLJUST
 70
     0
  9
$CMLSCALE
 40
1.0
  9
$PROXYGRAPHICS
 70
     1
  9
$MEASUREMENT
 70
     1
  0
ENDSEC
  0
SECTION
  2
CLASSES
  0
CLASS
  1
ACDBDICTIONARYWDFLT
  2
AcDbDictionaryWithDefault
  3
ObjectDBX Classes
 90
        0
280
     0
281
     0
  0
CLASS
  1
VISUALSTYLE
  2
AcDbVisualStyle
  3
ObjectDBX Classes
 90
     4095
280
     0
281
     0
  0
CLASS
  1
MATERIAL
  2
AcDbMaterial
  3
ObjectDBX Classes
 90
     1153
280
     0
281
     0
  0
CLASS
  1
DICTIONARYVAR
  2
AcDbDictionaryVar
  3
ObjectDBX Classes
 90
        0
280
     0
281
     0
  0
CLASS
  1
XRECORD
  2
AcDbXrecord
  3
AutoCAD 2000
 90
        0
280
     0
281
     0
  0
CLASS
  1
LWPOLYLINE
  2
AcDbPolyline
  3
AutoCAD 2000
 90
        0
280
     0
281
     1
  0
CLASS
  1
HATCH
  2
AcDbHatch
  3
AutoCAD 2000
 90
        0
280
     0
281
     1
  0
CLASS
  1
ACDBPLACEHOLDER
  2
AcDbPlaceHolder
  3
ObjectDBX Classes
 90
        0
280
     0
281
     0
  0
CLASS
  1
LAYOUT
  2
AcDbLayout
  3
ObjectDBX Classes
 90
        0
280
     0
281
     0
  0
ENDSEC
  0
SECTION
  2
TABLES
  0
TABLE
  2
VPORT
  5
8
330
0
100
AcDbSymbolTable
 70
     1
  0
VPORT
  5
29
330
8
100
AcDbSymbolTableRecord
100
AcDbViewportTableRecord
  2
*ACTIVE
 70
     0
 10
0.0
 20
0.0
 11
1.0
 21
1.0
 12
10.42990654205607
 22
4.5
 13
0.0
 23
0.0
 14
0.5
 24
0.5
 15
0.5
 25
0.5
 16
0.0
 26
0.0
 36
1.0
 17
0.0
 27
0.0
 37
0.0
 40
9.0
 41
1.972972972850329
 42
50.0
 43
0.0
 44
0.0
 50
0.0
 51
0.0
 71
     0
 72
   100
 73
     1
 74
     3
 75
     0
 76
     0
 77
     0
 78
     0
  0
ENDTAB
  0
TABLE
  2
LTYPE
  5
5
330
0
100
AcDbSymbolTable
 70
     9
  0
LTYPE
  5
14
330
5
100
AcDbSymbolTableRecord
100
AcDbLinetypeTableRecord
  2
BYBLOCK
 70
     0
  3

 72
    65
 73
     0
 40
0.0
  0
LTYPE
  5
15
330
5
100
AcDbSymbolTableRecord
100
AcDbLinetypeTableRecord
  2
BYLAYER
 70
     0
  3

 72
    65
 73
     0
 40
0.0
  0
LTYPE
  5
16
330
5
100
AcDbSymbolTableRecord
100
AcDbLinetypeTableRecord
  2
CONTINUOUS
 70
     0
  3
Solid line
 72
    65
 73
     0
 40
0.0
  0
LTYPE
  5
8E
330
5
100
AcDbSymbolTableRecord
100
AcDbLinetypeTableRecord
  2
DOT
 70
     0
  3
DOT
 72
    65
 73
     2
 40
4.0
 49
6.0
 74
     0
 49
-2.0
 74
     0
  0
LTYPE
  5
8F
330
5
100
AcDbSymbolTableRecord
100
AcDbLinetypeTableRecord
  2
HIDDEN
 70
     0
  3
HIDDEN
 72
    65
 73
     2
 40
4.2
 49
8.4
 74
     0
 49
-4.2
 74
     0
  0
LTYPE
  5
90
330
5
100
AcDbSymbolTableRecord
100
AcDbLinetypeTableRecord
  2
DASHDOT
 70
     0
  3
DASHDOT
 72
    65
 73
     4
 40
14.5
 49
30.0
 74
     0
 49
-9.0
 74
     0
 49
2.5
 74
     0
 49
-9.0
 74
     0
  0
LTYPE
  5
91
330
5
100
AcDbSymbolTableRecord
100
AcDbLinetypeTableRecord
  2
PHANTOM
 70
     0
  3
PHANTOM
 72
    65
 73
     6
 40
12.0
 49
30.0
 74
     0
 49
-9.0
 74
     0
 49
2.5
 74
     0
 49
-5.0
 74
     0
 49
2.5
 74
     0
 49
-9.0
 74
     0
  0
LTYPE
  5
92
330
5
100
AcDbSymbolTableRecord
100
AcDbLinetypeTableRecord
  2
ACAD_ISO14W100
 70
     0
  3
ACAD_ISO14W100
 72
    65
 73
     8
 40
1.5
 49
12.0
 74
     0
 49
-3.0
 74
     0
 49
0.5
 74
     0
 49
-3.0
 74
     0
 49
0.5
 74
     0
 49
-3.0
 74
     0
 49
0.5
 74
     0
 49
-3.0
 74
     0
  0
LTYPE
  5
93
330
5
100
AcDbSymbolTableRecord
100
AcDbLinetypeTableRecord
  2
ACAD_ISO06W100
 70
     0
  3
ACAD_ISO06W100
 72
    65
 73
     8
 40
13.5
 49
24.0
 74
     0
 49
-3.0
 74
     0
 49
0.5
 74
     0
 49
-3.0
 74
     0
 49
0.5
 74
     0
 49
-3.0
 74
     0
 49
0.5
 74
     0
 49
-3.0
 74
     0
  0
LTYPE
  5
94
330
5
100
AcDbSymbolTableRecord
100
AcDbLinetypeTableRecord
  2
ACAD_ISO11W100
 70
     0
  3
ACAD_ISO11W100
 72
    65
 73
     6
 40
15.5
 49
12.0
 74
     0
 49
-3.0
 74
     0
 49
12.0
 74
     0
 49
-3.0
 74
     0
 49
0.5
 74
     0
 49
-3.0
 74
     0
  0
LTYPE
  5
95
330
5
100
AcDbSymbolTableRecord
100
AcDbLinetypeTableRecord
  2
ACAD_ISO13W100
 70
     0
  3
ACAD_ISO13W100
 72
    65
 73
     8
 40
13.0
 49
12.0
 74
     0
 49
-3.0
 74
     0
 49
12.0
 74
     0
 49
-3.0
 74
     0
 49
0.5
 74
     0
 49
-3.0
 74
     0
 49
0.5
 74
     0
 49
-3.0
 74
     0
  0
ENDTAB
  0
TABLE
  2
LAYER
  5
2
330
0
100
AcDbSymbolTable
 70
    12
  0
LAYER
  5
10
330
2
100
AcDbSymbolTableRecord
100
AcDbLayerTableRecord
  2
0
 70
     0
 62
     7
  6
CONTINUOUS
  0
LAYER
  5
96
330
2
100
AcDbSymbolTableRecord
100
AcDbLayerTableRecord
  2
1
 70
     0
 62
     7
  6
CONTINUOUS
  0
LAYER
  5
97
330
2
100
AcDbSymbolTableRecord
100
AcDbLayerTableRecord
  2
2
 70
     0
 62
     7
  6
CONTINUOUS
  0
LAYER
  5
98
330
2
100
AcDbSymbolTableRecord
100
AcDbLayerTableRecord
  2
3
 70
     0
 62
     6
  6
CONTINUOUS
  0
LAYER
  5
99
330
2
100
AcDbSymbolTableRecord
100
AcDbLayerTableRecord
  2
4
 70
     0
 62
     3
  6
CONTINUOUS
  0
LAYER
  5
9A
330
2
100
AcDbSymbolTableRecord
100
AcDbLayerTableRecord
  2
5
 70
     0
 62
   151
  6
CONTINUOUS
  0
LAYER
  5
9B
330
2
100
AcDbSymbolTableRecord
100
AcDbLayerTableRecord
  2
6
 70
     0
 62
     3
  6
HIDDEN
  0
LAYER
  5
9C
330
2
100
AcDbSymbolTableRecord
100
AcDbLayerTableRecord
  2
7
 70
     0
 62
     1
  6
DASHDOT
  0
LAYER
  5
9D
330
2
100
AcDbSymbolTableRecord
100
AcDbLayerTableRecord
  2
8
 70
     0
 62
     1
  6
CONTINUOUS
  0
LAYER
  5
9E
330
2
100
AcDbSymbolTableRecord
100
AcDbLayerTableRecord
  2
9
 70
     0
 62
     4
  6
CONTINUOUS
  0
LAYER
  5
9F
330
2
100
AcDbSymbolTableRecord
100
AcDbLayerTableRecord
  2
10
 70
     0
 62
     7
  6
CONTINUOUS
  0
LAYER
  5
A0
330
2
100
AcDbSymbolTableRecord
100
AcDbLayerTableRecord
  2
11
 70
     0
 62
     2
  6
CONTINUOUS
  0
ENDTAB
  0
TABLE
  2
STYLE
  5
3
330
0
100
AcDbSymbolTable
 70
     3
  0
STYLE
  5
11
330
3
100
AcDbSymbolTableRecord
100
AcDbTextStyleTableRecord
  2
STANDARD
 70
     0
 40
0.0
 41
1.0
 50
0.0
 71
     0
 42
5.6
  3
txt
  4
bigfont
  0
STYLE
  5
41
330
3
100
AcDbSymbolTableRecord
100
AcDbTextStyleTableRecord
  2
T_STANDARD
 70
     4
 40
10.0
 41
1.0
 50
0.0
 71
     0
 42
10.0
  3
txt
  4
bigfont
  0
STYLE
  5
14C
330
3
100
AcDbSymbolTableRecord
100
AcDbTextStyleTableRecord
  2
ＭＳ_ゴシック
 70
     0
 40
0.0
 41
1.0
 50
0.0
 71
     0
 42
0.0
  3

  4

1001
ACAD
1000
ＭＳ ゴシック
1071
      256
  0
ENDTAB
  0
TABLE
  2
VIEW
  5
6
330
0
100
AcDbSymbolTable
 70
     0
  0
ENDTAB
  0
TABLE
  2
UCS
  5
7
330
0
100
AcDbSymbolTable
 70
     0
  0
ENDTAB
  0
TABLE
  2
APPID
  5
9
330
0
100
AcDbSymbolTable
 70
     2
  0
APPID
  5
12
330
9
100
AcDbSymbolTableRecord
100
AcDbRegAppTableRecord
  2
ACAD
 70
     0
  0
APPID
  5
40
330
9
100
AcDbSymbolTableRecord
100
AcDbRegAppTableRecord
  2
ODA
 70
     0
  0
ENDTAB
  0
TABLE
  2
DIMSTYLE
  5
A
330
0
100
AcDbSymbolTable
 70
     1
  0
DIMSTYLE
105
27
102
{ACAD_REACTORS
330
156
330
160
330
16A
330
174
330
17E
330
188
330
192
330
19C
330
1A6
330
1B0
330
1BA
330
1C4
330
1CE
330
1D7
330
1DF
102
}
330
A
100
AcDbSymbolTableRecord
100
AcDbDimStyleTableRecord
  2
STANDARD
 70
     0
  3

  4

  5

  6

  7

 40
1.0
 41
0.18
 42
0.0625
 43
0.38
 44
0.18
 45
0.0
 46
0.0
 47
0.0
 48
0.0
140
0.18
141
0.09
142
0.0
143
25.4
144
1.0
145
0.0
146
1.0
147
0.09
 71
     0
 72
     0
 73
     1
 74
     1
 75
     0
 76
     0
 77
     0
 78
     0
170
     0
171
     2
172
     0
173
     0
174
     0
175
     0
176
     0
177
     0
178
     0
270
     2
271
     4
272
     4
273
     2
274
     2
340
11
275
     0
280
     0
281
     0
282
     0
283
     1
284
     0
285
     0
286
     0
287
     3
288
     0
  0
ENDTAB
  0
TABLE
  2
BLOCK_RECORD
  5
1
330
0
100
AcDbSymbolTable
 70
    31
  0
BLOCK_RECORD
  5
1F
330
1
100
AcDbSymbolTableRecord
100
AcDbBlockTableRecord
  2
*MODEL_SPACE
  0
BLOCK_RECORD
  5
1B
330
1
100
AcDbSymbolTableRecord
100
AcDbBlockTableRecord
  2
*PAPER_SPACE
  0
BLOCK_RECORD
  5
42
330
1
100
AcDbSymbolTableRecord
100
AcDbBlockTableRecord
  2
_ORIGIN
  0
BLOCK_RECORD
  5
47
330
1
100
AcDbSymbolTableRecord
100
AcDbBlockTableRecord
  2
_DOTBLANK
  0
BLOCK_RECORD
  5
4C
330
1
100
AcDbSymbolTableRecord
100
AcDbBlockTableRecord
  2
_DOT
  0
BLOCK_RECORD
  5
51
330
1
100
AcDbSymbolTableRecord
100
AcDbBlockTableRecord
  2
_OPEN
  0
BLOCK_RECORD
  5
57
330
1
100
AcDbSymbolTableRecord
100
AcDbBlockTableRecord
  2
_CLOSED
  0
BLOCK_RECORD
  5
5E
330
1
100
AcDbSymbolTableRecord
100
AcDbBlockTableRecord
  2
_CLOSEDBLANK
  0
BLOCK_RECORD
  5
64
330
1
100
AcDbSymbolTableRecord
100
AcDbBlockTableRecord
  2
_ARROWFILLED
  0
BLOCK_RECORD
  5
68
330
1
100
AcDbSymbolTableRecord
100
AcDbBlockTableRecord
  2
_BOXBLANK
  0
BLOCK_RECORD
  5
70
330
1
100
AcDbSymbolTableRecord
100
AcDbBlockTableRecord
  2
_BOXFILLED
  0
BLOCK_RECORD
  5
75
330
1
100
AcDbSymbolTableRecord
100
AcDbBlockTableRecord
  2
_INTEGRAL
  0
BLOCK_RECORD
  5
7A
330
1
100
AcDbSymbolTableRecord
100
AcDbBlockTableRecord
  2
_OBLIQUE
  0
BLOCK_RECORD
  5
7E
330
1
100
AcDbSymbolTableRecord
100
AcDbBlockTableRecord
  2
_NONE
  0
BLOCK_RECORD
  5
81
330
1
100
AcDbSymbolTableRecord
100
AcDbBlockTableRecord
  2
MARK_OPEN
  0
BLOCK_RECORD
  5
86
330
1
100
AcDbSymbolTableRecord
100
AcDbBlockTableRecord
  2
MARK_ORIGIN
  0
BLOCK_RECORD
  5
8A
330
1
100
AcDbSymbolTableRecord
100
AcDbBlockTableRecord
  2
MARK_DOT
  0
BLOCK_RECORD
  5
14D
330
1
100
AcDbSymbolTableRecord
100
AcDbBlockTableRecord
  2
DIM1
  0
BLOCK_RECORD
  5
157
330
1
100
AcDbSymbolTableRecord
100
AcDbBlockTableRecord
  2
DIM2
  0
BLOCK_RECORD
  5
161
330
1
100
AcDbSymbolTableRecord
100
AcDbBlockTableRecord
  2
DIM3
  0
BLOCK_RECORD
  5
16B
330
1
100
AcDbSymbolTableRecord
100
AcDbBlockTableRecord
  2
DIM4
  0
BLOCK_RECORD
  5
175
330
1
100
AcDbSymbolTableRecord
100
AcDbBlockTableRecord
  2
DIM5
  0
BLOCK_RECORD
  5
17F
330
1
100
AcDbSymbolTableRecord
100
AcDbBlockTableRecord
  2
DIM6
  0
BLOCK_RECORD
  5
189
330
1
100
AcDbSymbolTableRecord
100
AcDbBlockTableRecord
  2
DIM7
  0
BLOCK_RECORD
  5
193
330
1
100
AcDbSymbolTableRecord
100
AcDbBlockTableRecord
  2
DIM8
  0
BLOCK_RECORD
  5
19D
330
1
100
AcDbSymbolTableRecord
100
AcDbBlockTableRecord
  2
DIM9
  0
BLOCK_RECORD
  5
1A7
330
1
100
AcDbSymbolTableRecord
100
AcDbBlockTableRecord
  2
DIM10
  0
BLOCK_RECORD
  5
1B1
330
1
100
AcDbSymbolTableRecord
100
AcDbBlockTableRecord
  2
DIM11
  0
BLOCK_RECORD
  5
1BB
330
1
100
AcDbSymbolTableRecord
100
AcDbBlockTableRecord
  2
DIM12
  0
BLOCK_RECORD
  5
1C5
330
1
100
AcDbSymbolTableRecord
100
AcDbBlockTableRecord
  2
DIM13
  0
BLOCK_RECORD
  5
1D0
330
1
100
AcDbSymbolTableRecord
100
AcDbBlockTableRecord
  2
DIM14
  0
BLOCK_RECORD
  5
1D8
330
1
100
AcDbSymbolTableRecord
100
AcDbBlockTableRecord
  2
DIM15
  0
ENDTAB
  0
ENDSEC
  0
SECTION
  2
BLOCKS
  0
BLOCK
  5
20
330
1F
100
AcDbEntity
  8
0
100
AcDbBlockBegin
  2
*MODEL_SPACE
 70
     0
 10
0.0
 20
0.0
 30
0.0
  3
*MODEL_SPACE
  1

  0
ENDBLK
  5
21
330
1F
100
AcDbEntity
  8
0
100
AcDbBlockEnd
  0
BLOCK
  5
1C
330
1B
100
AcDbEntity
 67
     1
  8
0
100
AcDbBlockBegin
  2
*PAPER_SPACE
 70
     0
 10
0.0
 20
0.0
 30
0.0
  3
*PAPER_SPACE
  1

  0
ENDBLK
  5
1D
330
1B
100
AcDbEntity
 67
     1
  8
0
100
AcDbBlockEnd
  0
BLOCK
  5
45
330
42
100
AcDbEntity
  8
0
100
AcDbBlockBegin
  2
_ORIGIN
 70
     0
 10
0.0
 20
0.0
 30
0.0
  3
_ORIGIN
  1

  0
CIRCLE
  5
43
330
42
100
AcDbEntity
  8
0
 62
     0
100
AcDbCircle
 10
0.0
 20
0.0
 30
0.0
 40
0.5
  0
LINE
  5
44
330
42
100
AcDbEntity
  8
0
 62
     0
100
AcDbLine
 10
0.0
 20
0.0
 30
0.0
 11
-1.0
 21
0.0
 31
0.0
  0
ENDBLK
  5
46
330
42
100
AcDbEntity
  8
0
100
AcDbBlockEnd
  0
BLOCK
  5
4A
330
47
100
AcDbEntity
  8
0
100
AcDbBlockBegin
  2
_DOTBLANK
 70
     0
 10
0.0
 20
0.0
 30
0.0
  3
_DOTBLANK
  1

  0
CIRCLE
  5
48
330
47
100
AcDbEntity
  8
0
 62
     0
100
AcDbCircle
 10
0.0
 20
0.0
 30
0.0
 40
0.5
  0
LINE
  5
49
330
47
100
AcDbEntity
  8
0
 62
     0
100
AcDbLine
 10
-0.5
 20
0.0
 30
0.0
 11
-1.0
 21
0.0
 31
0.0
  0
ENDBLK
  5
4B
330
47
100
AcDbEntity
  8
0
100
AcDbBlockEnd
  0
BLOCK
  5
4F
330
4C
100
AcDbEntity
  8
0
100
AcDbBlockBegin
  2
_DOT
 70
     0
 10
0.0
 20
0.0
 30
0.0
  3
_DOT
  1

  0
LWPOLYLINE
  5
4D
330
4C
100
AcDbEntity
  8
0
 62
     0
100
AcDbPolyline
 90
        2
 70
     1
 43
0.5
 10
-0.25
 20
0.0
 42
1.0
 10
0.25
 20
0.0
 42
1.0
  0
LINE
  5
4E
330
4C
100
AcDbEntity
  8
0
 62
     0
100
AcDbLine
 10
-0.5
 20
0.0
 30
0.0
 11
-1.0
 21
0.0
 31
0.0
  0
ENDBLK
  5
50
330
4C
100
AcDbEntity
  8
0
100
AcDbBlockEnd
  0
BLOCK
  5
55
330
51
100
AcDbEntity
  8
0
100
AcDbBlockBegin
  2
_OPEN
 70
     0
 10
0.0
 20
0.0
 30
0.0
  3
_OPEN
  1

  0
LINE
  5
52
330
51
100
AcDbEntity
  8
0
 62
     0
100
AcDbLine
 10
0.0
 20
0.0
 30
0.0
 11
-1.0
 21
0.1666666666666667
 31
0.0
  0
LINE
  5
53
330
51
100
AcDbEntity
  8
0
 62
     0
100
AcDbLine
 10
0.0
 20
0.0
 30
0.0
 11
-1.0
 21
-0.1666666666666667
 31
0.0
  0
LINE
  5
54
330
51
100
AcDbEntity
  8
0
 62
     0
100
AcDbLine
 10
0.0
 20
0.0
 30
0.0
 11
-1.0
 21
0.0
 31
0.0
  0
ENDBLK
  5
56
330
51
100
AcDbEntity
  8
0
100
AcDbBlockEnd
  0
BLOCK
  5
5C
330
57
100
AcDbEntity
  8
0
100
AcDbBlockBegin
  2
_CLOSED
 70
     0
 10
0.0
 20
0.0
 30
0.0
  3
_CLOSED
  1

  0
LINE
  5
58
330
57
100
AcDbEntity
  8
0
 62
     0
100
AcDbLine
 10
0.0
 20
0.0
 30
0.0
 11
-1.0
 21
0.1666666666666667
 31
0.0
  0
LINE
  5
59
330
57
100
AcDbEntity
  8
0
 62
     0
100
AcDbLine
 10
0.0
 20
0.0
 30
0.0
 11
-1.0
 21
-0.1666666666666667
 31
0.0
  0
LINE
  5
5A
330
57
100
AcDbEntity
  8
0
 62
     0
100
AcDbLine
 10
-1.0
 20
0.1666666666666667
 30
0.0
 11
-1.0
 21
-0.1666666666666667
 31
0.0
  0
LINE
  5
5B
330
57
100
AcDbEntity
  8
0
 62
     0
100
AcDbLine
 10
0.0
 20
0.0
 30
0.0
 11
-1.0
 21
0.0
 31
0.0
  0
ENDBLK
  5
5D
330
57
100
AcDbEntity
  8
0
100
AcDbBlockEnd
  0
BLOCK
  5
62
330
5E
100
AcDbEntity
  8
0
100
AcDbBlockBegin
  2
_CLOSEDBLANK
 70
     0
 10
0.0
 20
0.0
 30
0.0
  3
_CLOSEDBLANK
  1

  0
LINE
  5
5F
330
5E
100
AcDbEntity
  8
0
 62
     0
100
AcDbLine
 10
0.0
 20
0.0
 30
0.0
 11
-1.0
 21
0.1666666666666667
 31
0.0
  0
LINE
  5
60
330
5E
100
AcDbEntity
  8
0
 62
     0
100
AcDbLine
 10
0.0
 20
0.0
 30
0.0
 11
-1.0
 21
-0.1666666666666667
 31
0.0
  0
LINE
  5
61
330
5E
100
AcDbEntity
  8
0
 62
     0
100
AcDbLine
 10
-1.0
 20
0.1666666666666667
 30
0.0
 11
-1.0
 21
-0.1666666666666667
 31
0.0
  0
ENDBLK
  5
63
330
5E
100
AcDbEntity
  8
0
100
AcDbBlockEnd
  0
BLOCK
  5
66
330
64
100
AcDbEntity
  8
0
100
AcDbBlockBegin
  2
_ARROWFILLED
 70
     0
 10
0.0
 20
0.0
 30
0.0
  3
_ARROWFILLED
  1

  0
SOLID
  5
65
330
64
100
AcDbEntity
  8
0
 62
     0
100
AcDbTrace
 10
0.0
 20
0.0
 30
0.0
 11
-1.0
 21
-0.1666666666666667
 31
0.0
 12
-1.0
 22
0.1666666666666667
 32
0.0
 13
0.0
 23
0.0
 33
0.0
  0
ENDBLK
  5
67
330
64
100
AcDbEntity
  8
0
100
AcDbBlockEnd
  0
BLOCK
  5
6E
330
68
100
AcDbEntity
  8
0
100
AcDbBlockBegin
  2
_BOXBLANK
 70
     0
 10
0.0
 20
0.0
 30
0.0
  3
_BOXBLANK
  1

  0
LINE
  5
69
330
68
100
AcDbEntity
  8
0
 62
     0
100
AcDbLine
 10
-0.5
 20
-0.5
 30
0.0
 11
0.5
 21
-0.5
 31
0.0
  0
LINE
  5
6A
330
68
100
AcDbEntity
  8
0
 62
     0
100
AcDbLine
 10
0.5
 20
-0.5
 30
0.0
 11
0.5
 21
0.5
 31
0.0
  0
LINE
  5
6B
330
68
100
AcDbEntity
  8
0
 62
     0
100
AcDbLine
 10
0.5
 20
0.5
 30
0.0
 11
-0.5
 21
0.5
 31
0.0
  0
LINE
  5
6C
330
68
100
AcDbEntity
  8
0
 62
     0
100
AcDbLine
 10
-0.5
 20
0.5
 30
0.0
 11
-0.5
 21
-0.5
 31
0.0
  0
LINE
  5
6D
330
68
100
AcDbEntity
  8
0
 62
     0
100
AcDbLine
 10
-0.5
 20
0.0
 30
0.0
 11
-1.0
 21
0.0
 31
0.0
  0
ENDBLK
  5
6F
330
68
100
AcDbEntity
  8
0
100
AcDbBlockEnd
  0
BLOCK
  5
73
330
70
100
AcDbEntity
  8
0
100
AcDbBlockBegin
  2
_BOXFILLED
 70
     0
 10
0.0
 20
0.0
 30
0.0
  3
_BOXFILLED
  1

  0
SOLID
  5
71
330
70
100
AcDbEntity
  8
0
 62
     0
100
AcDbTrace
 10
-0.5
 20
0.5
 30
0.0
 11
0.5
 21
0.5
 31
0.0
 12
-0.5
 22
-0.5
 32
0.0
 13
0.5
 23
-0.5
 33
0.0
  0
LINE
  5
72
330
70
100
AcDbEntity
  8
0
 62
     0
100
AcDbLine
 10
-0.5
 20
0.0
 30
0.0
 11
-1.0
 21
0.0
 31
0.0
  0
ENDBLK
  5
74
330
70
100
AcDbEntity
  8
0
100
AcDbBlockEnd
  0
BLOCK
  5
78
330
75
100
AcDbEntity
  8
0
100
AcDbBlockBegin
  2
_INTEGRAL
 70
     0
 10
0.0
 20
0.0
 30
0.0
  3
_INTEGRAL
  1

  0
ARC
  5
76
330
75
100
AcDbEntity
  8
0
 62
     0
100
AcDbCircle
 10
0.444888
 20
-0.0913346
 30
0.0
 40
0.4541666
100
AcDbArc
 50
101.9999999999999
 51
167.9999999999998
  0
ARC
  5
77
330
75
100
AcDbEntity
  8
0
 62
     0
100
AcDbCircle
 10
-0.444888
 20
0.0913346
 30
0.0
 40
0.4541666
100
AcDbArc
 50
281.9999999999997
 51
347.9999999999997
  0
ENDBLK
  5
79
330
75
100
AcDbEntity
  8
0
100
AcDbBlockEnd
  0
BLOCK
  5
7C
330
7A
100
AcDbEntity
  8
0
100
AcDbBlockBegin
  2
_OBLIQUE
 70
     0
 10
0.0
 20
0.0
 30
0.0
  3
_OBLIQUE
  1

  0
LINE
  5
7B
330
7A
100
AcDbEntity
  8
0
 62
     0
100
AcDbLine
 10
-0.5
 20
-0.5
 30
0.0
 11
0.5
 21
0.5
 31
0.0
  0
ENDBLK
  5
7D
330
7A
100
AcDbEntity
  8
0
100
AcDbBlockEnd
  0
BLOCK
  5
7F
330
7E
100
AcDbEntity
  8
0
100
AcDbBlockBegin
  2
_NONE
 70
     0
 10
0.0
 20
0.0
 30
0.0
  3
_NONE
  1

  0
ENDBLK
  5
80
330
7E
100
AcDbEntity
  8
0
100
AcDbBlockEnd
  0
BLOCK
  5
84
330
81
100
AcDbEntity
  8
0
100
AcDbBlockBegin
  2
MARK_OPEN
 70
     0
 10
0.0
 20
0.0
 30
0.0
  3
MARK_OPEN
  1

  0
LINE
  5
82
330
81
100
AcDbEntity
  8
0
 62
     0
100
AcDbLine
 10
0.0
 20
0.0
 30
0.0
 11
-1.0
 21
0.1666666666666667
 31
0.0
  0
LINE
  5
83
330
81
100
AcDbEntity
  8
0
 62
     0
100
AcDbLine
 10
0.0
 20
0.0
 30
0.0
 11
-1.0
 21
-0.1666666666666667
 31
0.0
  0
ENDBLK
  5
85
330
81
100
AcDbEntity
  8
0
100
AcDbBlockEnd
  0
BLOCK
  5
88
330
86
100
AcDbEntity
  8
0
100
AcDbBlockBegin
  2
MARK_ORIGIN
 70
     0
 10
0.0
 20
0.0
 30
0.0
  3
MARK_ORIGIN
  1

  0
CIRCLE
  5
87
330
86
100
AcDbEntity
  8
0
 62
     0
100
AcDbCircle
 10
0.0
 20
0.0
 30
0.0
 40
0.5
  0
ENDBLK
  5
89
330
86
100
AcDbEntity
  8
0
100
AcDbBlockEnd
  0
BLOCK
  5
8C
330
8A
100
AcDbEntity
  8
0
100
AcDbBlockBegin
  2
MARK_DOT
 70
     0
 10
0.0
 20
0.0
 30
0.0
  3
MARK_DOT
  1

  0
LWPOLYLINE
  5
8B
330
8A
100
AcDbEntity
  8
0
 62
     0
100
AcDbPolyline
 90
        2
 70
     1
 43
0.5
 10
-0.25
 20
0.0
 42
1.0
 10
0.25
 20
0.0
 42
1.0
  0
ENDBLK
  5
8D
330
8A
100
AcDbEntity
  8
0
100
AcDbBlockEnd
  0
BLOCK
  5
14E
330
14D
100
AcDbEntity
  8
0
100
AcDbBlockBegin
  2
DIM1
 70
     0
 10
0.0
 20
0.0
 30
0.0
  3
DIM1
  1

  0
LINE
  5
150
330
14D
100
AcDbEntity
  8
9
  6
CONTINUOUS
 62
     4
100
AcDbLine
 10
298.8102302576888
 20
244.192494702649
 30
0.0
 11
298.8102302576888
 21
211.7251281071893
 31
0.0
  0
LINE
  5
151
330
14D
100
AcDbEntity
  8
9
  6
CONTINUOUS
 62
     4
100
AcDbLine
 10
473.8102302576878
 20
244.192494702649
 30
0.0
 11
473.8102302576877
 21
211.7251281071893
 31
0.0
  0
LINE
  5
152
330
14D
100
AcDbEntity
  8
9
  6
CONTINUOUS
 62
     4
100
AcDbLine
 10
298.8102302576888
 20
214.7251281071893
 30
0.0
 11
473.8102302576877
 21
214.7251281071893
 31
0.0
  0
MTEXT
  5
153
330
14D
100
AcDbEntity
  8
9
  6
CONTINUOUS
 62
     4
100
AcDbMText
 10
386.3102302576883
 20
214.7251281071893
 30
0.0
 40
6.0
 41
72.85714285714286
 71
     8
 72
     1
  1
175
  7
ＭＳ_ゴシック
1001
ACAD
1000
ACAD_MTEXT_DEFINED_HEIGHT_BEGIN
1070
    46
1040
6.0
1000
ACAD_MTEXT_DEFINED_HEIGHT_END
  0
INSERT
  5
154
330
14D
100
AcDbEntity
  8
9
  6
CONTINUOUS
 62
     4
100
AcDbBlockReference
  2
_ARROWFILLED
 10
298.8102302576888
 20
214.7251281071893
 30
0.0
 41
4.0
 42
4.0
 43
4.0
 50
179.9999999999998
  0
INSERT
  5
155
330
14D
100
AcDbEntity
  8
9
  6
CONTINUOUS
 62
     4
100
AcDbBlockReference
  2
_ARROWFILLED
 10
473.8102302576877
 20
214.7251281071893
 30
0.0
 41
4.0
 42
4.0
 43
4.0
 50
359.9999999999997
  0
ENDBLK
  5
14F
330
14D
100
AcDbEntity
  8
0
100
AcDbBlockEnd
  0
BLOCK
  5
158
330
157
100
AcDbEntity
  8
0
100
AcDbBlockBegin
  2
DIM2
 70
     0
 10
0.0
 20
0.0
 30
0.0
  3
DIM2
  1

  0
LINE
  5
15A
330
157
100
AcDbEntity
  8
9
  6
CONTINUOUS
 62
     4
100
AcDbLine
 10
186.3102302576888
 20
267.192494702649
 30
0.0
 11
186.3102302576887
 21
190.0634990827055
 31
0.0
  0
LINE
  5
15B
330
157
100
AcDbEntity
  8
9
  6
CONTINUOUS
 62
     4
100
AcDbLine
 10
586.3102302576888
 20
267.192494702649
 30
0.0
 11
586.3102302576887
 21
190.0634990827055
 31
0.0
  0
LINE
  5
15C
330
157
100
AcDbEntity
  8
9
  6
CONTINUOUS
 62
     4
100
AcDbLine
 10
186.3102302576887
 20
193.0634990827055
 30
0.0
 11
586.3102302576887
 21
193.0634990827055
 31
0.0
  0
MTEXT
  5
15D
330
157
100
AcDbEntity
  8
9
  6
CONTINUOUS
 62
     4
100
AcDbMText
 10
386.3102302576889
 20
193.0634990827055
 30
0.0
 40
6.0
 41
77.14285714285714
 71
     8
 72
     1
  1
400
  7
ＭＳ_ゴシック
1001
ACAD
1000
ACAD_MTEXT_DEFINED_HEIGHT_BEGIN
1070
    46
1040
6.0
1000
ACAD_MTEXT_DEFINED_HEIGHT_END
  0
INSERT
  5
15E
330
157
100
AcDbEntity
  8
9
  6
CONTINUOUS
 62
     4
100
AcDbBlockReference
  2
_ARROWFILLED
 10
186.3102302576887
 20
193.0634990827055
 30
0.0
 41
4.0
 42
4.0
 43
4.0
 50
179.9999999999998
  0
INSERT
  5
15F
330
157
100
AcDbEntity
  8
9
  6
CONTINUOUS
 62
     4
100
AcDbBlockReference
  2
_ARROWFILLED
 10
586.3102302576887
 20
193.0634990827055
 30
0.0
 41
4.0
 42
4.0
 43
4.0
 50
359.9999999999997
  0
ENDBLK
  5
159
330
157
100
AcDbEntity
  8
0
100
AcDbBlockEnd
  0
BLOCK
  5
162
330
161
100
AcDbEntity
  8
0
100
AcDbBlockBegin
  2
DIM3
 70
     0
 10
0.0
 20
0.0
 30
0.0
  3
DIM3
  1

  0
LINE
  5
164
330
161
100
AcDbEntity
  8
9
  6
CONTINUOUS
 62
     4
100
AcDbLine
 10
171.3102302576888
 20
252.1924947026481
 30
0.0
 11
171.3102302576887
 21
167.3584187917275
 31
0.0
  0
LINE
  5
165
330
161
100
AcDbEntity
  8
9
  6
CONTINUOUS
 62
     4
100
AcDbLine
 10
601.3102302576888
 20
252.192494702649
 30
0.0
 11
601.3102302576887
 21
167.3584187917275
 31
0.0
  0
LINE
  5
166
330
161
100
AcDbEntity
  8
9
  6
CONTINUOUS
 62
     4
100
AcDbLine
 10
171.3102302576887
 20
170.3584187917275
 30
0.0
 11
601.3102302576887
 21
170.3584187917275
 31
0.0
  0
MTEXT
  5
167
330
161
100
AcDbEntity
  8
9
  6
CONTINUOUS
 62
     4
100
AcDbMText
 10
386.3102302576889
 20
170.3584187917275
 30
0.0
 40
6.0
 41
77.14285714285714
 71
     8
 72
     1
  1
430
  7
ＭＳ_ゴシック
1001
ACAD
1000
ACAD_MTEXT_DEFINED_HEIGHT_BEGIN
1070
    46
1040
6.0
1000
ACAD_MTEXT_DEFINED_HEIGHT_END
  0
INSERT
  5
168
330
161
100
AcDbEntity
  8
9
  6
CONTINUOUS
 62
     4
100
AcDbBlockReference
  2
_ARROWFILLED
 10
171.3102302576887
 20
170.3584187917275
 30
0.0
 41
4.0
 42
4.0
 43
4.0
 50
179.9999999999998
  0
INSERT
  5
169
330
161
100
AcDbEntity
  8
9
  6
CONTINUOUS
 62
     4
100
AcDbBlockReference
  2
_ARROWFILLED
 10
601.3102302576887
 20
170.3584187917275
 30
0.0
 41
4.0
 42
4.0
 43
4.0
 50
359.9999999999997
  0
ENDBLK
  5
163
330
161
100
AcDbEntity
  8
0
100
AcDbBlockEnd
  0
BLOCK
  5
16C
330
16B
100
AcDbEntity
  8
0
100
AcDbBlockBegin
  2
DIM4
 70
     0
 10
0.0
 20
0.0
 30
0.0
  3
DIM4
  1

  0
LINE
  5
16E
330
16B
100
AcDbEntity
  8
9
  6
CONTINUOUS
 62
     4
100
AcDbLine
 10
691.5038544151205
 20
252.192494702649
 30
0.0
 11
691.5038544151204
 21
167.3584187917275
 31
0.0
  0
LINE
  5
16F
330
16B
100
AcDbEntity
  8
9
  6
CONTINUOUS
 62
     4
100
AcDbLine
 10
736.5038544151205
 20
237.192494702649
 30
0.0
 11
736.5038544151204
 21
167.3584187917275
 31
0.0
  0
LINE
  5
170
330
16B
100
AcDbEntity
  8
9
  6
CONTINUOUS
 62
     4
100
AcDbLine
 10
691.5038544151204
 20
170.3584187917275
 30
0.0
 11
736.5038544151204
 21
170.3584187917275
 31
0.0
  0
MTEXT
  5
171
330
16B
100
AcDbEntity
  8
9
  6
CONTINUOUS
 62
     4
100
AcDbMText
 10
714.0038544151205
 20
170.3584187917275
 30
0.0
 40
6.0
 41
48.57142857142856
 71
     8
 72
     1
  1
45
  7
ＭＳ_ゴシック
1001
ACAD
1000
ACAD_MTEXT_DEFINED_HEIGHT_BEGIN
1070
    46
1040
6.0
1000
ACAD_MTEXT_DEFINED_HEIGHT_END
  0
INSERT
  5
172
330
16B
100
AcDbEntity
  8
9
  6
CONTINUOUS
 62
     4
100
AcDbBlockReference
  2
_ARROWFILLED
 10
691.5038544151204
 20
170.3584187917275
 30
0.0
 41
4.0
 42
4.0
 43
4.0
 50
179.9999999999998
  0
INSERT
  5
173
330
16B
100
AcDbEntity
  8
9
  6
CONTINUOUS
 62
     4
100
AcDbBlockReference
  2
_ARROWFILLED
 10
736.5038544151204
 20
170.3584187917275
 30
0.0
 41
4.0
 42
4.0
 43
4.0
 50
359.9999999999997
  0
ENDBLK
  5
16D
330
16B
100
AcDbEntity
  8
0
100
AcDbBlockEnd
  0
BLOCK
  5
176
330
175
100
AcDbEntity
  8
0
100
AcDbBlockBegin
  2
DIM5
 70
     0
 10
0.0
 20
0.0
 30
0.0
  3
DIM5
  1

  0
LINE
  5
178
330
175
100
AcDbEntity
  8
9
  6
CONTINUOUS
 62
     4
100
AcDbLine
 10
736.5038544151205
 20
237.192494702649
 30
0.0
 11
736.5038544151205
 21
211.7251281071893
 31
0.0
  0
LINE
  5
179
330
175
100
AcDbEntity
  8
9
  6
CONTINUOUS
 62
     4
100
AcDbLine
 10
735.5038544151187
 20
237.192494702649
 30
0.0
 11
735.5038544151187
 21
211.7251281071893
 31
0.0
  0
LINE
  5
17A
330
175
100
AcDbEntity
  8
9
  6
CONTINUOUS
 62
     4
100
AcDbLine
 10
749.0038544151205
 20
214.7251281071893
 30
0.0
 11
727.5038544151187
 21
214.7251281071893
 31
0.0
  0
MTEXT
  5
17B
330
175
100
AcDbEntity
  8
9
  6
CONTINUOUS
 62
     4
100
AcDbMText
 10
746.0038544151205
 20
214.7251281071893
 30
0.0
 40
6.0
 41
7.142857142857143
 71
     7
 72
     1
  1
1
  7
ＭＳ_ゴシック
1001
ACAD
1000
ACAD_MTEXT_DEFINED_HEIGHT_BEGIN
1070
    46
1040
6.0
1000
ACAD_MTEXT_DEFINED_HEIGHT_END
  0
INSERT
  5
17C
330
175
100
AcDbEntity
  8
9
  6
CONTINUOUS
 62
     4
100
AcDbBlockReference
  2
_ARROWFILLED
 10
736.5038544151205
 20
214.7251281071893
 30
0.0
 41
4.0
 42
4.0
 43
4.0
 50
179.9999999999995
  0
INSERT
  5
17D
330
175
100
AcDbEntity
  8
9
  6
CONTINUOUS
 62
     4
100
AcDbBlockReference
  2
_ARROWFILLED
 10
735.5038544151187
 20
214.7251281071893
 30
0.0
 41
4.0
 42
4.0
 43
4.0
 50
359.9999999999997
  0
ENDBLK
  5
177
330
175
100
AcDbEntity
  8
0
100
AcDbBlockEnd
  0
BLOCK
  5
180
330
17F
100
AcDbEntity
  8
0
100
AcDbBlockBegin
  2
DIM6
 70
     0
 10
0.0
 20
0.0
 30
0.0
  3
DIM6
  1

  0
LINE
  5
182
330
17F
100
AcDbEntity
  8
9
  6
CONTINUOUS
 62
     4
100
AcDbLine
 10
184.3102302576888
 20
269.192494702649
 30
0.0
 11
149.0055484751331
 21
269.1924947026491
 31
0.0
  0
LINE
  5
183
330
17F
100
AcDbEntity
  8
9
  6
CONTINUOUS
 62
     4
100
AcDbLine
 10
184.3102302576888
 20
369.192494702649
 30
0.0
 11
149.0055484751331
 21
369.1924947026491
 31
0.0
  0
LINE
  5
184
330
17F
100
AcDbEntity
  8
9
  6
CONTINUOUS
 62
     4
100
AcDbLine
 10
152.0055484751331
 20
269.1924947026491
 30
0.0
 11
152.0055484751331
 21
369.1924947026491
 31
0.0
  0
MTEXT
  5
185
330
17F
100
AcDbEntity
  8
9
  6
CONTINUOUS
 62
     4
100
AcDbMText
 10
152.0055484751331
 20
319.192494702649
 30
0.0
 40
6.0
 41
72.85714285714286
 71
     8
 72
     1
  1
100
  7
ＭＳ_ゴシック
 11
1.615544574432587E-15
 21
1.0
 31
0.0
1001
ACAD
1000
ACAD_MTEXT_DEFINED_HEIGHT_BEGIN
1070
    46
1040
6.0
1000
ACAD_MTEXT_DEFINED_HEIGHT_END
  0
INSERT
  5
186
330
17F
100
AcDbEntity
  8
9
  6
CONTINUOUS
 62
     4
100
AcDbBlockReference
  2
_ARROWFILLED
 10
152.0055484751331
 20
269.1924947026491
 30
0.0
 41
4.0
 42
4.0
 43
4.0
 50
269.9999999999998
  0
INSERT
  5
187
330
17F
100
AcDbEntity
  8
9
  6
CONTINUOUS
 62
     4
100
AcDbBlockReference
  2
_ARROWFILLED
 10
152.0055484751331
 20
369.1924947026491
 30
0.0
 41
4.0
 42
4.0
 43
4.0
 50
89.99999999999991
  0
ENDBLK
  5
181
330
17F
100
AcDbEntity
  8
0
100
AcDbBlockEnd
  0
BLOCK
  5
18A
330
189
100
AcDbEntity
  8
0
100
AcDbBlockBegin
  2
DIM7
 70
     0
 10
0.0
 20
0.0
 30
0.0
  3
DIM7
  1

  0
LINE
  5
18C
330
189
100
AcDbEntity
  8
9
  6
CONTINUOUS
 62
     4
100
AcDbLine
 10
169.3102302576888
 20
254.192494702649
 30
0.0
 11
127.871939690752
 21
254.1924947026491
 31
0.0
  0
LINE
  5
18D
330
189
100
AcDbEntity
  8
9
  6
CONTINUOUS
 62
     4
100
AcDbLine
 10
169.3102302576888
 20
384.192494702649
 30
0.0
 11
127.871939690752
 21
384.1924947026491
 31
0.0
  0
LINE
  5
18E
330
189
100
AcDbEntity
  8
9
  6
CONTINUOUS
 62
     4
100
AcDbLine
 10
130.871939690752
 20
254.1924947026491
 30
0.0
 11
130.871939690752
 21
384.1924947026491
 31
0.0
  0
MTEXT
  5
18F
330
189
100
AcDbEntity
  8
9
  6
CONTINUOUS
 62
     4
100
AcDbMText
 10
130.871939690752
 20
320.0832519811903
 30
0.0
 40
6.0
 41
72.85714285714286
 71
     8
 72
     1
  1
130
  7
ＭＳ_ゴシック
 11
1.615544574432587E-15
 21
1.0
 31
0.0
1001
ACAD
1000
ACAD_MTEXT_DEFINED_HEIGHT_BEGIN
1070
    46
1040
6.0
1000
ACAD_MTEXT_DEFINED_HEIGHT_END
  0
INSERT
  5
190
330
189
100
AcDbEntity
  8
9
  6
CONTINUOUS
 62
     4
100
AcDbBlockReference
  2
_ARROWFILLED
 10
130.871939690752
 20
254.1924947026491
 30
0.0
 41
4.0
 42
4.0
 43
4.0
 50
269.9999999999998
  0
INSERT
  5
191
330
189
100
AcDbEntity
  8
9
  6
CONTINUOUS
 62
     4
100
AcDbBlockReference
  2
_ARROWFILLED
 10
130.871939690752
 20
384.1924947026491
 30
0.0
 41
4.0
 42
4.0
 43
4.0
 50
89.99999999999991
  0
ENDBLK
  5
18B
330
189
100
AcDbEntity
  8
0
100
AcDbBlockEnd
  0
BLOCK
  5
194
330
193
100
AcDbEntity
  8
0
100
AcDbBlockBegin
  2
DIM8
 70
     0
 10
0.0
 20
0.0
 30
0.0
  3
DIM8
  1

  0
LINE
  5
196
330
193
100
AcDbEntity
  8
9
  6
CONTINUOUS
 62
     4
100
AcDbLine
 10
209.3102302576888
 20
246.192494702649
 30
0.0
 11
107.2837211047138
 21
246.1924947026493
 31
0.0
  0
LINE
  5
197
330
193
100
AcDbEntity
  8
9
  6
CONTINUOUS
 62
     4
100
AcDbLine
 10
209.3102302576888
 20
392.192494702649
 30
0.0
 11
107.2837211047138
 21
392.1924947026494
 31
0.0
  0
LINE
  5
198
330
193
100
AcDbEntity
  8
9
  6
CONTINUOUS
 62
     4
100
AcDbLine
 10
110.2837211047138
 20
246.1924947026493
 30
0.0
 11
110.2837211047138
 21
392.1924947026494
 31
0.0
  0
MTEXT
  5
199
330
193
100
AcDbEntity
  8
9
  6
CONTINUOUS
 62
     4
100
AcDbMText
 10
110.2837211047138
 20
320.0832519811903
 30
0.0
 40
6.0
 41
72.85714285714286
 71
     8
 72
     1
  1
146
  7
ＭＳ_ゴシック
 11
1.615544574432587E-15
 21
1.0
 31
0.0
1001
ACAD
1000
ACAD_MTEXT_DEFINED_HEIGHT_BEGIN
1070
    46
1040
6.0
1000
ACAD_MTEXT_DEFINED_HEIGHT_END
  0
INSERT
  5
19A
330
193
100
AcDbEntity
  8
9
  6
CONTINUOUS
 62
     4
100
AcDbBlockReference
  2
_ARROWFILLED
 10
110.2837211047138
 20
246.1924947026493
 30
0.0
 41
4.0
 42
4.0
 43
4.0
 50
269.9999999999998
  0
INSERT
  5
19B
330
193
100
AcDbEntity
  8
9
  6
CONTINUOUS
 62
     4
100
AcDbBlockReference
  2
_ARROWFILLED
 10
110.2837211047138
 20
392.1924947026494
 30
0.0
 41
4.0
 42
4.0
 43
4.0
 50
89.99999999999991
  0
ENDBLK
  5
195
330
193
100
AcDbEntity
  8
0
100
AcDbBlockEnd
  0
BLOCK
  5
19E
330
19D
100
AcDbEntity
  8
0
100
AcDbBlockBegin
  2
DIM9
 70
     0
 10
0.0
 20
0.0
 30
0.0
  3
DIM9
  1

  0
LINE
  5
1A0
330
19D
100
AcDbEntity
  8
9
  6
CONTINUOUS
 62
     4
100
AcDbLine
 10
189.3102302576878
 20
399.192494702649
 30
0.0
 11
86.52726712625758
 21
399.1924947026494
 31
0.0
  0
LINE
  5
1A1
330
19D
100
AcDbEntity
  8
9
  6
CONTINUOUS
 62
     4
100
AcDbLine
 10
189.3102302576878
 20
239.192494702649
 30
0.0
 11
86.52726712625758
 21
239.1924947026493
 31
0.0
  0
LINE
  5
1A2
330
19D
100
AcDbEntity
  8
9
  6
CONTINUOUS
 62
     4
100
AcDbLine
 10
89.52726712625758
 20
399.1924947026494
 30
0.0
 11
89.52726712625758
 21
239.1924947026493
 31
0.0
  0
MTEXT
  5
1A3
330
19D
100
AcDbEntity
  8
9
  6
CONTINUOUS
 62
     4
100
AcDbMText
 10
89.52726712625758
 20
320.0832519811903
 30
0.0
 40
6.0
 41
72.85714285714286
 71
     8
 72
     1
  1
160
  7
ＭＳ_ゴシック
 11
1.615544574432587E-15
 21
1.0
 31
0.0
1001
ACAD
1000
ACAD_MTEXT_DEFINED_HEIGHT_BEGIN
1070
    46
1040
6.0
1000
ACAD_MTEXT_DEFINED_HEIGHT_END
  0
INSERT
  5
1A4
330
19D
100
AcDbEntity
  8
9
  6
CONTINUOUS
 62
     4
100
AcDbBlockReference
  2
_ARROWFILLED
 10
89.52726712625758
 20
399.1924947026494
 30
0.0
 41
4.0
 42
4.0
 43
4.0
 50
89.99999999999991
  0
INSERT
  5
1A5
330
19D
100
AcDbEntity
  8
9
  6
CONTINUOUS
 62
     4
100
AcDbBlockReference
  2
_ARROWFILLED
 10
89.52726712625758
 20
239.1924947026493
 30
0.0
 41
4.0
 42
4.0
 43
4.0
 50
269.9999999999998
  0
ENDBLK
  5
19F
330
19D
100
AcDbEntity
  8
0
100
AcDbBlockEnd
  0
BLOCK
  5
1A8
330
1A7
100
AcDbEntity
  8
0
100
AcDbBlockBegin
  2
DIM10
 70
     0
 10
0.0
 20
0.0
 30
0.0
  3
DIM10
  1

  0
LINE
  5
1AA
330
1A7
100
AcDbEntity
  8
9
  6
CONTINUOUS
 62
     4
100
AcDbLine
 10
619.3102302576888
 20
314.692494702649
 30
0.0
 11
619.3102302576885
 21
167.3584187917275
 31
0.0
  0
LINE
  5
1AB
330
1A7
100
AcDbEntity
  8
9
  6
CONTINUOUS
 62
     4
100
AcDbLine
 10
601.3102302576888
 20
252.192494702649
 30
0.0
 11
601.3102302576887
 21
167.3584187917275
 31
0.0
  0
LINE
  5
1AC
330
1A7
100
AcDbEntity
  8
9
  6
CONTINUOUS
 62
     4
100
AcDbLine
 10
639.3102302576888
 20
170.3584187917275
 30
0.0
 11
601.3102302576887
 21
170.3584187917275
 31
0.0
  0
MTEXT
  5
1AD
330
1A7
100
AcDbEntity
  8
9
  6
CONTINUOUS
 62
     4
100
AcDbMText
 10
627.3102302576888
 20
170.3584187917275
 30
0.0
 40
6.0
 41
85.71428571428571
 71
     7
 72
     1
  1
(18)
  7
ＭＳ_ゴシック
1001
ACAD
1000
ACAD_MTEXT_DEFINED_HEIGHT_BEGIN
1070
    46
1040
6.0
1000
ACAD_MTEXT_DEFINED_HEIGHT_END
  0
INSERT
  5
1AE
330
1A7
100
AcDbEntity
  8
9
  6
CONTINUOUS
 62
     4
100
AcDbBlockReference
  2
_ARROWFILLED
 10
619.3102302576885
 20
170.3584187917275
 30
0.0
 41
4.0
 42
4.0
 43
4.0
 50
359.9999999999997
  0
INSERT
  5
1AF
330
1A7
100
AcDbEntity
  8
9
  6
CONTINUOUS
 62
     4
100
AcDbBlockReference
  2
_ARROWFILLED
 10
601.3102302576887
 20
170.3584187917275
 30
0.0
 41
4.0
 42
4.0
 43
4.0
 50
179.9999999999998
  0
ENDBLK
  5
1A9
330
1A7
100
AcDbEntity
  8
0
100
AcDbBlockEnd
  0
BLOCK
  5
1B2
330
1B1
100
AcDbEntity
  8
0
100
AcDbBlockBegin
  2
DIM11
 70
     0
 10
0.0
 20
0.0
 30
0.0
  3
DIM11
  1

  0
LINE
  5
1B4
330
1B1
100
AcDbEntity
  8
9
  6
CONTINUOUS
 62
     4
100
AcDbLine
 10
736.5038544151205
 20
237.192494702649
 30
0.0
 11
736.5038544151204
 21
190.0634990827055
 31
0.0
  0
LINE
  5
1B5
330
1B1
100
AcDbEntity
  8
9
  6
CONTINUOUS
 62
     4
100
AcDbLine
 10
716.0756511848369
 20
317.192494702649
 30
0.0
 11
716.0756511848367
 21
190.0634990827055
 31
0.0
  0
LINE
  5
1B6
330
1B1
100
AcDbEntity
  8
9
  6
CONTINUOUS
 62
     4
100
AcDbLine
 10
764.0038544151205
 20
193.0634990827055
 30
0.0
 11
716.0756511848367
 21
193.0634990827055
 31
0.0
  0
MTEXT
  5
1B7
330
1B1
100
AcDbEntity
  8
9
  6
CONTINUOUS
 62
     4
100
AcDbMText
 10
746.0038544151205
 20
193.0634990827055
 30
0.0
 40
6.0
 41
128.5714285714286
 71
     7
 72
     1
  1
(20.5)
  7
ＭＳ_ゴシック
1001
ACAD
1000
ACAD_MTEXT_DEFINED_HEIGHT_BEGIN
1070
    46
1040
6.0
1000
ACAD_MTEXT_DEFINED_HEIGHT_END
  0
INSERT
  5
1B8
330
1B1
100
AcDbEntity
  8
9
  6
CONTINUOUS
 62
     4
100
AcDbBlockReference
  2
_ARROWFILLED
 10
736.5038544151204
 20
193.0634990827055
 30
0.0
 41
4.0
 42
4.0
 43
4.0
 50
359.9999999999997
  0
INSERT
  5
1B9
330
1B1
100
AcDbEntity
  8
9
  6
CONTINUOUS
 62
     4
100
AcDbBlockReference
  2
_ARROWFILLED
 10
716.0756511848367
 20
193.0634990827055
 30
0.0
 41
4.0
 42
4.0
 43
4.0
 50
179.9999999999998
  0
ENDBLK
  5
1B3
330
1B1
100
AcDbEntity
  8
0
100
AcDbBlockEnd
  0
BLOCK
  5
1BC
330
1BB
100
AcDbEntity
  8
0
100
AcDbBlockBegin
  2
DIM12
 70
     0
 10
0.0
 20
0.0
 30
0.0
  3
DIM12
  1

  0
LINE
  5
1BE
330
1BB
100
AcDbEntity
  8
9
  6
CONTINUOUS
 62
     4
100
AcDbLine
 10
473.8102302576878
 20
244.192494702649
 30
0.0
 11
473.8102302576877
 21
211.7251281071893
 31
0.0
  0
LINE
  5
1BF
330
1BB
100
AcDbEntity
  8
9
  6
CONTINUOUS
 62
     4
100
AcDbLine
 10
561.3102302576888
 20
244.192494702649
 30
0.0
 11
561.3102302576888
 21
211.7251281071893
 31
0.0
  0
LINE
  5
1C0
330
1BB
100
AcDbEntity
  8
9
  6
CONTINUOUS
 62
     4
100
AcDbLine
 10
473.8102302576877
 20
214.7251281071893
 30
0.0
 11
561.3102302576888
 21
214.7251281071893
 31
0.0
  0
MTEXT
  5
1C1
330
1BB
100
AcDbEntity
  8
9
  6
CONTINUOUS
 62
     4
100
AcDbMText
 10
517.5602302576883
 20
214.7251281071893
 30
0.0
 40
6.0
 41
91.42857142857142
 71
     8
 72
     1
  1
87.5
  7
ＭＳ_ゴシック
1001
ACAD
1000
ACAD_MTEXT_DEFINED_HEIGHT_BEGIN
1070
    46
1040
6.0
1000
ACAD_MTEXT_DEFINED_HEIGHT_END
  0
INSERT
  5
1C2
330
1BB
100
AcDbEntity
  8
9
  6
CONTINUOUS
 62
     4
100
AcDbBlockReference
  2
_ARROWFILLED
 10
473.8102302576877
 20
214.7251281071893
 30
0.0
 41
4.0
 42
4.0
 43
4.0
 50
179.9999999999998
  0
INSERT
  5
1C3
330
1BB
100
AcDbEntity
  8
9
  6
CONTINUOUS
 62
     4
100
AcDbBlockReference
  2
_ARROWFILLED
 10
561.3102302576888
 20
214.7251281071893
 30
0.0
 41
4.0
 42
4.0
 43
4.0
 50
359.9999999999997
  0
ENDBLK
  5
1BD
330
1BB
100
AcDbEntity
  8
0
100
AcDbBlockEnd
  0
BLOCK
  5
1C6
330
1C5
100
AcDbEntity
  8
0
100
AcDbBlockBegin
  2
DIM13
 70
     0
 10
0.0
 20
0.0
 30
0.0
  3
DIM13
  1

  0
LINE
  5
1C8
330
1C5
100
AcDbEntity
  8
9
  6
CONTINUOUS
 62
     4
100
AcDbLine
 10
298.8102302576897
 20
244.192494702649
 30
0.0
 11
298.8102302576897
 21
211.7251281071893
 31
0.0
  0
LINE
  5
1C9
330
1C5
100
AcDbEntity
  8
9
  6
CONTINUOUS
 62
     4
100
AcDbLine
 10
211.3102302576888
 20
244.192494702649
 30
0.0
 11
211.3102302576888
 21
211.7251281071893
 31
0.0
  0
LINE
  5
1CA
330
1C5
100
AcDbEntity
  8
9
  6
CONTINUOUS
 62
     4
100
AcDbLine
 10
298.8102302576897
 20
214.7251281071893
 30
0.0
 11
211.3102302576888
 21
214.7251281071893
 31
0.0
  0
MTEXT
  5
1CB
330
1C5
100
AcDbEntity
  8
9
  6
CONTINUOUS
 62
     4
100
AcDbMText
 10
255.0602302576892
 20
214.7251281071893
 30
0.0
 40
6.0
 41
91.42857142857142
 71
     8
 72
     1
  1
87.5
  7
ＭＳ_ゴシック
1001
ACAD
1000
ACAD_MTEXT_DEFINED_HEIGHT_BEGIN
1070
    46
1040
6.0
1000
ACAD_MTEXT_DEFINED_HEIGHT_END
  0
INSERT
  5
1CC
330
1C5
100
AcDbEntity
  8
9
  6
CONTINUOUS
 62
     4
100
AcDbBlockReference
  2
_ARROWFILLED
 10
298.8102302576897
 20
214.7251281071893
 30
0.0
 41
4.0
 42
4.0
 43
4.0
 50
359.9999999999997
  0
INSERT
  5
1CD
330
1C5
100
AcDbEntity
  8
9
  6
CONTINUOUS
 62
     4
100
AcDbBlockReference
  2
_ARROWFILLED
 10
211.3102302576888
 20
214.7251281071893
 30
0.0
 41
4.0
 42
4.0
 43
4.0
 50
179.9999999999998
  0
ENDBLK
  5
1C7
330
1C5
100
AcDbEntity
  8
0
100
AcDbBlockEnd
  0
BLOCK
  5
1D1
330
1D0
100
AcDbEntity
  8
0
100
AcDbBlockBegin
  2
DIM14
 70
     0
 10
0.0
 20
0.0
 30
0.0
  3
DIM14
  1

  0
LINE
  5
1D3
330
1D0
100
AcDbEntity
  8
9
  6
CONTINUOUS
 62
     4
100
AcDbLine
 10
379.5871895894788
 20
297.7204029514044
 30
0.0
 11
418.3851208367592
 21
421.6334923722837
 31
0.0
  0
MTEXT
  5
1D4
330
1D0
100
AcDbEntity
  8
9
  6
CONTINUOUS
 62
     4
100
AcDbMText
 10
414.7994991470506
 20
410.1817101049556
 30
0.0
 40
6.0
 41
74.28571428571428
 71
     7
 72
     1
  1
φ45
  7
ＭＳ_ゴシック
 11
0.2988018074759102
 21
0.9543151889439511
 31
0.0
1001
ACAD
1000
ACAD_MTEXT_DEFINED_HEIGHT_BEGIN
1070
    46
1040
6.0
1000
ACAD_MTEXT_DEFINED_HEIGHT_END
  0
INSERT
  5
1D5
330
1D0
100
AcDbEntity
  8
9
  6
CONTINUOUS
 62
     4
100
AcDbBlockReference
  2
_ARROWFILLED
 10
379.5871895894788
 20
297.7204029514044
 30
0.0
 41
4.0
 42
4.0
 43
4.0
 50
252.6143488822568
  0
INSERT
  5
1D6
330
1D0
100
AcDbEntity
  8
9
  6
CONTINUOUS
 62
     4
100
AcDbBlockReference
  2
_ARROWFILLED
 10
393.0332709258947
 20
340.664586453882
 30
0.0
 41
4.0
 42
4.0
 43
4.0
 50
72.61434888225675
  0
ENDBLK
  5
1D2
330
1D0
100
AcDbEntity
  8
0
100
AcDbBlockEnd
  0
BLOCK
  5
1D9
330
1D8
100
AcDbEntity
  8
0
100
AcDbBlockBegin
  2
DIM15
 70
     0
 10
0.0
 20
0.0
 30
0.0
  3
DIM15
  1

  0
LINE
  5
1DB
330
1D8
100
AcDbEntity
  8
9
  6
CONTINUOUS
 62
     4
100
AcDbLine
 10
376.6178222698077
 20
304.6217285115204
 30
0.0
 11
450.4083478258609
 21
415.552314217468
 31
0.0
  0
MTEXT
  5
1DC
330
1D8
100
AcDbEntity
  8
9
  6
CONTINUOUS
 62
     4
100
AcDbMText
 10
443.7621252055963
 20
405.5609316864124
 30
0.0
 40
6.0
 41
74.28571428571428
 71
     7
 72
     1
  1
φ35
  7
ＭＳ_ゴシック
 11
0.5538518850220983
 21
0.8326152109212686
 31
0.0
1001
ACAD
1000
ACAD_MTEXT_DEFINED_HEIGHT_BEGIN
1070
    46
1040
6.0
1000
ACAD_MTEXT_DEFINED_HEIGHT_END
  0
INSERT
  5
1DD
330
1D8
100
AcDbEntity
  8
9
  6
CONTINUOUS
 62
     4
100
AcDbBlockReference
  2
_ARROWFILLED
 10
376.6178222698077
 20
304.6217285115204
 30
0.0
 41
4.0
 42
4.0
 43
4.0
 50
236.3683281664785
  0
INSERT
  5
1DE
330
1D8
100
AcDbEntity
  8
9
  6
CONTINUOUS
 62
     4
100
AcDbBlockReference
  2
_ARROWFILLED
 10
396.0026382455802
 20
333.7632608937635
 30
0.0
 41
4.0
 42
4.0
 43
4.0
 50
56.36832816647851
  0
ENDBLK
  5
1DA
330
1D8
100
AcDbEntity
  8
0
100
AcDbBlockEnd
  0
ENDSEC
  0
SECTION
  2
ENTITIES
  0
HATCH
  5
A1
330
1F
100
AcDbEntity
  8
11
  6
CONTINUOUS
 62
     2
100
AcDbHatch
 10
0.0
 20
0.0
 30
0.0
210
0.0
220
0.0
230
1.0
  2

 70
     0
 71
     0
 91
        4
 92
        0
 93
       40
 72
     1
 10
386.3102302576884
 20
369.192494702649
 11
186.3102302576888
 21
369.192494702649
 72
     1
 10
186.3102302576888
 20
369.192494702649
 11
186.3102302576887
 21
319.192494702649
 72
     1
 10
186.3102302576887
 20
319.192494702649
 11
363.8102302576883
 21
319.192494702649
 72
     1
 10
363.8102302576883
 20
319.1924947026419
 11
363.8316452720965
 21
320.173930918362
 72
     1
 10
363.8316452720965
 20
320.173930918362
 11
363.8958495506241
 21
321.1534989144643
 72
     1
 10
363.8958495506241
 20
321.1534989144643
 11
364.0027208767776
 21
322.1293340275931
 72
     1
 10
364.0027208767776
 20
322.1293340275931
 11
364.1520558149136
 21
323.0995787001479
 72
     1
 10
364.1520558149136
 20
323.0995787001479
 11
364.3435700974899
 21
324.0623860162493
 72
     1
 10
364.3435700974899
 20
324.0623860162493
 11
364.5768991661843
 21
325.0159232174487
 72
     1
 10
364.5768991661843
 20
325.0159232174487
 11
364.8515988658532
 21
325.9583751914882
 72
     1
 10
364.8515988658532
 20
325.9583751914882
 11
365.1671462900055
 21
326.8879479274696
 72
     1
 10
365.1671462900055
 20
326.8879479274696
 11
365.5229407761844
 21
327.8028719308566
 72
     1
 10
365.5229407761844
 20
327.8028719308566
 11
365.9183050493638
 21
328.7014055918078
 72
     1
 10
365.9183050493638
 20
328.7014055918078
 11
366.3524865111784
 21
329.5818385004304
 72
     1
 10
366.3524865111784
 20
329.5818385004304
 11
366.8246586725386
 21
330.4424947026421
 72
     1
 10
366.8246586725386
 20
330.4424947026421
 11
367.3339227268985
 21
331.2817358904457
 72
     1
 10
367.3339227268985
 20
331.2817358904457
 11
367.8793092611862
 21
332.0979645205408
 72
     1
 10
367.8793092611862
 20
332.0979645205408
 11
368.4597801011357
 21
332.8896268553385
 72
     1
 10
368.4597801011357
 20
332.8896268553385
 11
369.0742302875115
 21
333.6552159205894
 72
     1
 10
369.0742302875115
 20
333.6552159205894
 11
369.7214901794607
 21
334.3932743739946
 72
     1
 10
369.7214901794607
 20
334.3932743739946
 11
370.4003276809912
 21
335.1023972793396
 72
     1
 10
370.4003276809912
 20
335.1023972793396
 11
371.1094505863362
 21
335.7812347808701
 72
     1
 10
371.1094505863362
 20
335.7812347808701
 11
371.8475090397415
 21
336.4284946728193
 72
     1
 10
371.8475090397415
 20
336.4284946728193
 11
372.6130981049924
 21
337.0429448591951
 72
     1
 10
372.6130981049924
 20
337.0429448591951
 11
373.4047604397901
 21
337.6234156991446
 72
     1
 10
373.4047604397901
 20
337.6234156991446
 11
374.2209890698851
 21
338.1688022334323
 72
     1
 10
374.2209890698851
 20
338.1688022334323
 11
375.0602302576887
 21
338.6780662877922
 72
     1
 10
375.0602302576887
 20
338.6780662877922
 11
375.9208864599004
 21
339.1502384491524
 72
     1
 10
375.9208864599004
 20
339.1502384491524
 11
376.801319368523
 21
339.584419910967
 72
     1
 10
376.801319368523
 20
339.584419910967
 11
377.6998530294742
 21
339.9797841841464
 72
     1
 10
377.6998530294742
 20
339.9797841841464
 11
378.6147770328612
 21
340.3355786703253
 72
     1
 10
378.6147770328612
 20
340.3355786703253
 11
379.5443497688427
 21
340.6511260944775
 72
     1
 10
379.5443497688427
 20
340.6511260944775
 11
380.4868017428821
 21
340.9258257941465
 72
     1
 10
380.4868017428821
 20
340.9258257941465
 11
381.4403389440815
 21
341.1591548628409
 72
     1
 10
381.4403389440815
 20
341.1591548628409
 11
382.403146260183
 21
341.3506691454171
 72
     1
 10
382.403146260183
 20
341.3506691454171
 11
383.3733909327377
 21
341.5000040835532
 72
     1
 10
383.3733909327377
 20
341.5000040835532
 11
384.3492260458666
 21
341.6068754097067
 72
     1
 10
384.3492260458666
 20
341.6068754097067
 11
385.3287940419689
 21
341.6710796882342
 72
     1
 10
385.3287940419689
 20
341.6710796882342
 11
386.310230257689
 21
341.6924947026424
 72
     1
 10
386.3102302576885
 20
341.6924947026424
 11
386.3102302576884
 21
369.192494702649
 97
        0
 92
        0
 93
       40
 72
     1
 10
586.3102302576888
 20
319.192494702649
 11
586.3102302576888
 21
369.192494702649
 72
     1
 10
586.3102302576888
 20
369.192494702649
 11
386.3102302576884
 21
369.192494702649
 72
     1
 10
386.3102302576884
 20
369.192494702649
 11
386.3102302576885
 21
341.6924947026424
 72
     1
 10
386.31023025769
 20
341.6924947026424
 11
387.29166647341
 21
341.6710796882342
 72
     1
 10
387.29166647341
 20
341.6710796882342
 11
388.2712344695121
 21
341.6068754097066
 72
     1
 10
388.2712344695121
 20
341.6068754097066
 11
389.2470695826408
 21
341.5000040835531
 72
     1
 10
389.2470695826408
 20
341.5000040835531
 11
390.2173142551956
 21
341.3506691454171
 72
     1
 10
390.2173142551956
 20
341.3506691454171
 11
391.1801215712968
 21
341.1591548628409
 72
     1
 10
391.1801215712968
 20
341.1591548628409
 11
392.1336587724961
 21
340.9258257941465
 72
     1
 10
392.1336587724961
 20
340.9258257941465
 11
393.0761107465354
 21
340.6511260944775
 72
     1
 10
393.0761107465354
 20
340.6511260944775
 11
394.0056834825168
 21
340.3355786703254
 72
     1
 10
394.0056834825168
 20
340.3355786703254
 11
394.9206074859036
 21
339.9797841841465
 72
     1
 10
394.9206074859036
 20
339.9797841841465
 11
395.8191411468548
 21
339.5844199109672
 72
     1
 10
395.8191411468548
 20
339.5844199109672
 11
396.6995740554772
 21
339.1502384491526
 72
     1
 10
396.6995740554772
 20
339.1502384491526
 11
397.5602302576889
 21
338.6780662877925
 72
     1
 10
397.5602302576889
 20
338.6780662877925
 11
398.3994714454923
 21
338.1688022334326
 72
     1
 10
398.3994714454923
 20
338.1688022334326
 11
399.2157000755873
 21
337.6234156991451
 72
     1
 10
399.2157000755873
 20
337.6234156991451
 11
400.0073624103849
 21
337.0429448591956
 72
     1
 10
400.0073624103849
 20
337.0429448591956
 11
400.7729514756357
 21
336.4284946728199
 72
     1
 10
400.7729514756357
 20
336.4284946728199
 11
401.5110099290408
 21
335.7812347808707
 72
     1
 10
401.5110099290408
 20
335.7812347808707
 11
402.2201328343857
 21
335.1023972793403
 72
     1
 10
402.2201328343857
 20
335.1023972793403
 11
402.8989703359161
 21
334.3932743739954
 72
     1
 10
402.8989703359161
 20
334.3932743739954
 11
403.5462302278653
 21
333.6552159205903
 72
     1
 10
403.5462302278653
 20
333.6552159205903
 11
404.160680414241
 21
332.8896268553394
 72
     1
 10
404.160680414241
 20
332.8896268553394
 11
404.7411512541905
 21
332.0979645205418
 72
     1
 10
404.7411512541905
 20
332.0979645205418
 11
405.286537788478
 21
331.2817358904469
 72
     1
 10
405.286537788478
 20
331.2817358904469
 11
405.7958018428379
 21
330.4424947026434
 72
     1
 10
405.7958018428379
 20
330.4424947026434
 11
406.267974004198
 21
329.5818385004318
 72
     1
 10
406.267974004198
 20
329.5818385004318
 11
406.7021554660126
 21
328.7014055918094
 72
     1
 10
406.7021554660126
 20
328.7014055918094
 11
407.0975197391919
 21
327.8028719308583
 72
     1
 10
407.0975197391919
 20
327.8028719308583
 11
407.4533142253708
 21
326.8879479274714
 72
     1
 10
407.4533142253708
 20
326.8879479274714
 11
407.7688616495229
 21
325.9583751914901
 72
     1
 10
407.7688616495229
 20
325.9583751914901
 11
408.0435613491919
 21
325.0159232174507
 72
     1
 10
408.0435613491919
 20
325.0159232174507
 11
408.2768904178863
 21
324.0623860162514
 72
     1
 10
408.2768904178863
 20
324.0623860162514
 11
408.4684047004625
 21
323.0995787001501
 72
     1
 10
408.4684047004625
 20
323.0995787001501
 11
408.6177396385985
 21
322.1293340275955
 72
     1
 10
408.6177396385985
 20
322.1293340275955
 11
408.7246109647521
 21
321.1534989144667
 72
     1
 10
408.7246109647521
 20
321.1534989144667
 11
408.7888152432795
 21
320.1739309183645
 72
     1
 10
408.7888152432795
 20
320.1739309183645
 11
408.8102302576877
 21
319.1924947026446
 72
     1
 10
408.8102302576883
 20
319.192494702649
 11
586.3102302576888
 21
319.192494702649
 97
        0
 92
        0
 93
       40
 72
     1
 10
386.3102302576879
 20
296.6924947026424
 11
387.291666473408
 21
296.7139097170506
 72
     1
 10
387.291666473408
 20
296.7139097170506
 11
388.2712344695103
 21
296.7781139955781
 72
     1
 10
388.2712344695103
 20
296.7781139955781
 11
389.2470695826391
 21
296.8849853217316
 72
     1
 10
389.2470695826391
 20
296.8849853217316
 11
390.2173142551939
 21
297.0343202598677
 72
     1
 10
390.2173142551939
 20
297.0343202598677
 11
391.1801215712953
 21
297.2258345424439
 72
     1
 10
391.1801215712953
 20
297.2258345424439
 11
392.1336587724947
 21
297.4591636111383
 72
     1
 10
392.1336587724947
 20
297.4591636111383
 11
393.0761107465341
 21
297.7338633108072
 72
     1
 10
393.0761107465341
 20
297.7338633108072
 11
394.0056834825156
 21
298.0494107349594
 72
     1
 10
394.0056834825156
 20
298.0494107349594
 11
394.9206074859026
 21
298.4052052211384
 72
     1
 10
394.9206074859026
 20
298.4052052211384
 11
395.8191411468538
 21
298.8005694943177
 72
     1
 10
395.8191411468538
 20
298.8005694943177
 11
396.6995740554763
 21
299.2347509561324
 72
     1
 10
396.6995740554763
 20
299.2347509561324
 11
397.5602302576881
 21
299.7069231174925
 72
     1
 10
397.5602302576881
 20
299.7069231174925
 11
398.3994714454916
 21
300.2161871718524
 72
     1
 10
398.3994714454916
 20
300.2161871718524
 11
399.2157000755867
 21
300.76157370614
 72
     1
 10
399.2157000755867
 20
300.76157370614
 11
400.0073624103843
 21
301.3420445460895
 72
     1
 10
400.0073624103843
 20
301.3420445460895
 11
400.7729514756352
 21
301.9564947324653
 72
     1
 10
400.7729514756352
 20
301.9564947324653
 11
401.5110099290405
 21
302.6037546244146
 72
     1
 10
401.5110099290405
 20
302.6037546244146
 11
402.2201328343855
 21
303.282592125945
 72
     1
 10
402.2201328343855
 20
303.282592125945
 11
402.898970335916
 21
303.99171503129
 72
     1
 10
402.898970335916
 20
303.99171503129
 11
403.5462302278652
 21
304.7297734846952
 72
     1
 10
403.5462302278652
 20
304.7297734846952
 11
404.160680414241
 21
305.4953625499462
 72
     1
 10
404.160680414241
 20
305.4953625499462
 11
404.7411512541905
 21
306.2870248847439
 72
     1
 10
404.7411512541905
 20
306.2870248847439
 11
405.2865377884781
 21
307.1032535148389
 72
     1
 10
405.2865377884781
 20
307.1032535148389
 11
405.7958018428381
 21
307.9424947026424
 72
     1
 10
405.7958018428381
 20
307.9424947026424
 11
406.2679740041982
 21
308.8031509048541
 72
     1
 10
406.2679740041982
 20
308.8031509048541
 11
406.7021554660129
 21
309.6835838134767
 72
     1
 10
406.7021554660129
 20
309.6835838134767
 11
407.0975197391922
 21
310.5821174744279
 72
     1
 10
407.0975197391922
 20
310.5821174744279
 11
407.4533142253712
 21
311.4970414778149
 72
     1
 10
407.4533142253712
 20
311.4970414778149
 11
407.7688616495234
 21
312.4266142137963
 72
     1
 10
407.7688616495234
 20
312.4266142137963
 11
408.0435613491923
 21
313.3690661878357
 72
     1
 10
408.0435613491923
 20
313.3690661878357
 11
408.2768904178868
 21
314.3226033890351
 72
     1
 10
408.2768904178868
 20
314.3226033890351
 11
408.468404700463
 21
315.2854107051365
 72
     1
 10
408.468404700463
 20
315.2854107051365
 11
408.617739638599
 21
316.2556553776913
 72
     1
 10
408.617739638599
 20
316.2556553776913
 11
408.7246109647526
 21
317.2314904908202
 72
     1
 10
408.7246109647526
 20
317.2314904908202
 11
408.7888152432801
 21
318.2110584869224
 72
     1
 10
408.7888152432801
 20
318.2110584869224
 11
408.8102302576883
 21
319.1924947026425
 72
     1
 10
408.8102302576883
 20
319.1924947026424
 11
586.3102302576888
 21
319.192494702649
 72
     1
 10
586.3102302576888
 20
319.192494702649
 11
586.3102302576888
 21
269.192494702649
 72
     1
 10
586.3102302576888
 20
269.192494702649
 11
386.3102302576887
 21
269.192494702649
 72
     1
 10
386.3102302576887
 20
269.192494702649
 11
386.3102302576886
 21
296.6924947026424
 97
        0
 92
        0
 93
       40
 72
     1
 10
363.8102302576889
 20
319.1924947026421
 11
363.8316452720971
 21
318.2110584869221
 72
     1
 10
363.8316452720971
 20
318.2110584869221
 11
363.8958495506247
 21
317.2314904908198
 72
     1
 10
363.8958495506247
 20
317.2314904908198
 11
364.0027208767782
 21
316.255655377691
 72
     1
 10
364.0027208767782
 20
316.255655377691
 11
364.1520558149143
 21
315.2854107051362
 72
     1
 10
364.1520558149143
 20
315.2854107051362
 11
364.3435700974904
 21
314.3226033890348
 72
     1
 10
364.3435700974904
 20
314.3226033890348
 11
364.5768991661849
 21
313.3690661878355
 72
     1
 10
364.5768991661849
 20
313.3690661878355
 11
364.8515988658538
 21
312.426614213796
 72
     1
 10
364.8515988658538
 20
312.426614213796
 11
365.167146290006
 21
311.4970414778147
 72
     1
 10
365.167146290006
 20
311.4970414778147
 11
365.522940776185
 21
310.5821174744277
 72
     1
 10
365.522940776185
 20
310.5821174744277
 11
365.9183050493643
 21
309.6835838134765
 72
     1
 10
365.9183050493643
 20
309.6835838134765
 11
366.3524865111789
 21
308.803150904854
 72
     1
 10
366.3524865111789
 20
308.803150904854
 11
366.824658672539
 21
307.9424947026423
 72
     1
 10
366.824658672539
 20
307.9424947026423
 11
367.3339227268989
 21
307.1032535148387
 72
     1
 10
367.3339227268989
 20
307.1032535148387
 11
367.8793092611865
 21
306.2870248847437
 72
     1
 10
367.8793092611865
 20
306.2870248847437
 11
368.459780101136
 21
305.4953625499461
 72
     1
 10
368.459780101136
 20
305.4953625499461
 11
369.0742302875118
 21
304.7297734846952
 72
     1
 10
369.0742302875118
 20
304.7297734846952
 11
369.721490179461
 21
303.99171503129
 72
     1
 10
369.721490179461
 20
303.99171503129
 11
370.4003276809914
 21
303.282592125945
 72
     1
 10
370.4003276809914
 20
303.282592125945
 11
371.1094505863364
 21
302.6037546244145
 72
     1
 10
371.1094505863364
 20
302.6037546244145
 11
371.8475090397416
 21
301.9564947324653
 72
     1
 10
371.8475090397416
 20
301.9564947324653
 11
372.6130981049925
 21
301.3420445460895
 72
     1
 10
372.6130981049925
 20
301.3420445460895
 11
373.4047604397902
 21
300.76157370614
 72
     1
 10
373.4047604397902
 20
300.76157370614
 11
374.2209890698851
 21
300.2161871718524
 72
     1
 10
374.2209890698851
 20
300.2161871718524
 11
375.0602302576887
 21
299.7069231174925
 72
     1
 10
375.0602302576887
 20
299.7069231174925
 11
375.9208864599004
 21
299.2347509561324
 72
     1
 10
375.9208864599004
 20
299.2347509561324
 11
376.8013193685229
 21
298.8005694943178
 72
     1
 10
376.8013193685229
 20
298.8005694943178
 11
377.6998530294741
 21
298.4052052211384
 72
     1
 10
377.6998530294741
 20
298.4052052211384
 11
378.6147770328611
 21
298.0494107349595
 72
     1
 10
378.6147770328611
 20
298.0494107349595
 11
379.5443497688425
 21
297.7338633108073
 72
     1
 10
379.5443497688425
 20
297.7338633108073
 11
380.4868017428819
 21
297.4591636111384
 72
     1
 10
380.4868017428819
 20
297.4591636111384
 11
381.4403389440812
 21
297.2258345424439
 72
     1
 10
381.4403389440812
 20
297.2258345424439
 11
382.4031462601826
 21
297.0343202598677
 72
     1
 10
382.4031462601826
 20
297.0343202598677
 11
383.3733909327374
 21
296.8849853217316
 72
     1
 10
383.3733909327374
 20
296.8849853217316
 11
384.3492260458662
 21
296.7781139955781
 72
     1
 10
384.3492260458662
 20
296.7781139955781
 11
385.3287940419685
 21
296.7139097170506
 72
     1
 10
385.3287940419685
 20
296.7139097170506
 11
386.3102302576885
 21
296.6924947026424
 72
     1
 10
386.3102302576886
 20
296.6924947026424
 11
386.3102302576887
 21
269.192494702649
 72
     1
 10
386.3102302576887
 20
269.192494702649
 11
186.3102302576888
 21
269.192494702649
 72
     1
 10
186.3102302576888
 20
269.192494702649
 11
186.3102302576888
 21
319.192494702649
 72
     1
 10
186.3102302576888
 20
319.192494702649
 11
363.8102302576883
 21
319.192494702649
 97
        0
 75
     0
 76
     2
 52
0.0
 41
0.5
 77
     0
 78
     2
 53
45.0
 43
-1613.396172083898
 44
840.0213072379763
 45
-6.735192090801775
 46
6.735192090801888
 79
     0
 53
135.0
 43
-1613.396172083898
 44
840.0213072379763
 45
-6.735192090801775
 46
-6.735192090801775
 79
     0
 98
        0
  0
LINE
  5
A2
330
1F
100
AcDbEntity
  8
10
  6
CONTINUOUS
 62
     7
100
AcDbLine
 10
586.3102302576888
 20
269.192494702649
 30
0.0
 11
586.3102302576888
 21
369.192494702649
 31
0.0
  0
LINE
  5
A3
330
1F
100
AcDbEntity
  8
10
  6
CONTINUOUS
 62
     7
100
AcDbLine
 10
586.3102302576888
 20
369.192494702649
 30
0.0
 11
186.3102302576888
 21
369.192494702649
 31
0.0
  0
LINE
  5
A4
330
1F
100
AcDbEntity
  8
10
  6
CONTINUOUS
 62
     7
100
AcDbLine
 10
186.3102302576888
 20
369.192494702649
 30
0.0
 11
186.3102302576888
 21
269.192494702649
 31
0.0
  0
LINE
  5
A5
330
1F
100
AcDbEntity
  8
10
  6
CONTINUOUS
 62
     7
100
AcDbLine
 10
601.3102302576888
 20
384.192494702649
 30
0.0
 11
601.3102302576888
 21
254.192494702649
 31
0.0
  0
LINE
  5
A6
330
1F
100
AcDbEntity
  8
10
  6
CONTINUOUS
 62
     7
100
AcDbLine
 10
601.3102302576888
 20
254.192494702649
 30
0.0
 11
171.3102302576888
 21
254.1924947026481
 31
0.0
  0
LINE
  5
A7
330
1F
100
AcDbEntity
  8
10
  6
CONTINUOUS
 62
     7
100
AcDbLine
 10
601.3102302576888
 20
384.192494702649
 30
0.0
 11
171.3102302576888
 21
384.192494702649
 31
0.0
  0
LINE
  5
A8
330
1F
100
AcDbEntity
  8
10
  6
CONTINUOUS
 62
     7
100
AcDbLine
 10
171.3102302576888
 20
384.192494702649
 30
0.0
 11
171.3102302576888
 21
254.1924947026481
 31
0.0
  0
LINE
  5
A9
330
1F
100
AcDbEntity
  8
10
  6
CONTINUOUS
 62
     7
100
AcDbLine
 10
729.9538544151203
 20
253.8758280359824
 30
0.0
 11
723.0538544151198
 21
253.8758280359824
 31
0.0
  0
ARC
  5
AA
330
1F
100
AcDbEntity
  8
10
  6
CONTINUOUS
 62
     7
100
AcDbCircle
 10
726.5038544151205
 20
256.8428455798419
 30
0.0
 40
4.550350877192955
100
AcDbArc
 50
220.6956985254138
 51
319.3043014745852
  0
LINE
  5
AB
330
1F
100
AcDbEntity
  8
10
  6
CONTINUOUS
 62
     7
100
AcDbLine
 10
729.9538544151203
 20
254.192494702649
 30
0.0
 11
729.9538544151203
 21
253.8758280359824
 31
0.0
  0
LINE
  5
AC
330
1F
100
AcDbEntity
  8
10
  6
CONTINUOUS
 62
     7
100
AcDbLine
 10
723.0538544151198
 20
254.192494702649
 30
0.0
 11
723.0538544151198
 21
253.8758280359824
 31
0.0
  0
LINE
  5
AD
330
1F
100
AcDbEntity
  8
10
  6
CONTINUOUS
 62
     7
100
AcDbLine
 10
691.5038544151205
 20
384.192494702649
 30
0.0
 11
691.5038544151205
 21
254.192494702649
 31
0.0
  0
LINE
  5
AE
330
1F
100
AcDbEntity
  8
10
  6
CONTINUOUS
 62
     7
100
AcDbLine
 10
736.5038544151205
 20
399.192494702649
 30
0.0
 11
736.5038544151205
 21
239.192494702649
 31
0.0
  0
LINE
  5
AF
330
1F
100
AcDbEntity
  8
10
  6
CONTINUOUS
 62
     7
100
AcDbLine
 10
735.5038544151205
 20
399.192494702649
 30
0.0
 11
735.5038544151196
 21
326.692494702649
 31
0.0
  0
LINE
  5
B0
330
1F
100
AcDbEntity
  8
10
  6
CONTINUOUS
 62
     7
100
AcDbLine
 10
735.5038544151196
 20
311.6924947026519
 30
0.0
 11
735.5038544151196
 21
239.192494702649
 31
0.0
  0
LINE
  5
B1
330
1F
100
AcDbEntity
  8
10
  6
CONTINUOUS
 62
     7
100
AcDbLine
 10
691.5038544151205
 20
384.192494702649
 30
0.0
 11
735.5038544151205
 21
384.1924947026472
 31
0.0
  0
LINE
  5
B2
330
1F
100
AcDbEntity
  8
10
  6
CONTINUOUS
 62
     7
100
AcDbLine
 10
735.5038544151205
 20
383.1924947026472
 30
0.0
 11
736.5038544151205
 21
383.1924947026472
 31
0.0
  0
LINE
  5
B3
330
1F
100
AcDbEntity
  8
10
  6
CONTINUOUS
 62
     7
100
AcDbLine
 10
735.5038544151205
 20
399.192494702649
 30
0.0
 11
736.5038544151205
 21
399.192494702649
 31
0.0
  0
LINE
  5
B4
330
1F
100
AcDbEntity
  8
10
  6
CONTINUOUS
 62
     7
100
AcDbLine
 10
691.5038544151205
 20
254.192494702649
 30
0.0
 11
735.5038544151187
 21
254.192494702649
 31
0.0
  0
LINE
  5
B5
330
1F
100
AcDbEntity
  8
10
  6
CONTINUOUS
 62
     7
100
AcDbLine
 10
735.5038544151187
 20
255.192494702649
 30
0.0
 11
736.5038544151205
 21
255.192494702649
 31
0.0
  0
LINE
  5
B6
330
1F
100
AcDbEntity
  8
10
  6
CONTINUOUS
 62
     7
100
AcDbLine
 10
735.5038544151205
 20
239.192494702649
 30
0.0
 11
736.5038544151205
 21
239.192494702649
 31
0.0
  0
LINE
  5
B7
330
1F
100
AcDbEntity
  8
10
  6
CONTINUOUS
 62
     7
100
AcDbLine
 10
586.3102302576888
 20
244.192494702649
 30
0.0
 11
586.3102302576888
 21
254.192494702649
 31
0.0
  0
ARC
  5
B8
330
1F
100
AcDbEntity
  8
10
  6
CONTINUOUS
 62
     7
100
AcDbCircle
 10
581.3102302576897
 20
244.192494702649
 30
0.0
 40
5.0
100
AcDbArc
 50
269.9999999999998
 51
0.0
  0
LINE
  5
B9
330
1F
100
AcDbEntity
  8
10
  6
CONTINUOUS
 62
     7
100
AcDbLine
 10
191.3102302576888
 20
239.192494702649
 30
0.0
 11
581.3102302576897
 21
239.1924947026499
 31
0.0
  0
LINE
  5
BA
330
1F
100
AcDbEntity
  8
10
  6
CONTINUOUS
 62
     7
100
AcDbLine
 10
186.3102302576888
 20
244.192494702649
 30
0.0
 11
186.3102302576888
 21
254.192494702649
 31
0.0
  0
ARC
  5
BB
330
1F
100
AcDbEntity
  8
10
  6
CONTINUOUS
 62
     7
100
AcDbCircle
 10
191.3102302576878
 20
244.192494702649
 30
0.0
 40
5.0
100
AcDbArc
 50
179.9999999999998
 51
269.9999999999998
  0
LINE
  5
BC
330
1F
100
AcDbEntity
  8
10
  6
CONTINUOUS
 62
     7
100
AcDbLine
 10
184.7602302576904
 20
253.8758280359824
 30
0.0
 11
177.8602302576908
 21
253.8758280359824
 31
0.0
  0
ARC
  5
BD
330
1F
100
AcDbEntity
  8
10
  6
CONTINUOUS
 62
     7
100
AcDbCircle
 10
181.3102302576906
 20
256.8428455798419
 30
0.0
 40
4.550350877192983
100
AcDbArc
 50
220.6956985254143
 51
319.3043014745854
  0
LINE
  5
BE
330
1F
100
AcDbEntity
  8
10
  6
CONTINUOUS
 62
     7
100
AcDbLine
 10
184.7602302576904
 20
254.192494702649
 30
0.0
 11
184.7602302576904
 21
253.8758280359824
 31
0.0
  0
LINE
  5
BF
330
1F
100
AcDbEntity
  8
10
  6
CONTINUOUS
 62
     7
100
AcDbLine
 10
177.8602302576908
 20
254.192494702649
 30
0.0
 11
177.8602302576908
 21
253.8758280359824
 31
0.0
  0
LINE
  5
C0
330
1F
100
AcDbEntity
  8
10
  6
CONTINUOUS
 62
     7
100
AcDbLine
 10
206.2602302576904
 20
253.8758280359824
 30
0.0
 11
199.3602302576898
 21
253.8758280359824
 31
0.0
  0
ARC
  5
C1
330
1F
100
AcDbEntity
  8
10
  6
CONTINUOUS
 62
     7
100
AcDbCircle
 10
202.8102302576906
 20
256.8428455798419
 30
0.0
 40
4.550350877192983
100
AcDbArc
 50
220.6956985254143
 51
319.3043014745854
  0
LINE
  5
C2
330
1F
100
AcDbEntity
  8
10
  6
CONTINUOUS
 62
     7
100
AcDbLine
 10
206.2602302576904
 20
254.192494702649
 30
0.0
 11
206.2602302576904
 21
253.8758280359824
 31
0.0
  0
LINE
  5
C3
330
1F
100
AcDbEntity
  8
10
  6
CONTINUOUS
 62
     7
100
AcDbLine
 10
199.3602302576898
 20
254.192494702649
 30
0.0
 11
199.3602302576898
 21
253.8758280359824
 31
0.0
  0
LINE
  5
C4
330
1F
100
AcDbEntity
  8
10
  6
CONTINUOUS
 62
     7
100
AcDbLine
 10
587.8602302576871
 20
253.8758280359824
 30
0.0
 11
594.7602302576877
 21
253.8758280359824
 31
0.0
  0
ARC
  5
C5
330
1F
100
AcDbEntity
  8
10
  6
CONTINUOUS
 62
     7
100
AcDbCircle
 10
591.310230257687
 20
256.8428455798419
 30
0.0
 40
4.550350877192955
100
AcDbArc
 50
220.6956985254138
 51
319.3043014745854
  0
LINE
  5
C6
330
1F
100
AcDbEntity
  8
10
  6
CONTINUOUS
 62
     7
100
AcDbLine
 10
587.8602302576871
 20
254.192494702649
 30
0.0
 11
587.8602302576871
 21
253.8758280359824
 31
0.0
  0
LINE
  5
C7
330
1F
100
AcDbEntity
  8
10
  6
CONTINUOUS
 62
     7
100
AcDbLine
 10
594.7602302576877
 20
254.192494702649
 30
0.0
 11
594.7602302576877
 21
253.8758280359824
 31
0.0
  0
LINE
  5
C8
330
1F
100
AcDbEntity
  8
10
  6
CONTINUOUS
 62
     7
100
AcDbLine
 10
566.360230257688
 20
253.8758280359824
 30
0.0
 11
573.2602302576877
 21
253.8758280359824
 31
0.0
  0
ARC
  5
C9
330
1F
100
AcDbEntity
  8
10
  6
CONTINUOUS
 62
     7
100
AcDbCircle
 10
569.8102302576879
 20
256.8428455798419
 30
0.0
 40
4.550350877192955
100
AcDbArc
 50
220.6956985254138
 51
319.3043014745854
  0
LINE
  5
CA
330
1F
100
AcDbEntity
  8
10
  6
CONTINUOUS
 62
     7
100
AcDbLine
 10
566.360230257688
 20
254.192494702649
 30
0.0
 11
566.360230257688
 21
253.8758280359824
 31
0.0
  0
LINE
  5
CB
330
1F
100
AcDbEntity
  8
10
  6
CONTINUOUS
 62
     7
100
AcDbLine
 10
573.2602302576877
 20
254.192494702649
 30
0.0
 11
573.2602302576877
 21
253.8758280359824
 31
0.0
  0
LINE
  5
CC
330
1F
100
AcDbEntity
  8
7
  6
DASHDOT
 62
     1
100
AcDbLine
 10
386.3102302576888
 20
229.1924947026494
 30
0.0
 11
386.3102302576883
 21
409.1924947026485
 31
0.0
  0
LINE
  5
CD
330
1F
100
AcDbEntity
  8
7
  6
DASHDOT
 62
     1
100
AcDbLine
 10
611.3102302576887
 20
319.192494702649
 30
0.0
 11
161.3102302576888
 21
319.192494702649
 31
0.0
  0
LINE
  5
CE
330
1F
100
AcDbEntity
  8
10
  6
CONTINUOUS
 62
     7
100
AcDbLine
 10
729.9538544151203
 20
384.1924947026483
 30
0.0
 11
723.0538544151198
 21
384.1924947026483
 31
0.0
  0
LINE
  5
CF
330
1F
100
AcDbEntity
  8
10
  6
CONTINUOUS
 62
     7
100
AcDbLine
 10
729.9538544151203
 20
384.5091613693153
 30
0.0
 11
723.0538544151198
 21
384.5091613693153
 31
0.0
  0
ARC
  5
D0
330
1F
100
AcDbEntity
  8
10
  6
CONTINUOUS
 62
     7
100
AcDbCircle
 10
726.5038544151205
 20
381.5421438254553
 30
0.0
 40
4.550350877192955
100
AcDbArc
 50
40.69569852541444
 51
139.3043014745856
  0
LINE
  5
D1
330
1F
100
AcDbEntity
  8
10
  6
CONTINUOUS
 62
     7
100
AcDbLine
 10
729.9538544151203
 20
384.1924947026483
 30
0.0
 11
729.9538544151203
 21
384.5091613693153
 31
0.0
  0
LINE
  5
D2
330
1F
100
AcDbEntity
  8
10
  6
CONTINUOUS
 62
     7
100
AcDbLine
 10
723.0538544151198
 20
384.1924947026483
 30
0.0
 11
723.0538544151198
 21
384.5091613693153
 31
0.0
  0
LINE
  5
D3
330
1F
100
AcDbEntity
  8
10
  6
CONTINUOUS
 62
     7
100
AcDbLine
 10
586.3102302576888
 20
269.192494702649
 30
0.0
 11
186.3102302576888
 21
269.192494702649
 31
0.0
  0
LINE
  5
D4
330
1F
100
AcDbEntity
  8
10
  6
CONTINUOUS
 62
     7
100
AcDbLine
 10
586.3102302576888
 20
394.192494702649
 30
0.0
 11
586.3102302576888
 21
384.192494702649
 31
0.0
  0
ARC
  5
D5
330
1F
100
AcDbEntity
  8
10
  6
CONTINUOUS
 62
     7
100
AcDbCircle
 10
581.3102302576897
 20
394.192494702649
 30
0.0
 40
5.0
100
AcDbArc
 50
0.0
 51
89.99999999999991
  0
LINE
  5
D6
330
1F
100
AcDbEntity
  8
10
  6
CONTINUOUS
 62
     7
100
AcDbLine
 10
191.3102302576888
 20
399.192494702649
 30
0.0
 11
581.3102302576897
 21
399.1924947026481
 31
0.0
  0
LINE
  5
D7
330
1F
100
AcDbEntity
  8
10
  6
CONTINUOUS
 62
     7
100
AcDbLine
 10
186.3102302576888
 20
394.192494702649
 30
0.0
 11
186.3102302576888
 21
384.192494702649
 31
0.0
  0
ARC
  5
D8
330
1F
100
AcDbEntity
  8
10
  6
CONTINUOUS
 62
     7
100
AcDbCircle
 10
191.3102302576878
 20
394.192494702649
 30
0.0
 40
5.0
100
AcDbArc
 50
89.99999999999991
 51
179.9999999999998
  0
LINE
  5
D9
330
1F
100
AcDbEntity
  8
10
  6
CONTINUOUS
 62
     7
100
AcDbLine
 10
184.7602302576904
 20
384.5091613693156
 30
0.0
 11
177.8602302576908
 21
384.5091613693156
 31
0.0
  0
ARC
  5
DA
330
1F
100
AcDbEntity
  8
10
  6
CONTINUOUS
 62
     7
100
AcDbCircle
 10
181.3102302576906
 20
381.542143825456
 30
0.0
 40
4.550350877192983
100
AcDbArc
 50
40.69569852541444
 51
139.3043014745851
  0
LINE
  5
DB
330
1F
100
AcDbEntity
  8
10
  6
CONTINUOUS
 62
     7
100
AcDbLine
 10
184.7602302576904
 20
384.192494702649
 30
0.0
 11
184.7602302576904
 21
384.5091613693156
 31
0.0
  0
LINE
  5
DC
330
1F
100
AcDbEntity
  8
10
  6
CONTINUOUS
 62
     7
100
AcDbLine
 10
177.8602302576908
 20
384.192494702649
 30
0.0
 11
177.8602302576908
 21
384.5091613693156
 31
0.0
  0
LINE
  5
DD
330
1F
100
AcDbEntity
  8
10
  6
CONTINUOUS
 62
     7
100
AcDbLine
 10
206.2602302576904
 20
384.5091613693156
 30
0.0
 11
199.3602302576898
 21
384.5091613693156
 31
0.0
  0
ARC
  5
DE
330
1F
100
AcDbEntity
  8
10
  6
CONTINUOUS
 62
     7
100
AcDbCircle
 10
202.8102302576906
 20
381.542143825456
 30
0.0
 40
4.550350877192983
100
AcDbArc
 50
40.69569852541444
 51
139.3043014745851
  0
LINE
  5
DF
330
1F
100
AcDbEntity
  8
10
  6
CONTINUOUS
 62
     7
100
AcDbLine
 10
206.2602302576904
 20
384.192494702649
 30
0.0
 11
206.2602302576904
 21
384.5091613693156
 31
0.0
  0
LINE
  5
E0
330
1F
100
AcDbEntity
  8
10
  6
CONTINUOUS
 62
     7
100
AcDbLine
 10
199.3602302576898
 20
384.192494702649
 30
0.0
 11
199.3602302576898
 21
384.5091613693156
 31
0.0
  0
LINE
  5
E1
330
1F
100
AcDbEntity
  8
10
  6
CONTINUOUS
 62
     7
100
AcDbLine
 10
587.8602302576871
 20
384.5091613693156
 30
0.0
 11
594.7602302576877
 21
384.5091613693156
 31
0.0
  0
ARC
  5
E2
330
1F
100
AcDbEntity
  8
10
  6
CONTINUOUS
 62
     7
100
AcDbCircle
 10
591.310230257687
 20
381.542143825456
 30
0.0
 40
4.550350877192955
100
AcDbArc
 50
40.69569852541444
 51
139.3043014745856
  0
LINE
  5
E3
330
1F
100
AcDbEntity
  8
10
  6
CONTINUOUS
 62
     7
100
AcDbLine
 10
587.8602302576871
 20
384.192494702649
 30
0.0
 11
587.8602302576871
 21
384.5091613693156
 31
0.0
  0
LINE
  5
E4
330
1F
100
AcDbEntity
  8
10
  6
CONTINUOUS
 62
     7
100
AcDbLine
 10
594.7602302576877
 20
384.192494702649
 30
0.0
 11
594.7602302576877
 21
384.5091613693156
 31
0.0
  0
LINE
  5
E5
330
1F
100
AcDbEntity
  8
10
  6
CONTINUOUS
 62
     7
100
AcDbLine
 10
566.360230257688
 20
384.5091613693156
 30
0.0
 11
573.2602302576877
 21
384.5091613693156
 31
0.0
  0
ARC
  5
E6
330
1F
100
AcDbEntity
  8
10
  6
CONTINUOUS
 62
     7
100
AcDbCircle
 10
569.8102302576879
 20
381.542143825456
 30
0.0
 40
4.550350877192955
100
AcDbArc
 50
40.69569852541444
 51
139.3043014745856
  0
LINE
  5
E7
330
1F
100
AcDbEntity
  8
10
  6
CONTINUOUS
 62
     7
100
AcDbLine
 10
566.360230257688
 20
384.192494702649
 30
0.0
 11
566.360230257688
 21
384.5091613693156
 31
0.0
  0
LINE
  5
E8
330
1F
100
AcDbEntity
  8
10
  6
CONTINUOUS
 62
     7
100
AcDbLine
 10
573.2602302576877
 20
384.192494702649
 30
0.0
 11
573.2602302576877
 21
384.5091613693156
 31
0.0
  0
POLYLINE
  5
E9
330
1F
100
AcDbEntity
  8
10
  6
CONTINUOUS
 62
     7
100
AcDb2dPolyline
 66
     1
 10
0.0
 20
0.0
 30
0.0
  0
VERTEX
  5
EA
330
E9
100
AcDbEntity
  8
10
  6
CONTINUOUS
 62
     7
100
AcDbVertex
100
AcDb2dVertex
 10
726.4679560302495
 20
325.192494702649
 30
0.0
  0
VERTEX
  5
EB
330
E9
100
AcDbEntity
  8
10
  6
CONTINUOUS
 62
     7
100
AcDbVertex
100
AcDb2dVertex
 10
729.9320576453877
 20
319.192494702649
 30
0.0
  0
VERTEX
  5
EC
330
E9
100
AcDbEntity
  8
10
  6
CONTINUOUS
 62
     7
100
AcDbVertex
100
AcDb2dVertex
 10
726.4679560302495
 20
313.192494702649
 30
0.0
  0
VERTEX
  5
ED
330
E9
100
AcDbEntity
  8
10
  6
CONTINUOUS
 62
     7
100
AcDbVertex
100
AcDb2dVertex
 10
719.5397527999742
 20
313.192494702649
 30
0.0
  0
VERTEX
  5
EE
330
E9
100
AcDbEntity
  8
10
  6
CONTINUOUS
 62
     7
100
AcDbVertex
100
AcDb2dVertex
 10
716.0756511848369
 20
319.192494702649
 30
0.0
  0
VERTEX
  5
EF
330
E9
100
AcDbEntity
  8
10
  6
CONTINUOUS
 62
     7
100
AcDbVertex
100
AcDb2dVertex
 10
719.5397527999742
 20
325.192494702649
 30
0.0
  0
VERTEX
  5
F0
330
E9
100
AcDbEntity
  8
10
  6
CONTINUOUS
 62
     7
100
AcDbVertex
100
AcDb2dVertex
 10
726.4679560302495
 20
325.192494702649
 30
0.0
  0
SEQEND
  5
F1
330
E9
100
AcDbEntity
  8
10
  6
CONTINUOUS
 62
     7
  0
CIRCLE
  5
F2
330
1F
100
AcDbEntity
  8
10
  6
CONTINUOUS
 62
     7
100
AcDbCircle
 10
723.0038544151114
 20
319.192494702649
 30
0.0
 40
1.849999999990359
  0
CIRCLE
  5
F3
330
1F
100
AcDbEntity
  8
10
  6
CONTINUOUS
 62
     7
100
AcDbCircle
 10
723.0038544151114
 20
319.192494702649
 30
0.0
 40
5.0
  0
LINE
  5
F4
330
1F
100
AcDbEntity
  8
10
  6
CONTINUOUS
 62
     7
100
AcDbLine
 10
735.50385441512
 20
326.692494702649
 30
0.0
 11
723.0038544151114
 21
326.692494702649
 31
0.0
  0
LINE
  5
F5
330
1F
100
AcDbEntity
  8
10
  6
CONTINUOUS
 62
     7
100
AcDbLine
 10
735.5038544151196
 20
311.6924947026519
 30
0.0
 11
723.0038544151132
 21
311.692494702649
 31
0.0
  0
ARC
  5
F6
330
1F
100
AcDbEntity
  8
10
  6
CONTINUOUS
 62
     7
100
AcDbCircle
 10
723.0038544151114
 20
319.192494702649
 30
0.0
 40
7.5
100
AcDbArc
 50
89.99999999999991
 51
270.0000000000257
  0
LINE
  5
F7
330
1F
100
AcDbEntity
  8
10
  6
CONTINUOUS
 62
     7
100
AcDbLine
 10
608.3102302576888
 20
325.192494702649
 30
0.0
 11
608.3102302576888
 21
319.192494702649
 31
0.0
  0
LINE
  5
F8
330
1F
100
AcDbEntity
  8
10
  6
CONTINUOUS
 62
     7
100
AcDbLine
 10
619.3102302576888
 20
321.692494702649
 30
0.0
 11
619.3102302576888
 21
316.692494702649
 31
0.0
  0
ARC
  5
F9
330
1F
100
AcDbEntity
  8
10
  6
CONTINUOUS
 62
     7
100
AcDbCircle
 10
616.3102302576888
 20
321.692494702649
 30
0.0
 40
3.0
100
AcDbArc
 50
0.0
 51
89.99999999999991
  0
LINE
  5
FA
330
1F
100
AcDbEntity
  8
10
  6
CONTINUOUS
 62
     7
100
AcDbLine
 10
616.3102302576888
 20
325.192494702649
 30
0.0
 11
616.3102302576888
 21
313.192494702649
 31
0.0
  0
LINE
  5
FB
330
1F
100
AcDbEntity
  8
10
  6
CONTINUOUS
 62
     7
100
AcDbLine
 10
608.3102302576888
 20
325.192494702649
 30
0.0
 11
616.3102302576888
 21
325.192494702649
 31
0.0
  0
LINE
  5
FC
330
1F
100
AcDbEntity
  8
10
  6
CONTINUOUS
 62
     7
100
AcDbLine
 10
606.4102302576873
 20
324.192494702649
 30
0.0
 11
608.3102302576888
 21
324.192494702649
 31
0.0
  0
LINE
  5
FD
330
1F
100
AcDbEntity
  8
10
  6
CONTINUOUS
 62
     7
100
AcDbLine
 10
608.3102302576888
 20
313.192494702649
 30
0.0
 11
608.3102302576888
 21
319.192494702649
 31
0.0
  0
LINE
  5
FE
330
1F
100
AcDbEntity
  8
10
  6
CONTINUOUS
 62
     7
100
AcDbLine
 10
608.3102302576888
 20
319.192494702649
 30
0.0
 11
616.3102302576888
 21
319.192494702649
 31
0.0
  0
LINE
  5
FF
330
1F
100
AcDbEntity
  8
10
  6
CONTINUOUS
 62
     7
100
AcDbLine
 10
606.4102302576873
 20
314.192494702649
 30
0.0
 11
608.3102302576888
 21
314.192494702649
 31
0.0
  0
ARC
  5
100
330
1F
100
AcDbEntity
  8
10
  6
CONTINUOUS
 62
     7
100
AcDbCircle
 10
616.3102302576888
 20
316.692494702649
 30
0.0
 40
3.0
100
AcDbArc
 50
269.9999999999998
 51
0.0
  0
LINE
  5
101
330
1F
100
AcDbEntity
  8
10
  6
CONTINUOUS
 62
     7
100
AcDbLine
 10
608.3102302576888
 20
313.192494702649
 30
0.0
 11
616.3102302576888
 21
313.192494702649
 31
0.0
  0
LINE
  5
102
330
1F
100
AcDbEntity
  8
8
  6
CONTINUOUS
 62
     1
100
AcDbLine
 10
619.3102302576888
 20
321.0424947026484
 30
0.0
 11
638.034138767968
 21
321.042483154464
 31
0.0
  0
ARC
  5
103
330
1F
100
AcDbEntity
  8
8
  6
CONTINUOUS
 62
     1
100
AcDbCircle
 10
639.0680561660499
 20
320.1174890187829
 30
0.0
 40
1.387299296151127
100
AcDbArc
 50
138.1825956443131
 51
221.817414355677
  0
ARC
  5
104
330
1F
100
AcDbEntity
  8
8
  6
CONTINUOUS
 62
     1
100
AcDbCircle
 10
636.999936891312
 20
318.2674947026488
 30
0.0
 40
1.387515353286972
100
AcDbArc
 50
318.1902521645525
 51
41.80974783544713
  0
ARC
  5
105
330
1F
100
AcDbEntity
  8
8
  6
CONTINUOUS
 62
     1
100
AcDbCircle
 10
636.9999522446194
 20
320.1174888383064
 30
0.0
 40
1.387500000000045
100
AcDbArc
 50
318.1900099999847
 51
41.80999999999911
  0
LINE
  5
106
330
1F
100
AcDbEntity
  8
8
  6
CONTINUOUS
 62
     1
100
AcDbLine
 10
619.3102302576888
 20
317.3424947026486
 30
0.0
 11
638.0341389294097
 21
317.3424947026486
 31
0.0
  0
LINE
  5
107
330
1F
100
AcDbEntity
  8
10
  6
CONTINUOUS
 62
     7
100
AcDbLine
 10
601.8102302576888
 20
325.442494702649
 30
0.0
 11
601.3102302576888
 21
325.442494702649
 31
0.0
  0
LINE
  5
108
330
1F
100
AcDbEntity
  8
10
  6
CONTINUOUS
 62
     7
100
AcDbLine
 10
601.8102302576888
 20
326.192494702649
 30
0.0
 11
606.4102302576882
 21
326.192494702649
 31
0.0
  0
LINE
  5
109
330
1F
100
AcDbEntity
  8
10
  6
CONTINUOUS
 62
     7
100
AcDbLine
 10
601.8102302576888
 20
322.692494702649
 30
0.0
 11
606.4102302576882
 21
322.692494702649
 31
0.0
  0
LINE
  5
10A
330
1F
100
AcDbEntity
  8
10
  6
CONTINUOUS
 62
     7
100
AcDbLine
 10
601.8102302576888
 20
312.1924947026481
 30
0.0
 11
606.4102302576882
 21
312.192494702649
 31
0.0
  0
LINE
  5
10B
330
1F
100
AcDbEntity
  8
10
  6
CONTINUOUS
 62
     7
100
AcDbLine
 10
601.8102302576888
 20
315.692494702649
 30
0.0
 11
606.4102302576882
 21
315.692494702649
 31
0.0
  0
LINE
  5
10C
330
1F
100
AcDbEntity
  8
10
  6
CONTINUOUS
 62
     7
100
AcDbLine
 10
606.4102302576882
 20
326.192494702649
 30
0.0
 11
606.4102302576882
 21
319.192494702649
 31
0.0
  0
LINE
  5
10D
330
1F
100
AcDbEntity
  8
10
  6
CONTINUOUS
 62
     7
100
AcDbLine
 10
606.4102302576882
 20
312.192494702649
 30
0.0
 11
606.4102302576882
 21
319.192494702649
 31
0.0
  0
LINE
  5
10E
330
1F
100
AcDbEntity
  8
10
  6
CONTINUOUS
 62
     7
100
AcDbLine
 10
601.8102302576888
 20
326.192494702649
 30
0.0
 11
601.8102302576888
 21
312.1924947026481
 31
0.0
  0
LINE
  5
10F
330
1F
100
AcDbEntity
  8
10
  6
CONTINUOUS
 62
     7
100
AcDbLine
 10
601.8102302576888
 20
312.942494702649
 30
0.0
 11
601.3102302576888
 21
312.942494702649
 31
0.0
  0
LINE
  5
110
330
1F
100
AcDbEntity
  8
10
  6
CONTINUOUS
 62
     7
100
AcDbLine
 10
601.3102302576888
 20
325.442494702649
 30
0.0
 11
601.3102302576888
 21
312.942494702649
 31
0.0
  0
ARC
  5
111
330
1F
100
AcDbEntity
  8
8
  6
CONTINUOUS
 62
     1
100
AcDbCircle
 10
640.466609411508
 20
318.2907057735673
 30
0.0
 40
1.387515022395519
100
AcDbArc
 50
138.1902399436242
 51
221.8097600563755
  0
ARC
  5
112
330
1F
100
AcDbEntity
  8
8
  6
CONTINUOUS
 62
     1
100
AcDbCircle
 10
638.3984901366782
 20
318.290711565689
 30
0.0
 40
1.387299627082371
100
AcDbArc
 50
318.1825978710808
 51
41.81739912887618
  0
LINE
  5
113
330
1F
100
AcDbEntity
  8
8
  6
CONTINUOUS
 62
     1
100
AcDbLine
 10
639.4324078173429
 20
317.3657057735671
 30
0.0
 11
646.789835117869
 21
317.3657057735669
 31
0.0
  0
ARC
  5
114
330
1F
100
AcDbEntity
  8
8
  6
CONTINUOUS
 62
     1
100
AcDbCircle
 10
640.4665943891239
 20
320.1407000355756
 30
0.0
 40
1.387500000000045
100
AcDbArc
 50
138.1900000000009
 51
221.8099970000301
  0
LINE
  5
115
330
1F
100
AcDbEntity
  8
8
  6
CONTINUOUS
 62
     1
100
AcDbLine
 10
639.4324078657753
 20
321.0656943517332
 30
0.0
 11
646.789835117869
 21
321.0656943517329
 31
0.0
  0
LINE
  5
116
330
1F
100
AcDbEntity
  8
10
  6
CONTINUOUS
 62
     7
100
AcDbLine
 10
382.8602302576889
 20
253.8758280359824
 30
0.0
 11
389.7602302576886
 21
253.8758280359824
 31
0.0
  0
ARC
  5
117
330
1F
100
AcDbEntity
  8
10
  6
CONTINUOUS
 62
     7
100
AcDbCircle
 10
386.3102302576888
 20
256.8428455798419
 30
0.0
 40
4.550350877192955
100
AcDbArc
 50
220.6956985254143
 51
319.304301474585
  0
LINE
  5
118
330
1F
100
AcDbEntity
  8
10
  6
CONTINUOUS
 62
     7
100
AcDbLine
 10
382.8602302576889
 20
254.192494702649
 30
0.0
 11
382.8602302576889
 21
253.8758280359824
 31
0.0
  0
LINE
  5
119
330
1F
100
AcDbEntity
  8
10
  6
CONTINUOUS
 62
     7
100
AcDbLine
 10
389.7602302576886
 20
254.192494702649
 30
0.0
 11
389.7602302576886
 21
253.8758280359824
 31
0.0
  0
LINE
  5
11A
330
1F
100
AcDbEntity
  8
10
  6
CONTINUOUS
 62
     7
100
AcDbLine
 10
382.8602302576889
 20
384.5091613693156
 30
0.0
 11
389.7602302576886
 21
384.5091613693156
 31
0.0
  0
ARC
  5
11B
330
1F
100
AcDbEntity
  8
10
  6
CONTINUOUS
 62
     7
100
AcDbCircle
 10
386.3102302576888
 20
381.542143825456
 30
0.0
 40
4.550350877192955
100
AcDbArc
 50
40.69569852541491
 51
139.3043014745851
  0
LINE
  5
11C
330
1F
100
AcDbEntity
  8
10
  6
CONTINUOUS
 62
     7
100
AcDbLine
 10
382.8602302576889
 20
384.192494702649
 30
0.0
 11
382.8602302576889
 21
384.5091613693156
 31
0.0
  0
LINE
  5
11D
330
1F
100
AcDbEntity
  8
10
  6
CONTINUOUS
 62
     7
100
AcDbLine
 10
389.7602302576886
 20
384.192494702649
 30
0.0
 11
389.7602302576886
 21
384.5091613693156
 31
0.0
  0
CIRCLE
  5
11E
330
1F
100
AcDbEntity
  8
10
  6
CONTINUOUS
 62
     7
100
AcDbCircle
 10
211.3102302576888
 20
392.192494702649
 30
0.0
 40
3.099999999999994
  0
CIRCLE
  5
11F
330
1F
100
AcDbEntity
  8
10
  6
CONTINUOUS
 62
     7
100
AcDbCircle
 10
298.8102302576897
 20
392.192494702649
 30
0.0
 40
3.100000000000023
  0
CIRCLE
  5
120
330
1F
100
AcDbEntity
  8
10
  6
CONTINUOUS
 62
     7
100
AcDbCircle
 10
473.8102302576878
 20
392.192494702649
 30
0.0
 40
3.100000000000023
  0
CIRCLE
  5
121
330
1F
100
AcDbEntity
  8
10
  6
CONTINUOUS
 62
     7
100
AcDbCircle
 10
561.3102302576888
 20
392.192494702649
 30
0.0
 40
3.100000000000023
  0
CIRCLE
  5
122
330
1F
100
AcDbEntity
  8
10
  6
CONTINUOUS
 62
     7
100
AcDbCircle
 10
561.3102302576888
 20
246.192494702649
 30
0.0
 40
3.100000000000023
  0
CIRCLE
  5
123
330
1F
100
AcDbEntity
  8
10
  6
CONTINUOUS
 62
     7
100
AcDbCircle
 10
473.8102302576878
 20
246.192494702649
 30
0.0
 40
3.100000000000023
  0
CIRCLE
  5
124
330
1F
100
AcDbEntity
  8
10
  6
CONTINUOUS
 62
     7
100
AcDbCircle
 10
298.8102302576897
 20
246.192494702649
 30
0.0
 40
3.100000000000023
  0
CIRCLE
  5
125
330
1F
100
AcDbEntity
  8
10
  6
CONTINUOUS
 62
     7
100
AcDbCircle
 10
211.3102302576888
 20
246.192494702649
 30
0.0
 40
3.099999999999994
  0
LINE
  5
126
330
1F
100
AcDbEntity
  8
8
  6
CONTINUOUS
 62
     1
100
AcDbLine
 10
663.7423874053752
 20
323.7157300626494
 30
0.0
 11
655.9076339290186
 21
323.7157300626495
 31
0.0
  0
LINE
  5
127
330
1F
100
AcDbEntity
  8
8
  6
CONTINUOUS
 62
     1
100
AcDbLine
 10
672.7423644053752
 20
321.2157100626491
 30
0.0
 11
659.7423554053751
 21
321.2157100626491
 31
0.0
  0
LINE
  5
128
330
1F
100
AcDbEntity
  8
8
  6
CONTINUOUS
 62
     1
100
AcDbLine
 10
669.7423604053752
 20
319.6157100626492
 30
0.0
 11
660.742359405375
 21
319.6157100626492
 31
0.0
  0
LINE
  5
129
330
1F
100
AcDbEntity
  8
8
  6
CONTINUOUS
 62
     1
100
AcDbLine
 10
669.7423604053752
 20
318.0157200626491
 30
0.0
 11
660.742359405375
 21
318.0157200626491
 31
0.0
  0
LINE
  5
12A
330
1F
100
AcDbEntity
  8
8
  6
CONTINUOUS
 62
     1
100
AcDbLine
 10
669.7423604053752
 20
318.8156900626492
 30
0.0
 11
660.742359405375
 21
318.8156900626492
 31
0.0
  0
LINE
  5
12B
330
1F
100
AcDbEntity
  8
8
  6
CONTINUOUS
 62
     1
100
AcDbLine
 10
669.7423604053752
 20
320.4156900626492
 30
0.0
 11
660.742359405375
 21
320.4156900626492
 31
0.0
  0
LINE
  5
12C
330
1F
100
AcDbEntity
  8
8
  6
CONTINUOUS
 62
     1
100
AcDbLine
 10
663.7423874053752
 20
314.7156700626488
 30
0.0
 11
655.9076339290186
 21
314.7156700626487
 31
0.0
  0
LINE
  5
12D
330
1F
100
AcDbEntity
  8
8
  6
CONTINUOUS
 62
     1
100
AcDbLine
 10
672.7423644053752
 20
317.2157000626491
 30
0.0
 11
659.7423554053751
 21
317.2157000626491
 31
0.0
  0
LINE
  5
12E
330
1F
100
AcDbEntity
  8
8
  6
CONTINUOUS
 62
     1
100
AcDbLine
 10
653.0868638503134
 20
322.7059598519035
 30
0.0
 11
646.789835117869
 21
322.7059598519033
 31
0.0
  0
LINE
  5
12F
330
1F
100
AcDbEntity
  8
8
  6
CONTINUOUS
 62
     1
100
AcDbLine
 10
653.0868638503134
 20
315.7254402733965
 30
0.0
 11
646.789835117869
 21
315.7254402733965
 31
0.0
  0
LINE
  5
130
330
1F
100
AcDbEntity
  8
8
  6
CONTINUOUS
 62
     1
100
AcDbLine
 10
646.789835117869
 20
315.7254402733965
 30
0.0
 11
646.789835117869
 21
322.7059598519033
 31
0.0
  0
ARC
  5
131
330
1F
100
AcDbEntity
  8
8
  6
CONTINUOUS
 62
     1
100
AcDbCircle
 10
655.9076339290191
 20
321.7157300626495
 30
0.0
 40
2.0
100
AcDbArc
 50
90.00000000001303
 51
120.0000000000151
  0
ARC
  5
132
330
1F
100
AcDbEntity
  8
8
  6
CONTINUOUS
 62
     1
100
AcDbCircle
 10
653.0868638503134
 20
324.7059598519026
 30
0.0
 40
2.0
100
AcDbArc
 50
269.9999999999998
 51
300.0000000000147
  0
LINE
  5
133
330
1F
100
AcDbEntity
  8
8
  6
CONTINUOUS
 62
     1
100
AcDbLine
 10
654.9076339290191
 20
323.4477808702175
 30
0.0
 11
654.0868638503139
 21
322.9739090443343
 31
0.0
  0
ARC
  5
134
330
1F
100
AcDbEntity
  8
8
  6
CONTINUOUS
 62
     1
100
AcDbCircle
 10
655.9076339290191
 20
316.7156700626487
 30
0.0
 40
2.0
100
AcDbArc
 50
239.9999999999846
 51
269.9999999999866
  0
ARC
  5
135
330
1F
100
AcDbEntity
  8
8
  6
CONTINUOUS
 62
     1
100
AcDbCircle
 10
653.0868638503134
 20
313.7254402733956
 30
0.0
 40
2.0
100
AcDbArc
 50
59.99999999998492
 51
89.99999999999991
  0
LINE
  5
136
330
1F
100
AcDbEntity
  8
8
  6
CONTINUOUS
 62
     1
100
AcDbLine
 10
654.9076339290191
 20
314.9836192550807
 30
0.0
 11
654.0868638503139
 21
315.4574910809639
 31
0.0
  0
LINE
  5
137
330
1F
100
AcDbEntity
  8
8
  6
CONTINUOUS
 62
     1
100
AcDbLine
 10
659.7423554053751
 20
317.2157000626491
 30
0.0
 11
659.7423554053751
 21
321.2157100626491
 31
0.0
  0
LINE
  5
138
330
1F
100
AcDbEntity
  8
8
  6
CONTINUOUS
 62
     1
100
AcDbLine
 10
660.742359405375
 20
317.2157000626491
 30
0.0
 11
660.742359405375
 21
321.2157100626491
 31
0.0
  0
LINE
  5
139
330
1F
100
AcDbEntity
  8
8
  6
CONTINUOUS
 62
     1
100
AcDbLine
 10
672.7423644053752
 20
319.2157000626491
 30
0.0
 11
672.7423644053752
 21
324.4657100626491
 31
0.0
  0
ARC
  5
13A
330
1F
100
AcDbEntity
  8
8
  6
CONTINUOUS
 62
     1
100
AcDbCircle
 10
665.742363405375
 20
323.4657100626491
 30
0.0
 40
1.0
100
AcDbArc
 50
89.99999999999991
 51
179.9999999999998
  0
LINE
  5
13B
330
1F
100
AcDbEntity
  8
8
  6
CONTINUOUS
 62
     1
100
AcDbLine
 10
663.7423874053752
 20
323.2157200626491
 30
0.0
 11
664.742359405375
 21
323.2157200626491
 31
0.0
  0
LINE
  5
13C
330
1F
100
AcDbEntity
  8
8
  6
CONTINUOUS
 62
     1
100
AcDbLine
 10
663.7423874053752
 20
323.7157300626494
 30
0.0
 11
663.7423874053752
 21
321.2157100626493
 31
0.0
  0
LINE
  5
13D
330
1F
100
AcDbEntity
  8
8
  6
CONTINUOUS
 62
     1
100
AcDbLine
 10
664.742359405375
 20
323.4657100626491
 30
0.0
 11
664.742359405375
 21
321.2157100626491
 31
0.0
  0
LINE
  5
13E
330
1F
100
AcDbEntity
  8
8
  6
CONTINUOUS
 62
     1
100
AcDbLine
 10
664.742359405375
 20
323.2157200626491
 30
0.0
 11
664.742359405375
 21
321.2157100626491
 31
0.0
  0
LINE
  5
13F
330
1F
100
AcDbEntity
  8
8
  6
CONTINUOUS
 62
     1
100
AcDbLine
 10
665.742363405375
 20
313.9656900626491
 30
0.0
 11
672.7423644053752
 21
313.9656900626491
 31
0.0
  0
LINE
  5
140
330
1F
100
AcDbEntity
  8
8
  6
CONTINUOUS
 62
     1
100
AcDbLine
 10
664.742359405375
 20
315.215680062649
 30
0.0
 11
663.7423874053752
 21
315.215680062649
 31
0.0
  0
LINE
  5
141
330
1F
100
AcDbEntity
  8
8
  6
CONTINUOUS
 62
     1
100
AcDbLine
 10
663.7423874053752
 20
314.7156700626488
 30
0.0
 11
663.7423874053752
 21
317.2156900626489
 31
0.0
  0
LINE
  5
142
330
1F
100
AcDbEntity
  8
8
  6
CONTINUOUS
 62
     1
100
AcDbLine
 10
664.742359405375
 20
314.9656900626491
 30
0.0
 11
664.742359405375
 21
317.2157000626491
 31
0.0
  0
LINE
  5
143
330
1F
100
AcDbEntity
  8
8
  6
CONTINUOUS
 62
     1
100
AcDbLine
 10
664.742359405375
 20
317.2157000626491
 30
0.0
 11
664.742359405375
 21
315.215680062649
 31
0.0
  0
ARC
  5
144
330
1F
100
AcDbEntity
  8
8
  6
CONTINUOUS
 62
     1
100
AcDbCircle
 10
665.742363405375
 20
314.9656900626491
 30
0.0
 40
1.0
100
AcDbArc
 50
179.9999999999998
 51
269.9999999999998
  0
LINE
  5
145
330
1F
100
AcDbEntity
  8
8
  6
CONTINUOUS
 62
     1
100
AcDbLine
 10
669.7423604053752
 20
321.2157100626491
 30
0.0
 11
669.7423604053752
 21
317.2157000626491
 31
0.0
  0
LINE
  5
146
330
1F
100
AcDbEntity
  8
8
  6
CONTINUOUS
 62
     1
100
AcDbLine
 10
672.7423644053752
 20
319.2157000626491
 30
0.0
 11
672.7423644053752
 21
313.9656900626491
 31
0.0
  0
LINE
  5
147
330
1F
100
AcDbEntity
  8
8
  6
CONTINUOUS
 62
     1
100
AcDbLine
 10
671.7423554053751
 20
321.2157100626491
 30
0.0
 11
671.7423554053751
 21
317.2157000626491
 31
0.0
  0
LINE
  5
148
330
1F
100
AcDbEntity
  8
8
  6
CONTINUOUS
 62
     1
100
AcDbLine
 10
665.742363405375
 20
324.4657100626491
 30
0.0
 11
672.7423644053752
 21
324.4657100626491
 31
0.0
  0
LINE
  5
149
330
1F
100
AcDbEntity
  8
7
  6
DASHDOT
 62
     1
100
AcDbLine
 10
681.5038544151205
 20
319.192494702649
 30
0.0
 11
746.5038544151205
 21
319.192494702649
 31
0.0
  0
CIRCLE
  5
14A
330
1F
100
AcDbEntity
  8
10
  6
CONTINUOUS
 62
     7
100
AcDbCircle
 10
386.3102302576883
 20
319.1924947026424
 30
0.0
 40
17.5
  0
CIRCLE
  5
14B
330
1F
100
AcDbEntity
  8
6
  6
HIDDEN
 62
     3
100
AcDbCircle
 10
386.3102302576883
 20
319.1924947026424
 30
0.0
 40
22.5
  0
DIMENSION
  5
156
330
1F
100
AcDbEntity
  8
9
  6
CONTINUOUS
 62
     4
100
AcDbDimension
  2
DIM1
 10
473.8102302576877
 20
214.7251281071893
 30
0.0
 11
386.3102302576883
 21
214.7251281071893
 31
0.0
 70
   160
  1
<>
  3
STANDARD
100
AcDbAlignedDimension
 13
298.8102302576888
 23
246.192494702649
 33
0.0
 14
473.8102302576878
 24
246.192494702649
 34
0.0
100
AcDbRotatedDimension
1001
ACAD
1000
DSTYLE
1002
{
1070
   287
1070
     4
1070
     7
1000

1070
     6
1000

1070
   279
1070
     1
1070
   340
1005
14C
1070
   140
1040
6.0
1070
    40
1040
1.0
1070
   147
1040
0.0
1070
    76
1070
     0
1070
    75
1070
     0
1070
   173
1070
     1
1070
   289
1070
     2
1070
   288
1070
     1
1070
    77
1070
     1
1070
   172
1070
     1
1070
   174
1070
     0
1070
    74
1070
     0
1070
    73
1070
     0
1070
   284
1070
     8
1070
    78
1070
     8
1070
    42
1040
2.0
1070
    44
1040
3.0
1070
    43
1040
30.0
1070
   271
1070
     2
1070
    41
1040
4.0
1002
}
  0
DIMENSION
  5
160
330
1F
100
AcDbEntity
  8
9
  6
CONTINUOUS
 62
     4
100
AcDbDimension
  2
DIM2
 10
586.3102302576887
 20
193.0634990827055
 30
0.0
 11
386.3102302576889
 21
193.0634990827055
 31
0.0
 70
   160
  1
<>
  3
STANDARD
100
AcDbAlignedDimension
 13
186.3102302576888
 23
269.192494702649
 33
0.0
 14
586.3102302576888
 24
269.192494702649
 34
0.0
100
AcDbRotatedDimension
1001
ACAD
1000
DSTYLE
1002
{
1070
   287
1070
     4
1070
     7
1000

1070
     6
1000

1070
   279
1070
     1
1070
   340
1005
14C
1070
   140
1040
6.0
1070
    40
1040
1.0
1070
   147
1040
0.0
1070
    76
1070
     0
1070
    75
1070
     0
1070
   173
1070
     1
1070
   289
1070
     2
1070
   288
1070
     1
1070
    77
1070
     1
1070
   172
1070
     1
1070
   174
1070
     0
1070
    74
1070
     0
1070
    73
1070
     0
1070
   284
1070
     8
1070
    78
1070
     8
1070
    42
1040
2.0
1070
    44
1040
3.0
1070
    43
1040
30.0
1070
   271
1070
     2
1070
    41
1040
4.0
1002
}
  0
DIMENSION
  5
16A
330
1F
100
AcDbEntity
  8
9
  6
CONTINUOUS
 62
     4
100
AcDbDimension
  2
DIM3
 10
601.3102302576887
 20
170.3584187917275
 30
0.0
 11
386.3102302576889
 21
170.3584187917275
 31
0.0
 70
   160
  1
<>
  3
STANDARD
100
AcDbAlignedDimension
 13
171.3102302576888
 23
254.1924947026481
 33
0.0
 14
601.3102302576888
 24
254.192494702649
 34
0.0
100
AcDbRotatedDimension
1001
ACAD
1000
DSTYLE
1002
{
1070
   287
1070
     4
1070
     7
1000

1070
     6
1000

1070
   279
1070
     1
1070
   340
1005
14C
1070
   140
1040
6.0
1070
    40
1040
1.0
1070
   147
1040
0.0
1070
    76
1070
     0
1070
    75
1070
     0
1070
   173
1070
     1
1070
   289
1070
     2
1070
   288
1070
     1
1070
    77
1070
     1
1070
   172
1070
     1
1070
   174
1070
     0
1070
    74
1070
     0
1070
    73
1070
     0
1070
   284
1070
     8
1070
    78
1070
     8
1070
    42
1040
2.0
1070
    44
1040
3.0
1070
    43
1040
30.0
1070
   271
1070
     2
1070
    41
1040
4.0
1002
}
  0
DIMENSION
  5
174
330
1F
100
AcDbEntity
  8
9
  6
CONTINUOUS
 62
     4
100
AcDbDimension
  2
DIM4
 10
736.5038544151204
 20
170.3584187917275
 30
0.0
 11
714.0038544151205
 21
170.3584187917275
 31
0.0
 70
   160
  1
<>
  3
STANDARD
100
AcDbAlignedDimension
 13
691.5038544151205
 23
254.192494702649
 33
0.0
 14
736.5038544151205
 24
239.192494702649
 34
0.0
100
AcDbRotatedDimension
1001
ACAD
1000
DSTYLE
1002
{
1070
   287
1070
     4
1070
     7
1000

1070
     6
1000

1070
   279
1070
     1
1070
   340
1005
14C
1070
   140
1040
6.0
1070
    40
1040
1.0
1070
   147
1040
0.0
1070
    76
1070
     0
1070
    75
1070
     0
1070
   173
1070
     1
1070
   289
1070
     2
1070
   288
1070
     1
1070
    77
1070
     1
1070
   172
1070
     1
1070
   174
1070
     0
1070
    74
1070
     0
1070
    73
1070
     0
1070
   284
1070
     8
1070
    78
1070
     8
1070
    42
1040
2.0
1070
    44
1040
3.0
1070
    43
1040
30.0
1070
   271
1070
     2
1070
    41
1040
4.0
1002
}
  0
DIMENSION
  5
17E
330
1F
100
AcDbEntity
  8
9
  6
CONTINUOUS
 62
     4
100
AcDbDimension
  2
DIM5
 10
735.5038544151187
 20
214.7251281071893
 30
0.0
 11
747.5038544151205
 21
214.7251281071893
 31
0.0
 70
   160
  1
<>
  3
STANDARD
100
AcDbAlignedDimension
 13
736.5038544151205
 23
239.192494702649
 33
0.0
 14
735.5038544151187
 24
239.192494702649
 34
0.0
 50
179.9999999999998
100
AcDbRotatedDimension
1001
ACAD
1000
DSTYLE
1002
{
1070
   287
1070
     4
1070
     7
1000

1070
     6
1000

1070
   279
1070
     1
1070
   340
1005
14C
1070
   140
1040
6.0
1070
    40
1040
1.0
1070
   147
1040
0.0
1070
    76
1070
     0
1070
    75
1070
     0
1070
   173
1070
     1
1070
   289
1070
     2
1070
   288
1070
     1
1070
    77
1070
     1
1070
   172
1070
     1
1070
   174
1070
     0
1070
    74
1070
     0
1070
    73
1070
     0
1070
   284
1070
     8
1070
    78
1070
     8
1070
    42
1040
2.0
1070
    44
1040
3.0
1070
    43
1040
30.0
1070
   271
1070
     2
1070
    41
1040
4.0
1002
}
  0
DIMENSION
  5
188
330
1F
100
AcDbEntity
  8
9
  6
CONTINUOUS
 62
     4
100
AcDbDimension
  2
DIM6
 10
152.0055484751331
 20
369.1924947026491
 30
0.0
 11
152.0055484751331
 21
319.192494702649
 31
0.0
 70
   160
  1
<>
  3
STANDARD
100
AcDbAlignedDimension
 13
186.3102302576888
 23
269.192494702649
 33
0.0
 14
186.3102302576888
 24
369.192494702649
 34
0.0
 50
89.99999999999991
100
AcDbRotatedDimension
1001
ACAD
1000
DSTYLE
1002
{
1070
   287
1070
     4
1070
     7
1000

1070
     6
1000

1070
   279
1070
     1
1070
   340
1005
14C
1070
   140
1040
6.0
1070
    40
1040
1.0
1070
   147
1040
0.0
1070
    76
1070
     0
1070
    75
1070
     0
1070
   173
1070
     1
1070
   289
1070
     2
1070
   288
1070
     1
1070
    77
1070
     1
1070
   172
1070
     1
1070
   174
1070
     0
1070
    74
1070
     0
1070
    73
1070
     0
1070
   284
1070
     8
1070
    78
1070
     8
1070
    42
1040
2.0
1070
    44
1040
3.0
1070
    43
1040
30.0
1070
   271
1070
     2
1070
    41
1040
4.0
1002
}
  0
DIMENSION
  5
192
330
1F
100
AcDbEntity
  8
9
  6
CONTINUOUS
 62
     4
100
AcDbDimension
  2
DIM7
 10
130.871939690752
 20
384.1924947026491
 30
0.0
 11
130.871939690752
 21
320.0832519811903
 31
0.0
 70
   160
  1
<>
  3
STANDARD
100
AcDbAlignedDimension
 13
171.3102302576888
 23
254.192494702649
 33
0.0
 14
171.3102302576888
 24
384.192494702649
 34
0.0
 50
89.99999999999991
100
AcDbRotatedDimension
1001
ACAD
1000
DSTYLE
1002
{
1070
   287
1070
     4
1070
     7
1000

1070
     6
1000

1070
   279
1070
     1
1070
   340
1005
14C
1070
   140
1040
6.0
1070
    40
1040
1.0
1070
   147
1040
0.0
1070
    76
1070
     0
1070
    75
1070
     0
1070
   173
1070
     1
1070
   289
1070
     2
1070
   288
1070
     1
1070
    77
1070
     1
1070
   172
1070
     1
1070
   174
1070
     0
1070
    74
1070
     0
1070
    73
1070
     0
1070
   284
1070
     8
1070
    78
1070
     8
1070
    42
1040
2.0
1070
    44
1040
3.0
1070
    43
1040
30.0
1070
   271
1070
     2
1070
    41
1040
4.0
1002
}
  0
DIMENSION
  5
19C
330
1F
100
AcDbEntity
  8
9
  6
CONTINUOUS
 62
     4
100
AcDbDimension
  2
DIM8
 10
110.2837211047138
 20
392.1924947026494
 30
0.0
 11
110.2837211047138
 21
320.0832519811903
 31
0.0
 70
   160
  1
<>
  3
STANDARD
100
AcDbAlignedDimension
 13
211.3102302576888
 23
246.192494702649
 33
0.0
 14
211.3102302576888
 24
392.192494702649
 34
0.0
 50
89.99999999999991
100
AcDbRotatedDimension
1001
ACAD
1000
DSTYLE
1002
{
1070
   287
1070
     4
1070
     7
1000

1070
     6
1000

1070
   279
1070
     1
1070
   340
1005
14C
1070
   140
1040
6.0
1070
    40
1040
1.0
1070
   147
1040
0.0
1070
    76
1070
     0
1070
    75
1070
     0
1070
   173
1070
     1
1070
   289
1070
     2
1070
   288
1070
     1
1070
    77
1070
     1
1070
   172
1070
     1
1070
   174
1070
     0
1070
    74
1070
     0
1070
    73
1070
     0
1070
   284
1070
     8
1070
    78
1070
     8
1070
    42
1040
2.0
1070
    44
1040
3.0
1070
    43
1040
30.0
1070
   271
1070
     2
1070
    41
1040
4.0
1002
}
  0
DIMENSION
  5
1A6
330
1F
100
AcDbEntity
  8
9
  6
CONTINUOUS
 62
     4
100
AcDbDimension
  2
DIM9
 10
89.52726712625758
 20
239.1924947026493
 30
0.0
 11
89.52726712625758
 21
320.0832519811903
 31
0.0
 70
   160
  1
<>
 53
89.99999999999991
  3
STANDARD
100
AcDbAlignedDimension
 13
191.3102302576878
 23
399.192494702649
 33
0.0
 14
191.3102302576878
 24
239.192494702649
 34
0.0
 50
-89.99999999999991
100
AcDbRotatedDimension
1001
ACAD
1000
DSTYLE
1002
{
1070
   287
1070
     4
1070
     7
1000

1070
     6
1000

1070
   279
1070
     1
1070
   340
1005
14C
1070
   140
1040
6.0
1070
    40
1040
1.0
1070
   147
1040
0.0
1070
    76
1070
     0
1070
    75
1070
     0
1070
   173
1070
     1
1070
   289
1070
     2
1070
   288
1070
     1
1070
    77
1070
     1
1070
   172
1070
     1
1070
   174
1070
     0
1070
    74
1070
     0
1070
    73
1070
     0
1070
   284
1070
     8
1070
    78
1070
     8
1070
    42
1040
2.0
1070
    44
1040
3.0
1070
    43
1040
30.0
1070
   271
1070
     2
1070
    41
1040
4.0
1002
}
  0
DIMENSION
  5
1B0
330
1F
100
AcDbEntity
  8
9
  6
CONTINUOUS
 62
     4
100
AcDbDimension
  2
DIM10
 10
601.3102302576887
 20
170.3584187917275
 30
0.0
 11
633.3102302576888
 21
170.3584187917275
 31
0.0
 70
   160
  1
(<>
  3
STANDARD
100
AcDbAlignedDimension
 13
619.3102302576888
 23
316.692494702649
 33
0.0
 14
601.3102302576888
 24
254.192494702649
 34
0.0
 50
179.9999999999998
100
AcDbRotatedDimension
1001
ACAD
1000
DSTYLE
1002
{
1070
   287
1070
     4
1070
     7
1000

1070
     6
1000

1070
   279
1070
     1
1070
   340
1005
14C
1070
   140
1040
6.0
1070
    40
1040
1.0
1070
   147
1040
0.0
1070
    76
1070
     0
1070
    75
1070
     0
1070
   173
1070
     1
1070
   289
1070
     2
1070
   288
1070
     1
1070
    77
1070
     1
1070
   172
1070
     1
1070
   174
1070
     0
1070
    74
1070
     0
1070
    73
1070
     0
1070
   284
1070
     8
1070
    78
1070
     8
1070
    42
1040
2.0
1070
    44
1040
3.0
1070
    43
1040
30.0
1070
   271
1070
     2
1070
    41
1040
4.0
1002
}
  0
DIMENSION
  5
1BA
330
1F
100
AcDbEntity
  8
9
  6
CONTINUOUS
 62
     4
100
AcDbDimension
  2
DIM11
 10
716.0756511848367
 20
193.0634990827055
 30
0.0
 11
755.0038544151205
 21
193.0634990827055
 31
0.0
 70
   160
  1
(<>
  3
STANDARD
100
AcDbAlignedDimension
 13
736.5038544151205
 23
239.192494702649
 33
0.0
 14
716.0756511848369
 24
319.192494702649
 34
0.0
 50
179.9999999999998
100
AcDbRotatedDimension
1001
ACAD
1000
DSTYLE
1002
{
1070
   287
1070
     4
1070
     7
1000

1070
     6
1000

1070
   279
1070
     1
1070
   340
1005
14C
1070
   140
1040
6.0
1070
    40
1040
1.0
1070
   147
1040
0.0
1070
    76
1070
     0
1070
    75
1070
     0
1070
   173
1070
     1
1070
   289
1070
     2
1070
   288
1070
     1
1070
    77
1070
     1
1070
   172
1070
     1
1070
   174
1070
     0
1070
    74
1070
     0
1070
    73
1070
     0
1070
   284
1070
     8
1070
    78
1070
     8
1070
    42
1040
2.0
1070
    44
1040
3.0
1070
    43
1040
30.0
1070
   271
1070
     2
1070
    41
1040
4.0
1002
}
  0
DIMENSION
  5
1C4
330
1F
100
AcDbEntity
  8
9
  6
CONTINUOUS
 62
     4
100
AcDbDimension
  2
DIM12
 10
561.3102302576888
 20
214.7251281071893
 30
0.0
 11
517.5602302576883
 21
214.7251281071893
 31
0.0
 70
   160
  1
<>
  3
STANDARD
100
AcDbAlignedDimension
 13
473.8102302576878
 23
246.192494702649
 33
0.0
 14
561.3102302576888
 24
246.192494702649
 34
0.0
100
AcDbRotatedDimension
1001
ACAD
1000
DSTYLE
1002
{
1070
   287
1070
     4
1070
     7
1000

1070
     6
1000

1070
   279
1070
     1
1070
   340
1005
14C
1070
   140
1040
6.0
1070
    40
1040
1.0
1070
   147
1040
0.0
1070
    76
1070
     0
1070
    75
1070
     0
1070
   173
1070
     1
1070
   289
1070
     2
1070
   288
1070
     1
1070
    77
1070
     1
1070
   172
1070
     1
1070
   174
1070
     0
1070
    74
1070
     0
1070
    73
1070
     0
1070
   284
1070
     8
1070
    78
1070
     8
1070
    42
1040
2.0
1070
    44
1040
3.0
1070
    43
1040
30.0
1070
   271
1070
     2
1070
    41
1040
4.0
1002
}
  0
DIMENSION
  5
1CE
330
1F
100
AcDbEntity
  8
9
  6
CONTINUOUS
 62
     4
100
AcDbDimension
  2
DIM13
 10
211.3102302576888
 20
214.7251281071893
 30
0.0
 11
255.0602302576892
 21
214.7251281071893
 31
0.0
 70
   160
  1
<>
  3
STANDARD
100
AcDbAlignedDimension
 13
298.8102302576897
 23
246.192494702649
 33
0.0
 14
211.3102302576888
 24
246.192494702649
 34
0.0
 50
179.9999999999998
100
AcDbRotatedDimension
1001
ACAD
1000
DSTYLE
1002
{
1070
   287
1070
     4
1070
     7
1000

1070
     6
1000

1070
   279
1070
     1
1070
   340
1005
14C
1070
   140
1040
6.0
1070
    40
1040
1.0
1070
   147
1040
0.0
1070
    76
1070
     0
1070
    75
1070
     0
1070
   173
1070
     1
1070
   289
1070
     2
1070
   288
1070
     1
1070
    77
1070
     1
1070
   172
1070
     1
1070
   174
1070
     0
1070
    74
1070
     0
1070
    73
1070
     0
1070
   284
1070
     8
1070
    78
1070
     8
1070
    42
1040
2.0
1070
    44
1040
3.0
1070
    43
1040
30.0
1070
   271
1070
     2
1070
    41
1040
4.0
1002
}
  0
MTEXT
  5
1CF
330
1F
100
AcDbEntity
  8
9
  6
CONTINUOUS
 62
     4
100
AcDbMText
 10
634.9762182818592
 20
309.8321674268326
 30
0.0
 40
6.0
 41
21.15942
 71
     1
 72
     1
  1
{\fＭＳ ゴシック;\T0.750000;L=500}
1001
ACAD
1000
ACAD_MTEXT_DEFINED_HEIGHT_BEGIN
1070
    46
1040
6.0
1000
ACAD_MTEXT_DEFINED_HEIGHT_END
  0
DIMENSION
  5
1D7
330
1F
100
AcDbEntity
  8
9
  6
CONTINUOUS
 62
     4
100
AcDbDimension
  2
DIM14
 10
379.5871895894788
 20
297.7204029514044
 30
0.0
 11
413.7293644250742
 21
416.804006661047
 31
0.0
 70
   163
  1
<>
  3
STANDARD
100
AcDbDiametricDimension
 15
393.0332709258947
 25
340.664586453882
 35
0.0
 40
0.0
1001
ACAD
1000
DSTYLE
1002
{
1070
   287
1070
     2
1070
     7
1000

1070
     6
1000

1070
   340
1005
14C
1070
   140
1040
6.0
1070
    40
1040
1.0
1070
   147
1040
0.0
1070
    76
1070
     0
1070
    75
1070
     0
1070
   173
1070
     1
1070
   289
1070
     2
1070
   288
1070
     1
1070
    77
1070
     1
1070
   172
1070
     1
1070
   174
1070
     0
1070
    74
1070
     0
1070
    73
1070
     0
1070
   284
1070
     8
1070
    78
1070
     8
1070
    42
1040
2.0
1070
    44
1040
3.0
1070
    43
1040
30.0
1070
   271
1070
     2
1070
    41
1040
4.0
1002
}
  0
DIMENSION
  5
1DF
330
1F
100
AcDbEntity
  8
9
  6
CONTINUOUS
 62
     4
100
AcDbDimension
  2
DIM15
 10
376.6178222698077
 20
304.6217285115204
 30
0.0
 11
444.5873908829651
 21
412.2181786070063
 31
0.0
 70
   163
  1
<>
  3
STANDARD
100
AcDbDiametricDimension
 15
396.0026382455802
 25
333.7632608937635
 35
0.0
 40
0.0
1001
ACAD
1000
DSTYLE
1002
{
1070
   287
1070
     2
1070
     7
1000

1070
     6
1000

1070
   340
1005
14C
1070
   140
1040
6.0
1070
    40
1040
1.0
1070
   147
1040
0.0
1070
    76
1070
     0
1070
    75
1070
     0
1070
   173
1070
     1
1070
   289
1070
     2
1070
   288
1070
     1
1070
    77
1070
     1
1070
   172
1070
     1
1070
   174
1070
     0
1070
    74
1070
     0
1070
    73
1070
     0
1070
   284
1070
     8
1070
    78
1070
     8
1070
    42
1040
2.0
1070
    44
1040
3.0
1070
    43
1040
30.0
1070
   271
1070
     2
1070
    41
1040
4.0
1002
}
  0
INSERT
  5
1E0
330
1F
100
AcDbEntity
  8
9
  6
CONTINUOUS
 62
     4
100
AcDbBlockReference
  2
_OPEN
 10
209.7602302576886
 20
394.8771734543808
 30
0.0
 41
4.0
 42
4.0
 43
4.0
 50
299.9999999999995
  0
POLYLINE
  5
1E1
330
1F
100
AcDbEntity
  8
9
  6
CONTINUOUS
 62
     4
100
AcDb2dPolyline
 66
     1
 10
0.0
 20
0.0
 30
0.0
  0
VERTEX
  5
1E2
330
1E1
100
AcDbEntity
  8
9
  6
CONTINUOUS
 62
     4
100
AcDbVertex
100
AcDb2dVertex
 10
209.7602302576886
 20
394.8771734543808
 30
0.0
  0
VERTEX
  5
1E3
330
1E1
100
AcDbEntity
  8
9
  6
CONTINUOUS
 62
     4
100
AcDbVertex
100
AcDb2dVertex
 10
194.197864823461
 20
421.831981072417
 30
0.0
  0
VERTEX
  5
1E4
330
1E1
100
AcDbEntity
  8
9
  6
CONTINUOUS
 62
     4
100
AcDbVertex
100
AcDb2dVertex
 10
170.837864823461
 20
421.831981072417
 30
0.0
  0
SEQEND
  5
1E5
330
1E1
100
AcDbEntity
  8
9
  6
CONTINUOUS
 62
     4
  0
MTEXT
  5
1E6
330
1F
100
AcDbEntity
  8
9
  6
CONTINUOUS
 62
     4
100
AcDbMText
 10
191.837864823461
 20
421.831981072417
 30
0.0
 40
6.0
 41
30.75826500000001
 71
     9
 72
     1
  1
{\fＭＳ ゴシック;\T0.750000;8-φ6.2}
1001
ACAD
1000
ACAD_MTEXT_DEFINED_HEIGHT_BEGIN
1070
    46
1040
6.0
1000
ACAD_MTEXT_DEFINED_HEIGHT_END
  0
VIEWPORT
  5
3F
330
1B
100
AcDbEntity
 67
     1
  8
0
100
AcDbViewport
 10
420.0
 20
297.0
 30
0.0
 40
840.0
 41
594.0
 68
     1
 69
     1
1001
ACAD
1000
MVIEW
1002
{
1070
    16
1010
0.0
1020
0.0
1030
0.0
1010
0.0
1020
0.0
1030
1.0
1040
0.0
1040
9.0
1040
420.0
1040
297.0
1040
50.0
1040
0.0
1040
0.0
1070
     0
1070
   100
1070
     0
1070
     3
1070
     0
1070
     0
1070
     0
1070
     0
1040
0.0
1040
0.0
1040
0.0
1040
0.5
1040
0.5
1040
0.5
1040
0.5
1070
     0
1002
{
1002
}
1002
}
  0
ENDSEC
  0
SECTION
  2
OBJECTS
  0
DICTIONARY
  5
C
330
0
100
AcDbDictionary
  3
ACAD_GROUP
350
D
  3
ACAD_LAYOUT
350
1A
  3
ACAD_MATERIAL
350
3B
  3
ACAD_MLEADERSTYLE
350
209
  3
ACAD_MLINESTYLE
350
17
  3
ACAD_PLOTSETTINGS
350
19
  3
ACAD_VISUALSTYLE
350
2A
  3
ACDBHEADERROUNDTRIPXREC
350
1E7
  3
ACDBVARIABLEDICTIONARY
350
207
  0
DICTIONARY
  5
D
102
{ACAD_REACTORS
330
C
102
}
330
C
100
AcDbDictionary
  0
DICTIONARY
  5
1A
102
{ACAD_REACTORS
330
C
102
}
330
C
100
AcDbDictionary
  0
DICTIONARY
  5
3B
102
{ACAD_REACTORS
330
C
102
}
330
C
100
AcDbDictionary
  3
BYBLOCK
350
3D
  3
BYLAYER
350
3C
  3
GLOBAL
350
3E
  0
DICTIONARY
  5
209
102
{ACAD_REACTORS
330
C
102
}
330
C
100
AcDbDictionary
  0
DICTIONARY
  5
17
102
{ACAD_REACTORS
330
C
102
}
330
C
100
AcDbDictionary
  3
STANDARD
350
18
  0
DICTIONARY
  5
19
102
{ACAD_REACTORS
330
C
102
}
330
C
100
AcDbDictionary
  0
DICTIONARY
  5
2A
102
{ACAD_REACTORS
330
C
102
}
330
C
100
AcDbDictionary
  3
2DWIREFRAME
350
2F
  3
3D_HIDDEN
350
31
  3
3DWIREFRAME
350
30
  3
BASIC
350
32
  3
BRIGHTEN
350
36
  3
COLORCHANGE
350
3A
  3
CONCEPTUAL
350
34
  3
DIM
350
35
  3
FACEPATTERN
350
39
  3
FLAT
350
2B
  3
FLATWITHEDGES
350
2C
  3
GOURAUD
350
2D
  3
GOURAUDWITHEDGES
350
2E
  3
LINEPATTERN
350
38
  3
REALISTIC
350
33
  3
THICKEN
350
37
  0
DICTIONARY
  5
1E7
102
{ACAD_REACTORS
330
C
102
}
330
C
100
AcDbDictionary
  3
CEPSNTYPE
350
1F0
  3
DIMSTYLEDATA
350
206
  3
FINGERPRINTGUID
350
1F1
  3
HYPERLINKBASE
350
1EA
  3
INSUNITS
350
1EF
  3
LAYOUTDICT
350
1EC
  3
LWETCUNION
350
1EE
  3
PLOTSETDICT
350
1ED
  3
PSVPSCALE
350
1F3
  3
PUCSBASE
350
1F6
  3
PUCSORGBACK
350
1FC
  3
PUCSORGBOTTOM
350
1F8
  3
PUCSORGFRONT
350
1FB
  3
PUCSORGLEFT
350
1F9
  3
PUCSORGRIGHT
350
1FA
  3
PUCSORGTOP
350
1F7
  3
PUCSORTHOREF
350
1F4
  3
PUCSORTHOVIEW
350
1F5
  3
STYLESHEET
350
1EB
  3
TSTACKALIGN
350
1E8
  3
TSTACKSIZE
350
1E9
  3
UCSBASE
350
1FF
  3
UCSORGBACK
350
205
  3
UCSORGBOTTOM
350
201
  3
UCSORGFRONT
350
204
  3
UCSORGLEFT
350
202
  3
UCSORGRIGHT
350
203
  3
UCSORGTOP
350
200
  3
UCSORTHOREF
350
1FD
  3
UCSORTHOVIEW
350
1FE
  3
VERSIONGUID
350
1F2
  0
DICTIONARY
  5
207
102
{ACAD_REACTORS
330
C
102
}
330
C
100
AcDbDictionary
  3
DIMASSOC
350
20A
  3
HIDETEXT
350
20B
  0
MATERIAL
  5
3D
102
{ACAD_REACTORS
330
3B
102
}
102
{ACAD_XDICTIONARY
360
20E
102
}
330
3B
100
AcDbMaterial
  1
ByBlock
  0
MATERIAL
  5
3C
102
{ACAD_REACTORS
330
3B
102
}
102
{ACAD_XDICTIONARY
360
20C
102
}
330
3B
100
AcDbMaterial
  1
ByLayer
  0
MATERIAL
  5
3E
102
{ACAD_REACTORS
330
3B
102
}
102
{ACAD_XDICTIONARY
360
210
102
}
330
3B
100
AcDbMaterial
  1
Global
  0
MLINESTYLE
  5
18
102
{ACAD_REACTORS
330
17
102
}
330
17
100
AcDbMlineStyle
  2
Standard
 70
     0
  3

 62
   256
 51
90.0
 52
90.0
 71
     2
 49
0.5
 62
   256
  6
BYLAYER
 49
-0.5
 62
   256
  6
BYLAYER
  0
ACAD_PROXY_OBJECT
  5
2F
102
{ACAD_REACTORS
330
2A
102
}
330
2A
100
AcDbProxyObject
 90
      499
 91
      501
 93
      436
310
42CC9915DA5C99599C985B595049028333333333333E3BF0000000000000FB0107901411070040501600405405064090741402480A0340
1001
ACAD
1000
AcDbSavedByObjectVersion
1070
     0
  0
ACAD_PROXY_OBJECT
  5
31
102
{ACAD_REACTORS
330
2A
102
}
330
2A
100
AcDbProxyObject
 90
      499
 91
      501
 93
      500
310
424CD108121A5919195B90640502408333333333333E3BF0000000000000FB01079024090700405020000000000001110200405405064090740C02480A0340
1001
ACAD
1000
AcDbSavedByObjectVersion
1070
     0
  0
ACAD_PROXY_OBJECT
  5
30
102
{ACAD_REACTORS
330
2A
102
}
330
2A
100
AcDbProxyObject
 90
      499
 91
      501
 93
      436
310
42CCD915DA5C99599C985B595059028333333333333E3BF0000000000000FB0107901411070040501600405405064090741402480A0340
1001
ACAD
1000
AcDbSavedByObjectVersion
1070
     0
  0
ACAD_PROXY_OBJECT
  5
32
102
{ACAD_REACTORS
330
2A
102
}
330
2A
100
AcDbProxyObject
 90
      499
 91
      501
 93
      388
310
4150985CDA58D07406404333333333333E3BF0000000000000FB0107A41107004050150841D405064090741402480A0350
1001
ACAD
1000
AcDbSavedByObjectVersion
1070
     0
  0
ACAD_PROXY_OBJECT
  5
36
102
{ACAD_REACTORS
330
2A
102
}
330
2A
100
AcDbProxyObject
 90
      499
 91
      501
 93
      428
310
42109C9A59DA1D195B90C409028333333333333E3BF0000000000000FB010790141107004050150841D405064090741402480A029950
1001
ACAD
1000
AcDbSavedByObjectVersion
1070
     0
  0
ACAD_PROXY_OBJECT
  5
3A
102
{ACAD_REACTORS
330
2A
102
}
330
2A
100
AcDbProxyObject
 90
      499
 91
      501
 93
      452
310
42D0DBDB1BDC90DA185B99D95104090240C333333333333E3BF0000000000000FB0108901411070040501508421405064090741402480A0350
1001
ACAD
1000
AcDbSavedByObjectVersion
1070
     0
  0
ACAD_PROXY_OBJECT
  5
34
102
{ACAD_REACTORS
330
2A
102
}
330
2A
100
AcDbProxyObject
 90
      499
 91
      501
 93
      500
310
4290DBDB98D95C1D1D585B10940D028333333333333E3BF0000000000000FB0107902409070040501000000000000111010841D405064090740C02480A0340
1001
ACAD
1000
AcDbSavedByObjectVersion
1070
     0
  0
ACAD_PROXY_OBJECT
  5
35
102
{ACAD_REACTORS
330
2A
102
}
330
2A
100
AcDbProxyObject
 90
      499
 91
      501
 93
      412
310
40D11A5B50B409028333333333333E3BF0000000000000FB010790141107004050150841D405064090741402480A02677FFFFFD0
1001
ACAD
1000
AcDbSavedByObjectVersion
1070
     0
  0
ACAD_PROXY_OBJECT
  5
39
102
{ACAD_REACTORS
330
2A
102
}
330
2A
100
AcDbProxyObject
 90
      499
 91
      501
 93
      444
310
42D19858D95C185D1D195C9B90F409028333333333333E3BF0000000000000FB010790141107004050150841D405064090741402480A0350
1001
ACAD
1000
AcDbSavedByObjectVersion
1070
     0
  0
ACAD_PROXY_OBJECT
  5
2B
102
{ACAD_REACTORS
330
2A
102
}
330
2A
100
AcDbProxyObject
 90
      499
 91
      501
 93
      388
310
41119B185D240901404333333333333E3BF0000000000000F9010740A41107004050150841D405064090741402480A1B50
1001
ACAD
1000
AcDbSavedByObjectVersion
1070
     0
  0
ACAD_PROXY_OBJECT
  5
2C
102
{ACAD_REACTORS
330
2A
102
}
330
2A
100
AcDbProxyObject
 90
      499
 91
      501
 93
      476
310
43519B185D15DA5D1A115919D95CD0140901404333333333333E3BF0000000000000F9010740901411070040501600405405064090741402480A1B50
1001
ACAD
1000
AcDbSavedByObjectVersion
1070
     0
  0
ACAD_PROXY_OBJECT
  5
2D
102
{ACAD_REACTORS
330
2A
102
}
330
2A
100
AcDbProxyObject
 90
      499
 91
      501
 93
      412
310
41D1DBDD5C985D5910240902404333333333333E3BF0000000000000F9010740A411070040501641D405064090741402480A1B50
1001
ACAD
1000
AcDbSavedByObjectVersion
1070
     0
  0
ACAD_PROXY_OBJECT
  5
2E
102
{ACAD_REACTORS
330
2A
102
}
330
2A
100
AcDbProxyObject
 90
      499
 91
      501
 93
      500
310
4411DBDD5C985D5915DA5D1A115919D95CD0340902404333333333333E3BF0000000000000F9010740901411070040501600405405064090741402480A1B50
1001
ACAD
1000
AcDbSavedByObjectVersion
1070
     0
  0
ACAD_PROXY_OBJECT
  5
38
102
{ACAD_REACTORS
330
2A
102
}
330
2A
100
AcDbProxyObject
 90
      499
 91
      501
 93
      444
310
42D31A5B995C185D1D195C9B90E409028333333333333E3BF0000000000000FB010790141107004050750841D405064090741402483A0350
1001
ACAD
1000
AcDbSavedByObjectVersion
1070
     0
  0
ACAD_PROXY_OBJECT
  5
33
102
{ACAD_REACTORS
330
2A
102
}
330
2A
100
AcDbProxyObject
 90
      499
 91
      501
 93
      420
310
425499585B1A5CDD1A58D08409028333333333333E3BF0000000000000FB01079019070040501508421405064090741402480A1B40
1001
ACAD
1000
AcDbSavedByObjectVersion
1070
     0
  0
ACAD_PROXY_OBJECT
  5
37
102
{ACAD_REACTORS
330
2A
102
}
330
2A
100
AcDbProxyObject
 90
      499
 91
      501
 93
      412
310
41D51A1A58DAD95B90D409028333333333333E3BF0000000000000FB010790141107004050150C41D405064090741402480A0350
1001
ACAD
1000
AcDbSavedByObjectVersion
1070
     0
  0
XRECORD
  5
1F0
102
{ACAD_REACTORS
330
1E7
102
}
330
1E7
100
AcDbXrecord
 90
        0
  0
XRECORD
  5
206
102
{ACAD_REACTORS
330
1E7
102
}
330
1E7
100
AcDbXrecord
1000
DSTYLE
1002
{
1070
   171
 70
     2
1070
   143
 40
25.4
1070
   274
 70
     2
1070
    41
 40
1.55291427
1070
   289
 70
     2
1070
   141
 40
0.09
1070
    43
 40
30.0
1070
   278
 70
    46
1070
    44
 40
2.0
1070
    42
 40
2.0
1070
   147
 40
0.09
1070
    77
 70
     3
1070
   272
 70
     4
1070
   146
 40
0.5
1070
   279
 70
     2
1070
   283
 70
     1
1070
   145
 40
0.7
1070
   340
340
11
1070
   140
 40
2.8
1070
   288
 70
     1
1002
}
  0
XRECORD
  5
1F1
102
{ACAD_REACTORS
330
1E7
102
}
330
1E7
100
AcDbXrecord
  1
{551EDC81-B33D-4E62-A2CB-BB3B573B6096}
  0
XRECORD
  5
1EA
102
{ACAD_REACTORS
330
1E7
102
}
330
1E7
100
AcDbXrecord
  1

  0
XRECORD
  5
1EF
102
{ACAD_REACTORS
330
1E7
102
}
330
1E7
100
AcDbXrecord
 90
        4
  0
XRECORD
  5
1EC
102
{ACAD_REACTORS
330
1E7
102
}
330
1E7
100
AcDbXrecord
340
1A
  0
XRECORD
  5
1EE
102
{ACAD_REACTORS
330
1E7
102
}
330
1E7
100
AcDbXrecord
 90
    10781
  0
XRECORD
  5
1ED
102
{ACAD_REACTORS
330
1E7
102
}
330
1E7
100
AcDbXrecord
340
19
  0
XRECORD
  5
1F3
102
{ACAD_REACTORS
330
1E7
102
}
330
1E7
100
AcDbXrecord
 40
0.0
  0
XRECORD
  5
1F6
102
{ACAD_REACTORS
330
1E7
102
}
330
1E7
100
AcDbXrecord
340
0
  0
XRECORD
  5
1FC
102
{ACAD_REACTORS
330
1E7
102
}
330
1E7
100
AcDbXrecord
 10
0.0
 20
0.0
 30
0.0
  0
XRECORD
  5
1F8
102
{ACAD_REACTORS
330
1E7
102
}
330
1E7
100
AcDbXrecord
 10
0.0
 20
0.0
 30
0.0
  0
XRECORD
  5
1FB
102
{ACAD_REACTORS
330
1E7
102
}
330
1E7
100
AcDbXrecord
 10
0.0
 20
0.0
 30
0.0
  0
XRECORD
  5
1F9
102
{ACAD_REACTORS
330
1E7
102
}
330
1E7
100
AcDbXrecord
 10
0.0
 20
0.0
 30
0.0
  0
XRECORD
  5
1FA
102
{ACAD_REACTORS
330
1E7
102
}
330
1E7
100
AcDbXrecord
 10
0.0
 20
0.0
 30
0.0
  0
XRECORD
  5
1F7
102
{ACAD_REACTORS
330
1E7
102
}
330
1E7
100
AcDbXrecord
 10
0.0
 20
0.0
 30
0.0
  0
XRECORD
  5
1F4
102
{ACAD_REACTORS
330
1E7
102
}
330
1E7
100
AcDbXrecord
340
0
  0
XRECORD
  5
1F5
102
{ACAD_REACTORS
330
1E7
102
}
330
1E7
100
AcDbXrecord
 70
     0
  0
XRECORD
  5
1EB
102
{ACAD_REACTORS
330
1E7
102
}
330
1E7
100
AcDbXrecord
  1

  0
XRECORD
  5
1E8
102
{ACAD_REACTORS
330
1E7
102
}
330
1E7
100
AcDbXrecord
 90
        1
  0
XRECORD
  5
1E9
102
{ACAD_REACTORS
330
1E7
102
}
330
1E7
100
AcDbXrecord
 90
       70
  0
XRECORD
  5
1FF
102
{ACAD_REACTORS
330
1E7
102
}
330
1E7
100
AcDbXrecord
340
0
  0
XRECORD
  5
205
102
{ACAD_REACTORS
330
1E7
102
}
330
1E7
100
AcDbXrecord
 10
0.0
 20
0.0
 30
0.0
  0
XRECORD
  5
201
102
{ACAD_REACTORS
330
1E7
102
}
330
1E7
100
AcDbXrecord
 10
0.0
 20
0.0
 30
0.0
  0
XRECORD
  5
204
102
{ACAD_REACTORS
330
1E7
102
}
330
1E7
100
AcDbXrecord
 10
0.0
 20
0.0
 30
0.0
  0
XRECORD
  5
202
102
{ACAD_REACTORS
330
1E7
102
}
330
1E7
100
AcDbXrecord
 10
0.0
 20
0.0
 30
0.0
  0
XRECORD
  5
203
102
{ACAD_REACTORS
330
1E7
102
}
330
1E7
100
AcDbXrecord
 10
0.0
 20
0.0
 30
0.0
  0
XRECORD
  5
200
102
{ACAD_REACTORS
330
1E7
102
}
330
1E7
100
AcDbXrecord
 10
0.0
 20
0.0
 30
0.0
  0
XRECORD
  5
1FD
102
{ACAD_REACTORS
330
1E7
102
}
330
1E7
100
AcDbXrecord
340
0
  0
XRECORD
  5
1FE
102
{ACAD_REACTORS
330
1E7
102
}
330
1E7
100
AcDbXrecord
 70
     0
  0
XRECORD
  5
1F2
102
{ACAD_REACTORS
330
1E7
102
}
330
1E7
100
AcDbXrecord
  1
{FAEB1C32-E019-11D5-929B-00C0DF256EC4}
  0
DICTIONARYVAR
  5
20A
102
{ACAD_REACTORS
330
207
102
}
330
207
100
DictionaryVariables
280
     0
  1
1
  0
DICTIONARYVAR
  5
20B
102
{ACAD_REACTORS
330
207
102
}
330
207
100
DictionaryVariables
280
     0
  1
1
  0
DICTIONARY
  5
20E
330
3D
100
AcDbDictionary
280
     1
  3
ACAD_XREC_ROUNDTRIP
360
20F
  0
DICTIONARY
  5
20C
330
3C
100
AcDbDictionary
280
     1
  3
ACAD_XREC_ROUNDTRIP
360
20D
  0
DICTIONARY
  5
210
330
3E
100
AcDbDictionary
280
     1
  3
ACAD_XREC_ROUNDTRIP
360
211
  0
XRECORD
  5
20F
102
{ACAD_REACTORS
330
20E
102
}
330
20E
100
AcDbXrecord
102
MATERIAL
148
0.0
149
0.0
149
0.0
 93
        0
 94
      127
282
     0
 72
     1
 77
     1
171
     1
175
     1
179
     1
273
     0
  0
XRECORD
  5
20D
102
{ACAD_REACTORS
330
20C
102
}
330
20C
100
AcDbXrecord
102
MATERIAL
148
0.0
149
0.0
149
0.0
 93
        0
 94
      127
282
     0
 72
     1
 77
     1
171
     1
175
     1
179
     1
273
     0
  0
XRECORD
  5
211
102
{ACAD_REACTORS
330
210
102
}
330
210
100
AcDbXrecord
102
MATERIAL
148
0.0
149
0.0
149
0.0
 93
        0
 94
      127
282
     0
 72
     1
 77
     1
171
     1
175
     1
179
     1
273
     0
  0
ENDSEC
  0
EOF
