  0
SECTION
  2
HEADER
  9
$ACADVER
  1
AC1014
  9
$ACADMAINTVER
 70
     9
  9
$DWGCODEPAGE
  3
ANSI_932
  9
$INSBASE
 10
0.0
 20
0.0
 30
0.0
  9
$EXTMIN
 10
94.57989870520498
 20
131.7443837040082
 30
0.0
  9
$EXTMAX
 10
775.0564859940679
 20
399.4467215449117
 30
0.0
  9
$LIMMIN
 10
0.0
 20
0.0
  9
$LIMMAX
 10
420.0
 20
297.0
  9
$ORTHOMODE
 70
     0
  9
$REGENMODE
 70
     1
  9
$FILLMODE
 70
     1
  9
$QTEXTMODE
 70
     0
  9
$MIRRTEXT
 70
     1
  9
$DRAGMODE
 70
     2
  9
$LTSCALE
 40
0.5
  9
$OSMODE
 70
    37
  9
$ATTMODE
 70
     1
  9
$TEXTSIZE
 40
5.6
  9
$TRACEWID
 40
0.05
  9
$TEXTSTYLE
  7
STANDARD
  9
$CLAYER
  8
0
  9
$CELTYPE
  6
BYLAYER
  9
$CECOLOR
 62
   256
  9
$CELTSCALE
 40
1.0
  9
$DELOBJ
 70
     1
  9
$DISPSILH
 70
     0
  9
$DIMSCALE
 40
1.0
  9
$DIMASZ
 40
1.55291427
  9
$DIMEXO
 40
2.0
  9
$DIMDLI
 40
30.0
  9
$DIMRND
 40
0.0
  9
$DIMDLE
 40
0.0
  9
$DIMEXE
 40
2.0
  9
$DIMTP
 40
0.0
  9
$DIMTM
 40
0.0
  9
$DIMTXT
 40
2.8
  9
$DIMCEN
 40
0.09
  9
$DIMTSZ
 40
0.0
  9
$DIMTOL
 70
     0
  9
$DIMLIM
 70
     0
  9
$DIMTIH
 70
     0
  9
$DIMTOH
 70
     0
  9
$DIMSE1
 70
     0
  9
$DIMSE2
 70
     0
  9
$DIMTAD
 70
     3
  9
$DIMZIN
 70
     8
  9
$DIMBLK
  1

  9
$DIMASO
 70
     1
  9
$DIMSHO
 70
     1
  9
$DIMPOST
  1

  9
$DIMAPOST
  1

  9
$DIMALT
 70
     0
  9
$DIMALTD
 70
     2
  9
$DIMALTF
 40
25.4
  9
$DIMLFAC
 40
1.0
  9
$DIMTOFL
 70
     1
  9
$DIMTVP
 40
0.7
  9
$DIMTIX
 70
     0
  9
$DIMSOXD
 70
     0
  9
$DIMSAH
 70
     0
  9
$DIMBLK1
  1

  9
$DIMBLK2
  1

  9
$DIMSTYLE
  2
STANDARD
  9
$DIMCLRD
 70
     0
  9
$DIMCLRE
 70
     0
  9
$DIMCLRT
 70
     0
  9
$DIMTFAC
 40
0.5
  9
$DIMGAP
 40
0.09
  9
$DIMJUST
 70
     0
  9
$DIMSD1
 70
     0
  9
$DIMSD2
 70
     0
  9
$DIMTOLJ
 70
     1
  9
$DIMTZIN
 70
     8
  9
$DIMALTZ
 70
     0
  9
$DIMALTTZ
 70
     0
  9
$DIMFIT
 70
     5
  9
$DIMUPT
 70
     1
  9
$DIMUNIT
 70
     2
  9
$DIMDEC
 70
     2
  9
$DIMTDEC
 70
     4
  9
$DIMALTU
 70
     2
  9
$DIMALTTD
 70
     2
  9
$DIMTXSTY
  7
STANDARD
  9
$DIMAUNIT
 70
     0
  9
$LUNITS
 70
     2
  9
$LUPREC
 70
     4
  9
$SKETCHINC
 40
0.1
  9
$FILLETRAD
 40
0.5
  9
$AUNITS
 70
     0
  9
$AUPREC
 70
     0
  9
$MENU
  1
.
  9
$ELEVATION
 40
0.0
  9
$PELEVATION
 40
0.0
  9
$THICKNESS
 40
0.0
  9
$LIMCHECK
 70
     0
  9
$CHAMFERA
 40
0.5
  9
$CHAMFERB
 40
0.5
  9
$CHAMFERC
 40
1.0
  9
$CHAMFERD
 40
0.0
  9
$SKPOLY
 70
     0
  9
$TDCREATE
 40
2460164.793703704
  9
$TDUPDATE
 40
2460164.418714919
  9
$TDINDWG
 40
0.0000000116
  9
$TDUSRTIMER
 40
0.0000000116
  9
$USRTIMER
 70
     1
  9
$ANGBASE
 50
0.0
  9
$ANGDIR
 70
     0
  9
$PDMODE
 70
     0
  9
$PDSIZE
 40
0.0
  9
$PLINEWID
 40
0.0
  9
$COORDS
 70
     1
  9
$SPLFRAME
 70
     0
  9
$SPLINETYPE
 70
     6
  9
$SPLINESEGS
 70
     8
  9
$ATTDIA
 70
     0
  9
$ATTREQ
 70
     1
  9
$HANDLING
 70
     1
  9
$HANDSEED
  5
212
  9
$SURFTAB1
 70
     6
  9
$SURFTAB2
 70
     6
  9
$SURFTYPE
 70
     6
  9
$SURFU
 70
     6
  9
$SURFV
 70
     6
  9
$UCSNAME
  2

  9
$UCSORG
 10
0.0
 20
0.0
 30
0.0
  9
$UCSXDIR
 10
1.0
 20
0.0
 30
0.0
  9
$UCSYDIR
 10
0.0
 20
1.0
 30
0.0
  9
$PUCSNAME
  2

  9
$PUCSORG
 10
0.0
 20
0.0
 30
0.0
  9
$PUCSXDIR
 10
1.0
 20
0.0
 30
0.0
  9
$PUCSYDIR
 10
0.0
 20
1.0
 30
0.0
  9
$USERI1
 70
     0
  9
$USERI2
 70
     0
  9
$USERI3
 70
     0
  9
$USERI4
 70
     0
  9
$USERI5
 70
     0
  9
$USERR1
 40
0.0
  9
$USERR2
 40
0.0
  9
$USERR3
 40
0.0
  9
$USERR4
 40
0.0
  9
$USERR5
 40
0.0
  9
$WORLDVIEW
 70
     1
  9
$SHADEDGE
 70
     3
  9
$SHADEDIF
 70
    70
  9
$TILEMODE
 70
     1
  9
$MAXACTVP
 70
    64
  9
$PINSBASE
 10
0.0
 20
0.0
 30
0.0
  9
$PLIMCHECK
 70
     0
  9
$PEXTMIN
 10
0.0
 20
0.0
 30
0.0
  9
$PEXTMAX
 10
420.0
 20
297.0
 30
0.0
  9
$PLIMMIN
 10
0.0
 20
0.0
  9
$PLIMMAX
 10
420.0
 20
297.0
  9
$UNITMODE
 70
     0
  9
$VISRETAIN
 70
     1
  9
$PLINEGEN
 70
     0
  9
$PSLTSCALE
 70
     1
  9
$TREEDEPTH
 70
  3020
  9
$PICKSTYLE
 70
     1
  9
$CMLSTYLE
  2
STANDARD
  9
$CMLJUST
 70
     0
  9
$CMLSCALE
 40
1.0
  9
$PROXYGRAPHICS
 70
     1
  9
$MEASUREMENT
 70
     1
  0
ENDSEC
  0
SECTION
  2
CLASSES
  0
CLASS
  1
ACDBDICTIONARYWDFLT
  2
AcDbDictionaryWithDefault
  3
ObjectDBX Classes
 90
        0
280
     0
281
     0
  0
CLASS
  1
VISUALSTYLE
  2
AcDbVisualStyle
  3
ObjectDBX Classes
 90
     4095
280
     0
281
     0
  0
CLASS
  1
MATERIAL
  2
AcDbMaterial
  3
ObjectDBX Classes
 90
     1153
280
     0
281
     0
  0
CLASS
  1
DICTIONARYVAR
  2
AcDbDictionaryVar
  3
ObjectDBX Classes
 90
        0
280
     0
281
     0
  0
CLASS
  1
XRECORD
  2
AcDbXrecord
  3
AutoCAD 2000
 90
        0
280
     0
281
     0
  0
CLASS
  1
LWPOLYLINE
  2
AcDbPolyline
  3
AutoCAD 2000
 90
        0
280
     0
281
     1
  0
CLASS
  1
HATCH
  2
AcDbHatch
  3
AutoCAD 2000
 90
        0
280
     0
281
     1
  0
CLASS
  1
ACDBPLACEHOLDER
  2
AcDbPlaceHolder
  3
ObjectDBX Classes
 90
        0
280
     0
281
     0
  0
CLASS
  1
LAYOUT
  2
AcDbLayout
  3
ObjectDBX Classes
 90
        0
280
     0
281
     0
  0
ENDSEC
  0
SECTION
  2
TABLES
  0
TABLE
  2
VPORT
  5
8
330
0
100
AcDbSymbolTable
 70
     1
  0
VPORT
  5
29
330
8
100
AcDbSymbolTableRecord
100
AcDbViewportTableRecord
  2
*ACTIVE
 70
     0
 10
0.0
 20
0.0
 11
1.0
 21
1.0
 12
10.42990654205607
 22
4.5
 13
0.0
 23
0.0
 14
0.5
 24
0.5
 15
0.5
 25
0.5
 16
0.0
 26
0.0
 36
1.0
 17
0.0
 27
0.0
 37
0.0
 40
9.0
 41
1.972972972850329
 42
50.0
 43
0.0
 44
0.0
 50
0.0
 51
0.0
 71
     0
 72
   100
 73
     1
 74
     3
 75
     0
 76
     0
 77
     0
 78
     0
  0
ENDTAB
  0
TABLE
  2
LTYPE
  5
5
330
0
100
AcDbSymbolTable
 70
     9
  0
LTYPE
  5
14
330
5
100
AcDbSymbolTableRecord
100
AcDbLinetypeTableRecord
  2
BYBLOCK
 70
     0
  3

 72
    65
 73
     0
 40
0.0
  0
LTYPE
  5
15
330
5
100
AcDbSymbolTableRecord
100
AcDbLinetypeTableRecord
  2
BYLAYER
 70
     0
  3

 72
    65
 73
     0
 40
0.0
  0
LTYPE
  5
16
330
5
100
AcDbSymbolTableRecord
100
AcDbLinetypeTableRecord
  2
CONTINUOUS
 70
     0
  3
Solid line
 72
    65
 73
     0
 40
0.0
  0
LTYPE
  5
8E
330
5
100
AcDbSymbolTableRecord
100
AcDbLinetypeTableRecord
  2
DOT
 70
     0
  3
DOT
 72
    65
 73
     2
 40
4.0
 49
6.0
 74
     0
 49
-2.0
 74
     0
  0
LTYPE
  5
8F
330
5
100
AcDbSymbolTableRecord
100
AcDbLinetypeTableRecord
  2
HIDDEN
 70
     0
  3
HIDDEN
 72
    65
 73
     2
 40
4.2
 49
8.4
 74
     0
 49
-4.2
 74
     0
  0
LTYPE
  5
90
330
5
100
AcDbSymbolTableRecord
100
AcDbLinetypeTableRecord
  2
DASHDOT
 70
     0
  3
DASHDOT
 72
    65
 73
     4
 40
14.5
 49
30.0
 74
     0
 49
-9.0
 74
     0
 49
2.5
 74
     0
 49
-9.0
 74
     0
  0
LTYPE
  5
91
330
5
100
AcDbSymbolTableRecord
100
AcDbLinetypeTableRecord
  2
PHANTOM
 70
     0
  3
PHANTOM
 72
    65
 73
     6
 40
12.0
 49
30.0
 74
     0
 49
-9.0
 74
     0
 49
2.5
 74
     0
 49
-5.0
 74
     0
 49
2.5
 74
     0
 49
-9.0
 74
     0
  0
LTYPE
  5
92
330
5
100
AcDbSymbolTableRecord
100
AcDbLinetypeTableRecord
  2
ACAD_ISO14W100
 70
     0
  3
ACAD_ISO14W100
 72
    65
 73
     8
 40
1.5
 49
12.0
 74
     0
 49
-3.0
 74
     0
 49
0.5
 74
     0
 49
-3.0
 74
     0
 49
0.5
 74
     0
 49
-3.0
 74
     0
 49
0.5
 74
     0
 49
-3.0
 74
     0
  0
LTYPE
  5
93
330
5
100
AcDbSymbolTableRecord
100
AcDbLinetypeTableRecord
  2
ACAD_ISO06W100
 70
     0
  3
ACAD_ISO06W100
 72
    65
 73
     8
 40
13.5
 49
24.0
 74
     0
 49
-3.0
 74
     0
 49
0.5
 74
     0
 49
-3.0
 74
     0
 49
0.5
 74
     0
 49
-3.0
 74
     0
 49
0.5
 74
     0
 49
-3.0
 74
     0
  0
LTYPE
  5
94
330
5
100
AcDbSymbolTableRecord
100
AcDbLinetypeTableRecord
  2
ACAD_ISO11W100
 70
     0
  3
ACAD_ISO11W100
 72
    65
 73
     6
 40
15.5
 49
12.0
 74
     0
 49
-3.0
 74
     0
 49
12.0
 74
     0
 49
-3.0
 74
     0
 49
0.5
 74
     0
 49
-3.0
 74
     0
  0
LTYPE
  5
95
330
5
100
AcDbSymbolTableRecord
100
AcDbLinetypeTableRecord
  2
ACAD_ISO13W100
 70
     0
  3
ACAD_ISO13W100
 72
    65
 73
     8
 40
13.0
 49
12.0
 74
     0
 49
-3.0
 74
     0
 49
12.0
 74
     0
 49
-3.0
 74
     0
 49
0.5
 74
     0
 49
-3.0
 74
     0
 49
0.5
 74
     0
 49
-3.0
 74
     0
  0
ENDTAB
  0
TABLE
  2
LAYER
  5
2
330
0
100
AcDbSymbolTable
 70
    12
  0
LAYER
  5
10
330
2
100
AcDbSymbolTableRecord
100
AcDbLayerTableRecord
  2
0
 70
     0
 62
     7
  6
CONTINUOUS
  0
LAYER
  5
96
330
2
100
AcDbSymbolTableRecord
100
AcDbLayerTableRecord
  2
1
 70
     0
 62
     7
  6
CONTINUOUS
  0
LAYER
  5
97
330
2
100
AcDbSymbolTableRecord
100
AcDbLayerTableRecord
  2
2
 70
     0
 62
   151
  6
CONTINUOUS
  0
LAYER
  5
98
330
2
100
AcDbSymbolTableRecord
100
AcDbLayerTableRecord
  2
3
 70
     0
 62
     3
  6
HIDDEN
  0
LAYER
  5
99
330
2
100
AcDbSymbolTableRecord
100
AcDbLayerTableRecord
  2
4
 70
     0
 62
     1
  6
DASHDOT
  0
LAYER
  5
9A
330
2
100
AcDbSymbolTableRecord
100
AcDbLayerTableRecord
  2
5
 70
     0
 62
     7
  6
CONTINUOUS
  0
LAYER
  5
9B
330
2
100
AcDbSymbolTableRecord
100
AcDbLayerTableRecord
  2
6
 70
     0
 62
     1
  6
CONTINUOUS
  0
LAYER
  5
9C
330
2
100
AcDbSymbolTableRecord
100
AcDbLayerTableRecord
  2
7
 70
     0
 62
     6
  6
CONTINUOUS
  0
LAYER
  5
9D
330
2
100
AcDbSymbolTableRecord
100
AcDbLayerTableRecord
  2
8
 70
     0
 62
     3
  6
CONTINUOUS
  0
LAYER
  5
9E
330
2
100
AcDbSymbolTableRecord
100
AcDbLayerTableRecord
  2
9
 70
     0
 62
     4
  6
CONTINUOUS
  0
LAYER
  5
9F
330
2
100
AcDbSymbolTableRecord
100
AcDbLayerTableRecord
  2
10
 70
     0
 62
     7
  6
CONTINUOUS
  0
LAYER
  5
A0
330
2
100
AcDbSymbolTableRecord
100
AcDbLayerTableRecord
  2
11
 70
     0
 62
     2
  6
CONTINUOUS
  0
ENDTAB
  0
TABLE
  2
STYLE
  5
3
330
0
100
AcDbSymbolTable
 70
     3
  0
STYLE
  5
11
330
3
100
AcDbSymbolTableRecord
100
AcDbTextStyleTableRecord
  2
STANDARD
 70
     0
 40
0.0
 41
1.0
 50
0.0
 71
     0
 42
5.6
  3
txt
  4
bigfont
  0
STYLE
  5
41
330
3
100
AcDbSymbolTableRecord
100
AcDbTextStyleTableRecord
  2
T_STANDARD
 70
     4
 40
10.0
 41
1.0
 50
0.0
 71
     0
 42
10.0
  3
txt
  4
bigfont
  0
STYLE
  5
154
330
3
100
AcDbSymbolTableRecord
100
AcDbTextStyleTableRecord
  2
ＭＳ_ゴシック
 70
     0
 40
0.0
 41
1.0
 50
0.0
 71
     0
 42
0.0
  3

  4

1001
ACAD
1000
ＭＳ ゴシック
1071
      256
  0
ENDTAB
  0
TABLE
  2
VIEW
  5
6
330
0
100
AcDbSymbolTable
 70
     0
  0
ENDTAB
  0
TABLE
  2
UCS
  5
7
330
0
100
AcDbSymbolTable
 70
     0
  0
ENDTAB
  0
TABLE
  2
APPID
  5
9
330
0
100
AcDbSymbolTable
 70
     2
  0
APPID
  5
12
330
9
100
AcDbSymbolTableRecord
100
AcDbRegAppTableRecord
  2
ACAD
 70
     0
  0
APPID
  5
40
330
9
100
AcDbSymbolTableRecord
100
AcDbRegAppTableRecord
  2
ODA
 70
     0
  0
ENDTAB
  0
TABLE
  2
DIMSTYLE
  5
A
330
0
100
AcDbSymbolTable
 70
     1
  0
DIMSTYLE
105
27
102
{ACAD_REACTORS
330
15C
330
164
330
16E
330
178
330
182
330
18C
330
196
330
1A0
330
1AA
330
1B4
330
1BE
330
1C8
330
1D2
330
1DC
330
1E6
102
}
330
A
100
AcDbSymbolTableRecord
100
AcDbDimStyleTableRecord
  2
STANDARD
 70
     0
  3

  4

  5

  6

  7

 40
1.0
 41
0.18
 42
0.0625
 43
0.38
 44
0.18
 45
0.0
 46
0.0
 47
0.0
 48
0.0
140
0.18
141
0.09
142
0.0
143
25.4
144
1.0
145
0.0
146
1.0
147
0.09
 71
     0
 72
     0
 73
     1
 74
     1
 75
     0
 76
     0
 77
     0
 78
     0
170
     0
171
     2
172
     0
173
     0
174
     0
175
     0
176
     0
177
     0
178
     0
270
     2
271
     4
272
     4
273
     2
274
     2
340
11
275
     0
280
     0
281
     0
282
     0
283
     1
284
     0
285
     0
286
     0
287
     3
288
     0
  0
ENDTAB
  0
TABLE
  2
BLOCK_RECORD
  5
1
330
0
100
AcDbSymbolTable
 70
    31
  0
BLOCK_RECORD
  5
1F
330
1
100
AcDbSymbolTableRecord
100
AcDbBlockTableRecord
  2
*MODEL_SPACE
  0
BLOCK_RECORD
  5
1B
330
1
100
AcDbSymbolTableRecord
100
AcDbBlockTableRecord
  2
*PAPER_SPACE
  0
BLOCK_RECORD
  5
42
330
1
100
AcDbSymbolTableRecord
100
AcDbBlockTableRecord
  2
_ORIGIN
  0
BLOCK_RECORD
  5
47
330
1
100
AcDbSymbolTableRecord
100
AcDbBlockTableRecord
  2
_DOTBLANK
  0
BLOCK_RECORD
  5
4C
330
1
100
AcDbSymbolTableRecord
100
AcDbBlockTableRecord
  2
_DOT
  0
BLOCK_RECORD
  5
51
330
1
100
AcDbSymbolTableRecord
100
AcDbBlockTableRecord
  2
_OPEN
  0
BLOCK_RECORD
  5
57
330
1
100
AcDbSymbolTableRecord
100
AcDbBlockTableRecord
  2
_CLOSED
  0
BLOCK_RECORD
  5
5E
330
1
100
AcDbSymbolTableRecord
100
AcDbBlockTableRecord
  2
_CLOSEDBLANK
  0
BLOCK_RECORD
  5
64
330
1
100
AcDbSymbolTableRecord
100
AcDbBlockTableRecord
  2
_ARROWFILLED
  0
BLOCK_RECORD
  5
68
330
1
100
AcDbSymbolTableRecord
100
AcDbBlockTableRecord
  2
_BOXBLANK
  0
BLOCK_RECORD
  5
70
330
1
100
AcDbSymbolTableRecord
100
AcDbBlockTableRecord
  2
_BOXFILLED
  0
BLOCK_RECORD
  5
75
330
1
100
AcDbSymbolTableRecord
100
AcDbBlockTableRecord
  2
_INTEGRAL
  0
BLOCK_RECORD
  5
7A
330
1
100
AcDbSymbolTableRecord
100
AcDbBlockTableRecord
  2
_OBLIQUE
  0
BLOCK_RECORD
  5
7E
330
1
100
AcDbSymbolTableRecord
100
AcDbBlockTableRecord
  2
_NONE
  0
BLOCK_RECORD
  5
81
330
1
100
AcDbSymbolTableRecord
100
AcDbBlockTableRecord
  2
MARK_OPEN
  0
BLOCK_RECORD
  5
86
330
1
100
AcDbSymbolTableRecord
100
AcDbBlockTableRecord
  2
MARK_ORIGIN
  0
BLOCK_RECORD
  5
8A
330
1
100
AcDbSymbolTableRecord
100
AcDbBlockTableRecord
  2
MARK_DOT
  0
BLOCK_RECORD
  5
155
330
1
100
AcDbSymbolTableRecord
100
AcDbBlockTableRecord
  2
DIM1
  0
BLOCK_RECORD
  5
15D
330
1
100
AcDbSymbolTableRecord
100
AcDbBlockTableRecord
  2
DIM2
  0
BLOCK_RECORD
  5
165
330
1
100
AcDbSymbolTableRecord
100
AcDbBlockTableRecord
  2
DIM3
  0
BLOCK_RECORD
  5
16F
330
1
100
AcDbSymbolTableRecord
100
AcDbBlockTableRecord
  2
DIM4
  0
BLOCK_RECORD
  5
179
330
1
100
AcDbSymbolTableRecord
100
AcDbBlockTableRecord
  2
DIM5
  0
BLOCK_RECORD
  5
183
330
1
100
AcDbSymbolTableRecord
100
AcDbBlockTableRecord
  2
DIM6
  0
BLOCK_RECORD
  5
18D
330
1
100
AcDbSymbolTableRecord
100
AcDbBlockTableRecord
  2
DIM7
  0
BLOCK_RECORD
  5
197
330
1
100
AcDbSymbolTableRecord
100
AcDbBlockTableRecord
  2
DIM8
  0
BLOCK_RECORD
  5
1A1
330
1
100
AcDbSymbolTableRecord
100
AcDbBlockTableRecord
  2
DIM9
  0
BLOCK_RECORD
  5
1AB
330
1
100
AcDbSymbolTableRecord
100
AcDbBlockTableRecord
  2
DIM10
  0
BLOCK_RECORD
  5
1B5
330
1
100
AcDbSymbolTableRecord
100
AcDbBlockTableRecord
  2
DIM11
  0
BLOCK_RECORD
  5
1BF
330
1
100
AcDbSymbolTableRecord
100
AcDbBlockTableRecord
  2
DIM12
  0
BLOCK_RECORD
  5
1C9
330
1
100
AcDbSymbolTableRecord
100
AcDbBlockTableRecord
  2
DIM13
  0
BLOCK_RECORD
  5
1D3
330
1
100
AcDbSymbolTableRecord
100
AcDbBlockTableRecord
  2
DIM14
  0
BLOCK_RECORD
  5
1DD
330
1
100
AcDbSymbolTableRecord
100
AcDbBlockTableRecord
  2
DIM15
  0
ENDTAB
  0
ENDSEC
  0
SECTION
  2
BLOCKS
  0
BLOCK
  5
20
330
1F
100
AcDbEntity
  8
0
100
AcDbBlockBegin
  2
*MODEL_SPACE
 70
     0
 10
0.0
 20
0.0
 30
0.0
  3
*MODEL_SPACE
  1

  0
ENDBLK
  5
21
330
1F
100
AcDbEntity
  8
0
100
AcDbBlockEnd
  0
BLOCK
  5
1C
330
1B
100
AcDbEntity
 67
     1
  8
0
100
AcDbBlockBegin
  2
*PAPER_SPACE
 70
     0
 10
0.0
 20
0.0
 30
0.0
  3
*PAPER_SPACE
  1

  0
ENDBLK
  5
1D
330
1B
100
AcDbEntity
 67
     1
  8
0
100
AcDbBlockEnd
  0
BLOCK
  5
45
330
42
100
AcDbEntity
  8
0
100
AcDbBlockBegin
  2
_ORIGIN
 70
     0
 10
0.0
 20
0.0
 30
0.0
  3
_ORIGIN
  1

  0
CIRCLE
  5
43
330
42
100
AcDbEntity
  8
0
 62
     0
100
AcDbCircle
 10
0.0
 20
0.0
 30
0.0
 40
0.5
  0
LINE
  5
44
330
42
100
AcDbEntity
  8
0
 62
     0
100
AcDbLine
 10
0.0
 20
0.0
 30
0.0
 11
-1.0
 21
0.0
 31
0.0
  0
ENDBLK
  5
46
330
42
100
AcDbEntity
  8
0
100
AcDbBlockEnd
  0
BLOCK
  5
4A
330
47
100
AcDbEntity
  8
0
100
AcDbBlockBegin
  2
_DOTBLANK
 70
     0
 10
0.0
 20
0.0
 30
0.0
  3
_DOTBLANK
  1

  0
CIRCLE
  5
48
330
47
100
AcDbEntity
  8
0
 62
     0
100
AcDbCircle
 10
0.0
 20
0.0
 30
0.0
 40
0.5
  0
LINE
  5
49
330
47
100
AcDbEntity
  8
0
 62
     0
100
AcDbLine
 10
-0.5
 20
0.0
 30
0.0
 11
-1.0
 21
0.0
 31
0.0
  0
ENDBLK
  5
4B
330
47
100
AcDbEntity
  8
0
100
AcDbBlockEnd
  0
BLOCK
  5
4F
330
4C
100
AcDbEntity
  8
0
100
AcDbBlockBegin
  2
_DOT
 70
     0
 10
0.0
 20
0.0
 30
0.0
  3
_DOT
  1

  0
LWPOLYLINE
  5
4D
330
4C
100
AcDbEntity
  8
0
 62
     0
100
AcDbPolyline
 90
        2
 70
     1
 43
0.5
 10
-0.25
 20
0.0
 42
1.0
 10
0.25
 20
0.0
 42
1.0
  0
LINE
  5
4E
330
4C
100
AcDbEntity
  8
0
 62
     0
100
AcDbLine
 10
-0.5
 20
0.0
 30
0.0
 11
-1.0
 21
0.0
 31
0.0
  0
ENDBLK
  5
50
330
4C
100
AcDbEntity
  8
0
100
AcDbBlockEnd
  0
BLOCK
  5
55
330
51
100
AcDbEntity
  8
0
100
AcDbBlockBegin
  2
_OPEN
 70
     0
 10
0.0
 20
0.0
 30
0.0
  3
_OPEN
  1

  0
LINE
  5
52
330
51
100
AcDbEntity
  8
0
 62
     0
100
AcDbLine
 10
0.0
 20
0.0
 30
0.0
 11
-1.0
 21
0.1666666666666667
 31
0.0
  0
LINE
  5
53
330
51
100
AcDbEntity
  8
0
 62
     0
100
AcDbLine
 10
0.0
 20
0.0
 30
0.0
 11
-1.0
 21
-0.1666666666666667
 31
0.0
  0
LINE
  5
54
330
51
100
AcDbEntity
  8
0
 62
     0
100
AcDbLine
 10
0.0
 20
0.0
 30
0.0
 11
-1.0
 21
0.0
 31
0.0
  0
ENDBLK
  5
56
330
51
100
AcDbEntity
  8
0
100
AcDbBlockEnd
  0
BLOCK
  5
5C
330
57
100
AcDbEntity
  8
0
100
AcDbBlockBegin
  2
_CLOSED
 70
     0
 10
0.0
 20
0.0
 30
0.0
  3
_CLOSED
  1

  0
LINE
  5
58
330
57
100
AcDbEntity
  8
0
 62
     0
100
AcDbLine
 10
0.0
 20
0.0
 30
0.0
 11
-1.0
 21
0.1666666666666667
 31
0.0
  0
LINE
  5
59
330
57
100
AcDbEntity
  8
0
 62
     0
100
AcDbLine
 10
0.0
 20
0.0
 30
0.0
 11
-1.0
 21
-0.1666666666666667
 31
0.0
  0
LINE
  5
5A
330
57
100
AcDbEntity
  8
0
 62
     0
100
AcDbLine
 10
-1.0
 20
0.1666666666666667
 30
0.0
 11
-1.0
 21
-0.1666666666666667
 31
0.0
  0
LINE
  5
5B
330
57
100
AcDbEntity
  8
0
 62
     0
100
AcDbLine
 10
0.0
 20
0.0
 30
0.0
 11
-1.0
 21
0.0
 31
0.0
  0
ENDBLK
  5
5D
330
57
100
AcDbEntity
  8
0
100
AcDbBlockEnd
  0
BLOCK
  5
62
330
5E
100
AcDbEntity
  8
0
100
AcDbBlockBegin
  2
_CLOSEDBLANK
 70
     0
 10
0.0
 20
0.0
 30
0.0
  3
_CLOSEDBLANK
  1

  0
LINE
  5
5F
330
5E
100
AcDbEntity
  8
0
 62
     0
100
AcDbLine
 10
0.0
 20
0.0
 30
0.0
 11
-1.0
 21
0.1666666666666667
 31
0.0
  0
LINE
  5
60
330
5E
100
AcDbEntity
  8
0
 62
     0
100
AcDbLine
 10
0.0
 20
0.0
 30
0.0
 11
-1.0
 21
-0.1666666666666667
 31
0.0
  0
LINE
  5
61
330
5E
100
AcDbEntity
  8
0
 62
     0
100
AcDbLine
 10
-1.0
 20
0.1666666666666667
 30
0.0
 11
-1.0
 21
-0.1666666666666667
 31
0.0
  0
ENDBLK
  5
63
330
5E
100
AcDbEntity
  8
0
100
AcDbBlockEnd
  0
BLOCK
  5
66
330
64
100
AcDbEntity
  8
0
100
AcDbBlockBegin
  2
_ARROWFILLED
 70
     0
 10
0.0
 20
0.0
 30
0.0
  3
_ARROWFILLED
  1

  0
SOLID
  5
65
330
64
100
AcDbEntity
  8
0
 62
     0
100
AcDbTrace
 10
0.0
 20
0.0
 30
0.0
 11
-1.0
 21
-0.1666666666666667
 31
0.0
 12
-1.0
 22
0.1666666666666667
 32
0.0
 13
0.0
 23
0.0
 33
0.0
  0
ENDBLK
  5
67
330
64
100
AcDbEntity
  8
0
100
AcDbBlockEnd
  0
BLOCK
  5
6E
330
68
100
AcDbEntity
  8
0
100
AcDbBlockBegin
  2
_BOXBLANK
 70
     0
 10
0.0
 20
0.0
 30
0.0
  3
_BOXBLANK
  1

  0
LINE
  5
69
330
68
100
AcDbEntity
  8
0
 62
     0
100
AcDbLine
 10
-0.5
 20
-0.5
 30
0.0
 11
0.5
 21
-0.5
 31
0.0
  0
LINE
  5
6A
330
68
100
AcDbEntity
  8
0
 62
     0
100
AcDbLine
 10
0.5
 20
-0.5
 30
0.0
 11
0.5
 21
0.5
 31
0.0
  0
LINE
  5
6B
330
68
100
AcDbEntity
  8
0
 62
     0
100
AcDbLine
 10
0.5
 20
0.5
 30
0.0
 11
-0.5
 21
0.5
 31
0.0
  0
LINE
  5
6C
330
68
100
AcDbEntity
  8
0
 62
     0
100
AcDbLine
 10
-0.5
 20
0.5
 30
0.0
 11
-0.5
 21
-0.5
 31
0.0
  0
LINE
  5
6D
330
68
100
AcDbEntity
  8
0
 62
     0
100
AcDbLine
 10
-0.5
 20
0.0
 30
0.0
 11
-1.0
 21
0.0
 31
0.0
  0
ENDBLK
  5
6F
330
68
100
AcDbEntity
  8
0
100
AcDbBlockEnd
  0
BLOCK
  5
73
330
70
100
AcDbEntity
  8
0
100
AcDbBlockBegin
  2
_BOXFILLED
 70
     0
 10
0.0
 20
0.0
 30
0.0
  3
_BOXFILLED
  1

  0
SOLID
  5
71
330
70
100
AcDbEntity
  8
0
 62
     0
100
AcDbTrace
 10
-0.5
 20
0.5
 30
0.0
 11
0.5
 21
0.5
 31
0.0
 12
-0.5
 22
-0.5
 32
0.0
 13
0.5
 23
-0.5
 33
0.0
  0
LINE
  5
72
330
70
100
AcDbEntity
  8
0
 62
     0
100
AcDbLine
 10
-0.5
 20
0.0
 30
0.0
 11
-1.0
 21
0.0
 31
0.0
  0
ENDBLK
  5
74
330
70
100
AcDbEntity
  8
0
100
AcDbBlockEnd
  0
BLOCK
  5
78
330
75
100
AcDbEntity
  8
0
100
AcDbBlockBegin
  2
_INTEGRAL
 70
     0
 10
0.0
 20
0.0
 30
0.0
  3
_INTEGRAL
  1

  0
ARC
  5
76
330
75
100
AcDbEntity
  8
0
 62
     0
100
AcDbCircle
 10
0.444888
 20
-0.0913346
 30
0.0
 40
0.4541666
100
AcDbArc
 50
101.9999999999999
 51
167.9999999999998
  0
ARC
  5
77
330
75
100
AcDbEntity
  8
0
 62
     0
100
AcDbCircle
 10
-0.444888
 20
0.0913346
 30
0.0
 40
0.4541666
100
AcDbArc
 50
281.9999999999997
 51
347.9999999999997
  0
ENDBLK
  5
79
330
75
100
AcDbEntity
  8
0
100
AcDbBlockEnd
  0
BLOCK
  5
7C
330
7A
100
AcDbEntity
  8
0
100
AcDbBlockBegin
  2
_OBLIQUE
 70
     0
 10
0.0
 20
0.0
 30
0.0
  3
_OBLIQUE
  1

  0
LINE
  5
7B
330
7A
100
AcDbEntity
  8
0
 62
     0
100
AcDbLine
 10
-0.5
 20
-0.5
 30
0.0
 11
0.5
 21
0.5
 31
0.0
  0
ENDBLK
  5
7D
330
7A
100
AcDbEntity
  8
0
100
AcDbBlockEnd
  0
BLOCK
  5
7F
330
7E
100
AcDbEntity
  8
0
100
AcDbBlockBegin
  2
_NONE
 70
     0
 10
0.0
 20
0.0
 30
0.0
  3
_NONE
  1

  0
ENDBLK
  5
80
330
7E
100
AcDbEntity
  8
0
100
AcDbBlockEnd
  0
BLOCK
  5
84
330
81
100
AcDbEntity
  8
0
100
AcDbBlockBegin
  2
MARK_OPEN
 70
     0
 10
0.0
 20
0.0
 30
0.0
  3
MARK_OPEN
  1

  0
LINE
  5
82
330
81
100
AcDbEntity
  8
0
 62
     0
100
AcDbLine
 10
0.0
 20
0.0
 30
0.0
 11
-1.0
 21
0.1666666666666667
 31
0.0
  0
LINE
  5
83
330
81
100
AcDbEntity
  8
0
 62
     0
100
AcDbLine
 10
0.0
 20
0.0
 30
0.0
 11
-1.0
 21
-0.1666666666666667
 31
0.0
  0
ENDBLK
  5
85
330
81
100
AcDbEntity
  8
0
100
AcDbBlockEnd
  0
BLOCK
  5
88
330
86
100
AcDbEntity
  8
0
100
AcDbBlockBegin
  2
MARK_ORIGIN
 70
     0
 10
0.0
 20
0.0
 30
0.0
  3
MARK_ORIGIN
  1

  0
CIRCLE
  5
87
330
86
100
AcDbEntity
  8
0
 62
     0
100
AcDbCircle
 10
0.0
 20
0.0
 30
0.0
 40
0.5
  0
ENDBLK
  5
89
330
86
100
AcDbEntity
  8
0
100
AcDbBlockEnd
  0
BLOCK
  5
8C
330
8A
100
AcDbEntity
  8
0
100
AcDbBlockBegin
  2
MARK_DOT
 70
     0
 10
0.0
 20
0.0
 30
0.0
  3
MARK_DOT
  1

  0
LWPOLYLINE
  5
8B
330
8A
100
AcDbEntity
  8
0
 62
     0
100
AcDbPolyline
 90
        2
 70
     1
 43
0.5
 10
-0.25
 20
0.0
 42
1.0
 10
0.25
 20
0.0
 42
1.0
  0
ENDBLK
  5
8D
330
8A
100
AcDbEntity
  8
0
100
AcDbBlockEnd
  0
BLOCK
  5
156
330
155
100
AcDbEntity
  8
0
100
AcDbBlockBegin
  2
DIM1
 70
     0
 10
0.0
 20
0.0
 30
0.0
  3
DIM1
  1

  0
LINE
  5
158
330
155
100
AcDbEntity
  8
9
  6
CONTINUOUS
 62
     4
100
AcDbLine
 10
413.2530966693427
 20
261.1340741931495
 30
0.0
 11
329.2095185010201
 21
379.8426068545232
 31
0.0
  0
MTEXT
  5
159
330
155
100
AcDbEntity
  8
9
  6
CONTINUOUS
 62
     4
100
AcDbMText
 10
334.4099589917242
 20
372.4971716255769
 30
0.0
 40
4.5
 41
55.71428571428571
 71
     9
 72
     1
  1
φ55
  7
ＭＳ_ゴシック
 11
0.5778267211893602
 21
-0.8161594698829104
 31
0.0
1001
ACAD
1000
ACAD_MTEXT_DEFINED_HEIGHT_BEGIN
1070
    46
1040
4.5
1000
ACAD_MTEXT_DEFINED_HEIGHT_END
  0
INSERT
  5
15A
330
155
100
AcDbEntity
  8
9
  6
CONTINUOUS
 62
     4
100
AcDbBlockReference
  2
_ARROWFILLED
 10
413.2530966693427
 20
261.1340741931495
 30
0.0
 41
3.0
 42
3.0
 43
3.0
 50
305.2978305142593
  0
INSERT
  5
15B
330
155
100
AcDbEntity
  8
9
  6
CONTINUOUS
 62
     4
100
AcDbBlockReference
  2
_ARROWFILLED
 10
381.4726270039287
 20
306.0228450367088
 30
0.0
 41
3.0
 42
3.0
 43
3.0
 50
125.2978305142593
  0
ENDBLK
  5
157
330
155
100
AcDbEntity
  8
0
100
AcDbBlockEnd
  0
BLOCK
  5
15E
330
15D
100
AcDbEntity
  8
0
100
AcDbBlockBegin
  2
DIM2
 70
     0
 10
0.0
 20
0.0
 30
0.0
  3
DIM2
  1

  0
LINE
  5
160
330
15D
100
AcDbEntity
  8
9
  6
CONTINUOUS
 62
     4
100
AcDbLine
 10
407.9918017519096
 20
252.8656669011844
 30
0.0
 11
357.7730335437179
 21
397.9750221720282
 31
0.0
  0
MTEXT
  5
161
330
15D
100
AcDbEntity
  8
9
  6
CONTINUOUS
 62
     4
100
AcDbMText
 10
360.7164322894846
 20
389.4699411128366
 30
0.0
 40
4.5
 41
55.71428571428571
 71
     9
 72
     1
  1
φ65
  7
ＭＳ_ゴシック
 11
0.3270443050853336
 21
-0.9450090065767899
 31
0.0
1001
ACAD
1000
ACAD_MTEXT_DEFINED_HEIGHT_BEGIN
1070
    46
1040
4.5
1000
ACAD_MTEXT_DEFINED_HEIGHT_END
  0
INSERT
  5
162
330
15D
100
AcDbEntity
  8
9
  6
CONTINUOUS
 62
     4
100
AcDbBlockReference
  2
_ARROWFILLED
 10
407.9918017519096
 20
252.8656669011844
 30
0.0
 41
3.0
 42
3.0
 43
3.0
 50
289.0894746890012
  0
INSERT
  5
163
330
15D
100
AcDbEntity
  8
9
  6
CONTINUOUS
 62
     4
100
AcDbBlockReference
  2
_ARROWFILLED
 10
386.7339219213632
 20
314.2912523286758
 30
0.0
 41
3.0
 42
3.0
 43
3.0
 50
109.0894746890012
  0
ENDBLK
  5
15F
330
15D
100
AcDbEntity
  8
0
100
AcDbBlockEnd
  0
BLOCK
  5
166
330
165
100
AcDbEntity
  8
0
100
AcDbBlockBegin
  2
DIM3
 70
     0
 10
0.0
 20
0.0
 30
0.0
  3
DIM3
  1

  0
LINE
  5
168
330
165
100
AcDbEntity
  8
9
  6
CONTINUOUS
 62
     4
100
AcDbLine
 10
309.8628618366362
 20
208.5784596149297
 30
0.0
 11
309.8628618366362
 21
176.11109301947
 31
0.0
  0
LINE
  5
169
330
165
100
AcDbEntity
  8
9
  6
CONTINUOUS
 62
     4
100
AcDbLine
 10
484.8628618366353
 20
208.5784596149297
 30
0.0
 11
484.8628618366353
 21
176.11109301947
 31
0.0
  0
LINE
  5
16A
330
165
100
AcDbEntity
  8
9
  6
CONTINUOUS
 62
     4
100
AcDbLine
 10
309.8628618366362
 20
179.11109301947
 30
0.0
 11
484.8628618366353
 21
179.11109301947
 31
0.0
  0
MTEXT
  5
16B
330
165
100
AcDbEntity
  8
9
  6
CONTINUOUS
 62
     4
100
AcDbMText
 10
397.3628618366357
 20
179.11109301947
 30
0.0
 40
6.0
 41
72.85714285714286
 71
     8
 72
     1
  1
175
  7
ＭＳ_ゴシック
1001
ACAD
1000
ACAD_MTEXT_DEFINED_HEIGHT_BEGIN
1070
    46
1040
6.0
1000
ACAD_MTEXT_DEFINED_HEIGHT_END
  0
INSERT
  5
16C
330
165
100
AcDbEntity
  8
9
  6
CONTINUOUS
 62
     4
100
AcDbBlockReference
  2
_ARROWFILLED
 10
309.8628618366362
 20
179.11109301947
 30
0.0
 41
4.0
 42
4.0
 43
4.0
 50
179.9999999999998
  0
INSERT
  5
16D
330
165
100
AcDbEntity
  8
9
  6
CONTINUOUS
 62
     4
100
AcDbBlockReference
  2
_ARROWFILLED
 10
484.8628618366353
 20
179.11109301947
 30
0.0
 41
4.0
 42
4.0
 43
4.0
 50
359.9999999999997
  0
ENDBLK
  5
167
330
165
100
AcDbEntity
  8
0
100
AcDbBlockEnd
  0
BLOCK
  5
170
330
16F
100
AcDbEntity
  8
0
100
AcDbBlockBegin
  2
DIM4
 70
     0
 10
0.0
 20
0.0
 30
0.0
  3
DIM4
  1

  0
LINE
  5
172
330
16F
100
AcDbEntity
  8
9
  6
CONTINUOUS
 62
     4
100
AcDbLine
 10
197.3628618366362
 20
231.5784596149297
 30
0.0
 11
197.3628618366361
 21
154.4494639949862
 31
0.0
  0
LINE
  5
173
330
16F
100
AcDbEntity
  8
9
  6
CONTINUOUS
 62
     4
100
AcDbLine
 10
597.3628618366362
 20
231.5784596149297
 30
0.0
 11
597.3628618366361
 21
154.4494639949862
 31
0.0
  0
LINE
  5
174
330
16F
100
AcDbEntity
  8
9
  6
CONTINUOUS
 62
     4
100
AcDbLine
 10
197.3628618366361
 20
157.4494639949862
 30
0.0
 11
597.3628618366361
 21
157.4494639949862
 31
0.0
  0
MTEXT
  5
175
330
16F
100
AcDbEntity
  8
9
  6
CONTINUOUS
 62
     4
100
AcDbMText
 10
397.3628618366362
 20
157.4494639949862
 30
0.0
 40
6.0
 41
77.14285714285714
 71
     8
 72
     1
  1
400
  7
ＭＳ_ゴシック
1001
ACAD
1000
ACAD_MTEXT_DEFINED_HEIGHT_BEGIN
1070
    46
1040
6.0
1000
ACAD_MTEXT_DEFINED_HEIGHT_END
  0
INSERT
  5
176
330
16F
100
AcDbEntity
  8
9
  6
CONTINUOUS
 62
     4
100
AcDbBlockReference
  2
_ARROWFILLED
 10
197.3628618366361
 20
157.4494639949862
 30
0.0
 41
4.0
 42
4.0
 43
4.0
 50
179.9999999999998
  0
INSERT
  5
177
330
16F
100
AcDbEntity
  8
9
  6
CONTINUOUS
 62
     4
100
AcDbBlockReference
  2
_ARROWFILLED
 10
597.3628618366361
 20
157.4494639949862
 30
0.0
 41
4.0
 42
4.0
 43
4.0
 50
359.9999999999997
  0
ENDBLK
  5
171
330
16F
100
AcDbEntity
  8
0
100
AcDbBlockEnd
  0
BLOCK
  5
17A
330
179
100
AcDbEntity
  8
0
100
AcDbBlockBegin
  2
DIM5
 70
     0
 10
0.0
 20
0.0
 30
0.0
  3
DIM5
  1

  0
LINE
  5
17C
330
179
100
AcDbEntity
  8
9
  6
CONTINUOUS
 62
     4
100
AcDbLine
 10
182.3628618366362
 20
216.5784596149288
 30
0.0
 11
182.3628618366361
 21
131.7443837040082
 31
0.0
  0
LINE
  5
17D
330
179
100
AcDbEntity
  8
9
  6
CONTINUOUS
 62
     4
100
AcDbLine
 10
612.3628618366362
 20
216.5784596149297
 30
0.0
 11
612.3628618366361
 21
131.7443837040082
 31
0.0
  0
LINE
  5
17E
330
179
100
AcDbEntity
  8
9
  6
CONTINUOUS
 62
     4
100
AcDbLine
 10
182.3628618366361
 20
134.7443837040082
 30
0.0
 11
612.3628618366361
 21
134.7443837040082
 31
0.0
  0
MTEXT
  5
17F
330
179
100
AcDbEntity
  8
9
  6
CONTINUOUS
 62
     4
100
AcDbMText
 10
397.3628618366362
 20
134.7443837040082
 30
0.0
 40
6.0
 41
77.14285714285714
 71
     8
 72
     1
  1
430
  7
ＭＳ_ゴシック
1001
ACAD
1000
ACAD_MTEXT_DEFINED_HEIGHT_BEGIN
1070
    46
1040
6.0
1000
ACAD_MTEXT_DEFINED_HEIGHT_END
  0
INSERT
  5
180
330
179
100
AcDbEntity
  8
9
  6
CONTINUOUS
 62
     4
100
AcDbBlockReference
  2
_ARROWFILLED
 10
182.3628618366361
 20
134.7443837040082
 30
0.0
 41
4.0
 42
4.0
 43
4.0
 50
179.9999999999998
  0
INSERT
  5
181
330
179
100
AcDbEntity
  8
9
  6
CONTINUOUS
 62
     4
100
AcDbBlockReference
  2
_ARROWFILLED
 10
612.3628618366361
 20
134.7443837040082
 30
0.0
 41
4.0
 42
4.0
 43
4.0
 50
359.9999999999997
  0
ENDBLK
  5
17B
330
179
100
AcDbEntity
  8
0
100
AcDbBlockEnd
  0
BLOCK
  5
184
330
183
100
AcDbEntity
  8
0
100
AcDbBlockBegin
  2
DIM6
 70
     0
 10
0.0
 20
0.0
 30
0.0
  3
DIM6
  1

  0
LINE
  5
186
330
183
100
AcDbEntity
  8
9
  6
CONTINUOUS
 62
     4
100
AcDbLine
 10
702.5564859940679
 20
216.5784596149297
 30
0.0
 11
702.5564859940678
 21
131.7443837040082
 31
0.0
  0
LINE
  5
187
330
183
100
AcDbEntity
  8
9
  6
CONTINUOUS
 62
     4
100
AcDbLine
 10
747.5564859940679
 20
201.5784596149297
 30
0.0
 11
747.5564859940678
 21
131.7443837040082
 31
0.0
  0
LINE
  5
188
330
183
100
AcDbEntity
  8
9
  6
CONTINUOUS
 62
     4
100
AcDbLine
 10
702.5564859940678
 20
134.7443837040082
 30
0.0
 11
747.5564859940678
 21
134.7443837040082
 31
0.0
  0
MTEXT
  5
189
330
183
100
AcDbEntity
  8
9
  6
CONTINUOUS
 62
     4
100
AcDbMText
 10
725.0564859940679
 20
134.7443837040082
 30
0.0
 40
6.0
 41
48.57142857142856
 71
     8
 72
     1
  1
45
  7
ＭＳ_ゴシック
1001
ACAD
1000
ACAD_MTEXT_DEFINED_HEIGHT_BEGIN
1070
    46
1040
6.0
1000
ACAD_MTEXT_DEFINED_HEIGHT_END
  0
INSERT
  5
18A
330
183
100
AcDbEntity
  8
9
  6
CONTINUOUS
 62
     4
100
AcDbBlockReference
  2
_ARROWFILLED
 10
702.5564859940678
 20
134.7443837040082
 30
0.0
 41
4.0
 42
4.0
 43
4.0
 50
179.9999999999998
  0
INSERT
  5
18B
330
183
100
AcDbEntity
  8
9
  6
CONTINUOUS
 62
     4
100
AcDbBlockReference
  2
_ARROWFILLED
 10
747.5564859940678
 20
134.7443837040082
 30
0.0
 41
4.0
 42
4.0
 43
4.0
 50
359.9999999999997
  0
ENDBLK
  5
185
330
183
100
AcDbEntity
  8
0
100
AcDbBlockEnd
  0
BLOCK
  5
18E
330
18D
100
AcDbEntity
  8
0
100
AcDbBlockBegin
  2
DIM7
 70
     0
 10
0.0
 20
0.0
 30
0.0
  3
DIM7
  1

  0
LINE
  5
190
330
18D
100
AcDbEntity
  8
9
  6
CONTINUOUS
 62
     4
100
AcDbLine
 10
747.5564859940679
 20
201.5784596149297
 30
0.0
 11
747.5564859940679
 21
176.11109301947
 31
0.0
  0
LINE
  5
191
330
18D
100
AcDbEntity
  8
9
  6
CONTINUOUS
 62
     4
100
AcDbLine
 10
746.5564859940661
 20
201.5784596149297
 30
0.0
 11
746.5564859940661
 21
176.11109301947
 31
0.0
  0
LINE
  5
192
330
18D
100
AcDbEntity
  8
9
  6
CONTINUOUS
 62
     4
100
AcDbLine
 10
760.0564859940679
 20
179.11109301947
 30
0.0
 11
738.5564859940661
 21
179.11109301947
 31
0.0
  0
MTEXT
  5
193
330
18D
100
AcDbEntity
  8
9
  6
CONTINUOUS
 62
     4
100
AcDbMText
 10
757.0564859940679
 20
179.11109301947
 30
0.0
 40
6.0
 41
7.142857142857143
 71
     7
 72
     1
  1
1
  7
ＭＳ_ゴシック
1001
ACAD
1000
ACAD_MTEXT_DEFINED_HEIGHT_BEGIN
1070
    46
1040
6.0
1000
ACAD_MTEXT_DEFINED_HEIGHT_END
  0
INSERT
  5
194
330
18D
100
AcDbEntity
  8
9
  6
CONTINUOUS
 62
     4
100
AcDbBlockReference
  2
_ARROWFILLED
 10
747.5564859940679
 20
179.11109301947
 30
0.0
 41
4.0
 42
4.0
 43
4.0
 50
179.9999999999995
  0
INSERT
  5
195
330
18D
100
AcDbEntity
  8
9
  6
CONTINUOUS
 62
     4
100
AcDbBlockReference
  2
_ARROWFILLED
 10
746.5564859940661
 20
179.11109301947
 30
0.0
 41
4.0
 42
4.0
 43
4.0
 50
359.9999999999997
  0
ENDBLK
  5
18F
330
18D
100
AcDbEntity
  8
0
100
AcDbBlockEnd
  0
BLOCK
  5
198
330
197
100
AcDbEntity
  8
0
100
AcDbBlockBegin
  2
DIM8
 70
     0
 10
0.0
 20
0.0
 30
0.0
  3
DIM8
  1

  0
LINE
  5
19A
330
197
100
AcDbEntity
  8
9
  6
CONTINUOUS
 62
     4
100
AcDbLine
 10
195.3628618366362
 20
233.5784596149297
 30
0.0
 11
160.0581800540805
 21
233.5784596149298
 31
0.0
  0
LINE
  5
19B
330
197
100
AcDbEntity
  8
9
  6
CONTINUOUS
 62
     4
100
AcDbLine
 10
195.3628618366362
 20
333.5784596149297
 30
0.0
 11
160.0581800540805
 21
333.5784596149298
 31
0.0
  0
LINE
  5
19C
330
197
100
AcDbEntity
  8
9
  6
CONTINUOUS
 62
     4
100
AcDbLine
 10
163.0581800540805
 20
233.5784596149298
 30
0.0
 11
163.0581800540805
 21
333.5784596149298
 31
0.0
  0
MTEXT
  5
19D
330
197
100
AcDbEntity
  8
9
  6
CONTINUOUS
 62
     4
100
AcDbMText
 10
163.0581800540805
 20
283.5784596149298
 30
0.0
 40
6.0
 41
72.85714285714286
 71
     8
 72
     1
  1
100
  7
ＭＳ_ゴシック
 11
1.615544574432587E-15
 21
1.0
 31
0.0
1001
ACAD
1000
ACAD_MTEXT_DEFINED_HEIGHT_BEGIN
1070
    46
1040
6.0
1000
ACAD_MTEXT_DEFINED_HEIGHT_END
  0
INSERT
  5
19E
330
197
100
AcDbEntity
  8
9
  6
CONTINUOUS
 62
     4
100
AcDbBlockReference
  2
_ARROWFILLED
 10
163.0581800540805
 20
233.5784596149298
 30
0.0
 41
4.0
 42
4.0
 43
4.0
 50
269.9999999999998
  0
INSERT
  5
19F
330
197
100
AcDbEntity
  8
9
  6
CONTINUOUS
 62
     4
100
AcDbBlockReference
  2
_ARROWFILLED
 10
163.0581800540805
 20
333.5784596149298
 30
0.0
 41
4.0
 42
4.0
 43
4.0
 50
89.99999999999991
  0
ENDBLK
  5
199
330
197
100
AcDbEntity
  8
0
100
AcDbBlockEnd
  0
BLOCK
  5
1A2
330
1A1
100
AcDbEntity
  8
0
100
AcDbBlockBegin
  2
DIM9
 70
     0
 10
0.0
 20
0.0
 30
0.0
  3
DIM9
  1

  0
LINE
  5
1A4
330
1A1
100
AcDbEntity
  8
9
  6
CONTINUOUS
 62
     4
100
AcDbLine
 10
180.3628618366362
 20
218.5784596149297
 30
0.0
 11
138.9245712696994
 21
218.5784596149298
 31
0.0
  0
LINE
  5
1A5
330
1A1
100
AcDbEntity
  8
9
  6
CONTINUOUS
 62
     4
100
AcDbLine
 10
180.3628618366362
 20
348.5784596149297
 30
0.0
 11
138.9245712696994
 21
348.5784596149298
 31
0.0
  0
LINE
  5
1A6
330
1A1
100
AcDbEntity
  8
9
  6
CONTINUOUS
 62
     4
100
AcDbLine
 10
141.9245712696994
 20
218.5784596149298
 30
0.0
 11
141.9245712696994
 21
348.5784596149298
 31
0.0
  0
MTEXT
  5
1A7
330
1A1
100
AcDbEntity
  8
9
  6
CONTINUOUS
 62
     4
100
AcDbMText
 10
141.9245712696994
 20
284.4692168934707
 30
0.0
 40
6.0
 41
72.85714285714286
 71
     8
 72
     1
  1
130
  7
ＭＳ_ゴシック
 11
1.615544574432587E-15
 21
1.0
 31
0.0
1001
ACAD
1000
ACAD_MTEXT_DEFINED_HEIGHT_BEGIN
1070
    46
1040
6.0
1000
ACAD_MTEXT_DEFINED_HEIGHT_END
  0
INSERT
  5
1A8
330
1A1
100
AcDbEntity
  8
9
  6
CONTINUOUS
 62
     4
100
AcDbBlockReference
  2
_ARROWFILLED
 10
141.9245712696994
 20
218.5784596149298
 30
0.0
 41
4.0
 42
4.0
 43
4.0
 50
269.9999999999998
  0
INSERT
  5
1A9
330
1A1
100
AcDbEntity
  8
9
  6
CONTINUOUS
 62
     4
100
AcDbBlockReference
  2
_ARROWFILLED
 10
141.9245712696994
 20
348.5784596149298
 30
0.0
 41
4.0
 42
4.0
 43
4.0
 50
89.99999999999991
  0
ENDBLK
  5
1A3
330
1A1
100
AcDbEntity
  8
0
100
AcDbBlockEnd
  0
BLOCK
  5
1AC
330
1AB
100
AcDbEntity
  8
0
100
AcDbBlockBegin
  2
DIM10
 70
     0
 10
0.0
 20
0.0
 30
0.0
  3
DIM10
  1

  0
LINE
  5
1AE
330
1AB
100
AcDbEntity
  8
9
  6
CONTINUOUS
 62
     4
100
AcDbLine
 10
220.3628618366362
 20
210.5784596149297
 30
0.0
 11
118.3363526836612
 21
210.57845961493
 31
0.0
  0
LINE
  5
1AF
330
1AB
100
AcDbEntity
  8
9
  6
CONTINUOUS
 62
     4
100
AcDbLine
 10
220.3628618366362
 20
356.5784596149297
 30
0.0
 11
118.3363526836612
 21
356.5784596149301
 31
0.0
  0
LINE
  5
1B0
330
1AB
100
AcDbEntity
  8
9
  6
CONTINUOUS
 62
     4
100
AcDbLine
 10
121.3363526836612
 20
210.57845961493
 30
0.0
 11
121.3363526836612
 21
356.5784596149301
 31
0.0
  0
MTEXT
  5
1B1
330
1AB
100
AcDbEntity
  8
9
  6
CONTINUOUS
 62
     4
100
AcDbMText
 10
121.3363526836612
 20
284.4692168934707
 30
0.0
 40
6.0
 41
72.85714285714286
 71
     8
 72
     1
  1
146
  7
ＭＳ_ゴシック
 11
1.615544574432587E-15
 21
1.0
 31
0.0
1001
ACAD
1000
ACAD_MTEXT_DEFINED_HEIGHT_BEGIN
1070
    46
1040
6.0
1000
ACAD_MTEXT_DEFINED_HEIGHT_END
  0
INSERT
  5
1B2
330
1AB
100
AcDbEntity
  8
9
  6
CONTINUOUS
 62
     4
100
AcDbBlockReference
  2
_ARROWFILLED
 10
121.3363526836612
 20
210.57845961493
 30
0.0
 41
4.0
 42
4.0
 43
4.0
 50
269.9999999999998
  0
INSERT
  5
1B3
330
1AB
100
AcDbEntity
  8
9
  6
CONTINUOUS
 62
     4
100
AcDbBlockReference
  2
_ARROWFILLED
 10
121.3363526836612
 20
356.5784596149301
 30
0.0
 41
4.0
 42
4.0
 43
4.0
 50
89.99999999999991
  0
ENDBLK
  5
1AD
330
1AB
100
AcDbEntity
  8
0
100
AcDbBlockEnd
  0
BLOCK
  5
1B6
330
1B5
100
AcDbEntity
  8
0
100
AcDbBlockBegin
  2
DIM11
 70
     0
 10
0.0
 20
0.0
 30
0.0
  3
DIM11
  1

  0
LINE
  5
1B8
330
1B5
100
AcDbEntity
  8
9
  6
CONTINUOUS
 62
     4
100
AcDbLine
 10
200.3628618366353
 20
363.5784596149297
 30
0.0
 11
97.579898705205
 21
363.5784596149301
 31
0.0
  0
LINE
  5
1B9
330
1B5
100
AcDbEntity
  8
9
  6
CONTINUOUS
 62
     4
100
AcDbLine
 10
200.3628618366353
 20
203.5784596149297
 30
0.0
 11
97.579898705205
 21
203.57845961493
 31
0.0
  0
LINE
  5
1BA
330
1B5
100
AcDbEntity
  8
9
  6
CONTINUOUS
 62
     4
100
AcDbLine
 10
100.579898705205
 20
363.5784596149301
 30
0.0
 11
100.579898705205
 21
203.57845961493
 31
0.0
  0
MTEXT
  5
1BB
330
1B5
100
AcDbEntity
  8
9
  6
CONTINUOUS
 62
     4
100
AcDbMText
 10
100.579898705205
 20
284.4692168934707
 30
0.0
 40
6.0
 41
72.85714285714286
 71
     8
 72
     1
  1
160
  7
ＭＳ_ゴシック
 11
1.615544574432587E-15
 21
1.0
 31
0.0
1001
ACAD
1000
ACAD_MTEXT_DEFINED_HEIGHT_BEGIN
1070
    46
1040
6.0
1000
ACAD_MTEXT_DEFINED_HEIGHT_END
  0
INSERT
  5
1BC
330
1B5
100
AcDbEntity
  8
9
  6
CONTINUOUS
 62
     4
100
AcDbBlockReference
  2
_ARROWFILLED
 10
100.579898705205
 20
363.5784596149301
 30
0.0
 41
4.0
 42
4.0
 43
4.0
 50
89.99999999999991
  0
INSERT
  5
1BD
330
1B5
100
AcDbEntity
  8
9
  6
CONTINUOUS
 62
     4
100
AcDbBlockReference
  2
_ARROWFILLED
 10
100.579898705205
 20
203.57845961493
 30
0.0
 41
4.0
 42
4.0
 43
4.0
 50
269.9999999999998
  0
ENDBLK
  5
1B7
330
1B5
100
AcDbEntity
  8
0
100
AcDbBlockEnd
  0
BLOCK
  5
1C0
330
1BF
100
AcDbEntity
  8
0
100
AcDbBlockBegin
  2
DIM12
 70
     0
 10
0.0
 20
0.0
 30
0.0
  3
DIM12
  1

  0
LINE
  5
1C2
330
1BF
100
AcDbEntity
  8
9
  6
CONTINUOUS
 62
     4
100
AcDbLine
 10
630.3628618366362
 20
279.0784596149297
 30
0.0
 11
630.362861836636
 21
131.7443837040082
 31
0.0
  0
LINE
  5
1C3
330
1BF
100
AcDbEntity
  8
9
  6
CONTINUOUS
 62
     4
100
AcDbLine
 10
612.3628618366362
 20
216.5784596149297
 30
0.0
 11
612.3628618366361
 21
131.7443837040082
 31
0.0
  0
LINE
  5
1C4
330
1BF
100
AcDbEntity
  8
9
  6
CONTINUOUS
 62
     4
100
AcDbLine
 10
650.3628618366362
 20
134.7443837040082
 30
0.0
 11
612.3628618366361
 21
134.7443837040082
 31
0.0
  0
MTEXT
  5
1C5
330
1BF
100
AcDbEntity
  8
9
  6
CONTINUOUS
 62
     4
100
AcDbMText
 10
638.3628618366362
 20
134.7443837040082
 30
0.0
 40
6.0
 41
85.71428571428571
 71
     7
 72
     1
  1
(18)
  7
ＭＳ_ゴシック
1001
ACAD
1000
ACAD_MTEXT_DEFINED_HEIGHT_BEGIN
1070
    46
1040
6.0
1000
ACAD_MTEXT_DEFINED_HEIGHT_END
  0
INSERT
  5
1C6
330
1BF
100
AcDbEntity
  8
9
  6
CONTINUOUS
 62
     4
100
AcDbBlockReference
  2
_ARROWFILLED
 10
630.362861836636
 20
134.7443837040082
 30
0.0
 41
4.0
 42
4.0
 43
4.0
 50
359.9999999999997
  0
INSERT
  5
1C7
330
1BF
100
AcDbEntity
  8
9
  6
CONTINUOUS
 62
     4
100
AcDbBlockReference
  2
_ARROWFILLED
 10
612.3628618366361
 20
134.7443837040082
 30
0.0
 41
4.0
 42
4.0
 43
4.0
 50
179.9999999999998
  0
ENDBLK
  5
1C1
330
1BF
100
AcDbEntity
  8
0
100
AcDbBlockEnd
  0
BLOCK
  5
1CA
330
1C9
100
AcDbEntity
  8
0
100
AcDbBlockBegin
  2
DIM13
 70
     0
 10
0.0
 20
0.0
 30
0.0
  3
DIM13
  1

  0
LINE
  5
1CC
330
1C9
100
AcDbEntity
  8
9
  6
CONTINUOUS
 62
     4
100
AcDbLine
 10
747.5564859940679
 20
201.5784596149297
 30
0.0
 11
747.5564859940678
 21
154.4494639949862
 31
0.0
  0
LINE
  5
1CD
330
1C9
100
AcDbEntity
  8
9
  6
CONTINUOUS
 62
     4
100
AcDbLine
 10
727.1282827637843
 20
281.5784596149297
 30
0.0
 11
727.1282827637841
 21
154.4494639949862
 31
0.0
  0
LINE
  5
1CE
330
1C9
100
AcDbEntity
  8
9
  6
CONTINUOUS
 62
     4
100
AcDbLine
 10
775.0564859940679
 20
157.4494639949862
 30
0.0
 11
727.1282827637841
 21
157.4494639949862
 31
0.0
  0
MTEXT
  5
1CF
330
1C9
100
AcDbEntity
  8
9
  6
CONTINUOUS
 62
     4
100
AcDbMText
 10
757.0564859940679
 20
157.4494639949862
 30
0.0
 40
6.0
 41
128.5714285714286
 71
     7
 72
     1
  1
(20.5)
  7
ＭＳ_ゴシック
1001
ACAD
1000
ACAD_MTEXT_DEFINED_HEIGHT_BEGIN
1070
    46
1040
6.0
1000
ACAD_MTEXT_DEFINED_HEIGHT_END
  0
INSERT
  5
1D0
330
1C9
100
AcDbEntity
  8
9
  6
CONTINUOUS
 62
     4
100
AcDbBlockReference
  2
_ARROWFILLED
 10
747.5564859940678
 20
157.4494639949862
 30
0.0
 41
4.0
 42
4.0
 43
4.0
 50
359.9999999999997
  0
INSERT
  5
1D1
330
1C9
100
AcDbEntity
  8
9
  6
CONTINUOUS
 62
     4
100
AcDbBlockReference
  2
_ARROWFILLED
 10
727.1282827637841
 20
157.4494639949862
 30
0.0
 41
4.0
 42
4.0
 43
4.0
 50
179.9999999999998
  0
ENDBLK
  5
1CB
330
1C9
100
AcDbEntity
  8
0
100
AcDbBlockEnd
  0
BLOCK
  5
1D4
330
1D3
100
AcDbEntity
  8
0
100
AcDbBlockBegin
  2
DIM14
 70
     0
 10
0.0
 20
0.0
 30
0.0
  3
DIM14
  1

  0
LINE
  5
1D6
330
1D3
100
AcDbEntity
  8
9
  6
CONTINUOUS
 62
     4
100
AcDbLine
 10
484.8628618366353
 20
208.5784596149297
 30
0.0
 11
484.8628618366353
 21
176.11109301947
 31
0.0
  0
LINE
  5
1D7
330
1D3
100
AcDbEntity
  8
9
  6
CONTINUOUS
 62
     4
100
AcDbLine
 10
572.3628618366362
 20
208.5784596149297
 30
0.0
 11
572.3628618366362
 21
176.11109301947
 31
0.0
  0
LINE
  5
1D8
330
1D3
100
AcDbEntity
  8
9
  6
CONTINUOUS
 62
     4
100
AcDbLine
 10
484.8628618366353
 20
179.11109301947
 30
0.0
 11
572.3628618366362
 21
179.11109301947
 31
0.0
  0
MTEXT
  5
1D9
330
1D3
100
AcDbEntity
  8
9
  6
CONTINUOUS
 62
     4
100
AcDbMText
 10
528.6128618366357
 20
179.11109301947
 30
0.0
 40
6.0
 41
91.42857142857142
 71
     8
 72
     1
  1
87.5
  7
ＭＳ_ゴシック
1001
ACAD
1000
ACAD_MTEXT_DEFINED_HEIGHT_BEGIN
1070
    46
1040
6.0
1000
ACAD_MTEXT_DEFINED_HEIGHT_END
  0
INSERT
  5
1DA
330
1D3
100
AcDbEntity
  8
9
  6
CONTINUOUS
 62
     4
100
AcDbBlockReference
  2
_ARROWFILLED
 10
484.8628618366353
 20
179.11109301947
 30
0.0
 41
4.0
 42
4.0
 43
4.0
 50
179.9999999999998
  0
INSERT
  5
1DB
330
1D3
100
AcDbEntity
  8
9
  6
CONTINUOUS
 62
     4
100
AcDbBlockReference
  2
_ARROWFILLED
 10
572.3628618366362
 20
179.11109301947
 30
0.0
 41
4.0
 42
4.0
 43
4.0
 50
359.9999999999997
  0
ENDBLK
  5
1D5
330
1D3
100
AcDbEntity
  8
0
100
AcDbBlockEnd
  0
BLOCK
  5
1DE
330
1DD
100
AcDbEntity
  8
0
100
AcDbBlockBegin
  2
DIM15
 70
     0
 10
0.0
 20
0.0
 30
0.0
  3
DIM15
  1

  0
LINE
  5
1E0
330
1DD
100
AcDbEntity
  8
9
  6
CONTINUOUS
 62
     4
100
AcDbLine
 10
309.8628618366371
 20
208.5784596149297
 30
0.0
 11
309.862861836637
 21
176.11109301947
 31
0.0
  0
LINE
  5
1E1
330
1DD
100
AcDbEntity
  8
9
  6
CONTINUOUS
 62
     4
100
AcDbLine
 10
222.3628618366362
 20
208.5784596149297
 30
0.0
 11
222.3628618366361
 21
176.11109301947
 31
0.0
  0
LINE
  5
1E2
330
1DD
100
AcDbEntity
  8
9
  6
CONTINUOUS
 62
     4
100
AcDbLine
 10
309.862861836637
 20
179.11109301947
 30
0.0
 11
222.3628618366361
 21
179.11109301947
 31
0.0
  0
MTEXT
  5
1E3
330
1DD
100
AcDbEntity
  8
9
  6
CONTINUOUS
 62
     4
100
AcDbMText
 10
266.1128618366366
 20
179.11109301947
 30
0.0
 40
6.0
 41
91.42857142857142
 71
     8
 72
     1
  1
87.5
  7
ＭＳ_ゴシック
1001
ACAD
1000
ACAD_MTEXT_DEFINED_HEIGHT_BEGIN
1070
    46
1040
6.0
1000
ACAD_MTEXT_DEFINED_HEIGHT_END
  0
INSERT
  5
1E4
330
1DD
100
AcDbEntity
  8
9
  6
CONTINUOUS
 62
     4
100
AcDbBlockReference
  2
_ARROWFILLED
 10
309.862861836637
 20
179.11109301947
 30
0.0
 41
4.0
 42
4.0
 43
4.0
 50
359.9999999999997
  0
INSERT
  5
1E5
330
1DD
100
AcDbEntity
  8
9
  6
CONTINUOUS
 62
     4
100
AcDbBlockReference
  2
_ARROWFILLED
 10
222.3628618366361
 20
179.11109301947
 30
0.0
 41
4.0
 42
4.0
 43
4.0
 50
179.9999999999998
  0
ENDBLK
  5
1DF
330
1DD
100
AcDbEntity
  8
0
100
AcDbBlockEnd
  0
ENDSEC
  0
SECTION
  2
ENTITIES
  0
HATCH
  5
A1
330
1F
100
AcDbEntity
  8
11
  6
CONTINUOUS
 62
     2
100
AcDbHatch
 10
0.0
 20
0.0
 30
0.0
210
0.0
220
0.0
230
1.0
  2

 70
     0
 71
     0
 91
        4
 92
        0
 93
       40
 72
     1
 10
197.3628618366362
 20
333.5784596149297
 11
197.3628618366362
 21
283.5784596149297
 72
     1
 10
197.3628618366362
 20
283.5784596149297
 11
364.8628618366362
 21
283.5784596149297
 72
     1
 10
364.8628618366362
 20
283.5784596149297
 11
364.8937946352258
 21
284.9960897043031
 72
     1
 10
364.8937946352258
 20
284.9960897043031
 11
364.9865341486545
 21
286.4110212542286
 72
     1
 10
364.9865341486545
 20
286.4110212542286
 11
365.1409038419874
 21
287.8205608620814
 72
     1
 10
365.1409038419874
 20
287.8205608620814
 11
365.3566098637395
 21
289.222025389105
 72
     1
 10
365.3566098637395
 20
289.222025389105
 11
365.6332416052384
 21
290.6127470679181
 72
     1
 10
365.6332416052384
 20
290.6127470679181
 11
365.9702724822415
 21
291.9900785807617
 72
     1
 10
365.9702724822415
 20
291.9900785807617
 11
366.3670609373189
 21
293.3513980988187
 72
     1
 10
366.3670609373189
 20
293.3513980988187
 11
366.8228516610943
 21
294.694114273014
 72
     1
 10
366.8228516610943
 20
294.694114273014
 11
367.3367770300194
 21
296.0156711667952
 72
     1
 10
367.3367770300194
 20
296.0156711667952
 11
367.9078587579452
 21
297.3135531215025
 72
     1
 10
367.9078587579452
 20
297.3135531215025
 11
368.5350097583441
 21
298.5852895450684
 72
     1
 10
368.5350097583441
 20
298.5852895450684
 11
369.217036213642
 21
299.8284596149298
 72
     1
 10
369.217036213642
 20
299.8284596149298
 11
369.9526398477175
 21
301.0406968862016
 72
     1
 10
369.9526398477175
 20
301.0406968862016
 11
370.7404203972441
 21
302.2196937963388
 72
     1
 10
370.7404203972441
 20
302.2196937963388
 11
371.5788782771712
 21
303.3632060577132
 72
     1
 10
371.5788782771712
 20
303.3632060577132
 11
372.4664174352695
 21
304.4690569297424
 72
     1
 10
372.4664174352695
 20
304.4690569297424
 11
373.4013483903073
 21
305.5351413624388
 72
     1
 10
373.4013483903073
 20
305.5351413624388
 11
374.3818914480735
 21
306.5594300034926
 72
     1
 10
374.3818914480735
 20
306.5594300034926
 11
375.4061800891274
 21
307.5399730612589
 72
     1
 10
375.4061800891274
 20
307.5399730612589
 11
376.4722645218238
 21
308.4749040162966
 72
     1
 10
376.4722645218238
 20
308.4749040162966
 11
377.578115393853
 21
309.362443174395
 72
     1
 10
377.578115393853
 20
309.362443174395
 11
378.7216276552274
 21
310.2009010543221
 72
     1
 10
378.7216276552274
 20
310.2009010543221
 11
379.9006245653646
 21
310.9886816038486
 72
     1
 10
379.9006245653646
 20
310.9886816038486
 11
381.1128618366364
 21
311.7242852379241
 72
     1
 10
381.1128618366364
 20
311.7242852379241
 11
382.3560319064978
 21
312.4063116932221
 72
     1
 10
382.3560319064978
 20
312.4063116932221
 11
383.6277683300637
 21
313.0334626936209
 72
     1
 10
383.6277683300637
 20
313.0334626936209
 11
384.925650284771
 21
313.6045444215467
 72
     1
 10
384.925650284771
 20
313.6045444215467
 11
386.2472071785522
 21
314.1184697904719
 72
     1
 10
386.2472071785522
 20
314.1184697904719
 11
387.5899233527476
 21
314.5742605142472
 72
     1
 10
387.5899233527476
 20
314.5742605142472
 11
388.9512428708045
 21
314.9710489693246
 72
     1
 10
388.9512428708045
 20
314.9710489693246
 11
390.3285743836481
 21
315.3080798463277
 72
     1
 10
390.3285743836481
 20
315.3080798463277
 11
391.7192960624612
 21
315.5847115878266
 72
     1
 10
391.7192960624612
 20
315.5847115878266
 11
393.1207605894848
 21
315.8004176095787
 72
     1
 10
393.1207605894848
 20
315.8004176095787
 11
394.5303001973376
 21
315.9547873029116
 72
     1
 10
394.5303001973376
 20
315.9547873029116
 11
395.9452317472631
 21
316.0475268163402
 72
     1
 10
395.9452317472631
 20
316.0475268163402
 11
397.3628618366365
 21
316.0784596149298
 72
     1
 10
397.3628618366357
 20
316.0784596149297
 11
397.3628618366357
 21
333.5784596149297
 72
     1
 10
397.3628618366357
 20
333.5784596149297
 11
197.3628618366362
 21
333.5784596149297
 97
        0
 92
        0
 93
       40
 72
     1
 10
429.862861836636
 20
283.5784596149288
 11
429.8319290380464
 21
284.9960897043023
 72
     1
 10
429.8319290380464
 20
284.9960897043023
 11
429.7391895246177
 21
286.4110212542278
 72
     1
 10
429.7391895246177
 20
286.4110212542278
 11
429.5848198312848
 21
287.8205608620806
 72
     1
 10
429.5848198312848
 20
287.8205608620806
 11
429.3691138095327
 21
289.2220253891042
 72
     1
 10
429.3691138095327
 20
289.2220253891042
 11
429.0924820680338
 21
290.6127470679173
 72
     1
 10
429.0924820680338
 20
290.6127470679173
 11
428.7554511910307
 21
291.990078580761
 72
     1
 10
428.7554511910307
 20
291.990078580761
 11
428.3586627359533
 21
293.351398098818
 72
     1
 10
428.3586627359533
 20
293.351398098818
 11
427.902872012178
 21
294.6941142730133
 72
     1
 10
427.902872012178
 20
294.6941142730133
 11
427.3889466432528
 21
296.0156711667946
 72
     1
 10
427.3889466432528
 20
296.0156711667946
 11
426.817864915327
 21
297.3135531215019
 72
     1
 10
426.817864915327
 20
297.3135531215019
 11
426.1907139149281
 21
298.5852895450678
 72
     1
 10
426.1907139149281
 20
298.5852895450678
 11
425.5086874596302
 21
299.8284596149293
 72
     1
 10
425.5086874596302
 20
299.8284596149293
 11
424.7730838255546
 21
301.0406968862011
 72
     1
 10
424.7730838255546
 20
301.0406968862011
 11
423.9853032760281
 21
302.2196937963383
 72
     1
 10
423.9853032760281
 20
302.2196937963383
 11
423.146845396101
 21
303.3632060577128
 72
     1
 10
423.146845396101
 20
303.3632060577128
 11
422.2593062380026
 21
304.4690569297419
 72
     1
 10
422.2593062380026
 20
304.4690569297419
 11
421.3243752829648
 21
305.5351413624384
 72
     1
 10
421.3243752829648
 20
305.5351413624384
 11
420.3438322251985
 21
306.5594300034923
 72
     1
 10
420.3438322251985
 20
306.5594300034923
 11
419.3195435841447
 21
307.5399730612585
 72
     1
 10
419.3195435841447
 20
307.5399730612585
 11
418.2534591514482
 21
308.4749040162963
 72
     1
 10
418.2534591514482
 20
308.4749040162963
 11
417.1476082794191
 21
309.3624431743947
 72
     1
 10
417.1476082794191
 20
309.3624431743947
 11
416.0040960180447
 21
310.2009010543218
 72
     1
 10
416.0040960180447
 20
310.2009010543218
 11
414.8250991079074
 21
310.9886816038484
 72
     1
 10
414.8250991079074
 20
310.9886816038484
 11
413.6128618366356
 21
311.7242852379238
 72
     1
 10
413.6128618366356
 20
311.7242852379238
 11
412.3696917667742
 21
312.4063116932218
 72
     1
 10
412.3696917667742
 20
312.4063116932218
 11
411.0979553432082
 21
313.0334626936208
 72
     1
 10
411.0979553432082
 20
313.0334626936208
 11
409.8000733885009
 21
313.6045444215464
 72
     1
 10
409.8000733885009
 20
313.6045444215464
 11
408.4785164947197
 21
314.1184697904717
 72
     1
 10
408.4785164947197
 20
314.1184697904717
 11
407.1358003205243
 21
314.574260514247
 72
     1
 10
407.1358003205243
 20
314.574260514247
 11
405.7744808024673
 21
314.9710489693244
 72
     1
 10
405.7744808024673
 20
314.9710489693244
 11
404.3971492896237
 21
315.3080798463275
 72
     1
 10
404.3971492896237
 20
315.3080798463275
 11
403.0064276108105
 21
315.5847115878265
 72
     1
 10
403.0064276108105
 20
315.5847115878265
 11
401.6049630837869
 21
315.8004176095786
 72
     1
 10
401.6049630837869
 20
315.8004176095786
 11
400.1954234759341
 21
315.9547873029114
 72
     1
 10
400.1954234759341
 20
315.9547873029114
 11
398.7804919260086
 21
316.0475268163401
 72
     1
 10
398.7804919260086
 20
316.0475268163401
 11
397.3628618366351
 21
316.0784596149297
 72
     1
 10
397.3628618366357
 20
316.0784596149297
 11
397.3628618366357
 21
333.5784596149297
 72
     1
 10
397.3628618366357
 20
333.5784596149297
 11
597.3628618366362
 21
333.5784596149297
 72
     1
 10
597.3628618366362
 20
333.5784596149297
 11
597.3628618366362
 21
283.5784596149297
 72
     1
 10
597.3628618366362
 20
283.5784596149297
 11
429.8628618366359
 21
283.5784596149297
 97
        0
 92
        0
 93
       40
 72
     1
 10
397.3628618366359
 20
251.0784596149297
 11
397.3628618366359
 21
233.5784596149297
 72
     1
 10
397.3628618366359
 20
233.5784596149297
 11
597.3628618366362
 21
233.5784596149297
 72
     1
 10
597.3628618366362
 20
233.5784596149297
 11
597.3628618366362
 21
283.5784596149297
 72
     1
 10
597.3628618366362
 20
283.5784596149297
 11
429.8628618366357
 21
283.5784596149297
 72
     1
 10
429.8628618366357
 20
283.5784596149285
 11
429.8319290380461
 21
282.1608295255552
 72
     1
 10
429.8319290380461
 20
282.1608295255552
 11
429.7391895246174
 21
280.7458979756298
 72
     1
 10
429.7391895246174
 20
280.7458979756298
 11
429.5848198312846
 21
279.336358367777
 72
     1
 10
429.5848198312846
 20
279.336358367777
 11
429.3691138095325
 21
277.9348938407535
 72
     1
 10
429.3691138095325
 20
277.9348938407535
 11
429.0924820680335
 21
276.5441721619404
 72
     1
 10
429.0924820680335
 20
276.5441721619404
 11
428.7554511910304
 21
275.1668406490969
 72
     1
 10
428.7554511910304
 20
275.1668406490969
 11
428.3586627359531
 21
273.80552113104
 72
     1
 10
428.3586627359531
 20
273.80552113104
 11
427.9028720121777
 21
272.4628049568446
 72
     1
 10
427.9028720121777
 20
272.4628049568446
 11
427.3889466432526
 21
271.1412480630635
 72
     1
 10
427.3889466432526
 20
271.1412480630635
 11
426.8178649153268
 21
269.8433661083562
 72
     1
 10
426.8178649153268
 20
269.8433661083562
 11
426.1907139149279
 21
268.5716296847904
 72
     1
 10
426.1907139149279
 20
268.5716296847904
 11
425.50868745963
 21
267.3284596149291
 72
     1
 10
425.50868745963
 20
267.3284596149291
 11
424.7730838255545
 21
266.1162223436573
 72
     1
 10
424.7730838255545
 20
266.1162223436573
 11
423.985303276028
 21
264.9372254335202
 72
     1
 10
423.985303276028
 20
264.9372254335202
 11
423.146845396101
 21
263.7937131721458
 72
     1
 10
423.146845396101
 20
263.7937131721458
 11
422.2593062380026
 21
262.6878623001167
 72
     1
 10
422.2593062380026
 20
262.6878623001167
 11
421.3243752829649
 21
261.6217778674203
 72
     1
 10
421.3243752829649
 20
261.6217778674203
 11
420.3438322251986
 21
260.5974892263665
 72
     1
 10
420.3438322251986
 20
260.5974892263665
 11
419.3195435841449
 21
259.6169461686003
 72
     1
 10
419.3195435841449
 20
259.6169461686003
 11
418.2534591514485
 21
258.6820152135626
 72
     1
 10
418.2534591514485
 20
258.6820152135626
 11
417.1476082794194
 21
257.7944760554643
 72
     1
 10
417.1476082794194
 20
257.7944760554643
 11
416.004096018045
 21
256.9560181755372
 72
     1
 10
416.004096018045
 20
256.9560181755372
 11
414.8250991079078
 21
256.1682376260107
 72
     1
 10
414.8250991079078
 20
256.1682376260107
 11
413.6128618366361
 21
255.4326339919353
 72
     1
 10
413.6128618366361
 20
255.4326339919353
 11
412.3696917667747
 21
254.7506075366373
 72
     1
 10
412.3696917667747
 20
254.7506075366373
 11
411.0979553432089
 21
254.1234565362385
 72
     1
 10
411.0979553432089
 20
254.1234565362385
 11
409.8000733885016
 21
253.5523748083128
 72
     1
 10
409.8000733885016
 20
253.5523748083128
 11
408.4785164947205
 21
253.0384494393876
 72
     1
 10
408.4785164947205
 20
253.0384494393876
 11
407.1358003205251
 21
252.5826587156123
 72
     1
 10
407.1358003205251
 20
252.5826587156123
 11
405.7744808024682
 21
252.1858702605349
 72
     1
 10
405.7744808024682
 20
252.1858702605349
 11
404.3971492896247
 21
251.8488393835318
 72
     1
 10
404.3971492896247
 20
251.8488393835318
 11
403.0064276108116
 21
251.5722076420329
 72
     1
 10
403.0064276108116
 20
251.5722076420329
 11
401.6049630837881
 21
251.3565016202809
 72
     1
 10
401.6049630837881
 20
251.3565016202809
 11
400.1954234759353
 21
251.202131926948
 72
     1
 10
400.1954234759353
 20
251.202131926948
 11
398.7804919260099
 21
251.1093924135193
 72
     1
 10
398.7804919260099
 20
251.1093924135193
 11
397.3628618366365
 21
251.0784596149297
 97
        0
 92
        0
 93
       40
 72
     1
 10
197.3628618366362
 20
283.5784596149297
 11
197.3628618366362
 21
233.5784596149297
 72
     1
 10
197.3628618366362
 20
233.5784596149297
 11
397.3628618366359
 21
233.5784596149297
 72
     1
 10
397.3628618366359
 20
233.5784596149297
 11
397.3628618366359
 21
251.0784596149297
 72
     1
 10
397.3628618366373
 20
251.0784596149297
 11
395.9452317472638
 21
251.1093924135193
 72
     1
 10
395.9452317472638
 20
251.1093924135193
 11
394.5303001973382
 21
251.202131926948
 72
     1
 10
394.5303001973382
 20
251.202131926948
 11
393.1207605894854
 21
251.3565016202809
 72
     1
 10
393.1207605894854
 20
251.3565016202809
 11
391.7192960624618
 21
251.572207642033
 72
     1
 10
391.7192960624618
 20
251.572207642033
 11
390.3285743836486
 21
251.8488393835319
 72
     1
 10
390.3285743836486
 20
251.8488393835319
 11
388.951242870805
 21
252.1858702605351
 72
     1
 10
388.951242870805
 20
252.1858702605351
 11
387.589923352748
 21
252.5826587156124
 72
     1
 10
387.589923352748
 20
252.5826587156124
 11
386.2472071785526
 21
253.0384494393878
 72
     1
 10
386.2472071785526
 20
253.0384494393878
 11
384.9256502847714
 21
253.552374808313
 72
     1
 10
384.9256502847714
 20
253.552374808313
 11
383.627768330064
 21
254.1234565362388
 72
     1
 10
383.627768330064
 20
254.1234565362388
 11
382.3560319064981
 21
254.7506075366377
 72
     1
 10
382.3560319064981
 20
254.7506075366377
 11
381.1128618366366
 21
255.4326339919357
 72
     1
 10
381.1128618366366
 20
255.4326339919357
 11
379.9006245653648
 21
256.1682376260112
 72
     1
 10
379.9006245653648
 20
256.1682376260112
 11
378.7216276552276
 21
256.9560181755378
 72
     1
 10
378.7216276552276
 20
256.9560181755378
 11
377.5781153938531
 21
257.7944760554649
 72
     1
 10
377.5781153938531
 20
257.7944760554649
 11
376.4722645218239
 21
258.6820152135633
 72
     1
 10
376.4722645218239
 20
258.6820152135633
 11
375.4061800891275
 21
259.6169461686011
 72
     1
 10
375.4061800891275
 20
259.6169461686011
 11
374.3818914480736
 21
260.5974892263674
 72
     1
 10
374.3818914480736
 20
260.5974892263674
 11
373.4013483903073
 21
261.6217778674213
 72
     1
 10
373.4013483903073
 20
261.6217778674213
 11
372.4664174352695
 21
262.6878623001177
 72
     1
 10
372.4664174352695
 20
262.6878623001177
 11
371.5788782771712
 21
263.7937131721469
 72
     1
 10
371.5788782771712
 20
263.7937131721469
 11
370.740420397244
 21
264.9372254335213
 72
     1
 10
370.740420397244
 20
264.9372254335213
 11
369.9526398477174
 21
266.1162223436586
 72
     1
 10
369.9526398477174
 20
266.1162223436586
 11
369.217036213642
 21
267.3284596149305
 72
     1
 10
369.217036213642
 20
267.3284596149305
 11
368.535009758344
 21
268.5716296847919
 72
     1
 10
368.535009758344
 20
268.5716296847919
 11
367.9078587579451
 21
269.8433661083578
 72
     1
 10
367.9078587579451
 20
269.8433661083578
 11
367.3367770300193
 21
271.1412480630652
 72
     1
 10
367.3367770300193
 20
271.1412480630652
 11
366.8228516610941
 21
272.4628049568465
 72
     1
 10
366.8228516610941
 20
272.4628049568465
 11
366.3670609373187
 21
273.8055211310419
 72
     1
 10
366.3670609373187
 20
273.8055211310419
 11
365.9702724822414
 21
275.1668406490989
 72
     1
 10
365.9702724822414
 20
275.1668406490989
 11
365.6332416052383
 21
276.5441721619425
 72
     1
 10
365.6332416052383
 20
276.5441721619425
 11
365.3566098637393
 21
277.9348938407556
 72
     1
 10
365.3566098637393
 20
277.9348938407556
 11
365.1409038419873
 21
279.3363583677793
 72
     1
 10
365.1409038419873
 20
279.3363583677793
 11
364.9865341486544
 21
280.7458979756321
 72
     1
 10
364.9865341486544
 20
280.7458979756321
 11
364.8937946352257
 21
282.1608295255577
 72
     1
 10
364.8937946352257
 20
282.1608295255577
 11
364.8628618366361
 21
283.5784596149311
 72
     1
 10
364.8628618366359
 20
283.5784596149297
 11
197.3628618366362
 21
283.5784596149297
 97
        0
 75
     0
 76
     2
 52
0.0
 41
0.5
 77
     0
 78
     2
 53
45.0
 43
-1522.607106854784
 44
804.4072721502566
 45
-6.735192090801775
 46
6.735192090801888
 79
     0
 53
135.0
 43
-1522.607106854784
 44
804.4072721502566
 45
-6.735192090801775
 46
-6.735192090801775
 79
     0
 98
        0
  0
LINE
  5
A2
330
1F
100
AcDbEntity
  8
10
  6
CONTINUOUS
 62
     7
100
AcDbLine
 10
597.3628618366362
 20
233.5784596149297
 30
0.0
 11
597.3628618366362
 21
333.5784596149297
 31
0.0
  0
LINE
  5
A3
330
1F
100
AcDbEntity
  8
10
  6
CONTINUOUS
 62
     7
100
AcDbLine
 10
597.3628618366362
 20
333.5784596149297
 30
0.0
 11
197.3628618366362
 21
333.5784596149297
 31
0.0
  0
LINE
  5
A4
330
1F
100
AcDbEntity
  8
10
  6
CONTINUOUS
 62
     7
100
AcDbLine
 10
197.3628618366362
 20
333.5784596149297
 30
0.0
 11
197.3628618366362
 21
233.5784596149297
 31
0.0
  0
LINE
  5
A5
330
1F
100
AcDbEntity
  8
10
  6
CONTINUOUS
 62
     7
100
AcDbLine
 10
612.3628618366362
 20
348.5784596149297
 30
0.0
 11
612.3628618366362
 21
218.5784596149297
 31
0.0
  0
LINE
  5
A6
330
1F
100
AcDbEntity
  8
10
  6
CONTINUOUS
 62
     7
100
AcDbLine
 10
612.3628618366362
 20
218.5784596149297
 30
0.0
 11
182.3628618366362
 21
218.5784596149288
 31
0.0
  0
LINE
  5
A7
330
1F
100
AcDbEntity
  8
10
  6
CONTINUOUS
 62
     7
100
AcDbLine
 10
612.3628618366362
 20
348.5784596149297
 30
0.0
 11
182.3628618366362
 21
348.5784596149297
 31
0.0
  0
LINE
  5
A8
330
1F
100
AcDbEntity
  8
10
  6
CONTINUOUS
 62
     7
100
AcDbLine
 10
182.3628618366362
 20
348.5784596149297
 30
0.0
 11
182.3628618366362
 21
218.5784596149288
 31
0.0
  0
LINE
  5
A9
330
1F
100
AcDbEntity
  8
10
  6
CONTINUOUS
 62
     7
100
AcDbLine
 10
741.0064859940677
 20
218.2617929482631
 30
0.0
 11
734.1064859940672
 21
218.2617929482631
 31
0.0
  0
ARC
  5
AA
330
1F
100
AcDbEntity
  8
10
  6
CONTINUOUS
 62
     7
100
AcDbCircle
 10
737.5564859940679
 20
221.2288104921226
 30
0.0
 40
4.550350877192955
100
AcDbArc
 50
220.6956985254115
 51
319.3043014745863
  0
LINE
  5
AB
330
1F
100
AcDbEntity
  8
10
  6
CONTINUOUS
 62
     7
100
AcDbLine
 10
741.0064859940677
 20
218.5784596149297
 30
0.0
 11
741.0064859940677
 21
218.2617929482631
 31
0.0
  0
LINE
  5
AC
330
1F
100
AcDbEntity
  8
10
  6
CONTINUOUS
 62
     7
100
AcDbLine
 10
734.1064859940672
 20
218.5784596149297
 30
0.0
 11
734.1064859940672
 21
218.2617929482631
 31
0.0
  0
LINE
  5
AD
330
1F
100
AcDbEntity
  8
10
  6
CONTINUOUS
 62
     7
100
AcDbLine
 10
702.5564859940679
 20
348.5784596149297
 30
0.0
 11
702.5564859940679
 21
218.5784596149297
 31
0.0
  0
LINE
  5
AE
330
1F
100
AcDbEntity
  8
10
  6
CONTINUOUS
 62
     7
100
AcDbLine
 10
747.5564859940679
 20
363.5784596149297
 30
0.0
 11
747.5564859940679
 21
203.5784596149297
 31
0.0
  0
LINE
  5
AF
330
1F
100
AcDbEntity
  8
10
  6
CONTINUOUS
 62
     7
100
AcDbLine
 10
746.5564859940679
 20
363.5784596149297
 30
0.0
 11
746.556485994067
 21
291.0784596149297
 31
0.0
  0
LINE
  5
B0
330
1F
100
AcDbEntity
  8
10
  6
CONTINUOUS
 62
     7
100
AcDbLine
 10
746.556485994067
 20
276.0784596149324
 30
0.0
 11
746.556485994067
 21
203.5784596149297
 31
0.0
  0
LINE
  5
B1
330
1F
100
AcDbEntity
  8
10
  6
CONTINUOUS
 62
     7
100
AcDbLine
 10
702.5564859940679
 20
348.5784596149297
 30
0.0
 11
746.5564859940679
 21
348.5784596149279
 31
0.0
  0
LINE
  5
B2
330
1F
100
AcDbEntity
  8
10
  6
CONTINUOUS
 62
     7
100
AcDbLine
 10
746.5564859940679
 20
347.5784596149279
 30
0.0
 11
747.5564859940679
 21
347.5784596149279
 31
0.0
  0
LINE
  5
B3
330
1F
100
AcDbEntity
  8
10
  6
CONTINUOUS
 62
     7
100
AcDbLine
 10
746.5564859940679
 20
363.5784596149297
 30
0.0
 11
747.5564859940679
 21
363.5784596149297
 31
0.0
  0
LINE
  5
B4
330
1F
100
AcDbEntity
  8
10
  6
CONTINUOUS
 62
     7
100
AcDbLine
 10
702.5564859940679
 20
218.5784596149297
 30
0.0
 11
746.5564859940661
 21
218.5784596149297
 31
0.0
  0
LINE
  5
B5
330
1F
100
AcDbEntity
  8
10
  6
CONTINUOUS
 62
     7
100
AcDbLine
 10
746.5564859940661
 20
219.5784596149297
 30
0.0
 11
747.5564859940679
 21
219.5784596149297
 31
0.0
  0
LINE
  5
B6
330
1F
100
AcDbEntity
  8
10
  6
CONTINUOUS
 62
     7
100
AcDbLine
 10
746.5564859940679
 20
203.5784596149297
 30
0.0
 11
747.5564859940679
 21
203.5784596149297
 31
0.0
  0
LINE
  5
B7
330
1F
100
AcDbEntity
  8
10
  6
CONTINUOUS
 62
     7
100
AcDbLine
 10
597.3628618366362
 20
208.5784596149297
 30
0.0
 11
597.3628618366362
 21
218.5784596149297
 31
0.0
  0
ARC
  5
B8
330
1F
100
AcDbEntity
  8
10
  6
CONTINUOUS
 62
     7
100
AcDbCircle
 10
592.3628618366371
 20
208.5784596149297
 30
0.0
 40
5.0
100
AcDbArc
 50
269.9999999999998
 51
0.0
  0
LINE
  5
B9
330
1F
100
AcDbEntity
  8
10
  6
CONTINUOUS
 62
     7
100
AcDbLine
 10
202.3628618366362
 20
203.5784596149297
 30
0.0
 11
592.3628618366371
 21
203.5784596149306
 31
0.0
  0
LINE
  5
BA
330
1F
100
AcDbEntity
  8
10
  6
CONTINUOUS
 62
     7
100
AcDbLine
 10
197.3628618366362
 20
208.5784596149297
 30
0.0
 11
197.3628618366362
 21
218.5784596149297
 31
0.0
  0
ARC
  5
BB
330
1F
100
AcDbEntity
  8
10
  6
CONTINUOUS
 62
     7
100
AcDbCircle
 10
202.3628618366353
 20
208.5784596149297
 30
0.0
 40
5.0
100
AcDbArc
 50
179.9999999999998
 51
269.9999999999998
  0
LINE
  5
BC
330
1F
100
AcDbEntity
  8
10
  6
CONTINUOUS
 62
     7
100
AcDbLine
 10
195.8128618366378
 20
218.2617929482631
 30
0.0
 11
188.9128618366382
 21
218.2617929482631
 31
0.0
  0
ARC
  5
BD
330
1F
100
AcDbEntity
  8
10
  6
CONTINUOUS
 62
     7
100
AcDbCircle
 10
192.362861836638
 20
221.2288104921226
 30
0.0
 40
4.550350877192983
100
AcDbArc
 50
220.6956985254115
 51
319.304301474584
  0
LINE
  5
BE
330
1F
100
AcDbEntity
  8
10
  6
CONTINUOUS
 62
     7
100
AcDbLine
 10
195.8128618366378
 20
218.5784596149297
 30
0.0
 11
195.8128618366378
 21
218.2617929482631
 31
0.0
  0
LINE
  5
BF
330
1F
100
AcDbEntity
  8
10
  6
CONTINUOUS
 62
     7
100
AcDbLine
 10
188.9128618366382
 20
218.5784596149297
 30
0.0
 11
188.9128618366382
 21
218.2617929482631
 31
0.0
  0
LINE
  5
C0
330
1F
100
AcDbEntity
  8
10
  6
CONTINUOUS
 62
     7
100
AcDbLine
 10
217.3128618366378
 20
218.2617929482631
 30
0.0
 11
210.4128618366373
 21
218.2617929482631
 31
0.0
  0
ARC
  5
C1
330
1F
100
AcDbEntity
  8
10
  6
CONTINUOUS
 62
     7
100
AcDbCircle
 10
213.862861836638
 20
221.2288104921226
 30
0.0
 40
4.550350877192983
100
AcDbArc
 50
220.6956985254115
 51
319.304301474584
  0
LINE
  5
C2
330
1F
100
AcDbEntity
  8
10
  6
CONTINUOUS
 62
     7
100
AcDbLine
 10
217.3128618366378
 20
218.5784596149297
 30
0.0
 11
217.3128618366378
 21
218.2617929482631
 31
0.0
  0
LINE
  5
C3
330
1F
100
AcDbEntity
  8
10
  6
CONTINUOUS
 62
     7
100
AcDbLine
 10
210.4128618366373
 20
218.5784596149297
 30
0.0
 11
210.4128618366373
 21
218.2617929482631
 31
0.0
  0
LINE
  5
C4
330
1F
100
AcDbEntity
  8
10
  6
CONTINUOUS
 62
     7
100
AcDbLine
 10
598.9128618366345
 20
218.2617929482631
 30
0.0
 11
605.8128618366351
 21
218.2617929482631
 31
0.0
  0
ARC
  5
C5
330
1F
100
AcDbEntity
  8
10
  6
CONTINUOUS
 62
     7
100
AcDbCircle
 10
602.3628618366344
 20
221.2288104921226
 30
0.0
 40
4.550350877192955
100
AcDbArc
 50
220.6956985254115
 51
319.3043014745863
  0
LINE
  5
C6
330
1F
100
AcDbEntity
  8
10
  6
CONTINUOUS
 62
     7
100
AcDbLine
 10
598.9128618366345
 20
218.5784596149297
 30
0.0
 11
598.9128618366345
 21
218.2617929482631
 31
0.0
  0
LINE
  5
C7
330
1F
100
AcDbEntity
  8
10
  6
CONTINUOUS
 62
     7
100
AcDbLine
 10
605.8128618366351
 20
218.5784596149297
 30
0.0
 11
605.8128618366351
 21
218.2617929482631
 31
0.0
  0
LINE
  5
C8
330
1F
100
AcDbEntity
  8
10
  6
CONTINUOUS
 62
     7
100
AcDbLine
 10
577.4128618366354
 20
218.2617929482631
 30
0.0
 11
584.3128618366351
 21
218.2617929482631
 31
0.0
  0
ARC
  5
C9
330
1F
100
AcDbEntity
  8
10
  6
CONTINUOUS
 62
     7
100
AcDbCircle
 10
580.8628618366353
 20
221.2288104921226
 30
0.0
 40
4.550350877192955
100
AcDbArc
 50
220.6956985254115
 51
319.3043014745863
  0
LINE
  5
CA
330
1F
100
AcDbEntity
  8
10
  6
CONTINUOUS
 62
     7
100
AcDbLine
 10
577.4128618366354
 20
218.5784596149297
 30
0.0
 11
577.4128618366354
 21
218.2617929482631
 31
0.0
  0
LINE
  5
CB
330
1F
100
AcDbEntity
  8
10
  6
CONTINUOUS
 62
     7
100
AcDbLine
 10
584.3128618366351
 20
218.5784596149297
 30
0.0
 11
584.3128618366351
 21
218.2617929482631
 31
0.0
  0
LINE
  5
CC
330
1F
100
AcDbEntity
  8
4
  6
DASHDOT
 62
     1
100
AcDbLine
 10
397.3628618366362
 20
193.5784596149301
 30
0.0
 11
397.3628618366357
 21
373.5784596149292
 31
0.0
  0
LINE
  5
CD
330
1F
100
AcDbEntity
  8
4
  6
DASHDOT
 62
     1
100
AcDbLine
 10
622.362861836636
 20
283.5784596149297
 30
0.0
 11
172.3628618366362
 21
283.5784596149297
 31
0.0
  0
LINE
  5
CE
330
1F
100
AcDbEntity
  8
10
  6
CONTINUOUS
 62
     7
100
AcDbLine
 10
741.0064859940677
 20
348.5784596149288
 30
0.0
 11
734.1064859940672
 21
348.5784596149288
 31
0.0
  0
LINE
  5
CF
330
1F
100
AcDbEntity
  8
10
  6
CONTINUOUS
 62
     7
100
AcDbLine
 10
741.0064859940677
 20
348.8951262815963
 30
0.0
 11
734.1064859940672
 21
348.8951262815963
 31
0.0
  0
ARC
  5
D0
330
1F
100
AcDbEntity
  8
10
  6
CONTINUOUS
 62
     7
100
AcDbCircle
 10
737.5564859940679
 20
345.9281087377358
 30
0.0
 40
4.550350877192955
100
AcDbArc
 50
40.6956985254205
 51
139.3043014745801
  0
LINE
  5
D1
330
1F
100
AcDbEntity
  8
10
  6
CONTINUOUS
 62
     7
100
AcDbLine
 10
741.0064859940677
 20
348.5784596149288
 30
0.0
 11
741.0064859940677
 21
348.8951262815963
 31
0.0
  0
LINE
  5
D2
330
1F
100
AcDbEntity
  8
10
  6
CONTINUOUS
 62
     7
100
AcDbLine
 10
734.1064859940672
 20
348.5784596149288
 30
0.0
 11
734.1064859940672
 21
348.8951262815963
 31
0.0
  0
LINE
  5
D3
330
1F
100
AcDbEntity
  8
10
  6
CONTINUOUS
 62
     7
100
AcDbLine
 10
597.3628618366362
 20
233.5784596149297
 30
0.0
 11
197.3628618366362
 21
233.5784596149297
 31
0.0
  0
LINE
  5
D4
330
1F
100
AcDbEntity
  8
10
  6
CONTINUOUS
 62
     7
100
AcDbLine
 10
597.3628618366362
 20
358.5784596149297
 30
0.0
 11
597.3628618366362
 21
348.5784596149297
 31
0.0
  0
ARC
  5
D5
330
1F
100
AcDbEntity
  8
10
  6
CONTINUOUS
 62
     7
100
AcDbCircle
 10
592.3628618366371
 20
358.5784596149297
 30
0.0
 40
5.0
100
AcDbArc
 50
0.0
 51
89.99999999999991
  0
LINE
  5
D6
330
1F
100
AcDbEntity
  8
10
  6
CONTINUOUS
 62
     7
100
AcDbLine
 10
202.3628618366362
 20
363.5784596149297
 30
0.0
 11
592.3628618366371
 21
363.5784596149288
 31
0.0
  0
LINE
  5
D7
330
1F
100
AcDbEntity
  8
10
  6
CONTINUOUS
 62
     7
100
AcDbLine
 10
197.3628618366362
 20
358.5784596149297
 30
0.0
 11
197.3628618366362
 21
348.5784596149297
 31
0.0
  0
ARC
  5
D8
330
1F
100
AcDbEntity
  8
10
  6
CONTINUOUS
 62
     7
100
AcDbCircle
 10
202.3628618366353
 20
358.5784596149297
 30
0.0
 40
5.0
100
AcDbArc
 50
89.99999999999991
 51
179.9999999999998
  0
LINE
  5
D9
330
1F
100
AcDbEntity
  8
10
  6
CONTINUOUS
 62
     7
100
AcDbLine
 10
195.8128618366378
 20
348.8951262815963
 30
0.0
 11
188.9128618366382
 21
348.8951262815963
 31
0.0
  0
ARC
  5
DA
330
1F
100
AcDbEntity
  8
10
  6
CONTINUOUS
 62
     7
100
AcDbCircle
 10
192.362861836638
 20
345.9281087377367
 30
0.0
 40
4.550350877192983
100
AcDbArc
 50
40.69569852541569
 51
139.3043014745881
  0
LINE
  5
DB
330
1F
100
AcDbEntity
  8
10
  6
CONTINUOUS
 62
     7
100
AcDbLine
 10
195.8128618366378
 20
348.5784596149297
 30
0.0
 11
195.8128618366378
 21
348.8951262815963
 31
0.0
  0
LINE
  5
DC
330
1F
100
AcDbEntity
  8
10
  6
CONTINUOUS
 62
     7
100
AcDbLine
 10
188.9128618366382
 20
348.5784596149297
 30
0.0
 11
188.9128618366382
 21
348.8951262815963
 31
0.0
  0
LINE
  5
DD
330
1F
100
AcDbEntity
  8
10
  6
CONTINUOUS
 62
     7
100
AcDbLine
 10
217.3128618366378
 20
348.8951262815963
 30
0.0
 11
210.4128618366373
 21
348.8951262815963
 31
0.0
  0
ARC
  5
DE
330
1F
100
AcDbEntity
  8
10
  6
CONTINUOUS
 62
     7
100
AcDbCircle
 10
213.862861836638
 20
345.9281087377367
 30
0.0
 40
4.550350877192983
100
AcDbArc
 50
40.69569852541569
 51
139.3043014745881
  0
LINE
  5
DF
330
1F
100
AcDbEntity
  8
10
  6
CONTINUOUS
 62
     7
100
AcDbLine
 10
217.3128618366378
 20
348.5784596149297
 30
0.0
 11
217.3128618366378
 21
348.8951262815963
 31
0.0
  0
LINE
  5
E0
330
1F
100
AcDbEntity
  8
10
  6
CONTINUOUS
 62
     7
100
AcDbLine
 10
210.4128618366373
 20
348.5784596149297
 30
0.0
 11
210.4128618366373
 21
348.8951262815963
 31
0.0
  0
LINE
  5
E1
330
1F
100
AcDbEntity
  8
10
  6
CONTINUOUS
 62
     7
100
AcDbLine
 10
598.9128618366345
 20
348.8951262815963
 30
0.0
 11
605.8128618366351
 21
348.8951262815963
 31
0.0
  0
ARC
  5
E2
330
1F
100
AcDbEntity
  8
10
  6
CONTINUOUS
 62
     7
100
AcDbCircle
 10
602.3628618366344
 20
345.9281087377367
 30
0.0
 40
4.550350877192955
100
AcDbArc
 50
40.69569852541188
 51
139.3043014745881
  0
LINE
  5
E3
330
1F
100
AcDbEntity
  8
10
  6
CONTINUOUS
 62
     7
100
AcDbLine
 10
598.9128618366345
 20
348.5784596149297
 30
0.0
 11
598.9128618366345
 21
348.8951262815963
 31
0.0
  0
LINE
  5
E4
330
1F
100
AcDbEntity
  8
10
  6
CONTINUOUS
 62
     7
100
AcDbLine
 10
605.8128618366351
 20
348.5784596149297
 30
0.0
 11
605.8128618366351
 21
348.8951262815963
 31
0.0
  0
LINE
  5
E5
330
1F
100
AcDbEntity
  8
10
  6
CONTINUOUS
 62
     7
100
AcDbLine
 10
577.4128618366354
 20
348.8951262815963
 30
0.0
 11
584.3128618366351
 21
348.8951262815963
 31
0.0
  0
ARC
  5
E6
330
1F
100
AcDbEntity
  8
10
  6
CONTINUOUS
 62
     7
100
AcDbCircle
 10
580.8628618366353
 20
345.9281087377367
 30
0.0
 40
4.550350877192955
100
AcDbArc
 50
40.69569852541188
 51
139.3043014745881
  0
LINE
  5
E7
330
1F
100
AcDbEntity
  8
10
  6
CONTINUOUS
 62
     7
100
AcDbLine
 10
577.4128618366354
 20
348.5784596149297
 30
0.0
 11
577.4128618366354
 21
348.8951262815963
 31
0.0
  0
LINE
  5
E8
330
1F
100
AcDbEntity
  8
10
  6
CONTINUOUS
 62
     7
100
AcDbLine
 10
584.3128618366351
 20
348.5784596149297
 30
0.0
 11
584.3128618366351
 21
348.8951262815963
 31
0.0
  0
POLYLINE
  5
E9
330
1F
100
AcDbEntity
  8
10
  6
CONTINUOUS
 62
     7
100
AcDb2dPolyline
 66
     1
 10
0.0
 20
0.0
 30
0.0
  0
VERTEX
  5
EA
330
E9
100
AcDbEntity
  8
10
  6
CONTINUOUS
 62
     7
100
AcDbVertex
100
AcDb2dVertex
 10
737.5205876091969
 20
289.5784596149297
 30
0.0
  0
VERTEX
  5
EB
330
E9
100
AcDbEntity
  8
10
  6
CONTINUOUS
 62
     7
100
AcDbVertex
100
AcDb2dVertex
 10
740.984689224335
 20
283.5784596149297
 30
0.0
  0
VERTEX
  5
EC
330
E9
100
AcDbEntity
  8
10
  6
CONTINUOUS
 62
     7
100
AcDbVertex
100
AcDb2dVertex
 10
737.5205876091969
 20
277.5784596149297
 30
0.0
  0
VERTEX
  5
ED
330
E9
100
AcDbEntity
  8
10
  6
CONTINUOUS
 62
     7
100
AcDbVertex
100
AcDb2dVertex
 10
730.5923843789216
 20
277.5784596149297
 30
0.0
  0
VERTEX
  5
EE
330
E9
100
AcDbEntity
  8
10
  6
CONTINUOUS
 62
     7
100
AcDbVertex
100
AcDb2dVertex
 10
727.1282827637843
 20
283.5784596149297
 30
0.0
  0
VERTEX
  5
EF
330
E9
100
AcDbEntity
  8
10
  6
CONTINUOUS
 62
     7
100
AcDbVertex
100
AcDb2dVertex
 10
730.5923843789216
 20
289.5784596149297
 30
0.0
  0
VERTEX
  5
F0
330
E9
100
AcDbEntity
  8
10
  6
CONTINUOUS
 62
     7
100
AcDbVertex
100
AcDb2dVertex
 10
737.5205876091969
 20
289.5784596149297
 30
0.0
  0
SEQEND
  5
F1
330
E9
100
AcDbEntity
  8
10
  6
CONTINUOUS
 62
     7
  0
CIRCLE
  5
F2
330
1F
100
AcDbEntity
  8
10
  6
CONTINUOUS
 62
     7
100
AcDbCircle
 10
734.0564859940588
 20
283.5784596149297
 30
0.0
 40
1.849999999990359
  0
CIRCLE
  5
F3
330
1F
100
AcDbEntity
  8
10
  6
CONTINUOUS
 62
     7
100
AcDbCircle
 10
734.0564859940588
 20
283.5784596149297
 30
0.0
 40
5.0
  0
LINE
  5
F4
330
1F
100
AcDbEntity
  8
10
  6
CONTINUOUS
 62
     7
100
AcDbLine
 10
746.5564859940674
 20
291.0784596149297
 30
0.0
 11
734.0564859940588
 21
291.0784596149297
 31
0.0
  0
LINE
  5
F5
330
1F
100
AcDbEntity
  8
10
  6
CONTINUOUS
 62
     7
100
AcDbLine
 10
746.556485994067
 20
276.0784596149324
 30
0.0
 11
734.0564859940606
 21
276.0784596149297
 31
0.0
  0
ARC
  5
F6
330
1F
100
AcDbEntity
  8
10
  6
CONTINUOUS
 62
     7
100
AcDbCircle
 10
734.0564859940588
 20
283.5784596149297
 30
0.0
 40
7.5
100
AcDbArc
 50
89.99999999999991
 51
270.000000000024
  0
LINE
  5
F7
330
1F
100
AcDbEntity
  8
10
  6
CONTINUOUS
 62
     7
100
AcDbLine
 10
619.3628618366362
 20
289.5784596149297
 30
0.0
 11
619.3628618366362
 21
283.5784596149297
 31
0.0
  0
LINE
  5
F8
330
1F
100
AcDbEntity
  8
10
  6
CONTINUOUS
 62
     7
100
AcDbLine
 10
630.3628618366362
 20
286.0784596149297
 30
0.0
 11
630.3628618366362
 21
281.0784596149297
 31
0.0
  0
ARC
  5
F9
330
1F
100
AcDbEntity
  8
10
  6
CONTINUOUS
 62
     7
100
AcDbCircle
 10
627.3628618366362
 20
286.0784596149297
 30
0.0
 40
3.0
100
AcDbArc
 50
0.0
 51
89.99999999999991
  0
LINE
  5
FA
330
1F
100
AcDbEntity
  8
10
  6
CONTINUOUS
 62
     7
100
AcDbLine
 10
627.3628618366362
 20
289.5784596149297
 30
0.0
 11
627.3628618366362
 21
277.5784596149297
 31
0.0
  0
LINE
  5
FB
330
1F
100
AcDbEntity
  8
10
  6
CONTINUOUS
 62
     7
100
AcDbLine
 10
619.3628618366362
 20
289.5784596149297
 30
0.0
 11
627.3628618366362
 21
289.5784596149297
 31
0.0
  0
LINE
  5
FC
330
1F
100
AcDbEntity
  8
10
  6
CONTINUOUS
 62
     7
100
AcDbLine
 10
617.4628618366347
 20
288.5784596149297
 30
0.0
 11
619.3628618366362
 21
288.5784596149297
 31
0.0
  0
LINE
  5
FD
330
1F
100
AcDbEntity
  8
10
  6
CONTINUOUS
 62
     7
100
AcDbLine
 10
619.3628618366362
 20
277.5784596149297
 30
0.0
 11
619.3628618366362
 21
283.5784596149297
 31
0.0
  0
LINE
  5
FE
330
1F
100
AcDbEntity
  8
10
  6
CONTINUOUS
 62
     7
100
AcDbLine
 10
619.3628618366362
 20
283.5784596149297
 30
0.0
 11
627.3628618366362
 21
283.5784596149297
 31
0.0
  0
LINE
  5
FF
330
1F
100
AcDbEntity
  8
10
  6
CONTINUOUS
 62
     7
100
AcDbLine
 10
617.4628618366347
 20
278.5784596149297
 30
0.0
 11
619.3628618366362
 21
278.5784596149297
 31
0.0
  0
ARC
  5
100
330
1F
100
AcDbEntity
  8
10
  6
CONTINUOUS
 62
     7
100
AcDbCircle
 10
627.3628618366362
 20
281.0784596149297
 30
0.0
 40
3.0
100
AcDbArc
 50
269.9999999999998
 51
0.0
  0
LINE
  5
101
330
1F
100
AcDbEntity
  8
10
  6
CONTINUOUS
 62
     7
100
AcDbLine
 10
619.3628618366362
 20
277.5784596149297
 30
0.0
 11
627.3628618366362
 21
277.5784596149297
 31
0.0
  0
LINE
  5
102
330
1F
100
AcDbEntity
  8
6
  6
CONTINUOUS
 62
     1
100
AcDbLine
 10
630.3628618366362
 20
285.4284596149291
 30
0.0
 11
649.0867703469154
 21
285.4284480667447
 31
0.0
  0
ARC
  5
103
330
1F
100
AcDbEntity
  8
6
  6
CONTINUOUS
 62
     1
100
AcDbCircle
 10
650.1206877449973
 20
284.5034539310636
 30
0.0
 40
1.387299296151127
100
AcDbArc
 50
138.1825956442981
 51
221.8174143556885
  0
ARC
  5
104
330
1F
100
AcDbEntity
  8
6
  6
CONTINUOUS
 62
     1
100
AcDbCircle
 10
648.0525684702594
 20
282.6534596149295
 30
0.0
 40
1.387515353286972
100
AcDbArc
 50
318.1902521645476
 51
41.80974783544889
  0
ARC
  5
105
330
1F
100
AcDbEntity
  8
6
  6
CONTINUOUS
 62
     1
100
AcDbCircle
 10
648.0525838235668
 20
284.5034537505871
 30
0.0
 40
1.387500000000045
100
AcDbArc
 50
318.1900099999847
 51
41.80999999998586
  0
LINE
  5
106
330
1F
100
AcDbEntity
  8
6
  6
CONTINUOUS
 62
     1
100
AcDbLine
 10
630.3628618366362
 20
281.7284596149293
 30
0.0
 11
649.0867705083571
 21
281.7284596149293
 31
0.0
  0
LINE
  5
107
330
1F
100
AcDbEntity
  8
10
  6
CONTINUOUS
 62
     7
100
AcDbLine
 10
612.8628618366362
 20
289.8284596149297
 30
0.0
 11
612.3628618366362
 21
289.8284596149297
 31
0.0
  0
LINE
  5
108
330
1F
100
AcDbEntity
  8
10
  6
CONTINUOUS
 62
     7
100
AcDbLine
 10
612.8628618366362
 20
290.5784596149297
 30
0.0
 11
617.4628618366356
 21
290.5784596149297
 31
0.0
  0
LINE
  5
109
330
1F
100
AcDbEntity
  8
10
  6
CONTINUOUS
 62
     7
100
AcDbLine
 10
612.8628618366362
 20
287.0784596149297
 30
0.0
 11
617.4628618366356
 21
287.0784596149297
 31
0.0
  0
LINE
  5
10A
330
1F
100
AcDbEntity
  8
10
  6
CONTINUOUS
 62
     7
100
AcDbLine
 10
612.8628618366362
 20
276.5784596149288
 30
0.0
 11
617.4628618366356
 21
276.5784596149297
 31
0.0
  0
LINE
  5
10B
330
1F
100
AcDbEntity
  8
10
  6
CONTINUOUS
 62
     7
100
AcDbLine
 10
612.8628618366362
 20
280.0784596149297
 30
0.0
 11
617.4628618366356
 21
280.0784596149297
 31
0.0
  0
LINE
  5
10C
330
1F
100
AcDbEntity
  8
10
  6
CONTINUOUS
 62
     7
100
AcDbLine
 10
617.4628618366356
 20
290.5784596149297
 30
0.0
 11
617.4628618366356
 21
283.5784596149297
 31
0.0
  0
LINE
  5
10D
330
1F
100
AcDbEntity
  8
10
  6
CONTINUOUS
 62
     7
100
AcDbLine
 10
617.4628618366356
 20
276.5784596149297
 30
0.0
 11
617.4628618366356
 21
283.5784596149297
 31
0.0
  0
LINE
  5
10E
330
1F
100
AcDbEntity
  8
10
  6
CONTINUOUS
 62
     7
100
AcDbLine
 10
612.8628618366362
 20
290.5784596149297
 30
0.0
 11
612.8628618366362
 21
276.5784596149288
 31
0.0
  0
LINE
  5
10F
330
1F
100
AcDbEntity
  8
10
  6
CONTINUOUS
 62
     7
100
AcDbLine
 10
612.8628618366362
 20
277.3284596149297
 30
0.0
 11
612.3628618366362
 21
277.3284596149297
 31
0.0
  0
LINE
  5
110
330
1F
100
AcDbEntity
  8
10
  6
CONTINUOUS
 62
     7
100
AcDbLine
 10
612.3628618366362
 20
289.8284596149297
 30
0.0
 11
612.3628618366362
 21
277.3284596149297
 31
0.0
  0
ARC
  5
111
330
1F
100
AcDbEntity
  8
6
  6
CONTINUOUS
 62
     1
100
AcDbCircle
 10
651.5192409904554
 20
282.676670685848
 30
0.0
 40
1.387515022395519
100
AcDbArc
 50
138.1902399436242
 51
221.8097600563755
  0
ARC
  5
112
330
1F
100
AcDbEntity
  8
6
  6
CONTINUOUS
 62
     1
100
AcDbCircle
 10
649.4511217156256
 20
282.6766764779695
 30
0.0
 40
1.387299627082371
100
AcDbArc
 50
318.1825978710874
 51
41.81739912888106
  0
LINE
  5
113
330
1F
100
AcDbEntity
  8
6
  6
CONTINUOUS
 62
     1
100
AcDbLine
 10
650.4850393962903
 20
281.7516706858478
 30
0.0
 11
657.8424666968164
 21
281.7516706858478
 31
0.0
  0
ARC
  5
114
330
1F
100
AcDbEntity
  8
6
  6
CONTINUOUS
 62
     1
100
AcDbCircle
 10
651.5192259680713
 20
284.5266649478563
 30
0.0
 40
1.387500000000045
100
AcDbArc
 50
138.1900000000142
 51
221.8099970000367
  0
LINE
  5
115
330
1F
100
AcDbEntity
  8
6
  6
CONTINUOUS
 62
     1
100
AcDbLine
 10
650.4850394447227
 20
285.4516592640139
 30
0.0
 11
657.8424666968164
 21
285.4516592640139
 31
0.0
  0
LINE
  5
116
330
1F
100
AcDbEntity
  8
10
  6
CONTINUOUS
 62
     7
100
AcDbLine
 10
393.9128618366364
 20
218.2617929482631
 30
0.0
 11
400.812861836636
 21
218.2617929482631
 31
0.0
  0
ARC
  5
117
330
1F
100
AcDbEntity
  8
10
  6
CONTINUOUS
 62
     7
100
AcDbCircle
 10
397.3628618366362
 20
221.2288104921226
 30
0.0
 40
4.550350877192955
100
AcDbArc
 50
220.6956985254115
 51
319.3043014745867
  0
LINE
  5
118
330
1F
100
AcDbEntity
  8
10
  6
CONTINUOUS
 62
     7
100
AcDbLine
 10
393.9128618366364
 20
218.5784596149297
 30
0.0
 11
393.9128618366364
 21
218.2617929482631
 31
0.0
  0
LINE
  5
119
330
1F
100
AcDbEntity
  8
10
  6
CONTINUOUS
 62
     7
100
AcDbLine
 10
400.812861836636
 20
218.5784596149297
 30
0.0
 11
400.812861836636
 21
218.2617929482631
 31
0.0
  0
LINE
  5
11A
330
1F
100
AcDbEntity
  8
10
  6
CONTINUOUS
 62
     7
100
AcDbLine
 10
393.9128618366364
 20
348.8951262815963
 30
0.0
 11
400.812861836636
 21
348.8951262815963
 31
0.0
  0
ARC
  5
11B
330
1F
100
AcDbEntity
  8
10
  6
CONTINUOUS
 62
     7
100
AcDbCircle
 10
397.3628618366362
 20
345.9281087377367
 30
0.0
 40
4.550350877192955
100
AcDbArc
 50
40.69569852541235
 51
139.3043014745881
  0
LINE
  5
11C
330
1F
100
AcDbEntity
  8
10
  6
CONTINUOUS
 62
     7
100
AcDbLine
 10
393.9128618366364
 20
348.5784596149297
 30
0.0
 11
393.9128618366364
 21
348.8951262815963
 31
0.0
  0
LINE
  5
11D
330
1F
100
AcDbEntity
  8
10
  6
CONTINUOUS
 62
     7
100
AcDbLine
 10
400.812861836636
 20
348.5784596149297
 30
0.0
 11
400.812861836636
 21
348.8951262815963
 31
0.0
  0
CIRCLE
  5
11E
330
1F
100
AcDbEntity
  8
10
  6
CONTINUOUS
 62
     7
100
AcDbCircle
 10
222.3628618366362
 20
356.5784596149297
 30
0.0
 40
3.099999999999994
  0
CIRCLE
  5
11F
330
1F
100
AcDbEntity
  8
10
  6
CONTINUOUS
 62
     7
100
AcDbCircle
 10
309.8628618366371
 20
356.5784596149297
 30
0.0
 40
3.100000000000023
  0
CIRCLE
  5
120
330
1F
100
AcDbEntity
  8
10
  6
CONTINUOUS
 62
     7
100
AcDbCircle
 10
484.8628618366353
 20
356.5784596149297
 30
0.0
 40
3.100000000000023
  0
CIRCLE
  5
121
330
1F
100
AcDbEntity
  8
10
  6
CONTINUOUS
 62
     7
100
AcDbCircle
 10
572.3628618366362
 20
356.5784596149297
 30
0.0
 40
3.100000000000023
  0
CIRCLE
  5
122
330
1F
100
AcDbEntity
  8
10
  6
CONTINUOUS
 62
     7
100
AcDbCircle
 10
572.3628618366362
 20
210.5784596149297
 30
0.0
 40
3.100000000000023
  0
CIRCLE
  5
123
330
1F
100
AcDbEntity
  8
10
  6
CONTINUOUS
 62
     7
100
AcDbCircle
 10
484.8628618366353
 20
210.5784596149297
 30
0.0
 40
3.100000000000023
  0
CIRCLE
  5
124
330
1F
100
AcDbEntity
  8
10
  6
CONTINUOUS
 62
     7
100
AcDbCircle
 10
309.8628618366371
 20
210.5784596149297
 30
0.0
 40
3.100000000000023
  0
CIRCLE
  5
125
330
1F
100
AcDbEntity
  8
10
  6
CONTINUOUS
 62
     7
100
AcDbCircle
 10
222.3628618366362
 20
210.5784596149297
 30
0.0
 40
3.099999999999994
  0
LINE
  5
126
330
1F
100
AcDbEntity
  8
6
  6
CONTINUOUS
 62
     1
100
AcDbLine
 10
674.7950189843224
 20
288.1016949749301
 30
0.0
 11
666.9602655079658
 21
288.1016949749301
 31
0.0
  0
LINE
  5
127
330
1F
100
AcDbEntity
  8
6
  6
CONTINUOUS
 62
     1
100
AcDbLine
 10
683.7949959843223
 20
285.6016749749297
 30
0.0
 11
670.7949869843225
 21
285.6016749749297
 31
0.0
  0
LINE
  5
128
330
1F
100
AcDbEntity
  8
6
  6
CONTINUOUS
 62
     1
100
AcDbLine
 10
680.7949919843223
 20
284.0016749749298
 30
0.0
 11
671.7949909843225
 21
284.0016749749298
 31
0.0
  0
LINE
  5
129
330
1F
100
AcDbEntity
  8
6
  6
CONTINUOUS
 62
     1
100
AcDbLine
 10
680.7949919843223
 20
282.4016849749296
 30
0.0
 11
671.7949909843225
 21
282.4016849749296
 31
0.0
  0
LINE
  5
12A
330
1F
100
AcDbEntity
  8
6
  6
CONTINUOUS
 62
     1
100
AcDbLine
 10
680.7949919843223
 20
283.2016549749296
 30
0.0
 11
671.7949909843225
 21
283.2016549749296
 31
0.0
  0
LINE
  5
12B
330
1F
100
AcDbEntity
  8
6
  6
CONTINUOUS
 62
     1
100
AcDbLine
 10
680.7949919843223
 20
284.80165497493
 30
0.0
 11
671.7949909843225
 21
284.80165497493
 31
0.0
  0
LINE
  5
12C
330
1F
100
AcDbEntity
  8
6
  6
CONTINUOUS
 62
     1
100
AcDbLine
 10
674.7950189843224
 20
279.1016349749298
 30
0.0
 11
666.9602655079658
 21
279.1016349749293
 31
0.0
  0
LINE
  5
12D
330
1F
100
AcDbEntity
  8
6
  6
CONTINUOUS
 62
     1
100
AcDbLine
 10
683.7949959843223
 20
281.6016649749299
 30
0.0
 11
670.7949869843225
 21
281.6016649749299
 31
0.0
  0
LINE
  5
12E
330
1F
100
AcDbEntity
  8
6
  6
CONTINUOUS
 62
     1
100
AcDbLine
 10
664.1394954292606
 20
287.0919247641841
 30
0.0
 11
657.8424666968164
 21
287.0919247641841
 31
0.0
  0
LINE
  5
12F
330
1F
100
AcDbEntity
  8
6
  6
CONTINUOUS
 62
     1
100
AcDbLine
 10
664.1394954292606
 20
280.1114051856771
 30
0.0
 11
657.8424666968164
 21
280.1114051856771
 31
0.0
  0
LINE
  5
130
330
1F
100
AcDbEntity
  8
6
  6
CONTINUOUS
 62
     1
100
AcDbLine
 10
657.8424666968164
 20
280.1114051856771
 30
0.0
 11
657.8424666968164
 21
287.0919247641841
 31
0.0
  0
ARC
  5
131
330
1F
100
AcDbEntity
  8
6
  6
CONTINUOUS
 62
     1
100
AcDbCircle
 10
666.9602655079663
 20
286.1016949749301
 30
0.0
 40
2.0
100
AcDbArc
 50
90.00000000001303
 51
120.0000000000151
  0
ARC
  5
132
330
1F
100
AcDbEntity
  8
6
  6
CONTINUOUS
 62
     1
100
AcDbCircle
 10
664.1394954292606
 20
289.0919247641832
 30
0.0
 40
2.0
100
AcDbArc
 50
269.9999999999998
 51
300.0000000000147
  0
LINE
  5
133
330
1F
100
AcDbEntity
  8
6
  6
CONTINUOUS
 62
     1
100
AcDbLine
 10
665.9602655079663
 20
287.8337457824982
 30
0.0
 11
665.139495429261
 21
287.359873956615
 31
0.0
  0
ARC
  5
134
330
1F
100
AcDbEntity
  8
6
  6
CONTINUOUS
 62
     1
100
AcDbCircle
 10
666.9602655079663
 20
281.1016349749293
 30
0.0
 40
2.0
100
AcDbArc
 50
239.9999999999846
 51
269.9999999999866
  0
ARC
  5
135
330
1F
100
AcDbEntity
  8
6
  6
CONTINUOUS
 62
     1
100
AcDbCircle
 10
664.1394954292606
 20
278.1114051856762
 30
0.0
 40
2.0
100
AcDbArc
 50
59.99999999998492
 51
89.99999999999991
  0
LINE
  5
136
330
1F
100
AcDbEntity
  8
6
  6
CONTINUOUS
 62
     1
100
AcDbLine
 10
665.9602655079663
 20
279.3695841673616
 30
0.0
 11
665.139495429261
 21
279.8434559932448
 31
0.0
  0
LINE
  5
137
330
1F
100
AcDbEntity
  8
6
  6
CONTINUOUS
 62
     1
100
AcDbLine
 10
670.7949869843225
 20
281.6016649749299
 30
0.0
 11
670.7949869843225
 21
285.6016749749297
 31
0.0
  0
LINE
  5
138
330
1F
100
AcDbEntity
  8
6
  6
CONTINUOUS
 62
     1
100
AcDbLine
 10
671.7949909843225
 20
281.6016649749299
 30
0.0
 11
671.7949909843225
 21
285.6016749749297
 31
0.0
  0
LINE
  5
139
330
1F
100
AcDbEntity
  8
6
  6
CONTINUOUS
 62
     1
100
AcDbLine
 10
683.7949959843223
 20
283.6016649749299
 30
0.0
 11
683.7949959843223
 21
288.8516749749297
 31
0.0
  0
ARC
  5
13A
330
1F
100
AcDbEntity
  8
6
  6
CONTINUOUS
 62
     1
100
AcDbCircle
 10
676.7949949843224
 20
287.8516749749297
 30
0.0
 40
1.0
100
AcDbArc
 50
89.99999999999991
 51
179.9999999999998
  0
LINE
  5
13B
330
1F
100
AcDbEntity
  8
6
  6
CONTINUOUS
 62
     1
100
AcDbLine
 10
674.7950189843224
 20
287.6016849749299
 30
0.0
 11
675.7949909843225
 21
287.6016849749299
 31
0.0
  0
LINE
  5
13C
330
1F
100
AcDbEntity
  8
6
  6
CONTINUOUS
 62
     1
100
AcDbLine
 10
674.7950189843224
 20
288.1016949749301
 30
0.0
 11
674.7950189843224
 21
285.6016749749301
 31
0.0
  0
LINE
  5
13D
330
1F
100
AcDbEntity
  8
6
  6
CONTINUOUS
 62
     1
100
AcDbLine
 10
675.7949909843225
 20
287.8516749749297
 30
0.0
 11
675.7949909843225
 21
285.6016749749297
 31
0.0
  0
LINE
  5
13E
330
1F
100
AcDbEntity
  8
6
  6
CONTINUOUS
 62
     1
100
AcDbLine
 10
675.7949909843225
 20
287.6016849749299
 30
0.0
 11
675.7949909843225
 21
285.6016749749297
 31
0.0
  0
LINE
  5
13F
330
1F
100
AcDbEntity
  8
6
  6
CONTINUOUS
 62
     1
100
AcDbLine
 10
676.7949949843224
 20
278.3516549749297
 30
0.0
 11
683.7949959843223
 21
278.3516549749297
 31
0.0
  0
LINE
  5
140
330
1F
100
AcDbEntity
  8
6
  6
CONTINUOUS
 62
     1
100
AcDbLine
 10
675.7949909843225
 20
279.6016449749295
 30
0.0
 11
674.7950189843224
 21
279.6016449749295
 31
0.0
  0
LINE
  5
141
330
1F
100
AcDbEntity
  8
6
  6
CONTINUOUS
 62
     1
100
AcDbLine
 10
674.7950189843224
 20
279.1016349749298
 30
0.0
 11
674.7950189843224
 21
281.6016549749297
 31
0.0
  0
LINE
  5
142
330
1F
100
AcDbEntity
  8
6
  6
CONTINUOUS
 62
     1
100
AcDbLine
 10
675.7949909843225
 20
279.3516549749297
 30
0.0
 11
675.7949909843225
 21
281.6016649749299
 31
0.0
  0
LINE
  5
143
330
1F
100
AcDbEntity
  8
6
  6
CONTINUOUS
 62
     1
100
AcDbLine
 10
675.7949909843225
 20
281.6016649749299
 30
0.0
 11
675.7949909843225
 21
279.6016449749295
 31
0.0
  0
ARC
  5
144
330
1F
100
AcDbEntity
  8
6
  6
CONTINUOUS
 62
     1
100
AcDbCircle
 10
676.7949949843224
 20
279.3516549749297
 30
0.0
 40
1.0
100
AcDbArc
 50
179.9999999999998
 51
269.9999999999998
  0
LINE
  5
145
330
1F
100
AcDbEntity
  8
6
  6
CONTINUOUS
 62
     1
100
AcDbLine
 10
680.7949919843223
 20
285.6016749749297
 30
0.0
 11
680.7949919843223
 21
281.6016649749299
 31
0.0
  0
LINE
  5
146
330
1F
100
AcDbEntity
  8
6
  6
CONTINUOUS
 62
     1
100
AcDbLine
 10
683.7949959843223
 20
283.6016649749299
 30
0.0
 11
683.7949959843223
 21
278.3516549749297
 31
0.0
  0
LINE
  5
147
330
1F
100
AcDbEntity
  8
6
  6
CONTINUOUS
 62
     1
100
AcDbLine
 10
682.7949869843225
 20
285.6016749749297
 30
0.0
 11
682.7949869843225
 21
281.6016649749299
 31
0.0
  0
LINE
  5
148
330
1F
100
AcDbEntity
  8
6
  6
CONTINUOUS
 62
     1
100
AcDbLine
 10
676.7949949843224
 20
288.8516749749297
 30
0.0
 11
683.7949959843223
 21
288.8516749749297
 31
0.0
  0
LINE
  5
149
330
1F
100
AcDbEntity
  8
4
  6
DASHDOT
 62
     1
100
AcDbLine
 10
692.5564859940679
 20
283.5784596149297
 30
0.0
 11
757.5564859940679
 21
283.5784596149297
 31
0.0
  0
CIRCLE
  5
14A
330
1F
100
AcDbEntity
  8
10
  6
CONTINUOUS
 62
     7
100
AcDbCircle
 10
397.3628618366359
 20
283.5784596149297
 30
0.0
 40
27.5
  0
CIRCLE
  5
14B
330
1F
100
AcDbEntity
  8
3
  6
HIDDEN
 62
     3
100
AcDbCircle
 10
397.3628618366359
 20
283.5784596149297
 30
0.0
 40
32.5
  0
MTEXT
  5
14C
330
1F
100
AcDbEntity
  8
9
  6
CONTINUOUS
 62
     4
100
AcDbMText
 10
646.0288498608066
 20
274.2181323391133
 30
0.0
 40
6.0
 41
21.15942
 71
     1
 72
     1
  1
{\fＭＳ ゴシック;\T0.750000;L=500}
1001
ACAD
1000
ACAD_MTEXT_DEFINED_HEIGHT_BEGIN
1070
    46
1040
6.0
1000
ACAD_MTEXT_DEFINED_HEIGHT_END
  0
INSERT
  5
14D
330
1F
100
AcDbEntity
  8
9
  6
CONTINUOUS
 62
     4
100
AcDbBlockReference
  2
_OPEN
 10
220.812861836636
 20
359.2631383666612
 30
0.0
 41
4.0
 42
4.0
 43
4.0
 50
299.9999999999994
  0
POLYLINE
  5
14E
330
1F
100
AcDbEntity
  8
9
  6
CONTINUOUS
 62
     4
100
AcDb2dPolyline
 66
     1
 10
0.0
 20
0.0
 30
0.0
  0
VERTEX
  5
14F
330
14E
100
AcDbEntity
  8
9
  6
CONTINUOUS
 62
     4
100
AcDbVertex
100
AcDb2dVertex
 10
220.812861836636
 20
359.2631383666612
 30
0.0
  0
VERTEX
  5
150
330
14E
100
AcDbEntity
  8
9
  6
CONTINUOUS
 62
     4
100
AcDbVertex
100
AcDb2dVertex
 10
205.2504964024084
 20
386.2179459846975
 30
0.0
  0
VERTEX
  5
151
330
14E
100
AcDbEntity
  8
9
  6
CONTINUOUS
 62
     4
100
AcDbVertex
100
AcDb2dVertex
 10
179.2504964024084
 20
386.2179459846975
 30
0.0
  0
SEQEND
  5
152
330
14E
100
AcDbEntity
  8
9
  6
CONTINUOUS
 62
     4
  0
MTEXT
  5
153
330
1F
100
AcDbEntity
  8
9
  6
CONTINUOUS
 62
     4
100
AcDbMText
 10
200.2504964024084
 20
386.2179459846975
 30
0.0
 40
6.0
 41
30.75826500000001
 71
     9
 72
     1
  1
{\fＭＳ ゴシック;\T0.750000;8-φ6.2}
1001
ACAD
1000
ACAD_MTEXT_DEFINED_HEIGHT_BEGIN
1070
    46
1040
6.0
1000
ACAD_MTEXT_DEFINED_HEIGHT_END
  0
DIMENSION
  5
15C
330
1F
100
AcDbEntity
  8
9
  6
CONTINUOUS
 62
     4
100
AcDbDimension
  2
DIM1
 10
413.2530966693427
 20
261.1340741931495
 30
0.0
 11
333.6460975536086
 21
377.469999362726
 31
0.0
 70
   163
  1
<>
  3
STANDARD
100
AcDbDiametricDimension
 15
381.4726270039287
 25
306.0228450367088
 35
0.0
 40
0.0
1001
ACAD
1000
DSTYLE
1002
{
1070
   287
1070
     2
1070
     7
1000

1070
     6
1000

1070
   340
1005
154
1070
   140
1040
4.5
1070
    40
1040
1.0
1070
   147
1040
0.0
1070
    76
1070
     0
1070
    75
1070
     0
1070
   173
1070
     1
1070
   289
1070
     2
1070
   288
1070
     1
1070
    77
1070
     1
1070
   172
1070
     1
1070
   174
1070
     0
1070
    74
1070
     0
1070
    73
1070
     0
1070
   284
1070
     8
1070
    78
1070
     8
1070
    42
1040
1.5
1070
    44
1040
2.25
1070
    43
1040
30.0
1070
   271
1070
     2
1070
    41
1040
3.0
1002
}
  0
DIMENSION
  5
164
330
1F
100
AcDbEntity
  8
9
  6
CONTINUOUS
 62
     4
100
AcDbDimension
  2
DIM2
 10
407.9918017519096
 20
252.8656669011844
 30
0.0
 11
361.3710031813984
 21
394.4583313288741
 31
0.0
 70
   163
  1
<>
  3
STANDARD
100
AcDbDiametricDimension
 15
386.7339219213632
 25
314.2912523286758
 35
0.0
 40
0.0
1001
ACAD
1000
DSTYLE
1002
{
1070
   287
1070
     2
1070
     7
1000

1070
     6
1000

1070
   340
1005
154
1070
   140
1040
4.5
1070
    40
1040
1.0
1070
   147
1040
0.0
1070
    76
1070
     0
1070
    75
1070
     0
1070
   173
1070
     1
1070
   289
1070
     2
1070
   288
1070
     1
1070
    77
1070
     1
1070
   172
1070
     1
1070
   174
1070
     0
1070
    74
1070
     0
1070
    73
1070
     0
1070
   284
1070
     8
1070
    78
1070
     8
1070
    42
1040
1.5
1070
    44
1040
2.25
1070
    43
1040
30.0
1070
   271
1070
     2
1070
    41
1040
3.0
1002
}
  0
DIMENSION
  5
16E
330
1F
100
AcDbEntity
  8
9
  6
CONTINUOUS
 62
     4
100
AcDbDimension
  2
DIM3
 10
484.8628618366353
 20
179.11109301947
 30
0.0
 11
397.3628618366357
 21
179.11109301947
 31
0.0
 70
   160
  1
<>
  3
STANDARD
100
AcDbAlignedDimension
 13
309.8628618366362
 23
210.5784596149297
 33
0.0
 14
484.8628618366353
 24
210.5784596149297
 34
0.0
100
AcDbRotatedDimension
1001
ACAD
1000
DSTYLE
1002
{
1070
   287
1070
     4
1070
     7
1000

1070
     6
1000

1070
   279
1070
     1
1070
   340
1005
154
1070
   140
1040
6.0
1070
    40
1040
1.0
1070
   147
1040
0.0
1070
    76
1070
     0
1070
    75
1070
     0
1070
   173
1070
     1
1070
   289
1070
     2
1070
   288
1070
     1
1070
    77
1070
     1
1070
   172
1070
     1
1070
   174
1070
     0
1070
    74
1070
     0
1070
    73
1070
     0
1070
   284
1070
     8
1070
    78
1070
     8
1070
    42
1040
2.0
1070
    44
1040
3.0
1070
    43
1040
30.0
1070
   271
1070
     2
1070
    41
1040
4.0
1002
}
  0
DIMENSION
  5
178
330
1F
100
AcDbEntity
  8
9
  6
CONTINUOUS
 62
     4
100
AcDbDimension
  2
DIM4
 10
597.3628618366361
 20
157.4494639949862
 30
0.0
 11
397.3628618366362
 21
157.4494639949862
 31
0.0
 70
   160
  1
<>
  3
STANDARD
100
AcDbAlignedDimension
 13
197.3628618366362
 23
233.5784596149297
 33
0.0
 14
597.3628618366362
 24
233.5784596149297
 34
0.0
100
AcDbRotatedDimension
1001
ACAD
1000
DSTYLE
1002
{
1070
   287
1070
     4
1070
     7
1000

1070
     6
1000

1070
   279
1070
     1
1070
   340
1005
154
1070
   140
1040
6.0
1070
    40
1040
1.0
1070
   147
1040
0.0
1070
    76
1070
     0
1070
    75
1070
     0
1070
   173
1070
     1
1070
   289
1070
     2
1070
   288
1070
     1
1070
    77
1070
     1
1070
   172
1070
     1
1070
   174
1070
     0
1070
    74
1070
     0
1070
    73
1070
     0
1070
   284
1070
     8
1070
    78
1070
     8
1070
    42
1040
2.0
1070
    44
1040
3.0
1070
    43
1040
30.0
1070
   271
1070
     2
1070
    41
1040
4.0
1002
}
  0
DIMENSION
  5
182
330
1F
100
AcDbEntity
  8
9
  6
CONTINUOUS
 62
     4
100
AcDbDimension
  2
DIM5
 10
612.3628618366361
 20
134.7443837040082
 30
0.0
 11
397.3628618366362
 21
134.7443837040082
 31
0.0
 70
   160
  1
<>
  3
STANDARD
100
AcDbAlignedDimension
 13
182.3628618366362
 23
218.5784596149288
 33
0.0
 14
612.3628618366362
 24
218.5784596149297
 34
0.0
100
AcDbRotatedDimension
1001
ACAD
1000
DSTYLE
1002
{
1070
   287
1070
     4
1070
     7
1000

1070
     6
1000

1070
   279
1070
     1
1070
   340
1005
154
1070
   140
1040
6.0
1070
    40
1040
1.0
1070
   147
1040
0.0
1070
    76
1070
     0
1070
    75
1070
     0
1070
   173
1070
     1
1070
   289
1070
     2
1070
   288
1070
     1
1070
    77
1070
     1
1070
   172
1070
     1
1070
   174
1070
     0
1070
    74
1070
     0
1070
    73
1070
     0
1070
   284
1070
     8
1070
    78
1070
     8
1070
    42
1040
2.0
1070
    44
1040
3.0
1070
    43
1040
30.0
1070
   271
1070
     2
1070
    41
1040
4.0
1002
}
  0
DIMENSION
  5
18C
330
1F
100
AcDbEntity
  8
9
  6
CONTINUOUS
 62
     4
100
AcDbDimension
  2
DIM6
 10
747.5564859940678
 20
134.7443837040082
 30
0.0
 11
725.0564859940679
 21
134.7443837040082
 31
0.0
 70
   160
  1
<>
  3
STANDARD
100
AcDbAlignedDimension
 13
702.5564859940679
 23
218.5784596149297
 33
0.0
 14
747.5564859940679
 24
203.5784596149297
 34
0.0
100
AcDbRotatedDimension
1001
ACAD
1000
DSTYLE
1002
{
1070
   287
1070
     4
1070
     7
1000

1070
     6
1000

1070
   279
1070
     1
1070
   340
1005
154
1070
   140
1040
6.0
1070
    40
1040
1.0
1070
   147
1040
0.0
1070
    76
1070
     0
1070
    75
1070
     0
1070
   173
1070
     1
1070
   289
1070
     2
1070
   288
1070
     1
1070
    77
1070
     1
1070
   172
1070
     1
1070
   174
1070
     0
1070
    74
1070
     0
1070
    73
1070
     0
1070
   284
1070
     8
1070
    78
1070
     8
1070
    42
1040
2.0
1070
    44
1040
3.0
1070
    43
1040
30.0
1070
   271
1070
     2
1070
    41
1040
4.0
1002
}
  0
DIMENSION
  5
196
330
1F
100
AcDbEntity
  8
9
  6
CONTINUOUS
 62
     4
100
AcDbDimension
  2
DIM7
 10
746.5564859940661
 20
179.11109301947
 30
0.0
 11
758.5564859940679
 21
179.11109301947
 31
0.0
 70
   160
  1
<>
  3
STANDARD
100
AcDbAlignedDimension
 13
747.5564859940679
 23
203.5784596149297
 33
0.0
 14
746.5564859940661
 24
203.5784596149297
 34
0.0
 50
179.9999999999998
100
AcDbRotatedDimension
1001
ACAD
1000
DSTYLE
1002
{
1070
   287
1070
     4
1070
     7
1000

1070
     6
1000

1070
   279
1070
     1
1070
   340
1005
154
1070
   140
1040
6.0
1070
    40
1040
1.0
1070
   147
1040
0.0
1070
    76
1070
     0
1070
    75
1070
     0
1070
   173
1070
     1
1070
   289
1070
     2
1070
   288
1070
     1
1070
    77
1070
     1
1070
   172
1070
     1
1070
   174
1070
     0
1070
    74
1070
     0
1070
    73
1070
     0
1070
   284
1070
     8
1070
    78
1070
     8
1070
    42
1040
2.0
1070
    44
1040
3.0
1070
    43
1040
30.0
1070
   271
1070
     2
1070
    41
1040
4.0
1002
}
  0
DIMENSION
  5
1A0
330
1F
100
AcDbEntity
  8
9
  6
CONTINUOUS
 62
     4
100
AcDbDimension
  2
DIM8
 10
163.0581800540805
 20
333.5784596149298
 30
0.0
 11
163.0581800540805
 21
283.5784596149298
 31
0.0
 70
   160
  1
<>
  3
STANDARD
100
AcDbAlignedDimension
 13
197.3628618366362
 23
233.5784596149297
 33
0.0
 14
197.3628618366362
 24
333.5784596149297
 34
0.0
 50
89.99999999999991
100
AcDbRotatedDimension
1001
ACAD
1000
DSTYLE
1002
{
1070
   287
1070
     4
1070
     7
1000

1070
     6
1000

1070
   279
1070
     1
1070
   340
1005
154
1070
   140
1040
6.0
1070
    40
1040
1.0
1070
   147
1040
0.0
1070
    76
1070
     0
1070
    75
1070
     0
1070
   173
1070
     1
1070
   289
1070
     2
1070
   288
1070
     1
1070
    77
1070
     1
1070
   172
1070
     1
1070
   174
1070
     0
1070
    74
1070
     0
1070
    73
1070
     0
1070
   284
1070
     8
1070
    78
1070
     8
1070
    42
1040
2.0
1070
    44
1040
3.0
1070
    43
1040
30.0
1070
   271
1070
     2
1070
    41
1040
4.0
1002
}
  0
DIMENSION
  5
1AA
330
1F
100
AcDbEntity
  8
9
  6
CONTINUOUS
 62
     4
100
AcDbDimension
  2
DIM9
 10
141.9245712696994
 20
348.5784596149298
 30
0.0
 11
141.9245712696994
 21
284.4692168934707
 31
0.0
 70
   160
  1
<>
  3
STANDARD
100
AcDbAlignedDimension
 13
182.3628618366362
 23
218.5784596149297
 33
0.0
 14
182.3628618366362
 24
348.5784596149297
 34
0.0
 50
89.99999999999991
100
AcDbRotatedDimension
1001
ACAD
1000
DSTYLE
1002
{
1070
   287
1070
     4
1070
     7
1000

1070
     6
1000

1070
   279
1070
     1
1070
   340
1005
154
1070
   140
1040
6.0
1070
    40
1040
1.0
1070
   147
1040
0.0
1070
    76
1070
     0
1070
    75
1070
     0
1070
   173
1070
     1
1070
   289
1070
     2
1070
   288
1070
     1
1070
    77
1070
     1
1070
   172
1070
     1
1070
   174
1070
     0
1070
    74
1070
     0
1070
    73
1070
     0
1070
   284
1070
     8
1070
    78
1070
     8
1070
    42
1040
2.0
1070
    44
1040
3.0
1070
    43
1040
30.0
1070
   271
1070
     2
1070
    41
1040
4.0
1002
}
  0
DIMENSION
  5
1B4
330
1F
100
AcDbEntity
  8
9
  6
CONTINUOUS
 62
     4
100
AcDbDimension
  2
DIM10
 10
121.3363526836612
 20
356.5784596149301
 30
0.0
 11
121.3363526836612
 21
284.4692168934707
 31
0.0
 70
   160
  1
<>
  3
STANDARD
100
AcDbAlignedDimension
 13
222.3628618366362
 23
210.5784596149297
 33
0.0
 14
222.3628618366362
 24
356.5784596149297
 34
0.0
 50
89.99999999999991
100
AcDbRotatedDimension
1001
ACAD
1000
DSTYLE
1002
{
1070
   287
1070
     4
1070
     7
1000

1070
     6
1000

1070
   279
1070
     1
1070
   340
1005
154
1070
   140
1040
6.0
1070
    40
1040
1.0
1070
   147
1040
0.0
1070
    76
1070
     0
1070
    75
1070
     0
1070
   173
1070
     1
1070
   289
1070
     2
1070
   288
1070
     1
1070
    77
1070
     1
1070
   172
1070
     1
1070
   174
1070
     0
1070
    74
1070
     0
1070
    73
1070
     0
1070
   284
1070
     8
1070
    78
1070
     8
1070
    42
1040
2.0
1070
    44
1040
3.0
1070
    43
1040
30.0
1070
   271
1070
     2
1070
    41
1040
4.0
1002
}
  0
DIMENSION
  5
1BE
330
1F
100
AcDbEntity
  8
9
  6
CONTINUOUS
 62
     4
100
AcDbDimension
  2
DIM11
 10
100.579898705205
 20
203.57845961493
 30
0.0
 11
100.579898705205
 21
284.4692168934707
 31
0.0
 70
   160
  1
<>
 53
89.99999999999991
  3
STANDARD
100
AcDbAlignedDimension
 13
202.3628618366353
 23
363.5784596149297
 33
0.0
 14
202.3628618366353
 24
203.5784596149297
 34
0.0
 50
-89.99999999999991
100
AcDbRotatedDimension
1001
ACAD
1000
DSTYLE
1002
{
1070
   287
1070
     4
1070
     7
1000

1070
     6
1000

1070
   279
1070
     1
1070
   340
1005
154
1070
   140
1040
6.0
1070
    40
1040
1.0
1070
   147
1040
0.0
1070
    76
1070
     0
1070
    75
1070
     0
1070
   173
1070
     1
1070
   289
1070
     2
1070
   288
1070
     1
1070
    77
1070
     1
1070
   172
1070
     1
1070
   174
1070
     0
1070
    74
1070
     0
1070
    73
1070
     0
1070
   284
1070
     8
1070
    78
1070
     8
1070
    42
1040
2.0
1070
    44
1040
3.0
1070
    43
1040
30.0
1070
   271
1070
     2
1070
    41
1040
4.0
1002
}
  0
DIMENSION
  5
1C8
330
1F
100
AcDbEntity
  8
9
  6
CONTINUOUS
 62
     4
100
AcDbDimension
  2
DIM12
 10
612.3628618366361
 20
134.7443837040082
 30
0.0
 11
644.3628618366362
 21
134.7443837040082
 31
0.0
 70
   160
  1
(<>
  3
STANDARD
100
AcDbAlignedDimension
 13
630.3628618366362
 23
281.0784596149297
 33
0.0
 14
612.3628618366362
 24
218.5784596149297
 34
0.0
 50
179.9999999999998
100
AcDbRotatedDimension
1001
ACAD
1000
DSTYLE
1002
{
1070
   287
1070
     4
1070
     7
1000

1070
     6
1000

1070
   279
1070
     1
1070
   340
1005
154
1070
   140
1040
6.0
1070
    40
1040
1.0
1070
   147
1040
0.0
1070
    76
1070
     0
1070
    75
1070
     0
1070
   173
1070
     1
1070
   289
1070
     2
1070
   288
1070
     1
1070
    77
1070
     1
1070
   172
1070
     1
1070
   174
1070
     0
1070
    74
1070
     0
1070
    73
1070
     0
1070
   284
1070
     8
1070
    78
1070
     8
1070
    42
1040
2.0
1070
    44
1040
3.0
1070
    43
1040
30.0
1070
   271
1070
     2
1070
    41
1040
4.0
1002
}
  0
DIMENSION
  5
1D2
330
1F
100
AcDbEntity
  8
9
  6
CONTINUOUS
 62
     4
100
AcDbDimension
  2
DIM13
 10
727.1282827637841
 20
157.4494639949862
 30
0.0
 11
766.0564859940679
 21
157.4494639949862
 31
0.0
 70
   160
  1
(<>
  3
STANDARD
100
AcDbAlignedDimension
 13
747.5564859940679
 23
203.5784596149297
 33
0.0
 14
727.1282827637843
 24
283.5784596149297
 34
0.0
 50
179.9999999999998
100
AcDbRotatedDimension
1001
ACAD
1000
DSTYLE
1002
{
1070
   287
1070
     4
1070
     7
1000

1070
     6
1000

1070
   279
1070
     1
1070
   340
1005
154
1070
   140
1040
6.0
1070
    40
1040
1.0
1070
   147
1040
0.0
1070
    76
1070
     0
1070
    75
1070
     0
1070
   173
1070
     1
1070
   289
1070
     2
1070
   288
1070
     1
1070
    77
1070
     1
1070
   172
1070
     1
1070
   174
1070
     0
1070
    74
1070
     0
1070
    73
1070
     0
1070
   284
1070
     8
1070
    78
1070
     8
1070
    42
1040
2.0
1070
    44
1040
3.0
1070
    43
1040
30.0
1070
   271
1070
     2
1070
    41
1040
4.0
1002
}
  0
DIMENSION
  5
1DC
330
1F
100
AcDbEntity
  8
9
  6
CONTINUOUS
 62
     4
100
AcDbDimension
  2
DIM14
 10
572.3628618366362
 20
179.11109301947
 30
0.0
 11
528.6128618366357
 21
179.11109301947
 31
0.0
 70
   160
  1
<>
  3
STANDARD
100
AcDbAlignedDimension
 13
484.8628618366353
 23
210.5784596149297
 33
0.0
 14
572.3628618366362
 24
210.5784596149297
 34
0.0
100
AcDbRotatedDimension
1001
ACAD
1000
DSTYLE
1002
{
1070
   287
1070
     4
1070
     7
1000

1070
     6
1000

1070
   279
1070
     1
1070
   340
1005
154
1070
   140
1040
6.0
1070
    40
1040
1.0
1070
   147
1040
0.0
1070
    76
1070
     0
1070
    75
1070
     0
1070
   173
1070
     1
1070
   289
1070
     2
1070
   288
1070
     1
1070
    77
1070
     1
1070
   172
1070
     1
1070
   174
1070
     0
1070
    74
1070
     0
1070
    73
1070
     0
1070
   284
1070
     8
1070
    78
1070
     8
1070
    42
1040
2.0
1070
    44
1040
3.0
1070
    43
1040
30.0
1070
   271
1070
     2
1070
    41
1040
4.0
1002
}
  0
DIMENSION
  5
1E6
330
1F
100
AcDbEntity
  8
9
  6
CONTINUOUS
 62
     4
100
AcDbDimension
  2
DIM15
 10
222.3628618366361
 20
179.11109301947
 30
0.0
 11
266.1128618366366
 21
179.11109301947
 31
0.0
 70
   160
  1
<>
  3
STANDARD
100
AcDbAlignedDimension
 13
309.8628618366371
 23
210.5784596149297
 33
0.0
 14
222.3628618366362
 24
210.5784596149297
 34
0.0
 50
179.9999999999998
100
AcDbRotatedDimension
1001
ACAD
1000
DSTYLE
1002
{
1070
   287
1070
     4
1070
     7
1000

1070
     6
1000

1070
   279
1070
     1
1070
   340
1005
154
1070
   140
1040
6.0
1070
    40
1040
1.0
1070
   147
1040
0.0
1070
    76
1070
     0
1070
    75
1070
     0
1070
   173
1070
     1
1070
   289
1070
     2
1070
   288
1070
     1
1070
    77
1070
     1
1070
   172
1070
     1
1070
   174
1070
     0
1070
    74
1070
     0
1070
    73
1070
     0
1070
   284
1070
     8
1070
    78
1070
     8
1070
    42
1040
2.0
1070
    44
1040
3.0
1070
    43
1040
30.0
1070
   271
1070
     2
1070
    41
1040
4.0
1002
}
  0
VIEWPORT
  5
3F
330
1B
100
AcDbEntity
 67
     1
  8
0
100
AcDbViewport
 10
420.0
 20
297.0
 30
0.0
 40
840.0
 41
594.0
 68
     1
 69
     1
1001
ACAD
1000
MVIEW
1002
{
1070
    16
1010
0.0
1020
0.0
1030
0.0
1010
0.0
1020
0.0
1030
1.0
1040
0.0
1040
9.0
1040
420.0
1040
297.0
1040
50.0
1040
0.0
1040
0.0
1070
     0
1070
   100
1070
     0
1070
     3
1070
     0
1070
     0
1070
     0
1070
     0
1040
0.0
1040
0.0
1040
0.0
1040
0.5
1040
0.5
1040
0.5
1040
0.5
1070
     0
1002
{
1002
}
1002
}
  0
ENDSEC
  0
SECTION
  2
OBJECTS
  0
DICTIONARY
  5
C
330
0
100
AcDbDictionary
  3
ACAD_GROUP
350
D
  3
ACAD_LAYOUT
350
1A
  3
ACAD_MATERIAL
350
3B
  3
ACAD_MLEADERSTYLE
350
209
  3
ACAD_MLINESTYLE
350
17
  3
ACAD_PLOTSETTINGS
350
19
  3
ACAD_VISUALSTYLE
350
2A
  3
ACDBHEADERROUNDTRIPXREC
350
1E7
  3
ACDBVARIABLEDICTIONARY
350
207
  0
DICTIONARY
  5
D
102
{ACAD_REACTORS
330
C
102
}
330
C
100
AcDbDictionary
  0
DICTIONARY
  5
1A
102
{ACAD_REACTORS
330
C
102
}
330
C
100
AcDbDictionary
  0
DICTIONARY
  5
3B
102
{ACAD_REACTORS
330
C
102
}
330
C
100
AcDbDictionary
  3
BYBLOCK
350
3D
  3
BYLAYER
350
3C
  3
GLOBAL
350
3E
  0
DICTIONARY
  5
209
102
{ACAD_REACTORS
330
C
102
}
330
C
100
AcDbDictionary
  0
DICTIONARY
  5
17
102
{ACAD_REACTORS
330
C
102
}
330
C
100
AcDbDictionary
  3
STANDARD
350
18
  0
DICTIONARY
  5
19
102
{ACAD_REACTORS
330
C
102
}
330
C
100
AcDbDictionary
  0
DICTIONARY
  5
2A
102
{ACAD_REACTORS
330
C
102
}
330
C
100
AcDbDictionary
  3
2DWIREFRAME
350
2F
  3
3D_HIDDEN
350
31
  3
3DWIREFRAME
350
30
  3
BASIC
350
32
  3
BRIGHTEN
350
36
  3
COLORCHANGE
350
3A
  3
CONCEPTUAL
350
34
  3
DIM
350
35
  3
FACEPATTERN
350
39
  3
FLAT
350
2B
  3
FLATWITHEDGES
350
2C
  3
GOURAUD
350
2D
  3
GOURAUDWITHEDGES
350
2E
  3
LINEPATTERN
350
38
  3
REALISTIC
350
33
  3
THICKEN
350
37
  0
DICTIONARY
  5
1E7
102
{ACAD_REACTORS
330
C
102
}
330
C
100
AcDbDictionary
  3
CEPSNTYPE
350
1F0
  3
DIMSTYLEDATA
350
206
  3
FINGERPRINTGUID
350
1F1
  3
HYPERLINKBASE
350
1EA
  3
INSUNITS
350
1EF
  3
LAYOUTDICT
350
1EC
  3
LWETCUNION
350
1EE
  3
PLOTSETDICT
350
1ED
  3
PSVPSCALE
350
1F3
  3
PUCSBASE
350
1F6
  3
PUCSORGBACK
350
1FC
  3
PUCSORGBOTTOM
350
1F8
  3
PUCSORGFRONT
350
1FB
  3
PUCSORGLEFT
350
1F9
  3
PUCSORGRIGHT
350
1FA
  3
PUCSORGTOP
350
1F7
  3
PUCSORTHOREF
350
1F4
  3
PUCSORTHOVIEW
350
1F5
  3
STYLESHEET
350
1EB
  3
TSTACKALIGN
350
1E8
  3
TSTACKSIZE
350
1E9
  3
UCSBASE
350
1FF
  3
UCSORGBACK
350
205
  3
UCSORGBOTTOM
350
201
  3
UCSORGFRONT
350
204
  3
UCSORGLEFT
350
202
  3
UCSORGRIGHT
350
203
  3
UCSORGTOP
350
200
  3
UCSORTHOREF
350
1FD
  3
UCSORTHOVIEW
350
1FE
  3
VERSIONGUID
350
1F2
  0
DICTIONARY
  5
207
102
{ACAD_REACTORS
330
C
102
}
330
C
100
AcDbDictionary
  3
DIMASSOC
350
20A
  3
HIDETEXT
350
20B
  0
MATERIAL
  5
3D
102
{ACAD_REACTORS
330
3B
102
}
102
{ACAD_XDICTIONARY
360
20E
102
}
330
3B
100
AcDbMaterial
  1
ByBlock
  0
MATERIAL
  5
3C
102
{ACAD_REACTORS
330
3B
102
}
102
{ACAD_XDICTIONARY
360
20C
102
}
330
3B
100
AcDbMaterial
  1
ByLayer
  0
MATERIAL
  5
3E
102
{ACAD_REACTORS
330
3B
102
}
102
{ACAD_XDICTIONARY
360
210
102
}
330
3B
100
AcDbMaterial
  1
Global
  0
MLINESTYLE
  5
18
102
{ACAD_REACTORS
330
17
102
}
330
17
100
AcDbMlineStyle
  2
Standard
 70
     0
  3

 62
   256
 51
90.0
 52
90.0
 71
     2
 49
0.5
 62
   256
  6
BYLAYER
 49
-0.5
 62
   256
  6
BYLAYER
  0
ACAD_PROXY_OBJECT
  5
2F
102
{ACAD_REACTORS
330
2A
102
}
330
2A
100
AcDbProxyObject
 90
      499
 91
      501
 93
      436
310
42CC9915DA5C99599C985B595049028333333333333E3BF0000000000000FB0107901411070040501600405405064090741402480A0340
1001
ACAD
1000
AcDbSavedByObjectVersion
1070
     0
  0
ACAD_PROXY_OBJECT
  5
31
102
{ACAD_REACTORS
330
2A
102
}
330
2A
100
AcDbProxyObject
 90
      499
 91
      501
 93
      500
310
424CD108121A5919195B90640502408333333333333E3BF0000000000000FB01079024090700405020000000000001110200405405064090740C02480A0340
1001
ACAD
1000
AcDbSavedByObjectVersion
1070
     0
  0
ACAD_PROXY_OBJECT
  5
30
102
{ACAD_REACTORS
330
2A
102
}
330
2A
100
AcDbProxyObject
 90
      499
 91
      501
 93
      436
310
42CCD915DA5C99599C985B595059028333333333333E3BF0000000000000FB0107901411070040501600405405064090741402480A0340
1001
ACAD
1000
AcDbSavedByObjectVersion
1070
     0
  0
ACAD_PROXY_OBJECT
  5
32
102
{ACAD_REACTORS
330
2A
102
}
330
2A
100
AcDbProxyObject
 90
      499
 91
      501
 93
      388
310
4150985CDA58D07406404333333333333E3BF0000000000000FB0107A41107004050150841D405064090741402480A0350
1001
ACAD
1000
AcDbSavedByObjectVersion
1070
     0
  0
ACAD_PROXY_OBJECT
  5
36
102
{ACAD_REACTORS
330
2A
102
}
330
2A
100
AcDbProxyObject
 90
      499
 91
      501
 93
      428
310
42109C9A59DA1D195B90C409028333333333333E3BF0000000000000FB010790141107004050150841D405064090741402480A029950
1001
ACAD
1000
AcDbSavedByObjectVersion
1070
     0
  0
ACAD_PROXY_OBJECT
  5
3A
102
{ACAD_REACTORS
330
2A
102
}
330
2A
100
AcDbProxyObject
 90
      499
 91
      501
 93
      452
310
42D0DBDB1BDC90DA185B99D95104090240C333333333333E3BF0000000000000FB0108901411070040501508421405064090741402480A0350
1001
ACAD
1000
AcDbSavedByObjectVersion
1070
     0
  0
ACAD_PROXY_OBJECT
  5
34
102
{ACAD_REACTORS
330
2A
102
}
330
2A
100
AcDbProxyObject
 90
      499
 91
      501
 93
      500
310
4290DBDB98D95C1D1D585B10940D028333333333333E3BF0000000000000FB0107902409070040501000000000000111010841D405064090740C02480A0340
1001
ACAD
1000
AcDbSavedByObjectVersion
1070
     0
  0
ACAD_PROXY_OBJECT
  5
35
102
{ACAD_REACTORS
330
2A
102
}
330
2A
100
AcDbProxyObject
 90
      499
 91
      501
 93
      412
310
40D11A5B50B409028333333333333E3BF0000000000000FB010790141107004050150841D405064090741402480A02677FFFFFD0
1001
ACAD
1000
AcDbSavedByObjectVersion
1070
     0
  0
ACAD_PROXY_OBJECT
  5
39
102
{ACAD_REACTORS
330
2A
102
}
330
2A
100
AcDbProxyObject
 90
      499
 91
      501
 93
      444
310
42D19858D95C185D1D195C9B90F409028333333333333E3BF0000000000000FB010790141107004050150841D405064090741402480A0350
1001
ACAD
1000
AcDbSavedByObjectVersion
1070
     0
  0
ACAD_PROXY_OBJECT
  5
2B
102
{ACAD_REACTORS
330
2A
102
}
330
2A
100
AcDbProxyObject
 90
      499
 91
      501
 93
      388
310
41119B185D240901404333333333333E3BF0000000000000F9010740A41107004050150841D405064090741402480A1B50
1001
ACAD
1000
AcDbSavedByObjectVersion
1070
     0
  0
ACAD_PROXY_OBJECT
  5
2C
102
{ACAD_REACTORS
330
2A
102
}
330
2A
100
AcDbProxyObject
 90
      499
 91
      501
 93
      476
310
43519B185D15DA5D1A115919D95CD0140901404333333333333E3BF0000000000000F9010740901411070040501600405405064090741402480A1B50
1001
ACAD
1000
AcDbSavedByObjectVersion
1070
     0
  0
ACAD_PROXY_OBJECT
  5
2D
102
{ACAD_REACTORS
330
2A
102
}
330
2A
100
AcDbProxyObject
 90
      499
 91
      501
 93
      412
310
41D1DBDD5C985D5910240902404333333333333E3BF0000000000000F9010740A411070040501641D405064090741402480A1B50
1001
ACAD
1000
AcDbSavedByObjectVersion
1070
     0
  0
ACAD_PROXY_OBJECT
  5
2E
102
{ACAD_REACTORS
330
2A
102
}
330
2A
100
AcDbProxyObject
 90
      499
 91
      501
 93
      500
310
4411DBDD5C985D5915DA5D1A115919D95CD0340902404333333333333E3BF0000000000000F9010740901411070040501600405405064090741402480A1B50
1001
ACAD
1000
AcDbSavedByObjectVersion
1070
     0
  0
ACAD_PROXY_OBJECT
  5
38
102
{ACAD_REACTORS
330
2A
102
}
330
2A
100
AcDbProxyObject
 90
      499
 91
      501
 93
      444
310
42D31A5B995C185D1D195C9B90E409028333333333333E3BF0000000000000FB010790141107004050750841D405064090741402483A0350
1001
ACAD
1000
AcDbSavedByObjectVersion
1070
     0
  0
ACAD_PROXY_OBJECT
  5
33
102
{ACAD_REACTORS
330
2A
102
}
330
2A
100
AcDbProxyObject
 90
      499
 91
      501
 93
      420
310
425499585B1A5CDD1A58D08409028333333333333E3BF0000000000000FB01079019070040501508421405064090741402480A1B40
1001
ACAD
1000
AcDbSavedByObjectVersion
1070
     0
  0
ACAD_PROXY_OBJECT
  5
37
102
{ACAD_REACTORS
330
2A
102
}
330
2A
100
AcDbProxyObject
 90
      499
 91
      501
 93
      412
310
41D51A1A58DAD95B90D409028333333333333E3BF0000000000000FB010790141107004050150C41D405064090741402480A0350
1001
ACAD
1000
AcDbSavedByObjectVersion
1070
     0
  0
XRECORD
  5
1F0
102
{ACAD_REACTORS
330
1E7
102
}
330
1E7
100
AcDbXrecord
 90
        0
  0
XRECORD
  5
206
102
{ACAD_REACTORS
330
1E7
102
}
330
1E7
100
AcDbXrecord
1000
DSTYLE
1002
{
1070
   171
 70
     2
1070
   143
 40
25.4
1070
   274
 70
     2
1070
    41
 40
1.55291427
1070
   289
 70
     2
1070
   141
 40
0.09
1070
    43
 40
30.0
1070
   278
 70
    46
1070
    44
 40
2.0
1070
    42
 40
2.0
1070
   147
 40
0.09
1070
    77
 70
     3
1070
   272
 70
     4
1070
   146
 40
0.5
1070
   279
 70
     2
1070
   283
 70
     1
1070
   145
 40
0.7
1070
   340
340
11
1070
   140
 40
2.8
1070
   288
 70
     1
1002
}
  0
XRECORD
  5
1F1
102
{ACAD_REACTORS
330
1E7
102
}
330
1E7
100
AcDbXrecord
  1
{C493393F-184D-4399-BCBB-9FD6C6E460C5}
  0
XRECORD
  5
1EA
102
{ACAD_REACTORS
330
1E7
102
}
330
1E7
100
AcDbXrecord
  1

  0
XRECORD
  5
1EF
102
{ACAD_REACTORS
330
1E7
102
}
330
1E7
100
AcDbXrecord
 90
        4
  0
XRECORD
  5
1EC
102
{ACAD_REACTORS
330
1E7
102
}
330
1E7
100
AcDbXrecord
340
1A
  0
XRECORD
  5
1EE
102
{ACAD_REACTORS
330
1E7
102
}
330
1E7
100
AcDbXrecord
 90
    10781
  0
XRECORD
  5
1ED
102
{ACAD_REACTORS
330
1E7
102
}
330
1E7
100
AcDbXrecord
340
19
  0
XRECORD
  5
1F3
102
{ACAD_REACTORS
330
1E7
102
}
330
1E7
100
AcDbXrecord
 40
0.0
  0
XRECORD
  5
1F6
102
{ACAD_REACTORS
330
1E7
102
}
330
1E7
100
AcDbXrecord
340
0
  0
XRECORD
  5
1FC
102
{ACAD_REACTORS
330
1E7
102
}
330
1E7
100
AcDbXrecord
 10
0.0
 20
0.0
 30
0.0
  0
XRECORD
  5
1F8
102
{ACAD_REACTORS
330
1E7
102
}
330
1E7
100
AcDbXrecord
 10
0.0
 20
0.0
 30
0.0
  0
XRECORD
  5
1FB
102
{ACAD_REACTORS
330
1E7
102
}
330
1E7
100
AcDbXrecord
 10
0.0
 20
0.0
 30
0.0
  0
XRECORD
  5
1F9
102
{ACAD_REACTORS
330
1E7
102
}
330
1E7
100
AcDbXrecord
 10
0.0
 20
0.0
 30
0.0
  0
XRECORD
  5
1FA
102
{ACAD_REACTORS
330
1E7
102
}
330
1E7
100
AcDbXrecord
 10
0.0
 20
0.0
 30
0.0
  0
XRECORD
  5
1F7
102
{ACAD_REACTORS
330
1E7
102
}
330
1E7
100
AcDbXrecord
 10
0.0
 20
0.0
 30
0.0
  0
XRECORD
  5
1F4
102
{ACAD_REACTORS
330
1E7
102
}
330
1E7
100
AcDbXrecord
340
0
  0
XRECORD
  5
1F5
102
{ACAD_REACTORS
330
1E7
102
}
330
1E7
100
AcDbXrecord
 70
     0
  0
XRECORD
  5
1EB
102
{ACAD_REACTORS
330
1E7
102
}
330
1E7
100
AcDbXrecord
  1

  0
XRECORD
  5
1E8
102
{ACAD_REACTORS
330
1E7
102
}
330
1E7
100
AcDbXrecord
 90
        1
  0
XRECORD
  5
1E9
102
{ACAD_REACTORS
330
1E7
102
}
330
1E7
100
AcDbXrecord
 90
       70
  0
XRECORD
  5
1FF
102
{ACAD_REACTORS
330
1E7
102
}
330
1E7
100
AcDbXrecord
340
0
  0
XRECORD
  5
205
102
{ACAD_REACTORS
330
1E7
102
}
330
1E7
100
AcDbXrecord
 10
0.0
 20
0.0
 30
0.0
  0
XRECORD
  5
201
102
{ACAD_REACTORS
330
1E7
102
}
330
1E7
100
AcDbXrecord
 10
0.0
 20
0.0
 30
0.0
  0
XRECORD
  5
204
102
{ACAD_REACTORS
330
1E7
102
}
330
1E7
100
AcDbXrecord
 10
0.0
 20
0.0
 30
0.0
  0
XRECORD
  5
202
102
{ACAD_REACTORS
330
1E7
102
}
330
1E7
100
AcDbXrecord
 10
0.0
 20
0.0
 30
0.0
  0
XRECORD
  5
203
102
{ACAD_REACTORS
330
1E7
102
}
330
1E7
100
AcDbXrecord
 10
0.0
 20
0.0
 30
0.0
  0
XRECORD
  5
200
102
{ACAD_REACTORS
330
1E7
102
}
330
1E7
100
AcDbXrecord
 10
0.0
 20
0.0
 30
0.0
  0
XRECORD
  5
1FD
102
{ACAD_REACTORS
330
1E7
102
}
330
1E7
100
AcDbXrecord
340
0
  0
XRECORD
  5
1FE
102
{ACAD_REACTORS
330
1E7
102
}
330
1E7
100
AcDbXrecord
 70
     0
  0
XRECORD
  5
1F2
102
{ACAD_REACTORS
330
1E7
102
}
330
1E7
100
AcDbXrecord
  1
{FAEB1C32-E019-11D5-929B-00C0DF256EC4}
  0
DICTIONARYVAR
  5
20A
102
{ACAD_REACTORS
330
207
102
}
330
207
100
DictionaryVariables
280
     0
  1
1
  0
DICTIONARYVAR
  5
20B
102
{ACAD_REACTORS
330
207
102
}
330
207
100
DictionaryVariables
280
     0
  1
1
  0
DICTIONARY
  5
20E
330
3D
100
AcDbDictionary
280
     1
  3
ACAD_XREC_ROUNDTRIP
360
20F
  0
DICTIONARY
  5
20C
330
3C
100
AcDbDictionary
280
     1
  3
ACAD_XREC_ROUNDTRIP
360
20D
  0
DICTIONARY
  5
210
330
3E
100
AcDbDictionary
280
     1
  3
ACAD_XREC_ROUNDTRIP
360
211
  0
XRECORD
  5
20F
102
{ACAD_REACTORS
330
20E
102
}
330
20E
100
AcDbXrecord
102
MATERIAL
148
0.0
149
0.0
149
0.0
 93
        0
 94
      127
282
     0
 72
     1
 77
     1
171
     1
175
     1
179
     1
273
     0
  0
XRECORD
  5
20D
102
{ACAD_REACTORS
330
20C
102
}
330
20C
100
AcDbXrecord
102
MATERIAL
148
0.0
149
0.0
149
0.0
 93
        0
 94
      127
282
     0
 72
     1
 77
     1
171
     1
175
     1
179
     1
273
     0
  0
XRECORD
  5
211
102
{ACAD_REACTORS
330
210
102
}
330
210
100
AcDbXrecord
102
MATERIAL
148
0.0
149
0.0
149
0.0
 93
        0
 94
      127
282
     0
 72
     1
 77
     1
171
     1
175
     1
179
     1
273
     0
  0
ENDSEC
  0
EOF
