  0
SECTION
  2
HEADER
  9
$ACADVER
  1
AC1027
  9
$ACADMAINTVER
 70
     8
  9
$DWGCODEPAGE
  3
ANSI_932
  9
$REQUIREDVERSIONS
160
                 0
  9
$INSBASE
 10
0.0
 20
0.0
 30
0.0
  9
$EXTMIN
 10
40.58232328482813
 20
41.2850000000002
 30
0.0
  9
$EXTMAX
 10
770.5564859940675
 20
389.2179459846977
 30
0.0
  9
$LIMMIN
 10
0.0
 20
0.0
  9
$LIMMAX
 10
841.0
 20
594.0
  9
$ORTHOMODE
 70
     0
  9
$REGENMODE
 70
     1
  9
$FILLMODE
 70
     1
  9
$QTEXTMODE
 70
     0
  9
$MIRRTEXT
 70
     1
  9
$LTSCALE
 40
0.25
  9
$ATTMODE
 70
     1
  9
$TEXTSIZE
 40
2.8
  9
$TRACEWID
 40
0.05
  9
$TEXTSTYLE
  7
Standard
  9
$CLAYER
  8
0
  9
$CELTYPE
  6
ByLayer
  9
$CECOLOR
 62
   256
  9
$CELTSCALE
 40
1.0
  9
$DISPSILH
 70
     0
  9
$DIMSCALE
 40
1.0
  9
$DIMASZ
 40
1.55291427
  9
$DIMEXO
 40
2.0
  9
$DIMDLI
 40
30.0
  9
$DIMRND
 40
0.0
  9
$DIMDLE
 40
0.0
  9
$DIMEXE
 40
2.0
  9
$DIMTP
 40
0.0
  9
$DIMTM
 40
0.0
  9
$DIMTXT
 40
2.8
  9
$DIMCEN
 40
0.09
  9
$DIMTSZ
 40
0.0
  9
$DIMTOL
 70
     0
  9
$DIMLIM
 70
     0
  9
$DIMTIH
 70
     0
  9
$DIMTOH
 70
     0
  9
$DIMSE1
 70
     0
  9
$DIMSE2
 70
     0
  9
$DIMTAD
 70
     3
  9
$DIMZIN
 70
     8
  9
$DIMBLK
  1

  9
$DIMASO
 70
     1
  9
$DIMSHO
 70
     1
  9
$DIMPOST
  1

  9
$DIMAPOST
  1

  9
$DIMALT
 70
     0
  9
$DIMALTD
 70
     2
  9
$DIMALTF
 40
25.4
  9
$DIMLFAC
 40
1.0
  9
$DIMTOFL
 70
     1
  9
$DIMTVP
 40
0.7
  9
$DIMTIX
 70
     0
  9
$DIMSOXD
 70
     0
  9
$DIMSAH
 70
     0
  9
$DIMBLK1
  1

  9
$DIMBLK2
  1

  9
$DIMSTYLE
  2
Standard
  9
$DIMCLRD
 70
     0
  9
$DIMCLRE
 70
     0
  9
$DIMCLRT
 70
     0
  9
$DIMTFAC
 40
0.5
  9
$DIMGAP
 40
0.09
  9
$DIMJUST
 70
     0
  9
$DIMSD1
 70
     0
  9
$DIMSD2
 70
     0
  9
$DIMTOLJ
 70
     1
  9
$DIMTZIN
 70
     8
  9
$DIMALTZ
 70
     0
  9
$DIMALTTZ
 70
     0
  9
$DIMUPT
 70
     1
  9
$DIMDEC
 70
     2
  9
$DIMTDEC
 70
     4
  9
$DIMALTU
 70
     2
  9
$DIMALTTD
 70
     2
  9
$DIMTXSTY
  7
Standard
  9
$DIMAUNIT
 70
     0
  9
$DIMADEC
 70
     0
  9
$DIMALTRND
 40
0.0
  9
$DIMAZIN
 70
     0
  9
$DIMDSEP
 70
    46
  9
$DIMATFIT
 70
     2
  9
$DIMFRAC
 70
     0
  9
$DIMLDRBLK
  1

  9
$DIMLUNIT
 70
     2
  9
$DIMLWD
 70
    -2
  9
$DIMLWE
 70
    -2
  9
$DIMTMOVE
 70
     2
  9
$DIMFXL
 40
1.0
  9
$DIMFXLON
 70
     0
  9
$DIMJOGANG
 40
0.7853981633974483
  9
$DIMTFILL
 70
     0
  9
$DIMTFILLCLR
 70
     0
  9
$DIMARCSYM
 70
     0
  9
$DIMLTYPE
  6

  9
$DIMLTEX1
  6

  9
$DIMLTEX2
  6

  9
$DIMTXTDIRECTION
 70
     0
  9
$LUNITS
 70
     2
  9
$LUPREC
 70
     4
  9
$SKETCHINC
 40
0.1
  9
$FILLETRAD
 40
0.5
  9
$AUNITS
 70
     0
  9
$AUPREC
 70
     0
  9
$MENU
  1
.
  9
$ELEVATION
 40
0.0
  9
$PELEVATION
 40
0.0
  9
$THICKNESS
 40
0.0
  9
$LIMCHECK
 70
     0
  9
$CHAMFERA
 40
0.0
  9
$CHAMFERB
 40
0.0
  9
$CHAMFERC
 40
0.0
  9
$CHAMFERD
 40
0.0
  9
$SKPOLY
 70
     0
  9
$TDCREATE
 40
2460053.941863426
  9
$TDUCREATE
 40
2460053.566863426
  9
$TDUPDATE
 40
2460053.566872523
  9
$TDUUPDATE
 40
2460053.191872523
  9
$TDINDWG
 40
0.0000000116
  9
$TDUSRTIMER
 40
0.0000000116
  9
$USRTIMER
 70
     1
  9
$ANGBASE
 50
0.0
  9
$ANGDIR
 70
     0
  9
$PDMODE
 70
     0
  9
$PDSIZE
 40
0.0
  9
$PLINEWID
 40
0.0
  9
$SPLFRAME
 70
     0
  9
$SPLINETYPE
 70
     6
  9
$SPLINESEGS
 70
     8
  9
$HANDSEED
  5
35B
  9
$SURFTAB1
 70
     6
  9
$SURFTAB2
 70
     6
  9
$SURFTYPE
 70
     6
  9
$SURFU
 70
     6
  9
$SURFV
 70
     6
  9
$UCSBASE
  2

  9
$UCSNAME
  2

  9
$UCSORG
 10
0.0
 20
0.0
 30
0.0
  9
$UCSXDIR
 10
1.0
 20
0.0
 30
0.0
  9
$UCSYDIR
 10
0.0
 20
1.0
 30
0.0
  9
$UCSORTHOREF
  2

  9
$UCSORTHOVIEW
 70
     0
  9
$UCSORGTOP
 10
0.0
 20
0.0
 30
0.0
  9
$UCSORGBOTTOM
 10
0.0
 20
0.0
 30
0.0
  9
$UCSORGLEFT
 10
0.0
 20
0.0
 30
0.0
  9
$UCSORGRIGHT
 10
0.0
 20
0.0
 30
0.0
  9
$UCSORGFRONT
 10
0.0
 20
0.0
 30
0.0
  9
$UCSORGBACK
 10
0.0
 20
0.0
 30
0.0
  9
$PUCSBASE
  2

  9
$PUCSNAME
  2

  9
$PUCSORG
 10
0.0
 20
0.0
 30
0.0
  9
$PUCSXDIR
 10
1.0
 20
0.0
 30
0.0
  9
$PUCSYDIR
 10
0.0
 20
1.0
 30
0.0
  9
$PUCSORTHOREF
  2

  9
$PUCSORTHOVIEW
 70
     0
  9
$PUCSORGTOP
 10
0.0
 20
0.0
 30
0.0
  9
$PUCSORGBOTTOM
 10
0.0
 20
0.0
 30
0.0
  9
$PUCSORGLEFT
 10
0.0
 20
0.0
 30
0.0
  9
$PUCSORGRIGHT
 10
0.0
 20
0.0
 30
0.0
  9
$PUCSORGFRONT
 10
0.0
 20
0.0
 30
0.0
  9
$PUCSORGBACK
 10
0.0
 20
0.0
 30
0.0
  9
$USERI1
 70
     0
  9
$USERI2
 70
     0
  9
$USERI3
 70
     0
  9
$USERI4
 70
     0
  9
$USERI5
 70
     0
  9
$USERR1
 40
0.0
  9
$USERR2
 40
0.0
  9
$USERR3
 40
0.0
  9
$USERR4
 40
0.0
  9
$USERR5
 40
0.0
  9
$WORLDVIEW
 70
     1
  9
$SHADEDGE
 70
     3
  9
$SHADEDIF
 70
    70
  9
$TILEMODE
 70
     1
  9
$MAXACTVP
 70
    64
  9
$PINSBASE
 10
0.0
 20
0.0
 30
0.0
  9
$PLIMCHECK
 70
     0
  9
$PEXTMIN
 10
0.0
 20
0.0
 30
0.0
  9
$PEXTMAX
 10
841.0
 20
594.0
 30
0.0
  9
$PLIMMIN
 10
0.0
 20
0.0
  9
$PLIMMAX
 10
841.0
 20
594.0
  9
$UNITMODE
 70
     0
  9
$VISRETAIN
 70
     1
  9
$PLINEGEN
 70
     0
  9
$PSLTSCALE
 70
     1
  9
$TREEDEPTH
 70
  3020
  9
$CMLSTYLE
  2
Standard
  9
$CMLJUST
 70
     0
  9
$CMLSCALE
 40
1.0
  9
$PROXYGRAPHICS
 70
     1
  9
$MEASUREMENT
 70
     1
  9
$CELWEIGHT
370
    -1
  9
$ENDCAPS
280
     0
  9
$JOINSTYLE
280
     0
  9
$LWDISPLAY
290
     0
  9
$INSUNITS
 70
     4
  9
$HYPERLINKBASE
  1

  9
$STYLESHEET
  1

  9
$XEDIT
290
     1
  9
$CEPSNTYPE
380
     0
  9
$PSTYLEMODE
290
     1
  9
$FINGERPRINTGUID
  2
{FEF19590-B840-48AB-BDFF-37296C432CD5}
  9
$VERSIONGUID
  2
{FAEB1C32-E019-11D5-929B-00C0DF256EC4}
  9
$EXTNAMES
290
     1
  9
$PSVPSCALE
 40
0.0
  9
$OLESTARTUP
290
     0
  9
$SORTENTS
280
   127
  9
$INDEXCTL
280
     0
  9
$HIDETEXT
280
     1
  9
$XCLIPFRAME
280
     2
  9
$HALOGAP
280
     0
  9
$OBSCOLOR
 70
   257
  9
$OBSLTYPE
280
     0
  9
$INTERSECTIONDISPLAY
280
     0
  9
$INTERSECTIONCOLOR
 70
   257
  9
$DIMASSOC
280
     1
  9
$PROJECTNAME
  1

  9
$CAMERADISPLAY
290
     0
  9
$LENSLENGTH
 40
50.0
  9
$CAMERAHEIGHT
 40
0.0
  9
$STEPSPERSEC
 40
2.0
  9
$STEPSIZE
 40
6.0
  9
$3DDWFPREC
 40
2.0
  9
$PSOLWIDTH
 40
0.25
  9
$PSOLHEIGHT
 40
4.0
  9
$LOFTANG1
 40
1.570796326794897
  9
$LOFTANG2
 40
1.570796326794897
  9
$LOFTMAG1
 40
0.0
  9
$LOFTMAG2
 40
0.0
  9
$LOFTPARAM
 70
     7
  9
$LOFTNORMALS
280
     1
  9
$LATITUDE
 40
37.795
  9
$LONGITUDE
 40
-122.394
  9
$NORTHDIRECTION
 40
0.0
  9
$TIMEZONE
 70
 -8000
  9
$LIGHTGLYPHDISPLAY
280
     1
  9
$TILEMODELIGHTSYNCH
280
     1
  9
$CMATERIAL
347
44
  9
$SOLIDHIST
280
     1
  9
$SHOWHIST
280
     1
  9
$DWFFRAME
280
     2
  9
$DGNFRAME
280
     2
  9
$REALWORLDSCALE
290
     1
  9
$INTERFERECOLOR
 62
   256
  9
$CSHADOW
280
     0
  9
$SHADOWPLANELOCATION
 40
0.0
  0
ENDSEC
  0
SECTION
  2
CLASSES
  0
CLASS
  1
ACDBDICTIONARYWDFLT
  2
AcDbDictionaryWithDefault
  3
ObjectDBX Classes
 90
        0
 91
        4
280
     0
281
     0
  0
CLASS
  1
VISUALSTYLE
  2
AcDbVisualStyle
  3
ObjectDBX Classes
 90
     4095
 91
        4
280
     0
281
     0
  0
CLASS
  1
MATERIAL
  2
AcDbMaterial
  3
ObjectDBX Classes
 90
     1153
 91
        4
280
     0
281
     0
  0
CLASS
  1
SCALE
  2
AcDbScale
  3
ObjectDBX Classes
 90
     1153
 91
        4
280
     0
281
     0
  0
CLASS
  1
SUN
  2
AcDbSun
  3
SCENEOE
 90
     1153
 91
        4
280
     0
281
     0
  0
CLASS
  1
DICTIONARYVAR
  2
AcDbDictionaryVar
  3
ObjectDBX Classes
 90
        0
 91
        4
280
     0
281
     0
  0
ENDSEC
  0
SECTION
  2
TABLES
  0
TABLE
  2
VPORT
  5
8
330
0
100
AcDbSymbolTable
 70
     1
  0
VPORT
  5
29
330
8
100
AcDbSymbolTableRecord
100
AcDbViewportTableRecord
  2
*Active
 70
     0
 10
0.0
 20
0.0
 11
1.0
 21
1.0
 12
10.42990654205607
 22
4.5
 13
0.0
 23
0.0
 14
0.5
 24
0.5
 15
0.5
 25
0.5
 16
0.0
 26
0.0
 36
1.0
 17
0.0
 27
0.0
 37
0.0
 40
9.0
 41
1.972972972850329
 42
50.0
 43
0.0
 44
0.0
 50
0.0
 51
0.0
 71
     0
 72
   100
 73
     1
 74
     3
 75
     0
 76
     0
 77
     0
 78
     0
281
     0
 65
     1
110
0.0
120
0.0
130
0.0
111
1.0
121
0.0
131
0.0
112
0.0
122
1.0
132
0.0
 79
     0
146
0.0
 60
     3
 61
     5
292
     1
282
     1
141
0.0
142
0.0
 63
   250
361
69
  0
ENDTAB
  0
TABLE
  2
LTYPE
  5
5
330
0
100
AcDbSymbolTable
 70
     9
  0
LTYPE
  5
14
330
5
100
AcDbSymbolTableRecord
100
AcDbLinetypeTableRecord
  2
ByBlock
 70
     0
  3

 72
    65
 73
     0
 40
0.0
  0
LTYPE
  5
15
330
5
100
AcDbSymbolTableRecord
100
AcDbLinetypeTableRecord
  2
ByLayer
 70
     0
  3

 72
    65
 73
     0
 40
0.0
  0
LTYPE
  5
16
330
5
100
AcDbSymbolTableRecord
100
AcDbLinetypeTableRecord
  2
Continuous
 70
     0
  3
Solid line
 72
    65
 73
     0
 40
0.0
  0
LTYPE
  5
B9
330
5
100
AcDbSymbolTableRecord
100
AcDbLinetypeTableRecord
  2
DOT
 70
     0
  3
DOT
 72
    65
 73
     2
 40
4.0
 49
6.0
 74
     0
 49
-2.0
 74
     0
  0
LTYPE
  5
BA
330
5
100
AcDbSymbolTableRecord
100
AcDbLinetypeTableRecord
  2
HIDDEN
 70
     0
  3
HIDDEN
 72
    65
 73
     2
 40
4.2
 49
8.4
 74
     0
 49
-4.2
 74
     0
  0
LTYPE
  5
BB
330
5
100
AcDbSymbolTableRecord
100
AcDbLinetypeTableRecord
  2
DASHDOT
 70
     0
  3
DASHDOT
 72
    65
 73
     4
 40
14.5
 49
30.0
 74
     0
 49
-9.0
 74
     0
 49
2.5
 74
     0
 49
-9.0
 74
     0
  0
LTYPE
  5
BC
330
5
100
AcDbSymbolTableRecord
100
AcDbLinetypeTableRecord
  2
PHANTOM
 70
     0
  3
PHANTOM
 72
    65
 73
     6
 40
12.0
 49
30.0
 74
     0
 49
-9.0
 74
     0
 49
2.5
 74
     0
 49
-5.0
 74
     0
 49
2.5
 74
     0
 49
-9.0
 74
     0
  0
LTYPE
  5
BD
330
5
100
AcDbSymbolTableRecord
100
AcDbLinetypeTableRecord
  2
ACAD_ISO14W100
 70
     0
  3
ACAD_ISO14W100
 72
    65
 73
     8
 40
1.5
 49
12.0
 74
     0
 49
-3.0
 74
     0
 49
0.5
 74
     0
 49
-3.0
 74
     0
 49
0.5
 74
     0
 49
-3.0
 74
     0
 49
0.5
 74
     0
 49
-3.0
 74
     0
  0
LTYPE
  5
BE
330
5
100
AcDbSymbolTableRecord
100
AcDbLinetypeTableRecord
  2
ACAD_ISO06W100
 70
     0
  3
ACAD_ISO06W100
 72
    65
 73
     8
 40
13.5
 49
24.0
 74
     0
 49
-3.0
 74
     0
 49
0.5
 74
     0
 49
-3.0
 74
     0
 49
0.5
 74
     0
 49
-3.0
 74
     0
 49
0.5
 74
     0
 49
-3.0
 74
     0
  0
LTYPE
  5
BF
330
5
100
AcDbSymbolTableRecord
100
AcDbLinetypeTableRecord
  2
ACAD_ISO11W100
 70
     0
  3
ACAD_ISO11W100
 72
    65
 73
     6
 40
15.5
 49
12.0
 74
     0
 49
-3.0
 74
     0
 49
12.0
 74
     0
 49
-3.0
 74
     0
 49
0.5
 74
     0
 49
-3.0
 74
     0
  0
LTYPE
  5
C0
330
5
100
AcDbSymbolTableRecord
100
AcDbLinetypeTableRecord
  2
ACAD_ISO13W100
 70
     0
  3
ACAD_ISO13W100
 72
    65
 73
     8
 40
13.0
 49
12.0
 74
     0
 49
-3.0
 74
     0
 49
12.0
 74
     0
 49
-3.0
 74
     0
 49
0.5
 74
     0
 49
-3.0
 74
     0
 49
0.5
 74
     0
 49
-3.0
 74
     0
  0
ENDTAB
  0
TABLE
  2
LAYER
  5
2
330
0
100
AcDbSymbolTable
 70
    10
  0
LAYER
  5
10
330
2
100
AcDbSymbolTableRecord
100
AcDbLayerTableRecord
  2
0
 70
     0
 62
     7
  6
Continuous
370
    -3
390
F
347
46
348
0
  0
LAYER
  5
C1
330
2
100
AcDbSymbolTableRecord
100
AcDbLayerTableRecord
  2
1
 70
     0
 62
     7
  6
Continuous
370
    25
390
F
347
46
348
0
  0
LAYER
  5
C2
330
2
100
AcDbSymbolTableRecord
100
AcDbLayerTableRecord
  2
2
 70
     0
 62
     7
  6
Continuous
370
     9
390
F
347
46
348
0
  0
LAYER
  5
C3
330
2
100
AcDbSymbolTableRecord
100
AcDbLayerTableRecord
  2
3
 70
     0
 62
     6
  6
Continuous
370
     9
390
F
347
46
348
0
  0
LAYER
  5
C4
330
2
100
AcDbSymbolTableRecord
100
AcDbLayerTableRecord
  2
4
 70
     0
 62
     3
  6
Continuous
370
    40
390
F
347
46
348
0
  0
LAYER
  5
C5
330
2
100
AcDbSymbolTableRecord
100
AcDbLayerTableRecord
  2
5
 70
     0
 62
   151
  6
Continuous
370
    20
390
F
347
46
348
0
  0
LAYER
  5
C6
330
2
100
AcDbSymbolTableRecord
100
AcDbLayerTableRecord
  2
6
 70
     0
 62
     1
  6
DASHDOT
370
     9
390
F
347
46
348
0
  0
LAYER
  5
C7
330
2
100
AcDbSymbolTableRecord
100
AcDbLayerTableRecord
  2
7
 70
     0
 62
     1
  6
Continuous
370
    25
390
F
347
46
348
0
  0
LAYER
  5
C8
330
2
100
AcDbSymbolTableRecord
100
AcDbLayerTableRecord
  2
8
 70
     0
 62
     4
  6
Continuous
370
     9
390
F
347
46
348
0
  0
LAYER
  5
C9
330
2
100
AcDbSymbolTableRecord
100
AcDbLayerTableRecord
  2
9
 70
     0
 62
     2
  6
Continuous
370
     9
390
F
347
46
348
0
  0
ENDTAB
  0
TABLE
  2
STYLE
  5
3
330
0
100
AcDbSymbolTable
 70
     3
  0
STYLE
  5
11
330
3
100
AcDbSymbolTableRecord
100
AcDbTextStyleTableRecord
  2
Standard
 70
     0
 40
0.0
 41
1.0
 50
0.0
 71
     0
 42
2.8
  3
txt
  4
bigfont
  0
STYLE
  5
6C
330
3
100
AcDbSymbolTableRecord
100
AcDbTextStyleTableRecord
  2
T_STANDARD
 70
     4
 40
10.0
 41
1.0
 50
0.0
 71
     0
 42
2.8
  3
txt
  4
bigfont
1001
ACAD
1000

1071
      256
  0
STYLE
  5
F7
330
3
100
AcDbSymbolTableRecord
100
AcDbTextStyleTableRecord
  2
ＭＳ ゴシック
 70
     0
 40
0.0
 41
1.0
 50
0.0
 71
     0
 42
2.8
  3

  4

1001
ACAD
1000
ＭＳ ゴシック
1071
      256
  0
ENDTAB
  0
TABLE
  2
VIEW
  5
6
330
0
100
AcDbSymbolTable
 70
     0
  0
ENDTAB
  0
TABLE
  2
UCS
  5
7
330
0
100
AcDbSymbolTable
 70
     0
  0
ENDTAB
  0
TABLE
  2
APPID
  5
9
330
0
100
AcDbSymbolTable
 70
     2
  0
APPID
  5
12
330
9
100
AcDbSymbolTableRecord
100
AcDbRegAppTableRecord
  2
ACAD
 70
     0
  0
APPID
  5
6B
330
9
100
AcDbSymbolTableRecord
100
AcDbRegAppTableRecord
  2
ODA
 70
     0
  0
ENDTAB
  0
TABLE
  2
DIMSTYLE
  5
A
330
0
100
AcDbSymbolTable
 70
     1
100
AcDbDimStyleTable
  0
DIMSTYLE
105
27
102
{ACAD_REACTORS
330
101
330
10B
330
115
330
11F
330
129
330
177
330
182
330
18D
330
198
330
1A2
330
1AC
330
1CC
330
1D6
102
}
330
A
100
AcDbSymbolTableRecord
100
AcDbDimStyleTableRecord
  2
Standard
 70
     0
178
     0
340
11
  0
ENDTAB
  0
TABLE
  2
BLOCK_RECORD
  5
1
330
0
100
AcDbSymbolTable
 70
    70
  0
BLOCK_RECORD
  5
1F
330
1
100
AcDbSymbolTableRecord
100
AcDbBlockTableRecord
  2
*Model_Space
340
22
 70
     0
280
     1
281
     0
  0
BLOCK_RECORD
  5
1B
330
1
100
AcDbSymbolTableRecord
100
AcDbBlockTableRecord
  2
*Paper_Space
340
1E
 70
     0
280
     1
281
     0
  0
BLOCK_RECORD
  5
23
330
1
100
AcDbSymbolTableRecord
100
AcDbBlockTableRecord
  2
*Paper_Space0
340
26
 70
     0
280
     1
281
     0
  0
BLOCK_RECORD
  5
6D
330
1
100
AcDbSymbolTableRecord
100
AcDbBlockTableRecord
  2
_ORIGIN
340
0
 70
     0
280
     1
281
     0
  0
BLOCK_RECORD
  5
72
330
1
100
AcDbSymbolTableRecord
100
AcDbBlockTableRecord
  2
_DOTBLANK
340
0
 70
     0
280
     1
281
     0
  0
BLOCK_RECORD
  5
77
330
1
100
AcDbSymbolTableRecord
100
AcDbBlockTableRecord
  2
_DOT
340
0
 70
     0
280
     1
281
     0
  0
BLOCK_RECORD
  5
7C
330
1
100
AcDbSymbolTableRecord
100
AcDbBlockTableRecord
  2
_OPEN
340
0
102
{BLKREFS
331
1B3
102
}
 70
     0
280
     1
281
     0
  0
BLOCK_RECORD
  5
82
330
1
100
AcDbSymbolTableRecord
100
AcDbBlockTableRecord
  2
_CLOSED
340
0
 70
     0
280
     1
281
     0
  0
BLOCK_RECORD
  5
89
330
1
100
AcDbSymbolTableRecord
100
AcDbBlockTableRecord
  2
_CLOSEDBLANK
340
0
 70
     0
280
     1
281
     0
  0
BLOCK_RECORD
  5
8F
330
1
100
AcDbSymbolTableRecord
100
AcDbBlockTableRecord
  2
_ARROWFILLED
340
0
102
{BLKREFS
331
FF
331
100
331
109
331
10A
331
113
331
114
331
11D
331
11E
331
127
331
128
331
175
331
176
331
180
331
181
331
18B
331
18C
331
196
331
197
331
1A0
331
1A1
331
1AA
331
1AB
331
1CA
331
1CB
331
1D4
331
1D5
102
}
 70
     0
280
     1
281
     0
  0
BLOCK_RECORD
  5
93
330
1
100
AcDbSymbolTableRecord
100
AcDbBlockTableRecord
  2
_BOXBLANK
340
0
 70
     0
280
     1
281
     0
  0
BLOCK_RECORD
  5
9B
330
1
100
AcDbSymbolTableRecord
100
AcDbBlockTableRecord
  2
_BOXFILLED
340
0
 70
     0
280
     1
281
     0
  0
BLOCK_RECORD
  5
A0
330
1
100
AcDbSymbolTableRecord
100
AcDbBlockTableRecord
  2
_INTEGRAL
340
0
 70
     0
280
     1
281
     0
  0
BLOCK_RECORD
  5
A5
330
1
100
AcDbSymbolTableRecord
100
AcDbBlockTableRecord
  2
_OBLIQUE
340
0
 70
     0
280
     1
281
     0
  0
BLOCK_RECORD
  5
A9
330
1
100
AcDbSymbolTableRecord
100
AcDbBlockTableRecord
  2
_NONE
340
0
 70
     0
280
     1
281
     0
  0
BLOCK_RECORD
  5
AC
330
1
100
AcDbSymbolTableRecord
100
AcDbBlockTableRecord
  2
MARK_OPEN
340
0
 70
     0
280
     1
281
     0
  0
BLOCK_RECORD
  5
B1
330
1
100
AcDbSymbolTableRecord
100
AcDbBlockTableRecord
  2
MARK_ORIGIN
340
0
 70
     0
280
     1
281
     0
  0
BLOCK_RECORD
  5
B5
330
1
100
AcDbSymbolTableRecord
100
AcDbBlockTableRecord
  2
MARK_DOT
340
0
 70
     0
280
     1
281
     0
  0
BLOCK_RECORD
  5
F8
330
1
100
AcDbSymbolTableRecord
100
AcDbBlockTableRecord
  2
Dim1
340
0
 70
     0
280
     1
281
     0
  0
BLOCK_RECORD
  5
102
330
1
100
AcDbSymbolTableRecord
100
AcDbBlockTableRecord
  2
Dim2
340
0
 70
     0
280
     1
281
     0
  0
BLOCK_RECORD
  5
10C
330
1
100
AcDbSymbolTableRecord
100
AcDbBlockTableRecord
  2
Dim3
340
0
 70
     0
280
     1
281
     0
  0
BLOCK_RECORD
  5
116
330
1
100
AcDbSymbolTableRecord
100
AcDbBlockTableRecord
  2
Dim4
340
0
 70
     0
280
     1
281
     0
  0
BLOCK_RECORD
  5
120
330
1
100
AcDbSymbolTableRecord
100
AcDbBlockTableRecord
  2
Dim5
340
0
 70
     0
280
     1
281
     0
  0
BLOCK_RECORD
  5
16D
330
1
100
AcDbSymbolTableRecord
100
AcDbBlockTableRecord
  2
Dim6
340
0
 70
     0
280
     1
281
     0
  0
BLOCK_RECORD
  5
178
330
1
100
AcDbSymbolTableRecord
100
AcDbBlockTableRecord
  2
Dim7
340
0
 70
     0
280
     1
281
     0
  0
BLOCK_RECORD
  5
183
330
1
100
AcDbSymbolTableRecord
100
AcDbBlockTableRecord
  2
Dim8
340
0
 70
     0
280
     1
281
     0
  0
BLOCK_RECORD
  5
18E
330
1
100
AcDbSymbolTableRecord
100
AcDbBlockTableRecord
  2
Dim9
340
0
 70
     0
280
     1
281
     0
  0
BLOCK_RECORD
  5
199
330
1
100
AcDbSymbolTableRecord
100
AcDbBlockTableRecord
  2
Dim10
340
0
 70
     0
280
     1
281
     0
  0
BLOCK_RECORD
  5
1A3
330
1
100
AcDbSymbolTableRecord
100
AcDbBlockTableRecord
  2
Dim11
340
0
 70
     0
280
     1
281
     0
  0
BLOCK_RECORD
  5
1C3
330
1
100
AcDbSymbolTableRecord
100
AcDbBlockTableRecord
  2
Dim12
340
0
 70
     0
280
     1
281
     0
  0
BLOCK_RECORD
  5
1CD
330
1
100
AcDbSymbolTableRecord
100
AcDbBlockTableRecord
  2
Dim13
340
0
 70
     0
280
     1
281
     0
  0
BLOCK_RECORD
  5
281
330
1
100
AcDbSymbolTableRecord
100
AcDbBlockTableRecord
  2
*G29
340
0
102
{BLKREFS
331
28A
102
}
 70
     0
280
     1
281
     0
  0
BLOCK_RECORD
  5
295
330
1
100
AcDbSymbolTableRecord
100
AcDbBlockTableRecord
  2
*G30
340
0
102
{BLKREFS
331
2AC
102
}
 70
     0
280
     1
281
     0
  0
BLOCK_RECORD
  5
298
330
1
100
AcDbSymbolTableRecord
100
AcDbBlockTableRecord
  2
*G31
340
0
102
{BLKREFS
331
29C
102
}
 70
     0
280
     1
281
     0
  0
BLOCK_RECORD
  5
29D
330
1
100
AcDbSymbolTableRecord
100
AcDbBlockTableRecord
  2
*G32
340
0
102
{BLKREFS
331
2A1
102
}
 70
     0
280
     1
281
     0
  0
BLOCK_RECORD
  5
2A2
330
1
100
AcDbSymbolTableRecord
100
AcDbBlockTableRecord
  2
*G33
340
0
102
{BLKREFS
331
2A6
102
}
 70
     0
280
     1
281
     0
  0
BLOCK_RECORD
  5
2A7
330
1
100
AcDbSymbolTableRecord
100
AcDbBlockTableRecord
  2
*G34
340
0
102
{BLKREFS
331
2AB
102
}
 70
     0
280
     1
281
     0
  0
BLOCK_RECORD
  5
2AD
330
1
100
AcDbSymbolTableRecord
100
AcDbBlockTableRecord
  2
*G35
340
0
102
{BLKREFS
331
2C4
102
}
 70
     0
280
     1
281
     0
  0
BLOCK_RECORD
  5
2B0
330
1
100
AcDbSymbolTableRecord
100
AcDbBlockTableRecord
  2
*G36
340
0
102
{BLKREFS
331
2B4
102
}
 70
     0
280
     1
281
     0
  0
BLOCK_RECORD
  5
2B5
330
1
100
AcDbSymbolTableRecord
100
AcDbBlockTableRecord
  2
*G37
340
0
102
{BLKREFS
331
2B9
102
}
 70
     0
280
     1
281
     0
  0
BLOCK_RECORD
  5
2BA
330
1
100
AcDbSymbolTableRecord
100
AcDbBlockTableRecord
  2
*G38
340
0
102
{BLKREFS
331
2BE
102
}
 70
     0
280
     1
281
     0
  0
BLOCK_RECORD
  5
2BF
330
1
100
AcDbSymbolTableRecord
100
AcDbBlockTableRecord
  2
*G39
340
0
102
{BLKREFS
331
2C3
102
}
 70
     0
280
     1
281
     0
  0
BLOCK_RECORD
  5
2C5
330
1
100
AcDbSymbolTableRecord
100
AcDbBlockTableRecord
  2
*G40
340
0
102
{BLKREFS
331
2DC
102
}
 70
     0
280
     1
281
     0
  0
BLOCK_RECORD
  5
2C8
330
1
100
AcDbSymbolTableRecord
100
AcDbBlockTableRecord
  2
*G41
340
0
102
{BLKREFS
331
2CC
102
}
 70
     0
280
     1
281
     0
  0
BLOCK_RECORD
  5
2CD
330
1
100
AcDbSymbolTableRecord
100
AcDbBlockTableRecord
  2
*G42
340
0
102
{BLKREFS
331
2D1
102
}
 70
     0
280
     1
281
     0
  0
BLOCK_RECORD
  5
2D2
330
1
100
AcDbSymbolTableRecord
100
AcDbBlockTableRecord
  2
*G43
340
0
102
{BLKREFS
331
2D6
102
}
 70
     0
280
     1
281
     0
  0
BLOCK_RECORD
  5
2D7
330
1
100
AcDbSymbolTableRecord
100
AcDbBlockTableRecord
  2
*G44
340
0
102
{BLKREFS
331
2DB
102
}
 70
     0
280
     1
281
     0
  0
BLOCK_RECORD
  5
2DD
330
1
100
AcDbSymbolTableRecord
100
AcDbBlockTableRecord
  2
*G45
340
0
102
{BLKREFS
331
2F4
102
}
 70
     0
280
     1
281
     0
  0
BLOCK_RECORD
  5
2E0
330
1
100
AcDbSymbolTableRecord
100
AcDbBlockTableRecord
  2
*G46
340
0
102
{BLKREFS
331
2E4
102
}
 70
     0
280
     1
281
     0
  0
BLOCK_RECORD
  5
2E5
330
1
100
AcDbSymbolTableRecord
100
AcDbBlockTableRecord
  2
*G47
340
0
102
{BLKREFS
331
2E9
102
}
 70
     0
280
     1
281
     0
  0
BLOCK_RECORD
  5
2EA
330
1
100
AcDbSymbolTableRecord
100
AcDbBlockTableRecord
  2
*G48
340
0
102
{BLKREFS
331
2EE
102
}
 70
     0
280
     1
281
     0
  0
BLOCK_RECORD
  5
2EF
330
1
100
AcDbSymbolTableRecord
100
AcDbBlockTableRecord
  2
*G49
340
0
102
{BLKREFS
331
2F3
102
}
 70
     0
280
     1
281
     0
  0
BLOCK_RECORD
  5
2F5
330
1
100
AcDbSymbolTableRecord
100
AcDbBlockTableRecord
  2
*G50
340
0
102
{BLKREFS
331
30C
102
}
 70
     0
280
     1
281
     0
  0
BLOCK_RECORD
  5
2F8
330
1
100
AcDbSymbolTableRecord
100
AcDbBlockTableRecord
  2
*G51
340
0
102
{BLKREFS
331
2FC
102
}
 70
     0
280
     1
281
     0
  0
BLOCK_RECORD
  5
2FD
330
1
100
AcDbSymbolTableRecord
100
AcDbBlockTableRecord
  2
*G52
340
0
102
{BLKREFS
331
301
102
}
 70
     0
280
     1
281
     0
  0
BLOCK_RECORD
  5
302
330
1
100
AcDbSymbolTableRecord
100
AcDbBlockTableRecord
  2
*G53
340
0
102
{BLKREFS
331
306
102
}
 70
     0
280
     1
281
     0
  0
BLOCK_RECORD
  5
307
330
1
100
AcDbSymbolTableRecord
100
AcDbBlockTableRecord
  2
*G54
340
0
102
{BLKREFS
331
30B
102
}
 70
     0
280
     1
281
     0
  0
BLOCK_RECORD
  5
30D
330
1
100
AcDbSymbolTableRecord
100
AcDbBlockTableRecord
  2
*G55
340
0
102
{BLKREFS
331
324
102
}
 70
     0
280
     1
281
     0
  0
BLOCK_RECORD
  5
310
330
1
100
AcDbSymbolTableRecord
100
AcDbBlockTableRecord
  2
*G56
340
0
102
{BLKREFS
331
314
102
}
 70
     0
280
     1
281
     0
  0
BLOCK_RECORD
  5
315
330
1
100
AcDbSymbolTableRecord
100
AcDbBlockTableRecord
  2
*G57
340
0
102
{BLKREFS
331
319
102
}
 70
     0
280
     1
281
     0
  0
BLOCK_RECORD
  5
31A
330
1
100
AcDbSymbolTableRecord
100
AcDbBlockTableRecord
  2
*G58
340
0
102
{BLKREFS
331
31E
102
}
 70
     0
280
     1
281
     0
  0
BLOCK_RECORD
  5
31F
330
1
100
AcDbSymbolTableRecord
100
AcDbBlockTableRecord
  2
*G59
340
0
102
{BLKREFS
331
323
102
}
 70
     0
280
     1
281
     0
  0
BLOCK_RECORD
  5
325
330
1
100
AcDbSymbolTableRecord
100
AcDbBlockTableRecord
  2
*G60
340
0
102
{BLKREFS
331
33C
102
}
 70
     0
280
     1
281
     0
  0
BLOCK_RECORD
  5
328
330
1
100
AcDbSymbolTableRecord
100
AcDbBlockTableRecord
  2
*G61
340
0
102
{BLKREFS
331
32C
102
}
 70
     0
280
     1
281
     0
  0
BLOCK_RECORD
  5
32D
330
1
100
AcDbSymbolTableRecord
100
AcDbBlockTableRecord
  2
*G62
340
0
102
{BLKREFS
331
331
102
}
 70
     0
280
     1
281
     0
  0
BLOCK_RECORD
  5
332
330
1
100
AcDbSymbolTableRecord
100
AcDbBlockTableRecord
  2
*G63
340
0
102
{BLKREFS
331
336
102
}
 70
     0
280
     1
281
     0
  0
BLOCK_RECORD
  5
337
330
1
100
AcDbSymbolTableRecord
100
AcDbBlockTableRecord
  2
*G64
340
0
102
{BLKREFS
331
33B
102
}
 70
     0
280
     1
281
     0
  0
BLOCK_RECORD
  5
33D
330
1
100
AcDbSymbolTableRecord
100
AcDbBlockTableRecord
  2
*G65
340
0
102
{BLKREFS
331
354
102
}
 70
     0
280
     1
281
     0
  0
BLOCK_RECORD
  5
340
330
1
100
AcDbSymbolTableRecord
100
AcDbBlockTableRecord
  2
*G66
340
0
102
{BLKREFS
331
344
102
}
 70
     0
280
     1
281
     0
  0
BLOCK_RECORD
  5
345
330
1
100
AcDbSymbolTableRecord
100
AcDbBlockTableRecord
  2
*G67
340
0
102
{BLKREFS
331
349
102
}
 70
     0
280
     1
281
     0
  0
BLOCK_RECORD
  5
34A
330
1
100
AcDbSymbolTableRecord
100
AcDbBlockTableRecord
  2
*G68
340
0
102
{BLKREFS
331
34E
102
}
 70
     0
280
     1
281
     0
  0
BLOCK_RECORD
  5
34F
330
1
100
AcDbSymbolTableRecord
100
AcDbBlockTableRecord
  2
*G69
340
0
102
{BLKREFS
331
353
102
}
 70
     0
280
     1
281
     0
  0
ENDTAB
  0
ENDSEC
  0
SECTION
  2
BLOCKS
  0
BLOCK
  5
20
330
1F
100
AcDbEntity
  8
0
100
AcDbBlockBegin
  2
*Model_Space
 70
     0
 10
0.0
 20
0.0
 30
0.0
  3
*Model_Space
  1
*Model_Space
  0
ENDBLK
  5
21
330
1F
100
AcDbEntity
  8
0
100
AcDbBlockEnd
  0
BLOCK
  5
1C
330
1B
100
AcDbEntity
 67
     1
  8
0
100
AcDbBlockBegin
  2
*Paper_Space
 70
     0
 10
0.0
 20
0.0
 30
0.0
  3
*Paper_Space
  1
*Paper_Space
  0
ENDBLK
  5
1D
330
1B
100
AcDbEntity
 67
     1
  8
0
100
AcDbBlockEnd
  0
BLOCK
  5
24
330
23
100
AcDbEntity
  8
0
100
AcDbBlockBegin
  2
*Paper_Space0
 70
     0
 10
0.0
 20
0.0
 30
0.0
  3
*Paper_Space0
  1
*Paper_Space0
  0
ENDBLK
  5
25
330
23
100
AcDbEntity
  8
0
100
AcDbBlockEnd
  0
BLOCK
  5
70
330
6D
100
AcDbEntity
  8
0
100
AcDbBlockBegin
  2
_ORIGIN
 70
     0
 10
0.0
 20
0.0
 30
0.0
  3
_ORIGIN
  1
_ORIGIN
  0
CIRCLE
  5
6E
330
6D
100
AcDbEntity
  8
0
 62
     0
100
AcDbCircle
 10
0.0
 20
0.0
 30
0.0
 40
0.5
  0
LINE
  5
6F
330
6D
100
AcDbEntity
  8
0
 62
     0
100
AcDbLine
 10
0.0
 20
0.0
 30
0.0
 11
-1.0
 21
0.0
 31
0.0
  0
ENDBLK
  5
71
330
6D
100
AcDbEntity
  8
0
100
AcDbBlockEnd
  0
BLOCK
  5
75
330
72
100
AcDbEntity
  8
0
100
AcDbBlockBegin
  2
_DOTBLANK
 70
     0
 10
0.0
 20
0.0
 30
0.0
  3
_DOTBLANK
  1
_DOTBLANK
  0
CIRCLE
  5
73
330
72
100
AcDbEntity
  8
0
 62
     0
100
AcDbCircle
 10
0.0
 20
0.0
 30
0.0
 40
0.5
  0
LINE
  5
74
330
72
100
AcDbEntity
  8
0
 62
     0
100
AcDbLine
 10
-0.5
 20
0.0
 30
0.0
 11
-1.0
 21
0.0
 31
0.0
  0
ENDBLK
  5
76
330
72
100
AcDbEntity
  8
0
100
AcDbBlockEnd
  0
BLOCK
  5
7A
330
77
100
AcDbEntity
  8
0
100
AcDbBlockBegin
  2
_DOT
 70
     0
 10
0.0
 20
0.0
 30
0.0
  3
_DOT
  1
_DOT
  0
LWPOLYLINE
  5
78
330
77
100
AcDbEntity
  8
0
 62
     0
100
AcDbPolyline
 90
        2
 70
     1
 43
0.5
 10
-0.25
 20
0.0
 42
1.0
 10
0.25
 20
0.0
 42
1.0
  0
LINE
  5
79
330
77
100
AcDbEntity
  8
0
 62
     0
100
AcDbLine
 10
-0.5
 20
0.0
 30
0.0
 11
-1.0
 21
0.0
 31
0.0
  0
ENDBLK
  5
7B
330
77
100
AcDbEntity
  8
0
100
AcDbBlockEnd
  0
BLOCK
  5
80
330
7C
100
AcDbEntity
  8
0
100
AcDbBlockBegin
  2
_OPEN
 70
     0
 10
0.0
 20
0.0
 30
0.0
  3
_OPEN
  1
_OPEN
  0
LINE
  5
7D
330
7C
100
AcDbEntity
  8
0
 62
     0
100
AcDbLine
 10
0.0
 20
0.0
 30
0.0
 11
-1.0
 21
0.1666666666666667
 31
0.0
  0
LINE
  5
7E
330
7C
100
AcDbEntity
  8
0
 62
     0
100
AcDbLine
 10
0.0
 20
0.0
 30
0.0
 11
-1.0
 21
-0.1666666666666667
 31
0.0
  0
LINE
  5
7F
330
7C
100
AcDbEntity
  8
0
 62
     0
100
AcDbLine
 10
0.0
 20
0.0
 30
0.0
 11
-1.0
 21
0.0
 31
0.0
  0
ENDBLK
  5
81
330
7C
100
AcDbEntity
  8
0
100
AcDbBlockEnd
  0
BLOCK
  5
87
330
82
100
AcDbEntity
  8
0
100
AcDbBlockBegin
  2
_CLOSED
 70
     0
 10
0.0
 20
0.0
 30
0.0
  3
_CLOSED
  1
_CLOSED
  0
LINE
  5
83
330
82
100
AcDbEntity
  8
0
 62
     0
100
AcDbLine
 10
0.0
 20
0.0
 30
0.0
 11
-1.0
 21
0.1666666666666667
 31
0.0
  0
LINE
  5
84
330
82
100
AcDbEntity
  8
0
 62
     0
100
AcDbLine
 10
0.0
 20
0.0
 30
0.0
 11
-1.0
 21
-0.1666666666666667
 31
0.0
  0
LINE
  5
85
330
82
100
AcDbEntity
  8
0
 62
     0
100
AcDbLine
 10
-1.0
 20
0.1666666666666667
 30
0.0
 11
-1.0
 21
-0.1666666666666667
 31
0.0
  0
LINE
  5
86
330
82
100
AcDbEntity
  8
0
 62
     0
100
AcDbLine
 10
0.0
 20
0.0
 30
0.0
 11
-1.0
 21
0.0
 31
0.0
  0
ENDBLK
  5
88
330
82
100
AcDbEntity
  8
0
100
AcDbBlockEnd
  0
BLOCK
  5
8D
330
89
100
AcDbEntity
  8
0
100
AcDbBlockBegin
  2
_CLOSEDBLANK
 70
     0
 10
0.0
 20
0.0
 30
0.0
  3
_CLOSEDBLANK
  1
_CLOSEDBLANK
  0
LINE
  5
8A
330
89
100
AcDbEntity
  8
0
 62
     0
100
AcDbLine
 10
0.0
 20
0.0
 30
0.0
 11
-1.0
 21
0.1666666666666667
 31
0.0
  0
LINE
  5
8B
330
89
100
AcDbEntity
  8
0
 62
     0
100
AcDbLine
 10
0.0
 20
0.0
 30
0.0
 11
-1.0
 21
-0.1666666666666667
 31
0.0
  0
LINE
  5
8C
330
89
100
AcDbEntity
  8
0
 62
     0
100
AcDbLine
 10
-1.0
 20
0.1666666666666667
 30
0.0
 11
-1.0
 21
-0.1666666666666667
 31
0.0
  0
ENDBLK
  5
8E
330
89
100
AcDbEntity
  8
0
100
AcDbBlockEnd
  0
BLOCK
  5
91
330
8F
100
AcDbEntity
  8
0
100
AcDbBlockBegin
  2
_ARROWFILLED
 70
     0
 10
0.0
 20
0.0
 30
0.0
  3
_ARROWFILLED
  1
_ARROWFILLED
  0
SOLID
  5
90
330
8F
100
AcDbEntity
  8
0
 62
     0
100
AcDbTrace
 10
0.0
 20
0.0
 30
0.0
 11
-1.0
 21
-0.1666666666666667
 31
0.0
 12
-1.0
 22
0.1666666666666667
 32
0.0
 13
0.0
 23
0.0
 33
0.0
  0
ENDBLK
  5
92
330
8F
100
AcDbEntity
  8
0
100
AcDbBlockEnd
  0
BLOCK
  5
99
330
93
100
AcDbEntity
  8
0
100
AcDbBlockBegin
  2
_BOXBLANK
 70
     0
 10
0.0
 20
0.0
 30
0.0
  3
_BOXBLANK
  1
_BOXBLANK
  0
LINE
  5
94
330
93
100
AcDbEntity
  8
0
 62
     0
100
AcDbLine
 10
-0.5
 20
-0.5
 30
0.0
 11
0.5
 21
-0.5
 31
0.0
  0
LINE
  5
95
330
93
100
AcDbEntity
  8
0
 62
     0
100
AcDbLine
 10
0.5
 20
-0.5
 30
0.0
 11
0.5
 21
0.5
 31
0.0
  0
LINE
  5
96
330
93
100
AcDbEntity
  8
0
 62
     0
100
AcDbLine
 10
0.5
 20
0.5
 30
0.0
 11
-0.5
 21
0.5
 31
0.0
  0
LINE
  5
97
330
93
100
AcDbEntity
  8
0
 62
     0
100
AcDbLine
 10
-0.5
 20
0.5
 30
0.0
 11
-0.5
 21
-0.5
 31
0.0
  0
LINE
  5
98
330
93
100
AcDbEntity
  8
0
 62
     0
100
AcDbLine
 10
-0.5
 20
0.0
 30
0.0
 11
-1.0
 21
0.0
 31
0.0
  0
ENDBLK
  5
9A
330
93
100
AcDbEntity
  8
0
100
AcDbBlockEnd
  0
BLOCK
  5
9E
330
9B
100
AcDbEntity
  8
0
100
AcDbBlockBegin
  2
_BOXFILLED
 70
     0
 10
0.0
 20
0.0
 30
0.0
  3
_BOXFILLED
  1
_BOXFILLED
  0
SOLID
  5
9C
330
9B
100
AcDbEntity
  8
0
 62
     0
100
AcDbTrace
 10
-0.5
 20
0.5
 30
0.0
 11
0.5
 21
0.5
 31
0.0
 12
-0.5
 22
-0.5
 32
0.0
 13
0.5
 23
-0.5
 33
0.0
  0
LINE
  5
9D
330
9B
100
AcDbEntity
  8
0
 62
     0
100
AcDbLine
 10
-0.5
 20
0.0
 30
0.0
 11
-1.0
 21
0.0
 31
0.0
  0
ENDBLK
  5
9F
330
9B
100
AcDbEntity
  8
0
100
AcDbBlockEnd
  0
BLOCK
  5
A3
330
A0
100
AcDbEntity
  8
0
100
AcDbBlockBegin
  2
_INTEGRAL
 70
     0
 10
0.0
 20
0.0
 30
0.0
  3
_INTEGRAL
  1
_INTEGRAL
  0
ARC
  5
A1
330
A0
100
AcDbEntity
  8
0
 62
     0
100
AcDbCircle
 10
0.444888
 20
-0.0913346
 30
0.0
 40
0.4541666
100
AcDbArc
 50
101.9999999999999
 51
167.9999999999998
  0
ARC
  5
A2
330
A0
100
AcDbEntity
  8
0
 62
     0
100
AcDbCircle
 10
-0.444888
 20
0.0913346
 30
0.0
 40
0.4541666
100
AcDbArc
 50
281.9999999999997
 51
347.9999999999997
  0
ENDBLK
  5
A4
330
A0
100
AcDbEntity
  8
0
100
AcDbBlockEnd
  0
BLOCK
  5
A7
330
A5
100
AcDbEntity
  8
0
100
AcDbBlockBegin
  2
_OBLIQUE
 70
     0
 10
0.0
 20
0.0
 30
0.0
  3
_OBLIQUE
  1
_OBLIQUE
  0
LINE
  5
A6
330
A5
100
AcDbEntity
  8
0
 62
     0
100
AcDbLine
 10
-0.5
 20
-0.5
 30
0.0
 11
0.5
 21
0.5
 31
0.0
  0
ENDBLK
  5
A8
330
A5
100
AcDbEntity
  8
0
100
AcDbBlockEnd
  0
BLOCK
  5
AA
330
A9
100
AcDbEntity
  8
0
100
AcDbBlockBegin
  2
_NONE
 70
     0
 10
0.0
 20
0.0
 30
0.0
  3
_NONE
  1
_NONE
  0
ENDBLK
  5
AB
330
A9
100
AcDbEntity
  8
0
100
AcDbBlockEnd
  0
BLOCK
  5
AF
330
AC
100
AcDbEntity
  8
0
100
AcDbBlockBegin
  2
MARK_OPEN
 70
     0
 10
0.0
 20
0.0
 30
0.0
  3
MARK_OPEN
  1
MARK_OPEN
  0
LINE
  5
AD
330
AC
100
AcDbEntity
  8
0
 62
     0
100
AcDbLine
 10
0.0
 20
0.0
 30
0.0
 11
-1.0
 21
0.1666666666666667
 31
0.0
  0
LINE
  5
AE
330
AC
100
AcDbEntity
  8
0
 62
     0
100
AcDbLine
 10
0.0
 20
0.0
 30
0.0
 11
-1.0
 21
-0.1666666666666667
 31
0.0
  0
ENDBLK
  5
B0
330
AC
100
AcDbEntity
  8
0
100
AcDbBlockEnd
  0
BLOCK
  5
B3
330
B1
100
AcDbEntity
  8
0
100
AcDbBlockBegin
  2
MARK_ORIGIN
 70
     0
 10
0.0
 20
0.0
 30
0.0
  3
MARK_ORIGIN
  1
MARK_ORIGIN
  0
CIRCLE
  5
B2
330
B1
100
AcDbEntity
  8
0
 62
     0
100
AcDbCircle
 10
0.0
 20
0.0
 30
0.0
 40
0.5
  0
ENDBLK
  5
B4
330
B1
100
AcDbEntity
  8
0
100
AcDbBlockEnd
  0
BLOCK
  5
B7
330
B5
100
AcDbEntity
  8
0
100
AcDbBlockBegin
  2
MARK_DOT
 70
     0
 10
0.0
 20
0.0
 30
0.0
  3
MARK_DOT
  1
MARK_DOT
  0
LWPOLYLINE
  5
B6
330
B5
100
AcDbEntity
  8
0
 62
     0
100
AcDbPolyline
 90
        2
 70
     1
 43
0.5
 10
-0.25
 20
0.0
 42
1.0
 10
0.25
 20
0.0
 42
1.0
  0
ENDBLK
  5
B8
330
B5
100
AcDbEntity
  8
0
100
AcDbBlockEnd
  0
BLOCK
  5
F9
330
F8
100
AcDbEntity
  8
0
100
AcDbBlockBegin
  2
Dim1
 70
     0
 10
0.0
 20
0.0
 30
0.0
  3
Dim1
  1
Dim1
  0
LINE
  5
FB
330
F8
100
AcDbEntity
  8
8
  6
Continuous
 62
     4
370
     9
100
AcDbLine
 10
309.862861836636
 20
205.4784596149297
 30
0.0
 11
309.8628618366359
 21
177.61109301947
 31
0.0
  0
LINE
  5
FC
330
F8
100
AcDbEntity
  8
8
  6
Continuous
 62
     4
370
     9
100
AcDbLine
 10
484.8628618366351
 20
205.4784596149297
 30
0.0
 11
484.862861836635
 21
177.61109301947
 31
0.0
  0
LINE
  5
FD
330
F8
100
AcDbEntity
  8
8
  6
Continuous
 62
     4
370
     9
100
AcDbLine
 10
309.8628618366359
 20
179.11109301947
 30
0.0
 11
484.862861836635
 21
179.11109301947
 31
0.0
  0
MTEXT
  5
FE
330
F8
100
AcDbEntity
  8
8
  6
Continuous
 62
     4
370
     9
100
AcDbMText
 10
397.3628618366355
 20
185.11109301947
 30
0.0
 40
3.0
 41
36.42857142857143
 46
3.0
 71
     5
 72
     1
  1
175
  7
ＭＳ ゴシック
 73
     1
 44
1.0
1001
ACAD
1000
ACAD_MTEXT_DEFINED_HEIGHT_BEGIN
1070
    46
1040
3.0
1000
ACAD_MTEXT_DEFINED_HEIGHT_END
  0
INSERT
  5
FF
330
F8
100
AcDbEntity
  8
8
  6
Continuous
 62
     4
370
     9
100
AcDbBlockReference
  2
_ARROWFILLED
 10
309.8628618366359
 20
179.11109301947
 30
0.0
 41
2.0
 42
2.0
 43
2.0
 50
179.9999999999998
  0
INSERT
  5
100
330
F8
100
AcDbEntity
  8
8
  6
Continuous
 62
     4
370
     9
100
AcDbBlockReference
  2
_ARROWFILLED
 10
484.862861836635
 20
179.11109301947
 30
0.0
 41
2.0
 42
2.0
 43
2.0
 50
359.9999999999997
  0
ENDBLK
  5
FA
330
F8
100
AcDbEntity
  8
0
100
AcDbBlockEnd
  0
BLOCK
  5
103
330
102
100
AcDbEntity
  8
0
100
AcDbBlockBegin
  2
Dim2
 70
     0
 10
0.0
 20
0.0
 30
0.0
  3
Dim2
  1
Dim2
  0
LINE
  5
105
330
102
100
AcDbEntity
  8
8
  6
Continuous
 62
     4
370
     9
100
AcDbLine
 10
197.362861836636
 20
232.5784596149297
 30
0.0
 11
197.3628618366359
 21
155.9494639949862
 31
0.0
  0
LINE
  5
106
330
102
100
AcDbEntity
  8
8
  6
Continuous
 62
     4
370
     9
100
AcDbLine
 10
597.362861836636
 20
232.5784596149297
 30
0.0
 11
597.3628618366358
 21
155.9494639949862
 31
0.0
  0
LINE
  5
107
330
102
100
AcDbEntity
  8
8
  6
Continuous
 62
     4
370
     9
100
AcDbLine
 10
197.3628618366359
 20
157.4494639949862
 30
0.0
 11
597.3628618366358
 21
157.4494639949862
 31
0.0
  0
MTEXT
  5
108
330
102
100
AcDbEntity
  8
8
  6
Continuous
 62
     4
370
     9
100
AcDbMText
 10
397.362861836636
 20
163.4494639949862
 30
0.0
 40
3.0
 41
38.57142857142857
 46
3.0
 71
     5
 72
     1
  1
400
  7
ＭＳ ゴシック
 73
     1
 44
1.0
1001
ACAD
1000
ACAD_MTEXT_DEFINED_HEIGHT_BEGIN
1070
    46
1040
3.0
1000
ACAD_MTEXT_DEFINED_HEIGHT_END
  0
INSERT
  5
109
330
102
100
AcDbEntity
  8
8
  6
Continuous
 62
     4
370
     9
100
AcDbBlockReference
  2
_ARROWFILLED
 10
197.3628618366359
 20
157.4494639949862
 30
0.0
 41
2.0
 42
2.0
 43
2.0
 50
179.9999999999998
  0
INSERT
  5
10A
330
102
100
AcDbEntity
  8
8
  6
Continuous
 62
     4
370
     9
100
AcDbBlockReference
  2
_ARROWFILLED
 10
597.3628618366358
 20
157.4494639949862
 30
0.0
 41
2.0
 42
2.0
 43
2.0
 50
359.9999999999997
  0
ENDBLK
  5
104
330
102
100
AcDbEntity
  8
0
100
AcDbBlockEnd
  0
BLOCK
  5
10D
330
10C
100
AcDbEntity
  8
0
100
AcDbBlockBegin
  2
Dim3
 70
     0
 10
0.0
 20
0.0
 30
0.0
  3
Dim3
  1
Dim3
  0
LINE
  5
10F
330
10C
100
AcDbEntity
  8
8
  6
Continuous
 62
     4
370
     9
100
AcDbLine
 10
182.362861836636
 20
217.5784596149288
 30
0.0
 11
182.3628618366359
 21
133.2443837040082
 31
0.0
  0
LINE
  5
110
330
10C
100
AcDbEntity
  8
8
  6
Continuous
 62
     4
370
     9
100
AcDbLine
 10
612.362861836636
 20
217.5784596149296
 30
0.0
 11
612.3628618366358
 21
133.2443837040082
 31
0.0
  0
LINE
  5
111
330
10C
100
AcDbEntity
  8
8
  6
Continuous
 62
     4
370
     9
100
AcDbLine
 10
182.3628618366359
 20
134.7443837040082
 30
0.0
 11
612.3628618366358
 21
134.7443837040082
 31
0.0
  0
MTEXT
  5
112
330
10C
100
AcDbEntity
  8
8
  6
Continuous
 62
     4
370
     9
100
AcDbMText
 10
397.362861836636
 20
140.7443837040082
 30
0.0
 40
3.0
 41
38.57142857142857
 46
3.0
 71
     5
 72
     1
  1
430
  7
ＭＳ ゴシック
 73
     1
 44
1.0
1001
ACAD
1000
ACAD_MTEXT_DEFINED_HEIGHT_BEGIN
1070
    46
1040
3.0
1000
ACAD_MTEXT_DEFINED_HEIGHT_END
  0
INSERT
  5
113
330
10C
100
AcDbEntity
  8
8
  6
Continuous
 62
     4
370
     9
100
AcDbBlockReference
  2
_ARROWFILLED
 10
182.3628618366359
 20
134.7443837040082
 30
0.0
 41
2.0
 42
2.0
 43
2.0
 50
179.9999999999998
  0
INSERT
  5
114
330
10C
100
AcDbEntity
  8
8
  6
Continuous
 62
     4
370
     9
100
AcDbBlockReference
  2
_ARROWFILLED
 10
612.3628618366358
 20
134.7443837040082
 30
0.0
 41
2.0
 42
2.0
 43
2.0
 50
359.9999999999997
  0
ENDBLK
  5
10E
330
10C
100
AcDbEntity
  8
0
100
AcDbBlockEnd
  0
BLOCK
  5
117
330
116
100
AcDbEntity
  8
0
100
AcDbBlockBegin
  2
Dim4
 70
     0
 10
0.0
 20
0.0
 30
0.0
  3
Dim4
  1
Dim4
  0
LINE
  5
119
330
116
100
AcDbEntity
  8
8
  6
Continuous
 62
     4
370
     9
100
AcDbLine
 10
702.5564859940677
 20
217.5784596149296
 30
0.0
 11
702.5564859940675
 21
133.2443837040082
 31
0.0
  0
LINE
  5
11A
330
116
100
AcDbEntity
  8
8
  6
Continuous
 62
     4
370
     9
100
AcDbLine
 10
747.5564859940675
 20
202.5784596149297
 30
0.0
 11
747.5564859940674
 21
133.2443837040082
 31
0.0
  0
LINE
  5
11B
330
116
100
AcDbEntity
  8
8
  6
Continuous
 62
     4
370
     9
100
AcDbLine
 10
702.5564859940675
 20
134.7443837040082
 30
0.0
 11
747.5564859940674
 21
134.7443837040082
 31
0.0
  0
MTEXT
  5
11C
330
116
100
AcDbEntity
  8
8
  6
Continuous
 62
     4
370
     9
100
AcDbMText
 10
725.0564859940675
 20
140.7443837040082
 30
0.0
 40
3.0
 41
24.28571428571428
 46
3.0
 71
     5
 72
     1
  1
45
  7
ＭＳ ゴシック
 73
     1
 44
1.0
1001
ACAD
1000
ACAD_MTEXT_DEFINED_HEIGHT_BEGIN
1070
    46
1040
3.0
1000
ACAD_MTEXT_DEFINED_HEIGHT_END
  0
INSERT
  5
11D
330
116
100
AcDbEntity
  8
8
  6
Continuous
 62
     4
370
     9
100
AcDbBlockReference
  2
_ARROWFILLED
 10
702.5564859940675
 20
134.7443837040082
 30
0.0
 41
2.0
 42
2.0
 43
2.0
 50
179.9999999999998
  0
INSERT
  5
11E
330
116
100
AcDbEntity
  8
8
  6
Continuous
 62
     4
370
     9
100
AcDbBlockReference
  2
_ARROWFILLED
 10
747.5564859940674
 20
134.7443837040082
 30
0.0
 41
2.0
 42
2.0
 43
2.0
 50
359.9999999999997
  0
ENDBLK
  5
118
330
116
100
AcDbEntity
  8
0
100
AcDbBlockEnd
  0
BLOCK
  5
121
330
120
100
AcDbEntity
  8
0
100
AcDbBlockBegin
  2
Dim5
 70
     0
 10
0.0
 20
0.0
 30
0.0
  3
Dim5
  1
Dim5
  0
LINE
  5
123
330
120
100
AcDbEntity
  8
8
  6
Continuous
 62
     4
370
     9
100
AcDbLine
 10
747.5564859940675
 20
202.5784596149297
 30
0.0
 11
747.5564859940675
 21
177.61109301947
 31
0.0
  0
LINE
  5
124
330
120
100
AcDbEntity
  8
8
  6
Continuous
 62
     4
370
     9
100
AcDbLine
 10
746.5564859940658
 20
202.5784596149297
 30
0.0
 11
746.5564859940658
 21
177.61109301947
 31
0.0
  0
LINE
  5
125
330
120
100
AcDbEntity
  8
8
  6
Continuous
 62
     4
370
     9
100
AcDbLine
 10
753.8064859940675
 20
179.11109301947
 30
0.0
 11
742.5564859940658
 21
179.11109301947
 31
0.0
  0
MTEXT
  5
126
330
120
100
AcDbEntity
  8
8
  6
Continuous
 62
     4
370
     9
100
AcDbMText
 10
757.8064859940675
 20
179.11109301947
 30
0.0
 40
3.0
 41
3.571428571428572
 46
3.0
 71
     4
 72
     1
  1
1
  7
ＭＳ ゴシック
 73
     1
 44
1.0
1001
ACAD
1000
ACAD_MTEXT_DEFINED_HEIGHT_BEGIN
1070
    46
1040
3.0
1000
ACAD_MTEXT_DEFINED_HEIGHT_END
  0
INSERT
  5
127
330
120
100
AcDbEntity
  8
8
  6
Continuous
 62
     4
370
     9
100
AcDbBlockReference
  2
_ARROWFILLED
 10
747.5564859940675
 20
179.11109301947
 30
0.0
 41
2.0
 42
2.0
 43
2.0
 50
179.9999999999995
  0
INSERT
  5
128
330
120
100
AcDbEntity
  8
8
  6
Continuous
 62
     4
370
     9
100
AcDbBlockReference
  2
_ARROWFILLED
 10
746.5564859940658
 20
179.11109301947
 30
0.0
 41
2.0
 42
2.0
 43
2.0
 50
359.9999999999997
  0
ENDBLK
  5
122
330
120
100
AcDbEntity
  8
0
100
AcDbBlockEnd
  0
BLOCK
  5
16E
330
16D
100
AcDbEntity
  8
0
100
AcDbBlockBegin
  2
Dim6
 70
     0
 10
0.0
 20
0.0
 30
0.0
  3
Dim6
  1
Dim6
  0
LINE
  5
170
330
16D
100
AcDbEntity
  8
8
  6
Continuous
 62
     4
370
     9
100
AcDbLine
 10
196.362861836636
 20
233.5784596149297
 30
0.0
 11
161.5581800540804
 21
233.5784596149298
 31
0.0
  0
LINE
  5
171
330
16D
100
AcDbEntity
  8
8
  6
Continuous
 62
     4
370
     9
100
AcDbLine
 10
196.362861836636
 20
333.5784596149297
 30
0.0
 11
161.5581800540804
 21
333.5784596149298
 31
0.0
  0
LINE
  5
172
330
16D
100
AcDbEntity
  8
8
  6
Continuous
 62
     4
370
     9
100
AcDbLine
 10
163.0581800540804
 20
233.5784596149298
 30
0.0
 11
163.0581800540804
 21
281.3284596149297
 31
0.0
  0
LINE
  5
173
330
16D
100
AcDbEntity
  8
8
  6
Continuous
 62
     4
370
     9
100
AcDbLine
 10
163.0581800540804
 20
285.8284596149297
 30
0.0
 11
163.0581800540804
 21
333.5784596149298
 31
0.0
  0
MTEXT
  5
174
330
16D
100
AcDbEntity
  8
8
  6
Continuous
 62
     4
370
     9
100
AcDbMText
 10
163.0581800540803
 20
283.5784596149297
 30
0.0
 40
3.0
 41
36.42857142857143
 46
3.0
 71
     5
 72
     1
  1
100
  7
ＭＳ ゴシック
 11
1.615544574432587E-15
 21
1.0
 31
0.0
 73
     1
 44
1.0
1001
ACAD
1000
ACAD_MTEXT_DEFINED_HEIGHT_BEGIN
1070
    46
1040
3.0
1000
ACAD_MTEXT_DEFINED_HEIGHT_END
  0
INSERT
  5
175
330
16D
100
AcDbEntity
  8
8
  6
Continuous
 62
     4
370
     9
100
AcDbBlockReference
  2
_ARROWFILLED
 10
163.0581800540804
 20
233.5784596149298
 30
0.0
 41
2.0
 42
2.0
 43
2.0
 50
269.9999999999998
  0
INSERT
  5
176
330
16D
100
AcDbEntity
  8
8
  6
Continuous
 62
     4
370
     9
100
AcDbBlockReference
  2
_ARROWFILLED
 10
163.0581800540804
 20
333.5784596149298
 30
0.0
 41
2.0
 42
2.0
 43
2.0
 50
89.99999999999991
  0
ENDBLK
  5
16F
330
16D
100
AcDbEntity
  8
0
100
AcDbBlockEnd
  0
BLOCK
  5
179
330
178
100
AcDbEntity
  8
0
100
AcDbBlockBegin
  2
Dim7
 70
     0
 10
0.0
 20
0.0
 30
0.0
  3
Dim7
  1
Dim7
  0
LINE
  5
17B
330
178
100
AcDbEntity
  8
8
  6
Continuous
 62
     4
370
     9
100
AcDbLine
 10
181.362861836636
 20
218.5784596149296
 30
0.0
 11
140.4245712696993
 21
218.5784596149298
 31
0.0
  0
LINE
  5
17C
330
178
100
AcDbEntity
  8
8
  6
Continuous
 62
     4
370
     9
100
AcDbLine
 10
181.362861836636
 20
348.5784596149297
 30
0.0
 11
140.4245712696993
 21
348.5784596149298
 31
0.0
  0
LINE
  5
17D
330
178
100
AcDbEntity
  8
8
  6
Continuous
 62
     4
370
     9
100
AcDbLine
 10
141.9245712696993
 20
218.5784596149298
 30
0.0
 11
141.9245712696993
 21
282.2192168934709
 31
0.0
  0
LINE
  5
17E
330
178
100
AcDbEntity
  8
8
  6
Continuous
 62
     4
370
     9
100
AcDbLine
 10
141.9245712696993
 20
286.7192168934709
 30
0.0
 11
141.9245712696993
 21
348.5784596149298
 31
0.0
  0
MTEXT
  5
17F
330
178
100
AcDbEntity
  8
8
  6
Continuous
 62
     4
370
     9
100
AcDbMText
 10
141.9245712696993
 20
284.4692168934709
 30
0.0
 40
3.0
 41
36.42857142857143
 46
3.0
 71
     5
 72
     1
  1
130
  7
ＭＳ ゴシック
 11
1.615544574432587E-15
 21
1.0
 31
0.0
 73
     1
 44
1.0
1001
ACAD
1000
ACAD_MTEXT_DEFINED_HEIGHT_BEGIN
1070
    46
1040
3.0
1000
ACAD_MTEXT_DEFINED_HEIGHT_END
  0
INSERT
  5
180
330
178
100
AcDbEntity
  8
8
  6
Continuous
 62
     4
370
     9
100
AcDbBlockReference
  2
_ARROWFILLED
 10
141.9245712696993
 20
218.5784596149298
 30
0.0
 41
2.0
 42
2.0
 43
2.0
 50
269.9999999999998
  0
INSERT
  5
181
330
178
100
AcDbEntity
  8
8
  6
Continuous
 62
     4
370
     9
100
AcDbBlockReference
  2
_ARROWFILLED
 10
141.9245712696993
 20
348.5784596149298
 30
0.0
 41
2.0
 42
2.0
 43
2.0
 50
89.99999999999991
  0
ENDBLK
  5
17A
330
178
100
AcDbEntity
  8
0
100
AcDbBlockEnd
  0
BLOCK
  5
184
330
183
100
AcDbEntity
  8
0
100
AcDbBlockBegin
  2
Dim8
 70
     0
 10
0.0
 20
0.0
 30
0.0
  3
Dim8
  1
Dim8
  0
LINE
  5
186
330
183
100
AcDbEntity
  8
8
  6
Continuous
 62
     4
370
     9
100
AcDbLine
 10
217.262861836636
 20
210.5784596149297
 30
0.0
 11
119.836352683661
 21
210.57845961493
 31
0.0
  0
LINE
  5
187
330
183
100
AcDbEntity
  8
8
  6
Continuous
 62
     4
370
     9
100
AcDbLine
 10
217.262861836636
 20
356.5784596149297
 30
0.0
 11
119.836352683661
 21
356.5784596149301
 31
0.0
  0
LINE
  5
188
330
183
100
AcDbEntity
  8
8
  6
Continuous
 62
     4
370
     9
100
AcDbLine
 10
121.336352683661
 20
210.57845961493
 30
0.0
 11
121.336352683661
 21
282.2192168934709
 31
0.0
  0
LINE
  5
189
330
183
100
AcDbEntity
  8
8
  6
Continuous
 62
     4
370
     9
100
AcDbLine
 10
121.336352683661
 20
286.7192168934709
 30
0.0
 11
121.336352683661
 21
356.5784596149301
 31
0.0
  0
MTEXT
  5
18A
330
183
100
AcDbEntity
  8
8
  6
Continuous
 62
     4
370
     9
100
AcDbMText
 10
121.336352683661
 20
284.4692168934709
 30
0.0
 40
3.0
 41
36.42857142857143
 46
3.0
 71
     5
 72
     1
  1
146
  7
ＭＳ ゴシック
 11
1.615544574432587E-15
 21
1.0
 31
0.0
 73
     1
 44
1.0
1001
ACAD
1000
ACAD_MTEXT_DEFINED_HEIGHT_BEGIN
1070
    46
1040
3.0
1000
ACAD_MTEXT_DEFINED_HEIGHT_END
  0
INSERT
  5
18B
330
183
100
AcDbEntity
  8
8
  6
Continuous
 62
     4
370
     9
100
AcDbBlockReference
  2
_ARROWFILLED
 10
121.336352683661
 20
210.57845961493
 30
0.0
 41
2.0
 42
2.0
 43
2.0
 50
269.9999999999998
  0
INSERT
  5
18C
330
183
100
AcDbEntity
  8
8
  6
Continuous
 62
     4
370
     9
100
AcDbBlockReference
  2
_ARROWFILLED
 10
121.336352683661
 20
356.5784596149301
 30
0.0
 41
2.0
 42
2.0
 43
2.0
 50
89.99999999999991
  0
ENDBLK
  5
185
330
183
100
AcDbEntity
  8
0
100
AcDbBlockEnd
  0
BLOCK
  5
18F
330
18E
100
AcDbEntity
  8
0
100
AcDbBlockBegin
  2
Dim9
 70
     0
 10
0.0
 20
0.0
 30
0.0
  3
Dim9
  1
Dim9
  0
LINE
  5
191
330
18E
100
AcDbEntity
  8
8
  6
Continuous
 62
     4
370
     9
100
AcDbLine
 10
201.3628618366351
 20
363.5784596149297
 30
0.0
 11
99.0798987052049
 21
363.5784596149301
 31
0.0
  0
LINE
  5
192
330
18E
100
AcDbEntity
  8
8
  6
Continuous
 62
     4
370
     9
100
AcDbLine
 10
201.3628618366351
 20
203.5784596149297
 30
0.0
 11
99.0798987052049
 21
203.57845961493
 31
0.0
  0
LINE
  5
193
330
18E
100
AcDbEntity
  8
8
  6
Continuous
 62
     4
370
     9
100
AcDbLine
 10
100.5798987052049
 20
363.5784596149301
 30
0.0
 11
100.5798987052049
 21
286.7192168934709
 31
0.0
  0
LINE
  5
194
330
18E
100
AcDbEntity
  8
8
  6
Continuous
 62
     4
370
     9
100
AcDbLine
 10
100.5798987052049
 20
282.2192168934709
 30
0.0
 11
100.5798987052049
 21
203.57845961493
 31
0.0
  0
MTEXT
  5
195
330
18E
100
AcDbEntity
  8
8
  6
Continuous
 62
     4
370
     9
100
AcDbMText
 10
100.5798987052048
 20
284.4692168934709
 30
0.0
 40
3.0
 41
36.42857142857143
 46
3.0
 71
     5
 72
     1
  1
160
  7
ＭＳ ゴシック
 11
1.615544574432587E-15
 21
1.0
 31
0.0
 73
     1
 44
1.0
1001
ACAD
1000
ACAD_MTEXT_DEFINED_HEIGHT_BEGIN
1070
    46
1040
3.0
1000
ACAD_MTEXT_DEFINED_HEIGHT_END
  0
INSERT
  5
196
330
18E
100
AcDbEntity
  8
8
  6
Continuous
 62
     4
370
     9
100
AcDbBlockReference
  2
_ARROWFILLED
 10
100.5798987052049
 20
363.5784596149301
 30
0.0
 41
2.0
 42
2.0
 43
2.0
 50
89.99999999999991
  0
INSERT
  5
197
330
18E
100
AcDbEntity
  8
8
  6
Continuous
 62
     4
370
     9
100
AcDbBlockReference
  2
_ARROWFILLED
 10
100.5798987052049
 20
203.57845961493
 30
0.0
 41
2.0
 42
2.0
 43
2.0
 50
269.9999999999998
  0
ENDBLK
  5
190
330
18E
100
AcDbEntity
  8
0
100
AcDbBlockEnd
  0
BLOCK
  5
19A
330
199
100
AcDbEntity
  8
0
100
AcDbBlockBegin
  2
Dim10
 70
     0
 10
0.0
 20
0.0
 30
0.0
  3
Dim10
  1
Dim10
  0
LINE
  5
19C
330
199
100
AcDbEntity
  8
8
  6
Continuous
 62
     4
370
     9
100
AcDbLine
 10
630.362861836636
 20
280.0784596149296
 30
0.0
 11
630.3628618366357
 21
133.2443837040082
 31
0.0
  0
LINE
  5
19D
330
199
100
AcDbEntity
  8
8
  6
Continuous
 62
     4
370
     9
100
AcDbLine
 10
612.362861836636
 20
217.5784596149296
 30
0.0
 11
612.3628618366358
 21
133.2443837040082
 31
0.0
  0
LINE
  5
19E
330
199
100
AcDbEntity
  8
8
  6
Continuous
 62
     4
370
     9
100
AcDbLine
 10
640.362861836636
 20
134.7443837040082
 30
0.0
 11
612.3628618366358
 21
134.7443837040082
 31
0.0
  0
MTEXT
  5
19F
330
199
100
AcDbEntity
  8
8
  6
Continuous
 62
     4
370
     9
100
AcDbMText
 10
641.3628618366362
 20
134.7443837040082
 30
0.0
 40
3.0
 41
42.85714285714285
 46
3.0
 71
     4
 72
     1
  1
(18)
  7
ＭＳ ゴシック
 73
     1
 44
1.0
1001
ACAD
1000
ACAD_MTEXT_DEFINED_HEIGHT_BEGIN
1070
    46
1040
3.0
1000
ACAD_MTEXT_DEFINED_HEIGHT_END
  0
INSERT
  5
1A0
330
199
100
AcDbEntity
  8
8
  6
Continuous
 62
     4
370
     9
100
AcDbBlockReference
  2
_ARROWFILLED
 10
630.3628618366357
 20
134.7443837040082
 30
0.0
 41
2.0
 42
2.0
 43
2.0
 50
359.9999999999997
  0
INSERT
  5
1A1
330
199
100
AcDbEntity
  8
8
  6
Continuous
 62
     4
370
     9
100
AcDbBlockReference
  2
_ARROWFILLED
 10
612.3628618366358
 20
134.7443837040082
 30
0.0
 41
2.0
 42
2.0
 43
2.0
 50
179.9999999999998
  0
ENDBLK
  5
19B
330
199
100
AcDbEntity
  8
0
100
AcDbBlockEnd
  0
BLOCK
  5
1A4
330
1A3
100
AcDbEntity
  8
0
100
AcDbBlockBegin
  2
Dim11
 70
     0
 10
0.0
 20
0.0
 30
0.0
  3
Dim11
  1
Dim11
  0
LINE
  5
1A6
330
1A3
100
AcDbEntity
  8
8
  6
Continuous
 62
     4
370
     9
100
AcDbLine
 10
747.5564859940675
 20
202.5784596149297
 30
0.0
 11
747.5564859940674
 21
155.9494639949862
 31
0.0
  0
LINE
  5
1A7
330
1A3
100
AcDbEntity
  8
8
  6
Continuous
 62
     4
370
     9
100
AcDbLine
 10
727.1282827637842
 20
282.5784596149297
 30
0.0
 11
727.128282763784
 21
155.9494639949862
 31
0.0
  0
LINE
  5
1A8
330
1A3
100
AcDbEntity
  8
8
  6
Continuous
 62
     4
370
     9
100
AcDbLine
 10
761.3064859940675
 20
157.4494639949862
 30
0.0
 11
727.128282763784
 21
157.4494639949862
 31
0.0
  0
MTEXT
  5
1A9
330
1A3
100
AcDbEntity
  8
8
  6
Continuous
 62
     4
370
     9
100
AcDbMText
 10
761.5564859940675
 20
157.4494639949862
 30
0.0
 40
3.0
 41
64.28571428571429
 46
3.0
 71
     4
 72
     1
  1
(20.5)
  7
ＭＳ ゴシック
 73
     1
 44
1.0
1001
ACAD
1000
ACAD_MTEXT_DEFINED_HEIGHT_BEGIN
1070
    46
1040
3.0
1000
ACAD_MTEXT_DEFINED_HEIGHT_END
  0
INSERT
  5
1AA
330
1A3
100
AcDbEntity
  8
8
  6
Continuous
 62
     4
370
     9
100
AcDbBlockReference
  2
_ARROWFILLED
 10
747.5564859940674
 20
157.4494639949862
 30
0.0
 41
2.0
 42
2.0
 43
2.0
 50
359.9999999999997
  0
INSERT
  5
1AB
330
1A3
100
AcDbEntity
  8
8
  6
Continuous
 62
     4
370
     9
100
AcDbBlockReference
  2
_ARROWFILLED
 10
727.128282763784
 20
157.4494639949862
 30
0.0
 41
2.0
 42
2.0
 43
2.0
 50
179.9999999999998
  0
ENDBLK
  5
1A5
330
1A3
100
AcDbEntity
  8
0
100
AcDbBlockEnd
  0
BLOCK
  5
1C4
330
1C3
100
AcDbEntity
  8
0
100
AcDbBlockBegin
  2
Dim12
 70
     0
 10
0.0
 20
0.0
 30
0.0
  3
Dim12
  1
Dim12
  0
LINE
  5
1C6
330
1C3
100
AcDbEntity
  8
8
  6
Continuous
 62
     4
370
     9
100
AcDbLine
 10
484.8628618366351
 20
205.4784596149297
 30
0.0
 11
484.862861836635
 21
177.61109301947
 31
0.0
  0
LINE
  5
1C7
330
1C3
100
AcDbEntity
  8
8
  6
Continuous
 62
     4
370
     9
100
AcDbLine
 10
572.362861836636
 20
205.4784596149297
 30
0.0
 11
572.362861836636
 21
177.61109301947
 31
0.0
  0
LINE
  5
1C8
330
1C3
100
AcDbEntity
  8
8
  6
Continuous
 62
     4
370
     9
100
AcDbLine
 10
484.862861836635
 20
179.11109301947
 30
0.0
 11
572.362861836636
 21
179.11109301947
 31
0.0
  0
MTEXT
  5
1C9
330
1C3
100
AcDbEntity
  8
8
  6
Continuous
 62
     4
370
     9
100
AcDbMText
 10
528.6128618366355
 20
185.11109301947
 30
0.0
 40
3.0
 41
45.71428571428571
 46
3.0
 71
     5
 72
     1
  1
87.5
  7
ＭＳ ゴシック
 73
     1
 44
1.0
1001
ACAD
1000
ACAD_MTEXT_DEFINED_HEIGHT_BEGIN
1070
    46
1040
3.0
1000
ACAD_MTEXT_DEFINED_HEIGHT_END
  0
INSERT
  5
1CA
330
1C3
100
AcDbEntity
  8
8
  6
Continuous
 62
     4
370
     9
100
AcDbBlockReference
  2
_ARROWFILLED
 10
484.862861836635
 20
179.11109301947
 30
0.0
 41
2.0
 42
2.0
 43
2.0
 50
179.9999999999998
  0
INSERT
  5
1CB
330
1C3
100
AcDbEntity
  8
8
  6
Continuous
 62
     4
370
     9
100
AcDbBlockReference
  2
_ARROWFILLED
 10
572.362861836636
 20
179.11109301947
 30
0.0
 41
2.0
 42
2.0
 43
2.0
 50
359.9999999999997
  0
ENDBLK
  5
1C5
330
1C3
100
AcDbEntity
  8
0
100
AcDbBlockEnd
  0
BLOCK
  5
1CE
330
1CD
100
AcDbEntity
  8
0
100
AcDbBlockBegin
  2
Dim13
 70
     0
 10
0.0
 20
0.0
 30
0.0
  3
Dim13
  1
Dim13
  0
LINE
  5
1D0
330
1CD
100
AcDbEntity
  8
8
  6
Continuous
 62
     4
370
     9
100
AcDbLine
 10
309.862861836637
 20
205.4784596149297
 30
0.0
 11
309.862861836637
 21
177.61109301947
 31
0.0
  0
LINE
  5
1D1
330
1CD
100
AcDbEntity
  8
8
  6
Continuous
 62
     4
370
     9
100
AcDbLine
 10
222.362861836636
 20
205.4784596149297
 30
0.0
 11
222.3628618366359
 21
177.61109301947
 31
0.0
  0
LINE
  5
1D2
330
1CD
100
AcDbEntity
  8
8
  6
Continuous
 62
     4
370
     9
100
AcDbLine
 10
309.862861836637
 20
179.11109301947
 30
0.0
 11
222.3628618366359
 21
179.11109301947
 31
0.0
  0
MTEXT
  5
1D3
330
1CD
100
AcDbEntity
  8
8
  6
Continuous
 62
     4
370
     9
100
AcDbMText
 10
266.1128618366365
 20
185.11109301947
 30
0.0
 40
3.0
 41
45.71428571428571
 46
3.0
 71
     5
 72
     1
  1
87.5
  7
ＭＳ ゴシック
 73
     1
 44
1.0
1001
ACAD
1000
ACAD_MTEXT_DEFINED_HEIGHT_BEGIN
1070
    46
1040
3.0
1000
ACAD_MTEXT_DEFINED_HEIGHT_END
  0
INSERT
  5
1D4
330
1CD
100
AcDbEntity
  8
8
  6
Continuous
 62
     4
370
     9
100
AcDbBlockReference
  2
_ARROWFILLED
 10
309.862861836637
 20
179.11109301947
 30
0.0
 41
2.0
 42
2.0
 43
2.0
 50
359.9999999999997
  0
INSERT
  5
1D5
330
1CD
100
AcDbEntity
  8
8
  6
Continuous
 62
     4
370
     9
100
AcDbBlockReference
  2
_ARROWFILLED
 10
222.3628618366359
 20
179.11109301947
 30
0.0
 41
2.0
 42
2.0
 43
2.0
 50
179.9999999999998
  0
ENDBLK
  5
1CF
330
1CD
100
AcDbEntity
  8
0
100
AcDbBlockEnd
  0
BLOCK
  5
282
330
281
100
AcDbEntity
  8
0
100
AcDbBlockBegin
  2
*G29
 70
     1
 10
0.0
 20
0.0
 30
0.0
  3
*G29
  1
*G29
  0
MTEXT
  5
284
330
281
100
AcDbEntity
  8
5
  6
Continuous
 62
   151
370
     9
100
AcDbMText
 10
127.0894258119519
 20
90.87398349999937
 30
0.0
 40
0.9576000000000002
 41
0.0
 46
0.9576000000000002
 71
     4
 72
     1
  1
{\fＭＳ ゴシック; }
 73
     1
 44
1.0
1001
ACAD
1000
ACAD_MTEXT_DEFINED_HEIGHT_BEGIN
1070
    46
1040
0.9576000000000002
1000
ACAD_MTEXT_DEFINED_HEIGHT_END
  0
MTEXT
  5
285
330
281
100
AcDbEntity
  8
5
  6
Continuous
 62
   151
370
     9
100
AcDbMText
 10
128.0470258119519
 20
91.99116753999937
 30
0.0
 40
3.191968080000001
 41
1.2192679671984
 46
3.191968080000001
 71
     4
 72
     1
  1
{\fＭＳ ゴシック;\T4.000000;1 }
 73
     1
 44
1.0
1001
ACAD
1000
ACAD_MTEXT_DEFINED_HEIGHT_BEGIN
1070
    46
1040
3.191968080000001
1000
ACAD_MTEXT_DEFINED_HEIGHT_END
  0
MTEXT
  5
286
330
281
100
AcDbEntity
  8
5
  6
Continuous
 62
   151
370
     9
100
AcDbMText
 10
134.2789634919519
 20
90.79417950999937
 30
0.0
 40
0.7979920200000001
 41
0.0
 46
0.7979920200000001
 71
     4
 72
     1
  1
{\fＭＳ ゴシック; }
 73
     1
 44
1.0
1001
ACAD
1000
ACAD_MTEXT_DEFINED_HEIGHT_BEGIN
1070
    46
1040
0.7979920200000001
1000
ACAD_MTEXT_DEFINED_HEIGHT_END
  0
MTEXT
  5
287
330
281
100
AcDbEntity
  8
5
  6
Continuous
 62
   151
370
     9
100
AcDbMText
 10
135.0769555119519
 20
91.99116753999937
 30
0.0
 40
3.191968080000001
 41
2.6470352893824
 46
3.191968080000001
 71
     4
 72
     1
  1
{\fＭＳ ゴシック;+}
 73
     1
 44
1.0
1001
ACAD
1000
ACAD_MTEXT_DEFINED_HEIGHT_BEGIN
1070
    46
1040
3.191968080000001
1000
ACAD_MTEXT_DEFINED_HEIGHT_END
  0
MTEXT
  5
288
330
281
100
AcDbEntity
  8
5
  6
Continuous
 62
   151
370
     9
100
AcDbMText
 10
127.0894258119519
 20
86.67121009999937
 30
0.0
 40
3.191968080000001
 41
16.66508916200138
 46
3.191968080000001
 71
     4
 72
     1
  1
{\fＭＳ ゴシック;\T1.604938;2 NC}
 73
     1
 44
1.0
1001
ACAD
1000
ACAD_MTEXT_DEFINED_HEIGHT_BEGIN
1070
    46
1040
3.191968080000001
1000
ACAD_MTEXT_DEFINED_HEIGHT_END
  0
MTEXT
  5
289
330
281
100
AcDbEntity
  8
5
  6
Continuous
 62
   151
370
     9
100
AcDbMText
 10
127.0894258119519
 20
81.35125265999937
 30
0.0
 40
3.191968080000001
 41
12.81048605522495
 46
3.191968080000001
 71
     4
 72
     1
  1
{\fＭＳ ゴシック;\T1.749271;3 -}
 73
     1
 44
1.0
1001
ACAD
1000
ACAD_MTEXT_DEFINED_HEIGHT_BEGIN
1070
    46
1040
3.191968080000001
1000
ACAD_MTEXT_DEFINED_HEIGHT_END
  0
ENDBLK
  5
283
330
281
100
AcDbEntity
  8
0
100
AcDbBlockEnd
  0
BLOCK
  5
296
330
295
100
AcDbEntity
  8
0
100
AcDbBlockBegin
  2
*G30
 70
     1
 10
0.0
 20
0.0
 30
0.0
  3
*G30
  1
*G30
  0
INSERT
  5
29C
330
295
100
AcDbEntity
  8
0
100
AcDbBlockReference
  2
*G31
 10
0.0
 20
0.0
 30
0.0
  0
INSERT
  5
2A1
330
295
100
AcDbEntity
  8
0
100
AcDbBlockReference
  2
*G32
 10
0.0
 20
0.0
 30
0.0
  0
INSERT
  5
2A6
330
295
100
AcDbEntity
  8
0
100
AcDbBlockReference
  2
*G33
 10
0.0
 20
0.0
 30
0.0
  0
INSERT
  5
2AB
330
295
100
AcDbEntity
  8
0
100
AcDbBlockReference
  2
*G34
 10
0.0
 20
0.0
 30
0.0
  0
ENDBLK
  5
297
330
295
100
AcDbEntity
  8
0
100
AcDbBlockEnd
  0
BLOCK
  5
299
330
298
100
AcDbEntity
  8
0
100
AcDbBlockBegin
  2
*G31
 70
     1
 10
0.0
 20
0.0
 30
0.0
  3
*G31
  1
*G31
  0
LINE
  5
29B
330
298
100
AcDbEntity
  8
6
  6
DASHDOT
 62
     1
370
     9
100
AcDbLine
 10
222.362861836636
 20
356.5784596149297
 30
0.0
 11
222.362861836636
 21
360.6784596149297
 31
0.0
  0
ENDBLK
  5
29A
330
298
100
AcDbEntity
  8
0
100
AcDbBlockEnd
  0
BLOCK
  5
29E
330
29D
100
AcDbEntity
  8
0
100
AcDbBlockBegin
  2
*G32
 70
     1
 10
0.0
 20
0.0
 30
0.0
  3
*G32
  1
*G32
  0
LINE
  5
2A0
330
29D
100
AcDbEntity
  8
6
  6
DASHDOT
 62
     1
370
     9
100
AcDbLine
 10
222.362861836636
 20
356.5784596149297
 30
0.0
 11
218.262861836636
 21
356.5784596149297
 31
0.0
  0
ENDBLK
  5
29F
330
29D
100
AcDbEntity
  8
0
100
AcDbBlockEnd
  0
BLOCK
  5
2A3
330
2A2
100
AcDbEntity
  8
0
100
AcDbBlockBegin
  2
*G33
 70
     1
 10
0.0
 20
0.0
 30
0.0
  3
*G33
  1
*G33
  0
LINE
  5
2A5
330
2A2
100
AcDbEntity
  8
6
  6
DASHDOT
 62
     1
370
     9
100
AcDbLine
 10
222.362861836636
 20
356.5784596149297
 30
0.0
 11
222.362861836636
 21
352.4784596149297
 31
0.0
  0
ENDBLK
  5
2A4
330
2A2
100
AcDbEntity
  8
0
100
AcDbBlockEnd
  0
BLOCK
  5
2A8
330
2A7
100
AcDbEntity
  8
0
100
AcDbBlockBegin
  2
*G34
 70
     1
 10
0.0
 20
0.0
 30
0.0
  3
*G34
  1
*G34
  0
LINE
  5
2AA
330
2A7
100
AcDbEntity
  8
6
  6
DASHDOT
 62
     1
370
     9
100
AcDbLine
 10
222.362861836636
 20
356.5784596149297
 30
0.0
 11
226.462861836636
 21
356.5784596149297
 31
0.0
  0
ENDBLK
  5
2A9
330
2A7
100
AcDbEntity
  8
0
100
AcDbBlockEnd
  0
BLOCK
  5
2AE
330
2AD
100
AcDbEntity
  8
0
100
AcDbBlockBegin
  2
*G35
 70
     1
 10
0.0
 20
0.0
 30
0.0
  3
*G35
  1
*G35
  0
INSERT
  5
2B4
330
2AD
100
AcDbEntity
  8
0
100
AcDbBlockReference
  2
*G36
 10
0.0
 20
0.0
 30
0.0
  0
INSERT
  5
2B9
330
2AD
100
AcDbEntity
  8
0
100
AcDbBlockReference
  2
*G37
 10
0.0
 20
0.0
 30
0.0
  0
INSERT
  5
2BE
330
2AD
100
AcDbEntity
  8
0
100
AcDbBlockReference
  2
*G38
 10
0.0
 20
0.0
 30
0.0
  0
INSERT
  5
2C3
330
2AD
100
AcDbEntity
  8
0
100
AcDbBlockReference
  2
*G39
 10
0.0
 20
0.0
 30
0.0
  0
ENDBLK
  5
2AF
330
2AD
100
AcDbEntity
  8
0
100
AcDbBlockEnd
  0
BLOCK
  5
2B1
330
2B0
100
AcDbEntity
  8
0
100
AcDbBlockBegin
  2
*G36
 70
     1
 10
0.0
 20
0.0
 30
0.0
  3
*G36
  1
*G36
  0
LINE
  5
2B3
330
2B0
100
AcDbEntity
  8
6
  6
DASHDOT
 62
     1
370
     9
100
AcDbLine
 10
309.862861836637
 20
356.5784596149297
 30
0.0
 11
309.862861836637
 21
360.6784596149297
 31
0.0
  0
ENDBLK
  5
2B2
330
2B0
100
AcDbEntity
  8
0
100
AcDbBlockEnd
  0
BLOCK
  5
2B6
330
2B5
100
AcDbEntity
  8
0
100
AcDbBlockBegin
  2
*G37
 70
     1
 10
0.0
 20
0.0
 30
0.0
  3
*G37
  1
*G37
  0
LINE
  5
2B8
330
2B5
100
AcDbEntity
  8
6
  6
DASHDOT
 62
     1
370
     9
100
AcDbLine
 10
309.862861836637
 20
356.5784596149297
 30
0.0
 11
305.762861836637
 21
356.5784596149297
 31
0.0
  0
ENDBLK
  5
2B7
330
2B5
100
AcDbEntity
  8
0
100
AcDbBlockEnd
  0
BLOCK
  5
2BB
330
2BA
100
AcDbEntity
  8
0
100
AcDbBlockBegin
  2
*G38
 70
     1
 10
0.0
 20
0.0
 30
0.0
  3
*G38
  1
*G38
  0
LINE
  5
2BD
330
2BA
100
AcDbEntity
  8
6
  6
DASHDOT
 62
     1
370
     9
100
AcDbLine
 10
309.862861836637
 20
356.5784596149297
 30
0.0
 11
309.862861836637
 21
352.4784596149297
 31
0.0
  0
ENDBLK
  5
2BC
330
2BA
100
AcDbEntity
  8
0
100
AcDbBlockEnd
  0
BLOCK
  5
2C0
330
2BF
100
AcDbEntity
  8
0
100
AcDbBlockBegin
  2
*G39
 70
     1
 10
0.0
 20
0.0
 30
0.0
  3
*G39
  1
*G39
  0
LINE
  5
2C2
330
2BF
100
AcDbEntity
  8
6
  6
DASHDOT
 62
     1
370
     9
100
AcDbLine
 10
309.862861836637
 20
356.5784596149297
 30
0.0
 11
313.962861836637
 21
356.5784596149297
 31
0.0
  0
ENDBLK
  5
2C1
330
2BF
100
AcDbEntity
  8
0
100
AcDbBlockEnd
  0
BLOCK
  5
2C6
330
2C5
100
AcDbEntity
  8
0
100
AcDbBlockBegin
  2
*G40
 70
     1
 10
0.0
 20
0.0
 30
0.0
  3
*G40
  1
*G40
  0
INSERT
  5
2CC
330
2C5
100
AcDbEntity
  8
0
100
AcDbBlockReference
  2
*G41
 10
0.0
 20
0.0
 30
0.0
  0
INSERT
  5
2D1
330
2C5
100
AcDbEntity
  8
0
100
AcDbBlockReference
  2
*G42
 10
0.0
 20
0.0
 30
0.0
  0
INSERT
  5
2D6
330
2C5
100
AcDbEntity
  8
0
100
AcDbBlockReference
  2
*G43
 10
0.0
 20
0.0
 30
0.0
  0
INSERT
  5
2DB
330
2C5
100
AcDbEntity
  8
0
100
AcDbBlockReference
  2
*G44
 10
0.0
 20
0.0
 30
0.0
  0
ENDBLK
  5
2C7
330
2C5
100
AcDbEntity
  8
0
100
AcDbBlockEnd
  0
BLOCK
  5
2C9
330
2C8
100
AcDbEntity
  8
0
100
AcDbBlockBegin
  2
*G41
 70
     1
 10
0.0
 20
0.0
 30
0.0
  3
*G41
  1
*G41
  0
LINE
  5
2CB
330
2C8
100
AcDbEntity
  8
6
  6
DASHDOT
 62
     1
370
     9
100
AcDbLine
 10
484.8628618366351
 20
356.5784596149297
 30
0.0
 11
484.8628618366351
 21
360.6784596149297
 31
0.0
  0
ENDBLK
  5
2CA
330
2C8
100
AcDbEntity
  8
0
100
AcDbBlockEnd
  0
BLOCK
  5
2CE
330
2CD
100
AcDbEntity
  8
0
100
AcDbBlockBegin
  2
*G42
 70
     1
 10
0.0
 20
0.0
 30
0.0
  3
*G42
  1
*G42
  0
LINE
  5
2D0
330
2CD
100
AcDbEntity
  8
6
  6
DASHDOT
 62
     1
370
     9
100
AcDbLine
 10
484.8628618366351
 20
356.5784596149297
 30
0.0
 11
480.7628618366351
 21
356.5784596149297
 31
0.0
  0
ENDBLK
  5
2CF
330
2CD
100
AcDbEntity
  8
0
100
AcDbBlockEnd
  0
BLOCK
  5
2D3
330
2D2
100
AcDbEntity
  8
0
100
AcDbBlockBegin
  2
*G43
 70
     1
 10
0.0
 20
0.0
 30
0.0
  3
*G43
  1
*G43
  0
LINE
  5
2D5
330
2D2
100
AcDbEntity
  8
6
  6
DASHDOT
 62
     1
370
     9
100
AcDbLine
 10
484.8628618366351
 20
356.5784596149297
 30
0.0
 11
484.8628618366351
 21
352.4784596149297
 31
0.0
  0
ENDBLK
  5
2D4
330
2D2
100
AcDbEntity
  8
0
100
AcDbBlockEnd
  0
BLOCK
  5
2D8
330
2D7
100
AcDbEntity
  8
0
100
AcDbBlockBegin
  2
*G44
 70
     1
 10
0.0
 20
0.0
 30
0.0
  3
*G44
  1
*G44
  0
LINE
  5
2DA
330
2D7
100
AcDbEntity
  8
6
  6
DASHDOT
 62
     1
370
     9
100
AcDbLine
 10
484.8628618366351
 20
356.5784596149297
 30
0.0
 11
488.9628618366351
 21
356.5784596149297
 31
0.0
  0
ENDBLK
  5
2D9
330
2D7
100
AcDbEntity
  8
0
100
AcDbBlockEnd
  0
BLOCK
  5
2DE
330
2DD
100
AcDbEntity
  8
0
100
AcDbBlockBegin
  2
*G45
 70
     1
 10
0.0
 20
0.0
 30
0.0
  3
*G45
  1
*G45
  0
INSERT
  5
2E4
330
2DD
100
AcDbEntity
  8
0
100
AcDbBlockReference
  2
*G46
 10
0.0
 20
0.0
 30
0.0
  0
INSERT
  5
2E9
330
2DD
100
AcDbEntity
  8
0
100
AcDbBlockReference
  2
*G47
 10
0.0
 20
0.0
 30
0.0
  0
INSERT
  5
2EE
330
2DD
100
AcDbEntity
  8
0
100
AcDbBlockReference
  2
*G48
 10
0.0
 20
0.0
 30
0.0
  0
INSERT
  5
2F3
330
2DD
100
AcDbEntity
  8
0
100
AcDbBlockReference
  2
*G49
 10
0.0
 20
0.0
 30
0.0
  0
ENDBLK
  5
2DF
330
2DD
100
AcDbEntity
  8
0
100
AcDbBlockEnd
  0
BLOCK
  5
2E1
330
2E0
100
AcDbEntity
  8
0
100
AcDbBlockBegin
  2
*G46
 70
     1
 10
0.0
 20
0.0
 30
0.0
  3
*G46
  1
*G46
  0
LINE
  5
2E3
330
2E0
100
AcDbEntity
  8
6
  6
DASHDOT
 62
     1
370
     9
100
AcDbLine
 10
572.3628618366358
 20
356.5784596149297
 30
0.0
 11
572.3628618366358
 21
360.6784596149297
 31
0.0
  0
ENDBLK
  5
2E2
330
2E0
100
AcDbEntity
  8
0
100
AcDbBlockEnd
  0
BLOCK
  5
2E6
330
2E5
100
AcDbEntity
  8
0
100
AcDbBlockBegin
  2
*G47
 70
     1
 10
0.0
 20
0.0
 30
0.0
  3
*G47
  1
*G47
  0
LINE
  5
2E8
330
2E5
100
AcDbEntity
  8
6
  6
DASHDOT
 62
     1
370
     9
100
AcDbLine
 10
572.3628618366358
 20
356.5784596149297
 30
0.0
 11
568.2628618366359
 21
356.5784596149297
 31
0.0
  0
ENDBLK
  5
2E7
330
2E5
100
AcDbEntity
  8
0
100
AcDbBlockEnd
  0
BLOCK
  5
2EB
330
2EA
100
AcDbEntity
  8
0
100
AcDbBlockBegin
  2
*G48
 70
     1
 10
0.0
 20
0.0
 30
0.0
  3
*G48
  1
*G48
  0
LINE
  5
2ED
330
2EA
100
AcDbEntity
  8
6
  6
DASHDOT
 62
     1
370
     9
100
AcDbLine
 10
572.3628618366358
 20
356.5784596149297
 30
0.0
 11
572.3628618366358
 21
352.4784596149297
 31
0.0
  0
ENDBLK
  5
2EC
330
2EA
100
AcDbEntity
  8
0
100
AcDbBlockEnd
  0
BLOCK
  5
2F0
330
2EF
100
AcDbEntity
  8
0
100
AcDbBlockBegin
  2
*G49
 70
     1
 10
0.0
 20
0.0
 30
0.0
  3
*G49
  1
*G49
  0
LINE
  5
2F2
330
2EF
100
AcDbEntity
  8
6
  6
DASHDOT
 62
     1
370
     9
100
AcDbLine
 10
572.362861836636
 20
356.5784596149297
 30
0.0
 11
576.4628618366359
 21
356.5784596149297
 31
0.0
  0
ENDBLK
  5
2F1
330
2EF
100
AcDbEntity
  8
0
100
AcDbBlockEnd
  0
BLOCK
  5
2F6
330
2F5
100
AcDbEntity
  8
0
100
AcDbBlockBegin
  2
*G50
 70
     1
 10
0.0
 20
0.0
 30
0.0
  3
*G50
  1
*G50
  0
INSERT
  5
2FC
330
2F5
100
AcDbEntity
  8
0
100
AcDbBlockReference
  2
*G51
 10
0.0
 20
0.0
 30
0.0
  0
INSERT
  5
301
330
2F5
100
AcDbEntity
  8
0
100
AcDbBlockReference
  2
*G52
 10
0.0
 20
0.0
 30
0.0
  0
INSERT
  5
306
330
2F5
100
AcDbEntity
  8
0
100
AcDbBlockReference
  2
*G53
 10
0.0
 20
0.0
 30
0.0
  0
INSERT
  5
30B
330
2F5
100
AcDbEntity
  8
0
100
AcDbBlockReference
  2
*G54
 10
0.0
 20
0.0
 30
0.0
  0
ENDBLK
  5
2F7
330
2F5
100
AcDbEntity
  8
0
100
AcDbBlockEnd
  0
BLOCK
  5
2F9
330
2F8
100
AcDbEntity
  8
0
100
AcDbBlockBegin
  2
*G51
 70
     1
 10
0.0
 20
0.0
 30
0.0
  3
*G51
  1
*G51
  0
LINE
  5
2FB
330
2F8
100
AcDbEntity
  8
6
  6
DASHDOT
 62
     1
370
     9
100
AcDbLine
 10
572.3628618366358
 20
210.5784596149297
 30
0.0
 11
572.3628618366358
 21
214.6784596149297
 31
0.0
  0
ENDBLK
  5
2FA
330
2F8
100
AcDbEntity
  8
0
100
AcDbBlockEnd
  0
BLOCK
  5
2FE
330
2FD
100
AcDbEntity
  8
0
100
AcDbBlockBegin
  2
*G52
 70
     1
 10
0.0
 20
0.0
 30
0.0
  3
*G52
  1
*G52
  0
LINE
  5
300
330
2FD
100
AcDbEntity
  8
6
  6
DASHDOT
 62
     1
370
     9
100
AcDbLine
 10
572.3628618366358
 20
210.5784596149297
 30
0.0
 11
568.2628618366359
 21
210.5784596149297
 31
0.0
  0
ENDBLK
  5
2FF
330
2FD
100
AcDbEntity
  8
0
100
AcDbBlockEnd
  0
BLOCK
  5
303
330
302
100
AcDbEntity
  8
0
100
AcDbBlockBegin
  2
*G53
 70
     1
 10
0.0
 20
0.0
 30
0.0
  3
*G53
  1
*G53
  0
LINE
  5
305
330
302
100
AcDbEntity
  8
6
  6
DASHDOT
 62
     1
370
     9
100
AcDbLine
 10
572.3628618366358
 20
210.5784596149297
 30
0.0
 11
572.3628618366358
 21
206.4784596149297
 31
0.0
  0
ENDBLK
  5
304
330
302
100
AcDbEntity
  8
0
100
AcDbBlockEnd
  0
BLOCK
  5
308
330
307
100
AcDbEntity
  8
0
100
AcDbBlockBegin
  2
*G54
 70
     1
 10
0.0
 20
0.0
 30
0.0
  3
*G54
  1
*G54
  0
LINE
  5
30A
330
307
100
AcDbEntity
  8
6
  6
DASHDOT
 62
     1
370
     9
100
AcDbLine
 10
572.362861836636
 20
210.5784596149297
 30
0.0
 11
576.4628618366359
 21
210.5784596149297
 31
0.0
  0
ENDBLK
  5
309
330
307
100
AcDbEntity
  8
0
100
AcDbBlockEnd
  0
BLOCK
  5
30E
330
30D
100
AcDbEntity
  8
0
100
AcDbBlockBegin
  2
*G55
 70
     1
 10
0.0
 20
0.0
 30
0.0
  3
*G55
  1
*G55
  0
INSERT
  5
314
330
30D
100
AcDbEntity
  8
0
100
AcDbBlockReference
  2
*G56
 10
0.0
 20
0.0
 30
0.0
  0
INSERT
  5
319
330
30D
100
AcDbEntity
  8
0
100
AcDbBlockReference
  2
*G57
 10
0.0
 20
0.0
 30
0.0
  0
INSERT
  5
31E
330
30D
100
AcDbEntity
  8
0
100
AcDbBlockReference
  2
*G58
 10
0.0
 20
0.0
 30
0.0
  0
INSERT
  5
323
330
30D
100
AcDbEntity
  8
0
100
AcDbBlockReference
  2
*G59
 10
0.0
 20
0.0
 30
0.0
  0
ENDBLK
  5
30F
330
30D
100
AcDbEntity
  8
0
100
AcDbBlockEnd
  0
BLOCK
  5
311
330
310
100
AcDbEntity
  8
0
100
AcDbBlockBegin
  2
*G56
 70
     1
 10
0.0
 20
0.0
 30
0.0
  3
*G56
  1
*G56
  0
LINE
  5
313
330
310
100
AcDbEntity
  8
6
  6
DASHDOT
 62
     1
370
     9
100
AcDbLine
 10
484.8628618366351
 20
210.5784596149297
 30
0.0
 11
484.8628618366351
 21
214.6784596149297
 31
0.0
  0
ENDBLK
  5
312
330
310
100
AcDbEntity
  8
0
100
AcDbBlockEnd
  0
BLOCK
  5
316
330
315
100
AcDbEntity
  8
0
100
AcDbBlockBegin
  2
*G57
 70
     1
 10
0.0
 20
0.0
 30
0.0
  3
*G57
  1
*G57
  0
LINE
  5
318
330
315
100
AcDbEntity
  8
6
  6
DASHDOT
 62
     1
370
     9
100
AcDbLine
 10
484.8628618366351
 20
210.5784596149297
 30
0.0
 11
480.7628618366351
 21
210.5784596149297
 31
0.0
  0
ENDBLK
  5
317
330
315
100
AcDbEntity
  8
0
100
AcDbBlockEnd
  0
BLOCK
  5
31B
330
31A
100
AcDbEntity
  8
0
100
AcDbBlockBegin
  2
*G58
 70
     1
 10
0.0
 20
0.0
 30
0.0
  3
*G58
  1
*G58
  0
LINE
  5
31D
330
31A
100
AcDbEntity
  8
6
  6
DASHDOT
 62
     1
370
     9
100
AcDbLine
 10
484.8628618366351
 20
210.5784596149297
 30
0.0
 11
484.8628618366351
 21
206.4784596149297
 31
0.0
  0
ENDBLK
  5
31C
330
31A
100
AcDbEntity
  8
0
100
AcDbBlockEnd
  0
BLOCK
  5
320
330
31F
100
AcDbEntity
  8
0
100
AcDbBlockBegin
  2
*G59
 70
     1
 10
0.0
 20
0.0
 30
0.0
  3
*G59
  1
*G59
  0
LINE
  5
322
330
31F
100
AcDbEntity
  8
6
  6
DASHDOT
 62
     1
370
     9
100
AcDbLine
 10
484.8628618366351
 20
210.5784596149297
 30
0.0
 11
488.9628618366351
 21
210.5784596149297
 31
0.0
  0
ENDBLK
  5
321
330
31F
100
AcDbEntity
  8
0
100
AcDbBlockEnd
  0
BLOCK
  5
326
330
325
100
AcDbEntity
  8
0
100
AcDbBlockBegin
  2
*G60
 70
     1
 10
0.0
 20
0.0
 30
0.0
  3
*G60
  1
*G60
  0
INSERT
  5
32C
330
325
100
AcDbEntity
  8
0
100
AcDbBlockReference
  2
*G61
 10
0.0
 20
0.0
 30
0.0
  0
INSERT
  5
331
330
325
100
AcDbEntity
  8
0
100
AcDbBlockReference
  2
*G62
 10
0.0
 20
0.0
 30
0.0
  0
INSERT
  5
336
330
325
100
AcDbEntity
  8
0
100
AcDbBlockReference
  2
*G63
 10
0.0
 20
0.0
 30
0.0
  0
INSERT
  5
33B
330
325
100
AcDbEntity
  8
0
100
AcDbBlockReference
  2
*G64
 10
0.0
 20
0.0
 30
0.0
  0
ENDBLK
  5
327
330
325
100
AcDbEntity
  8
0
100
AcDbBlockEnd
  0
BLOCK
  5
329
330
328
100
AcDbEntity
  8
0
100
AcDbBlockBegin
  2
*G61
 70
     1
 10
0.0
 20
0.0
 30
0.0
  3
*G61
  1
*G61
  0
LINE
  5
32B
330
328
100
AcDbEntity
  8
6
  6
DASHDOT
 62
     1
370
     9
100
AcDbLine
 10
309.862861836637
 20
210.5784596149297
 30
0.0
 11
309.862861836637
 21
214.6784596149297
 31
0.0
  0
ENDBLK
  5
32A
330
328
100
AcDbEntity
  8
0
100
AcDbBlockEnd
  0
BLOCK
  5
32E
330
32D
100
AcDbEntity
  8
0
100
AcDbBlockBegin
  2
*G62
 70
     1
 10
0.0
 20
0.0
 30
0.0
  3
*G62
  1
*G62
  0
LINE
  5
330
330
32D
100
AcDbEntity
  8
6
  6
DASHDOT
 62
     1
370
     9
100
AcDbLine
 10
309.862861836637
 20
210.5784596149297
 30
0.0
 11
305.762861836637
 21
210.5784596149297
 31
0.0
  0
ENDBLK
  5
32F
330
32D
100
AcDbEntity
  8
0
100
AcDbBlockEnd
  0
BLOCK
  5
333
330
332
100
AcDbEntity
  8
0
100
AcDbBlockBegin
  2
*G63
 70
     1
 10
0.0
 20
0.0
 30
0.0
  3
*G63
  1
*G63
  0
LINE
  5
335
330
332
100
AcDbEntity
  8
6
  6
DASHDOT
 62
     1
370
     9
100
AcDbLine
 10
309.862861836637
 20
210.5784596149297
 30
0.0
 11
309.862861836637
 21
206.4784596149297
 31
0.0
  0
ENDBLK
  5
334
330
332
100
AcDbEntity
  8
0
100
AcDbBlockEnd
  0
BLOCK
  5
338
330
337
100
AcDbEntity
  8
0
100
AcDbBlockBegin
  2
*G64
 70
     1
 10
0.0
 20
0.0
 30
0.0
  3
*G64
  1
*G64
  0
LINE
  5
33A
330
337
100
AcDbEntity
  8
6
  6
DASHDOT
 62
     1
370
     9
100
AcDbLine
 10
309.862861836637
 20
210.5784596149297
 30
0.0
 11
313.962861836637
 21
210.5784596149297
 31
0.0
  0
ENDBLK
  5
339
330
337
100
AcDbEntity
  8
0
100
AcDbBlockEnd
  0
BLOCK
  5
33E
330
33D
100
AcDbEntity
  8
0
100
AcDbBlockBegin
  2
*G65
 70
     1
 10
0.0
 20
0.0
 30
0.0
  3
*G65
  1
*G65
  0
INSERT
  5
344
330
33D
100
AcDbEntity
  8
0
100
AcDbBlockReference
  2
*G66
 10
0.0
 20
0.0
 30
0.0
  0
INSERT
  5
349
330
33D
100
AcDbEntity
  8
0
100
AcDbBlockReference
  2
*G67
 10
0.0
 20
0.0
 30
0.0
  0
INSERT
  5
34E
330
33D
100
AcDbEntity
  8
0
100
AcDbBlockReference
  2
*G68
 10
0.0
 20
0.0
 30
0.0
  0
INSERT
  5
353
330
33D
100
AcDbEntity
  8
0
100
AcDbBlockReference
  2
*G69
 10
0.0
 20
0.0
 30
0.0
  0
ENDBLK
  5
33F
330
33D
100
AcDbEntity
  8
0
100
AcDbBlockEnd
  0
BLOCK
  5
341
330
340
100
AcDbEntity
  8
0
100
AcDbBlockBegin
  2
*G66
 70
     1
 10
0.0
 20
0.0
 30
0.0
  3
*G66
  1
*G66
  0
LINE
  5
343
330
340
100
AcDbEntity
  8
6
  6
DASHDOT
 62
     1
370
     9
100
AcDbLine
 10
222.362861836636
 20
210.5784596149297
 30
0.0
 11
222.362861836636
 21
214.6784596149297
 31
0.0
  0
ENDBLK
  5
342
330
340
100
AcDbEntity
  8
0
100
AcDbBlockEnd
  0
BLOCK
  5
346
330
345
100
AcDbEntity
  8
0
100
AcDbBlockBegin
  2
*G67
 70
     1
 10
0.0
 20
0.0
 30
0.0
  3
*G67
  1
*G67
  0
LINE
  5
348
330
345
100
AcDbEntity
  8
6
  6
DASHDOT
 62
     1
370
     9
100
AcDbLine
 10
222.362861836636
 20
210.5784596149297
 30
0.0
 11
218.262861836636
 21
210.5784596149297
 31
0.0
  0
ENDBLK
  5
347
330
345
100
AcDbEntity
  8
0
100
AcDbBlockEnd
  0
BLOCK
  5
34B
330
34A
100
AcDbEntity
  8
0
100
AcDbBlockBegin
  2
*G68
 70
     1
 10
0.0
 20
0.0
 30
0.0
  3
*G68
  1
*G68
  0
LINE
  5
34D
330
34A
100
AcDbEntity
  8
6
  6
DASHDOT
 62
     1
370
     9
100
AcDbLine
 10
222.362861836636
 20
210.5784596149297
 30
0.0
 11
222.362861836636
 21
206.4784596149297
 31
0.0
  0
ENDBLK
  5
34C
330
34A
100
AcDbEntity
  8
0
100
AcDbBlockEnd
  0
BLOCK
  5
350
330
34F
100
AcDbEntity
  8
0
100
AcDbBlockBegin
  2
*G69
 70
     1
 10
0.0
 20
0.0
 30
0.0
  3
*G69
  1
*G69
  0
LINE
  5
352
330
34F
100
AcDbEntity
  8
6
  6
DASHDOT
 62
     1
370
     9
100
AcDbLine
 10
222.362861836636
 20
210.5784596149297
 30
0.0
 11
226.462861836636
 21
210.5784596149297
 31
0.0
  0
ENDBLK
  5
351
330
34F
100
AcDbEntity
  8
0
100
AcDbBlockEnd
  0
ENDSEC
  0
SECTION
  2
ENTITIES
  0
HATCH
  5
CA
330
1F
100
AcDbEntity
  8
9
  6
Continuous
 62
     2
370
     9
100
AcDbHatch
 10
0.0
 20
0.0
 30
0.0
210
0.0
220
0.0
230
1.0
  2

 70
     0
 71
     0
 91
        4
 92
        0
 93
        4
 72
     1
 10
397.3628618366358
 20
283.5784596149297
 11
397.3628618366357
 21
333.5784596149297
 72
     1
 10
397.3628618366357
 20
333.5784596149297
 11
197.362861836636
 21
333.5784596149297
 72
     1
 10
197.362861836636
 20
333.5784596149297
 11
197.362861836636
 21
283.5784596149297
 72
     1
 10
197.362861836636
 20
283.5784596149297
 11
397.3628618366358
 21
283.5784596149297
 97
        0
 92
        0
 93
        4
 72
     1
 10
397.3628618366358
 20
283.5784596149297
 11
597.362861836636
 21
283.5784596149297
 72
     1
 10
597.362861836636
 20
283.5784596149297
 11
597.362861836636
 21
333.5784596149297
 72
     1
 10
597.362861836636
 20
333.5784596149297
 11
397.3628618366357
 21
333.5784596149297
 72
     1
 10
397.3628618366357
 20
333.5784596149297
 11
397.3628618366358
 21
283.5784596149297
 97
        0
 92
        0
 93
        4
 72
     1
 10
397.3628618366359
 20
233.5784596149297
 11
597.362861836636
 21
233.5784596149297
 72
     1
 10
597.362861836636
 20
233.5784596149297
 11
597.362861836636
 21
283.5784596149297
 72
     1
 10
597.362861836636
 20
283.5784596149297
 11
397.3628618366358
 21
283.5784596149297
 72
     1
 10
397.3628618366358
 20
283.5784596149297
 11
397.3628618366359
 21
233.5784596149297
 97
        0
 92
        0
 93
        4
 72
     1
 10
397.3628618366358
 20
283.5784596149297
 11
197.362861836636
 21
283.5784596149297
 72
     1
 10
197.362861836636
 20
283.5784596149297
 11
197.3628618366361
 21
233.5784596149297
 72
     1
 10
197.3628618366361
 20
233.5784596149297
 11
397.3628618366359
 21
233.5784596149297
 72
     1
 10
397.3628618366359
 20
233.5784596149297
 11
397.3628618366358
 21
283.5784596149297
 97
        0
 75
     0
 76
     2
 52
0.0
 41
1.0
 77
     0
 78
     2
 53
45.0
 43
-425.5789783792206
 44
402.2036360751267
 45
-6.735192090801888
 46
6.735192090801888
 79
     0
 53
135.0
 43
-425.5789783792206
 44
402.2036360751267
 45
-6.735192090801888
 46
-6.735192090801888
 79
     0
 98
        0
  0
LINE
  5
CB
330
1F
100
AcDbEntity
  8
1
  6
Continuous
 62
     7
370
    25
100
AcDbLine
 10
597.362861836636
 20
233.5784596149297
 30
0.0
 11
597.362861836636
 21
333.5784596149297
 31
0.0
  0
LINE
  5
CC
330
1F
100
AcDbEntity
  8
1
  6
Continuous
 62
     7
370
    25
100
AcDbLine
 10
597.362861836636
 20
333.5784596149297
 30
0.0
 11
197.362861836636
 21
333.5784596149297
 31
0.0
  0
LINE
  5
CD
330
1F
100
AcDbEntity
  8
1
  6
Continuous
 62
     7
370
    25
100
AcDbLine
 10
197.362861836636
 20
333.5784596149297
 30
0.0
 11
197.362861836636
 21
233.5784596149297
 31
0.0
  0
LINE
  5
CE
330
1F
100
AcDbEntity
  8
1
  6
Continuous
 62
     7
370
    25
100
AcDbLine
 10
612.362861836636
 20
348.5784596149297
 30
0.0
 11
612.362861836636
 21
218.5784596149296
 31
0.0
  0
LINE
  5
CF
330
1F
100
AcDbEntity
  8
1
  6
Continuous
 62
     7
370
    25
100
AcDbLine
 10
612.362861836636
 20
218.5784596149296
 30
0.0
 11
182.362861836636
 21
218.5784596149288
 31
0.0
  0
LINE
  5
D0
330
1F
100
AcDbEntity
  8
1
  6
Continuous
 62
     7
370
    25
100
AcDbLine
 10
612.362861836636
 20
348.5784596149297
 30
0.0
 11
182.362861836636
 21
348.5784596149297
 31
0.0
  0
LINE
  5
D1
330
1F
100
AcDbEntity
  8
1
  6
Continuous
 62
     7
370
    25
100
AcDbLine
 10
182.362861836636
 20
348.5784596149297
 30
0.0
 11
182.362861836636
 21
218.5784596149288
 31
0.0
  0
LINE
  5
D2
330
1F
100
AcDbEntity
  8
1
  6
Continuous
 62
     7
370
    25
100
AcDbLine
 10
741.0064859940677
 20
218.2617929482631
 30
0.0
 11
734.1064859940669
 21
218.2617929482631
 31
0.0
  0
ARC
  5
D3
330
1F
100
AcDbEntity
  8
1
  6
Continuous
 62
     7
370
    25
100
AcDbCircle
 10
737.5564859940675
 20
221.2288104921226
 30
0.0
 40
4.550350877192955
100
AcDbArc
 50
220.6956985254115
 51
319.3043014745878
  0
LINE
  5
D4
330
1F
100
AcDbEntity
  8
1
  6
Continuous
 62
     7
370
    25
100
AcDbLine
 10
741.0064859940677
 20
218.5784596149296
 30
0.0
 11
741.0064859940677
 21
218.2617929482631
 31
0.0
  0
LINE
  5
D5
330
1F
100
AcDbEntity
  8
1
  6
Continuous
 62
     7
370
    25
100
AcDbLine
 10
734.1064859940669
 20
218.5784596149296
 30
0.0
 11
734.1064859940669
 21
218.2617929482631
 31
0.0
  0
LINE
  5
D6
330
1F
100
AcDbEntity
  8
1
  6
Continuous
 62
     7
370
    25
100
AcDbLine
 10
702.5564859940677
 20
348.5784596149297
 30
0.0
 11
702.5564859940677
 21
218.5784596149296
 31
0.0
  0
LINE
  5
D7
330
1F
100
AcDbEntity
  8
1
  6
Continuous
 62
     7
370
    25
100
AcDbLine
 10
747.5564859940675
 20
363.5784596149297
 30
0.0
 11
747.5564859940675
 21
203.5784596149297
 31
0.0
  0
LINE
  5
D8
330
1F
100
AcDbEntity
  8
1
  6
Continuous
 62
     7
370
    25
100
AcDbLine
 10
746.5564859940675
 20
363.5784596149297
 30
0.0
 11
746.5564859940667
 21
291.0784596149296
 31
0.0
  0
LINE
  5
D9
330
1F
100
AcDbEntity
  8
1
  6
Continuous
 62
     7
370
    25
100
AcDbLine
 10
746.5564859940667
 20
276.0784596149326
 30
0.0
 11
746.5564859940667
 21
203.5784596149297
 31
0.0
  0
LINE
  5
DA
330
1F
100
AcDbEntity
  8
1
  6
Continuous
 62
     7
370
    25
100
AcDbLine
 10
702.5564859940677
 20
348.5784596149297
 30
0.0
 11
746.5564859940675
 21
348.5784596149279
 31
0.0
  0
LINE
  5
DB
330
1F
100
AcDbEntity
  8
1
  6
Continuous
 62
     7
370
    25
100
AcDbLine
 10
746.5564859940675
 20
347.5784596149278
 30
0.0
 11
747.5564859940675
 21
347.5784596149278
 31
0.0
  0
LINE
  5
DC
330
1F
100
AcDbEntity
  8
1
  6
Continuous
 62
     7
370
    25
100
AcDbLine
 10
746.5564859940675
 20
363.5784596149297
 30
0.0
 11
747.5564859940675
 21
363.5784596149297
 31
0.0
  0
LINE
  5
DD
330
1F
100
AcDbEntity
  8
1
  6
Continuous
 62
     7
370
    25
100
AcDbLine
 10
702.5564859940677
 20
218.5784596149296
 30
0.0
 11
746.5564859940658
 21
218.5784596149296
 31
0.0
  0
LINE
  5
DE
330
1F
100
AcDbEntity
  8
1
  6
Continuous
 62
     7
370
    25
100
AcDbLine
 10
746.5564859940658
 20
219.5784596149297
 30
0.0
 11
747.5564859940675
 21
219.5784596149297
 31
0.0
  0
LINE
  5
DF
330
1F
100
AcDbEntity
  8
1
  6
Continuous
 62
     7
370
    25
100
AcDbLine
 10
746.5564859940675
 20
203.5784596149297
 30
0.0
 11
747.5564859940675
 21
203.5784596149297
 31
0.0
  0
LINE
  5
E0
330
1F
100
AcDbEntity
  8
1
  6
Continuous
 62
     7
370
    25
100
AcDbLine
 10
597.362861836636
 20
208.5784596149297
 30
0.0
 11
597.362861836636
 21
218.5784596149296
 31
0.0
  0
ARC
  5
E1
330
1F
100
AcDbEntity
  8
1
  6
Continuous
 62
     7
370
    25
100
AcDbCircle
 10
592.3628618366369
 20
208.5784596149297
 30
0.0
 40
5.0
100
AcDbArc
 50
269.9999999999998
 51
0.0
  0
LINE
  5
E2
330
1F
100
AcDbEntity
  8
1
  6
Continuous
 62
     7
370
    25
100
AcDbLine
 10
202.3628618366361
 20
203.5784596149297
 30
0.0
 11
592.3628618366369
 21
203.5784596149306
 31
0.0
  0
LINE
  5
E3
330
1F
100
AcDbEntity
  8
1
  6
Continuous
 62
     7
370
    25
100
AcDbLine
 10
197.362861836636
 20
208.5784596149297
 30
0.0
 11
197.362861836636
 21
218.5784596149296
 31
0.0
  0
ARC
  5
E4
330
1F
100
AcDbEntity
  8
1
  6
Continuous
 62
     7
370
    25
100
AcDbCircle
 10
202.3628618366351
 20
208.5784596149297
 30
0.0
 40
5.0
100
AcDbArc
 50
179.9999999999998
 51
269.9999999999998
  0
LINE
  5
E5
330
1F
100
AcDbEntity
  8
1
  6
Continuous
 62
     7
370
    25
100
AcDbLine
 10
195.8128618366377
 20
218.2617929482631
 30
0.0
 11
188.912861836638
 21
218.2617929482631
 31
0.0
  0
ARC
  5
E6
330
1F
100
AcDbEntity
  8
1
  6
Continuous
 62
     7
370
    25
100
AcDbCircle
 10
192.3628618366379
 20
221.2288104921226
 30
0.0
 40
4.550350877192983
100
AcDbArc
 50
220.6956985254115
 51
319.3043014745875
  0
LINE
  5
E7
330
1F
100
AcDbEntity
  8
1
  6
Continuous
 62
     7
370
    25
100
AcDbLine
 10
195.8128618366377
 20
218.5784596149296
 30
0.0
 11
195.8128618366377
 21
218.2617929482631
 31
0.0
  0
LINE
  5
E8
330
1F
100
AcDbEntity
  8
1
  6
Continuous
 62
     7
370
    25
100
AcDbLine
 10
188.912861836638
 20
218.5784596149296
 30
0.0
 11
188.912861836638
 21
218.2617929482631
 31
0.0
  0
LINE
  5
E9
330
1F
100
AcDbEntity
  8
1
  6
Continuous
 62
     7
370
    25
100
AcDbLine
 10
217.3128618366377
 20
218.2617929482631
 30
0.0
 11
210.4128618366372
 21
218.2617929482631
 31
0.0
  0
ARC
  5
EA
330
1F
100
AcDbEntity
  8
1
  6
Continuous
 62
     7
370
    25
100
AcDbCircle
 10
213.8628618366379
 20
221.2288104921226
 30
0.0
 40
4.550350877192983
100
AcDbArc
 50
220.6956985254115
 51
319.3043014745875
  0
LINE
  5
EB
330
1F
100
AcDbEntity
  8
1
  6
Continuous
 62
     7
370
    25
100
AcDbLine
 10
217.3128618366377
 20
218.5784596149296
 30
0.0
 11
217.3128618366377
 21
218.2617929482631
 31
0.0
  0
LINE
  5
EC
330
1F
100
AcDbEntity
  8
1
  6
Continuous
 62
     7
370
    25
100
AcDbLine
 10
210.4128618366372
 20
218.5784596149296
 30
0.0
 11
210.4128618366372
 21
218.2617929482631
 31
0.0
  0
LINE
  5
ED
330
1F
100
AcDbEntity
  8
1
  6
Continuous
 62
     7
370
    25
100
AcDbLine
 10
598.9128618366342
 20
218.2617929482631
 30
0.0
 11
605.812861836635
 21
218.2617929482631
 31
0.0
  0
ARC
  5
EE
330
1F
100
AcDbEntity
  8
1
  6
Continuous
 62
     7
370
    25
100
AcDbCircle
 10
602.3628618366342
 20
221.2288104921226
 30
0.0
 40
4.550350877192955
100
AcDbArc
 50
220.6956985254115
 51
319.3043014745878
  0
LINE
  5
EF
330
1F
100
AcDbEntity
  8
1
  6
Continuous
 62
     7
370
    25
100
AcDbLine
 10
598.9128618366342
 20
218.5784596149296
 30
0.0
 11
598.9128618366342
 21
218.2617929482631
 31
0.0
  0
LINE
  5
F0
330
1F
100
AcDbEntity
  8
1
  6
Continuous
 62
     7
370
    25
100
AcDbLine
 10
605.812861836635
 20
218.5784596149296
 30
0.0
 11
605.812861836635
 21
218.2617929482631
 31
0.0
  0
LINE
  5
F1
330
1F
100
AcDbEntity
  8
1
  6
Continuous
 62
     7
370
    25
100
AcDbLine
 10
577.4128618366353
 20
218.2617929482631
 30
0.0
 11
584.3128618366349
 21
218.2617929482631
 31
0.0
  0
ARC
  5
F2
330
1F
100
AcDbEntity
  8
1
  6
Continuous
 62
     7
370
    25
100
AcDbCircle
 10
580.8628618366351
 20
221.2288104921226
 30
0.0
 40
4.550350877192955
100
AcDbArc
 50
220.6956985254115
 51
319.3043014745878
  0
LINE
  5
F3
330
1F
100
AcDbEntity
  8
1
  6
Continuous
 62
     7
370
    25
100
AcDbLine
 10
577.4128618366353
 20
218.5784596149296
 30
0.0
 11
577.4128618366353
 21
218.2617929482631
 31
0.0
  0
LINE
  5
F4
330
1F
100
AcDbEntity
  8
1
  6
Continuous
 62
     7
370
    25
100
AcDbLine
 10
584.3128618366349
 20
218.5784596149296
 30
0.0
 11
584.3128618366349
 21
218.2617929482631
 31
0.0
  0
LINE
  5
F5
330
1F
100
AcDbEntity
  8
6
  6
DASHDOT
 62
     1
370
     9
100
AcDbLine
 10
397.362861836636
 20
198.57845961493
 30
0.0
 11
397.3628618366356
 21
368.5784596149291
 31
0.0
  0
LINE
  5
F6
330
1F
100
AcDbEntity
  8
6
  6
DASHDOT
 62
     1
370
     9
100
AcDbLine
 10
617.362861836636
 20
283.5784596149297
 30
0.0
 11
177.362861836636
 21
283.5784596149297
 31
0.0
  0
DIMENSION
  5
101
330
1F
100
AcDbEntity
  8
8
  6
Continuous
 62
     4
370
     9
100
AcDbDimension
280
     0
  2
Dim1
 10
484.862861836635
 20
179.11109301947
 30
0.0
 11
397.3628618366355
 21
185.11109301947
 31
0.0
 70
   160
  1
<>
 71
     5
 42
-1.0
 73
     0
 74
     0
 75
     0
  3
Standard
100
AcDbAlignedDimension
 13
309.862861836636
 23
206.4784596149297
 33
0.0
 14
484.8628618366351
 24
206.4784596149297
 34
0.0
100
AcDbRotatedDimension
1001
ACAD
1000
DSTYLE
1002
{
1070
   279
1070
     2
1070
   340
1005
F7
1070
   140
1040
3.0
1070
    40
1040
1.0
1070
   147
1040
0.0
1070
    76
1070
     0
1070
    75
1070
     0
1070
   344
1005
0
1070
   343
1005
0
1070
   173
1070
     1
1070
   289
1070
     2
1070
   288
1070
     1
1070
    77
1070
     1
1070
   172
1070
     1
1070
   174
1070
     0
1070
    74
1070
     0
1070
    73
1070
     0
1070
   284
1070
     8
1070
    78
1070
     8
1070
    42
1040
1.0
1070
    44
1040
1.5
1070
    43
1040
30.0
1070
   271
1070
     2
1070
    41
1040
2.0
1002
}
  0
DIMENSION
  5
10B
330
1F
100
AcDbEntity
  8
8
  6
Continuous
 62
     4
370
     9
100
AcDbDimension
280
     0
  2
Dim2
 10
597.3628618366358
 20
157.4494639949862
 30
0.0
 11
397.362861836636
 21
163.4494639949862
 31
0.0
 70
   160
  1
<>
 71
     5
 42
-1.0
 73
     0
 74
     0
 75
     0
  3
Standard
100
AcDbAlignedDimension
 13
197.362861836636
 23
233.5784596149297
 33
0.0
 14
597.362861836636
 24
233.5784596149297
 34
0.0
100
AcDbRotatedDimension
1001
ACAD
1000
DSTYLE
1002
{
1070
   279
1070
     2
1070
   340
1005
F7
1070
   140
1040
3.0
1070
    40
1040
1.0
1070
   147
1040
0.0
1070
    76
1070
     0
1070
    75
1070
     0
1070
   344
1005
0
1070
   343
1005
0
1070
   173
1070
     1
1070
   289
1070
     2
1070
   288
1070
     1
1070
    77
1070
     1
1070
   172
1070
     1
1070
   174
1070
     0
1070
    74
1070
     0
1070
    73
1070
     0
1070
   284
1070
     8
1070
    78
1070
     8
1070
    42
1040
1.0
1070
    44
1040
1.5
1070
    43
1040
30.0
1070
   271
1070
     2
1070
    41
1040
2.0
1002
}
  0
DIMENSION
  5
115
330
1F
100
AcDbEntity
  8
8
  6
Continuous
 62
     4
370
     9
100
AcDbDimension
280
     0
  2
Dim3
 10
612.3628618366358
 20
134.7443837040082
 30
0.0
 11
397.362861836636
 21
140.7443837040082
 31
0.0
 70
   160
  1
<>
 71
     5
 42
-1.0
 73
     0
 74
     0
 75
     0
  3
Standard
100
AcDbAlignedDimension
 13
182.362861836636
 23
218.5784596149288
 33
0.0
 14
612.362861836636
 24
218.5784596149296
 34
0.0
100
AcDbRotatedDimension
1001
ACAD
1000
DSTYLE
1002
{
1070
   279
1070
     2
1070
   340
1005
F7
1070
   140
1040
3.0
1070
    40
1040
1.0
1070
   147
1040
0.0
1070
    76
1070
     0
1070
    75
1070
     0
1070
   344
1005
0
1070
   343
1005
0
1070
   173
1070
     1
1070
   289
1070
     2
1070
   288
1070
     1
1070
    77
1070
     1
1070
   172
1070
     1
1070
   174
1070
     0
1070
    74
1070
     0
1070
    73
1070
     0
1070
   284
1070
     8
1070
    78
1070
     8
1070
    42
1040
1.0
1070
    44
1040
1.5
1070
    43
1040
30.0
1070
   271
1070
     2
1070
    41
1040
2.0
1002
}
  0
DIMENSION
  5
11F
330
1F
100
AcDbEntity
  8
8
  6
Continuous
 62
     4
370
     9
100
AcDbDimension
280
     0
  2
Dim4
 10
747.5564859940674
 20
134.7443837040082
 30
0.0
 11
725.0564859940675
 21
140.7443837040082
 31
0.0
 70
   160
  1
<>
 71
     5
 42
-1.0
 73
     0
 74
     0
 75
     0
  3
Standard
100
AcDbAlignedDimension
 13
702.5564859940677
 23
218.5784596149296
 33
0.0
 14
747.5564859940675
 24
203.5784596149297
 34
0.0
100
AcDbRotatedDimension
1001
ACAD
1000
DSTYLE
1002
{
1070
   279
1070
     2
1070
   340
1005
F7
1070
   140
1040
3.0
1070
    40
1040
1.0
1070
   147
1040
0.0
1070
    76
1070
     0
1070
    75
1070
     0
1070
   344
1005
0
1070
   343
1005
0
1070
   173
1070
     1
1070
   289
1070
     2
1070
   288
1070
     1
1070
    77
1070
     1
1070
   172
1070
     1
1070
   174
1070
     0
1070
    74
1070
     0
1070
    73
1070
     0
1070
   284
1070
     8
1070
    78
1070
     8
1070
    42
1040
1.0
1070
    44
1040
1.5
1070
    43
1040
30.0
1070
   271
1070
     2
1070
    41
1040
2.0
1002
}
  0
DIMENSION
  5
129
330
1F
100
AcDbEntity
  8
8
  6
Continuous
 62
     4
370
     9
100
AcDbDimension
280
     0
  2
Dim5
 10
746.5564859940658
 20
179.11109301947
 30
0.0
 11
758.5564859940675
 21
179.11109301947
 31
0.0
 70
   160
  1
<>
 71
     5
 42
-1.0
 73
     0
 74
     0
 75
     0
  3
Standard
100
AcDbAlignedDimension
 13
747.5564859940675
 23
203.5784596149297
 33
0.0
 14
746.5564859940658
 24
203.5784596149297
 34
0.0
 50
179.9999999999998
100
AcDbRotatedDimension
1001
ACAD
1000
DSTYLE
1002
{
1070
   279
1070
     2
1070
   340
1005
F7
1070
   140
1040
3.0
1070
    40
1040
1.0
1070
   147
1040
0.0
1070
    76
1070
     0
1070
    75
1070
     0
1070
   344
1005
0
1070
   343
1005
0
1070
   173
1070
     1
1070
   289
1070
     2
1070
   288
1070
     1
1070
    77
1070
     1
1070
   172
1070
     1
1070
   174
1070
     0
1070
    74
1070
     0
1070
    73
1070
     0
1070
   284
1070
     8
1070
    78
1070
     8
1070
    42
1040
1.0
1070
    44
1040
1.5
1070
    43
1040
30.0
1070
   271
1070
     2
1070
    41
1040
2.0
1002
}
  0
LINE
  5
12A
330
1F
100
AcDbEntity
  8
1
  6
Continuous
 62
     7
370
    25
100
AcDbLine
 10
741.0064859940677
 20
348.578459614929
 30
0.0
 11
734.1064859940669
 21
348.578459614929
 31
0.0
  0
LINE
  5
12B
330
1F
100
AcDbEntity
  8
1
  6
Continuous
 62
     7
370
    25
100
AcDbLine
 10
741.0064859940677
 20
348.8951262815962
 30
0.0
 11
734.1064859940669
 21
348.8951262815962
 31
0.0
  0
ARC
  5
12C
330
1F
100
AcDbEntity
  8
1
  6
Continuous
 62
     7
370
    25
100
AcDbCircle
 10
737.5564859940675
 20
345.9281087377359
 30
0.0
 40
4.550350877192955
100
AcDbArc
 50
40.69569852541188
 51
139.3043014745881
  0
LINE
  5
12D
330
1F
100
AcDbEntity
  8
1
  6
Continuous
 62
     7
370
    25
100
AcDbLine
 10
741.0064859940677
 20
348.578459614929
 30
0.0
 11
741.0064859940677
 21
348.8951262815962
 31
0.0
  0
LINE
  5
12E
330
1F
100
AcDbEntity
  8
1
  6
Continuous
 62
     7
370
    25
100
AcDbLine
 10
734.1064859940669
 20
348.578459614929
 30
0.0
 11
734.1064859940669
 21
348.8951262815962
 31
0.0
  0
LINE
  5
12F
330
1F
100
AcDbEntity
  8
1
  6
Continuous
 62
     7
370
    25
100
AcDbLine
 10
597.362861836636
 20
233.5784596149297
 30
0.0
 11
197.362861836636
 21
233.5784596149297
 31
0.0
  0
LINE
  5
130
330
1F
100
AcDbEntity
  8
1
  6
Continuous
 62
     7
370
    25
100
AcDbLine
 10
597.362861836636
 20
358.5784596149297
 30
0.0
 11
597.362861836636
 21
348.5784596149297
 31
0.0
  0
ARC
  5
131
330
1F
100
AcDbEntity
  8
1
  6
Continuous
 62
     7
370
    25
100
AcDbCircle
 10
592.3628618366369
 20
358.5784596149297
 30
0.0
 40
5.0
100
AcDbArc
 50
0.0
 51
89.99999999999991
  0
LINE
  5
132
330
1F
100
AcDbEntity
  8
1
  6
Continuous
 62
     7
370
    25
100
AcDbLine
 10
202.3628618366361
 20
363.5784596149297
 30
0.0
 11
592.3628618366369
 21
363.5784596149288
 31
0.0
  0
LINE
  5
133
330
1F
100
AcDbEntity
  8
1
  6
Continuous
 62
     7
370
    25
100
AcDbLine
 10
197.362861836636
 20
358.5784596149297
 30
0.0
 11
197.362861836636
 21
348.5784596149297
 31
0.0
  0
ARC
  5
134
330
1F
100
AcDbEntity
  8
1
  6
Continuous
 62
     7
370
    25
100
AcDbCircle
 10
202.3628618366351
 20
358.5784596149297
 30
0.0
 40
5.0
100
AcDbArc
 50
89.99999999999991
 51
179.9999999999998
  0
LINE
  5
135
330
1F
100
AcDbEntity
  8
1
  6
Continuous
 62
     7
370
    25
100
AcDbLine
 10
195.8128618366377
 20
348.8951262815963
 30
0.0
 11
188.912861836638
 21
348.8951262815963
 31
0.0
  0
ARC
  5
136
330
1F
100
AcDbEntity
  8
1
  6
Continuous
 62
     7
370
    25
100
AcDbCircle
 10
192.3628618366379
 20
345.9281087377366
 30
0.0
 40
4.550350877192983
100
AcDbArc
 50
40.69569852541188
 51
139.3043014745879
  0
LINE
  5
137
330
1F
100
AcDbEntity
  8
1
  6
Continuous
 62
     7
370
    25
100
AcDbLine
 10
195.8128618366377
 20
348.5784596149297
 30
0.0
 11
195.8128618366377
 21
348.8951262815963
 31
0.0
  0
LINE
  5
138
330
1F
100
AcDbEntity
  8
1
  6
Continuous
 62
     7
370
    25
100
AcDbLine
 10
188.912861836638
 20
348.5784596149297
 30
0.0
 11
188.912861836638
 21
348.8951262815963
 31
0.0
  0
LINE
  5
139
330
1F
100
AcDbEntity
  8
1
  6
Continuous
 62
     7
370
    25
100
AcDbLine
 10
217.3128618366377
 20
348.8951262815963
 30
0.0
 11
210.4128618366372
 21
348.8951262815963
 31
0.0
  0
ARC
  5
13A
330
1F
100
AcDbEntity
  8
1
  6
Continuous
 62
     7
370
    25
100
AcDbCircle
 10
213.8628618366379
 20
345.9281087377366
 30
0.0
 40
4.550350877192983
100
AcDbArc
 50
40.69569852541188
 51
139.3043014745879
  0
LINE
  5
13B
330
1F
100
AcDbEntity
  8
1
  6
Continuous
 62
     7
370
    25
100
AcDbLine
 10
217.3128618366377
 20
348.5784596149297
 30
0.0
 11
217.3128618366377
 21
348.8951262815963
 31
0.0
  0
LINE
  5
13C
330
1F
100
AcDbEntity
  8
1
  6
Continuous
 62
     7
370
    25
100
AcDbLine
 10
210.4128618366372
 20
348.5784596149297
 30
0.0
 11
210.4128618366372
 21
348.8951262815963
 31
0.0
  0
LINE
  5
13D
330
1F
100
AcDbEntity
  8
1
  6
Continuous
 62
     7
370
    25
100
AcDbLine
 10
598.9128618366342
 20
348.8951262815963
 30
0.0
 11
605.812861836635
 21
348.8951262815963
 31
0.0
  0
ARC
  5
13E
330
1F
100
AcDbEntity
  8
1
  6
Continuous
 62
     7
370
    25
100
AcDbCircle
 10
602.3628618366342
 20
345.9281087377366
 30
0.0
 40
4.550350877192955
100
AcDbArc
 50
40.69569852541188
 51
139.3043014745881
  0
LINE
  5
13F
330
1F
100
AcDbEntity
  8
1
  6
Continuous
 62
     7
370
    25
100
AcDbLine
 10
598.9128618366342
 20
348.5784596149297
 30
0.0
 11
598.9128618366342
 21
348.8951262815963
 31
0.0
  0
LINE
  5
140
330
1F
100
AcDbEntity
  8
1
  6
Continuous
 62
     7
370
    25
100
AcDbLine
 10
605.812861836635
 20
348.5784596149297
 30
0.0
 11
605.812861836635
 21
348.8951262815963
 31
0.0
  0
LINE
  5
141
330
1F
100
AcDbEntity
  8
1
  6
Continuous
 62
     7
370
    25
100
AcDbLine
 10
577.4128618366353
 20
348.8951262815963
 30
0.0
 11
584.3128618366349
 21
348.8951262815963
 31
0.0
  0
ARC
  5
142
330
1F
100
AcDbEntity
  8
1
  6
Continuous
 62
     7
370
    25
100
AcDbCircle
 10
580.8628618366351
 20
345.9281087377366
 30
0.0
 40
4.550350877192955
100
AcDbArc
 50
40.69569852541188
 51
139.3043014745881
  0
LINE
  5
143
330
1F
100
AcDbEntity
  8
1
  6
Continuous
 62
     7
370
    25
100
AcDbLine
 10
577.4128618366353
 20
348.5784596149297
 30
0.0
 11
577.4128618366353
 21
348.8951262815963
 31
0.0
  0
LINE
  5
144
330
1F
100
AcDbEntity
  8
1
  6
Continuous
 62
     7
370
    25
100
AcDbLine
 10
584.3128618366349
 20
348.5784596149297
 30
0.0
 11
584.3128618366349
 21
348.8951262815963
 31
0.0
  0
POLYLINE
  5
145
330
1F
100
AcDbEntity
  8
1
  6
Continuous
 62
     7
370
    25
100
AcDb2dPolyline
 66
     1
 10
0.0
 20
0.0
 30
0.0
  0
VERTEX
  5
146
330
145
100
AcDbEntity
  8
1
  6
Continuous
 62
     7
370
    25
100
AcDbVertex
100
AcDb2dVertex
 10
737.5205876091968
 20
289.5784596149297
 30
0.0
  0
VERTEX
  5
147
330
145
100
AcDbEntity
  8
1
  6
Continuous
 62
     7
370
    25
100
AcDbVertex
100
AcDb2dVertex
 10
740.9846892243348
 20
283.5784596149297
 30
0.0
  0
VERTEX
  5
148
330
145
100
AcDbEntity
  8
1
  6
Continuous
 62
     7
370
    25
100
AcDbVertex
100
AcDb2dVertex
 10
737.5205876091968
 20
277.5784596149297
 30
0.0
  0
VERTEX
  5
149
330
145
100
AcDbEntity
  8
1
  6
Continuous
 62
     7
370
    25
100
AcDbVertex
100
AcDb2dVertex
 10
730.5923843789213
 20
277.5784596149297
 30
0.0
  0
VERTEX
  5
14A
330
145
100
AcDbEntity
  8
1
  6
Continuous
 62
     7
370
    25
100
AcDbVertex
100
AcDb2dVertex
 10
727.1282827637842
 20
283.5784596149297
 30
0.0
  0
VERTEX
  5
14B
330
145
100
AcDbEntity
  8
1
  6
Continuous
 62
     7
370
    25
100
AcDbVertex
100
AcDb2dVertex
 10
730.5923843789213
 20
289.5784596149297
 30
0.0
  0
VERTEX
  5
14C
330
145
100
AcDbEntity
  8
1
  6
Continuous
 62
     7
370
    25
100
AcDbVertex
100
AcDb2dVertex
 10
737.5205876091968
 20
289.5784596149297
 30
0.0
  0
SEQEND
  5
14D
330
145
100
AcDbEntity
  8
1
  6
Continuous
 62
     7
370
    25
  0
CIRCLE
  5
14E
330
1F
100
AcDbEntity
  8
1
  6
Continuous
 62
     7
370
    25
100
AcDbCircle
 10
734.0564859940586
 20
283.5784596149297
 30
0.0
 40
1.849999999990359
  0
CIRCLE
  5
14F
330
1F
100
AcDbEntity
  8
1
  6
Continuous
 62
     7
370
    25
100
AcDbCircle
 10
734.0564859940586
 20
283.5784596149297
 30
0.0
 40
5.0
  0
LINE
  5
150
330
1F
100
AcDbEntity
  8
1
  6
Continuous
 62
     7
370
    25
100
AcDbLine
 10
746.5564859940672
 20
291.0784596149296
 30
0.0
 11
734.0564859940586
 21
291.0784596149296
 31
0.0
  0
LINE
  5
151
330
1F
100
AcDbEntity
  8
1
  6
Continuous
 62
     7
370
    25
100
AcDbLine
 10
746.5564859940667
 20
276.0784596149326
 30
0.0
 11
734.0564859940605
 21
276.0784596149297
 31
0.0
  0
ARC
  5
152
330
1F
100
AcDbEntity
  8
1
  6
Continuous
 62
     7
370
    25
100
AcDbCircle
 10
734.0564859940586
 20
283.5784596149297
 30
0.0
 40
7.5
100
AcDbArc
 50
89.99999999999991
 51
270.0000000000257
  0
LINE
  5
153
330
1F
100
AcDbEntity
  8
1
  6
Continuous
 62
     7
370
    25
100
AcDbLine
 10
619.3628618366362
 20
289.5784596149297
 30
0.0
 11
619.3628618366362
 21
283.5784596149297
 31
0.0
  0
LINE
  5
154
330
1F
100
AcDbEntity
  8
1
  6
Continuous
 62
     7
370
    25
100
AcDbLine
 10
630.362861836636
 20
286.0784596149297
 30
0.0
 11
630.362861836636
 21
281.0784596149296
 31
0.0
  0
ARC
  5
155
330
1F
100
AcDbEntity
  8
1
  6
Continuous
 62
     7
370
    25
100
AcDbCircle
 10
627.362861836636
 20
286.0784596149297
 30
0.0
 40
3.0
100
AcDbArc
 50
0.0
 51
89.99999999999991
  0
LINE
  5
156
330
1F
100
AcDbEntity
  8
1
  6
Continuous
 62
     7
370
    25
100
AcDbLine
 10
627.362861836636
 20
289.5784596149297
 30
0.0
 11
627.362861836636
 21
277.5784596149297
 31
0.0
  0
LINE
  5
157
330
1F
100
AcDbEntity
  8
1
  6
Continuous
 62
     7
370
    25
100
AcDbLine
 10
619.3628618366362
 20
289.5784596149297
 30
0.0
 11
627.362861836636
 21
289.5784596149297
 31
0.0
  0
LINE
  5
158
330
1F
100
AcDbEntity
  8
1
  6
Continuous
 62
     7
370
    25
100
AcDbLine
 10
617.4628618366345
 20
288.5784596149297
 30
0.0
 11
619.3628618366362
 21
288.5784596149297
 31
0.0
  0
LINE
  5
159
330
1F
100
AcDbEntity
  8
1
  6
Continuous
 62
     7
370
    25
100
AcDbLine
 10
619.3628618366362
 20
277.5784596149297
 30
0.0
 11
619.3628618366362
 21
283.5784596149297
 31
0.0
  0
LINE
  5
15A
330
1F
100
AcDbEntity
  8
1
  6
Continuous
 62
     7
370
    25
100
AcDbLine
 10
619.3628618366362
 20
283.5784596149297
 30
0.0
 11
627.362861836636
 21
283.5784596149297
 31
0.0
  0
LINE
  5
15B
330
1F
100
AcDbEntity
  8
1
  6
Continuous
 62
     7
370
    25
100
AcDbLine
 10
617.4628618366345
 20
278.5784596149297
 30
0.0
 11
619.3628618366362
 21
278.5784596149297
 31
0.0
  0
ARC
  5
15C
330
1F
100
AcDbEntity
  8
1
  6
Continuous
 62
     7
370
    25
100
AcDbCircle
 10
627.362861836636
 20
281.0784596149296
 30
0.0
 40
3.0
100
AcDbArc
 50
269.9999999999998
 51
0.0
  0
LINE
  5
15D
330
1F
100
AcDbEntity
  8
1
  6
Continuous
 62
     7
370
    25
100
AcDbLine
 10
619.3628618366362
 20
277.5784596149297
 30
0.0
 11
627.362861836636
 21
277.5784596149297
 31
0.0
  0
LINE
  5
15E
330
1F
100
AcDbEntity
  8
7
  6
Continuous
 62
     1
370
    25
100
AcDbLine
 10
630.362861836636
 20
285.4284596149291
 30
0.0
 11
649.0867703469152
 21
285.4284480667447
 31
0.0
  0
ARC
  5
15F
330
1F
100
AcDbEntity
  8
7
  6
Continuous
 62
     1
370
    25
100
AcDbCircle
 10
650.1206877449972
 20
284.5034539310636
 30
0.0
 40
1.387299296151127
100
AcDbArc
 50
138.1825956443131
 51
221.817414355677
  0
ARC
  5
160
330
1F
100
AcDbEntity
  8
7
  6
Continuous
 62
     1
370
    25
100
AcDbCircle
 10
648.0525684702593
 20
282.6534596149295
 30
0.0
 40
1.387515353286972
100
AcDbArc
 50
318.1902521645542
 51
41.80974783544539
  0
ARC
  5
161
330
1F
100
AcDbEntity
  8
7
  6
Continuous
 62
     1
370
    25
100
AcDbCircle
 10
648.0525838235665
 20
284.5034537505871
 30
0.0
 40
1.387500000000045
100
AcDbArc
 50
318.1900099999896
 51
41.80999999999737
  0
LINE
  5
162
330
1F
100
AcDbEntity
  8
7
  6
Continuous
 62
     1
370
    25
100
AcDbLine
 10
630.362861836636
 20
281.7284596149293
 30
0.0
 11
649.0867705083568
 21
281.7284596149293
 31
0.0
  0
LINE
  5
163
330
1F
100
AcDbEntity
  8
1
  6
Continuous
 62
     7
370
    25
100
AcDbLine
 10
612.862861836636
 20
289.8284596149297
 30
0.0
 11
612.362861836636
 21
289.8284596149297
 31
0.0
  0
LINE
  5
164
330
1F
100
AcDbEntity
  8
1
  6
Continuous
 62
     7
370
    25
100
AcDbLine
 10
612.862861836636
 20
290.5784596149297
 30
0.0
 11
617.4628618366355
 21
290.5784596149297
 31
0.0
  0
LINE
  5
165
330
1F
100
AcDbEntity
  8
1
  6
Continuous
 62
     7
370
    25
100
AcDbLine
 10
612.862861836636
 20
287.0784596149297
 30
0.0
 11
617.4628618366355
 21
287.0784596149297
 31
0.0
  0
LINE
  5
166
330
1F
100
AcDbEntity
  8
1
  6
Continuous
 62
     7
370
    25
100
AcDbLine
 10
612.862861836636
 20
276.5784596149288
 30
0.0
 11
617.4628618366355
 21
276.5784596149297
 31
0.0
  0
LINE
  5
167
330
1F
100
AcDbEntity
  8
1
  6
Continuous
 62
     7
370
    25
100
AcDbLine
 10
612.862861836636
 20
280.0784596149297
 30
0.0
 11
617.4628618366355
 21
280.0784596149297
 31
0.0
  0
LINE
  5
168
330
1F
100
AcDbEntity
  8
1
  6
Continuous
 62
     7
370
    25
100
AcDbLine
 10
617.4628618366355
 20
290.5784596149297
 30
0.0
 11
617.4628618366355
 21
283.5784596149297
 31
0.0
  0
LINE
  5
169
330
1F
100
AcDbEntity
  8
1
  6
Continuous
 62
     7
370
    25
100
AcDbLine
 10
617.4628618366355
 20
276.5784596149297
 30
0.0
 11
617.4628618366355
 21
283.5784596149297
 31
0.0
  0
LINE
  5
16A
330
1F
100
AcDbEntity
  8
1
  6
Continuous
 62
     7
370
    25
100
AcDbLine
 10
612.862861836636
 20
290.5784596149297
 30
0.0
 11
612.862861836636
 21
276.5784596149288
 31
0.0
  0
LINE
  5
16B
330
1F
100
AcDbEntity
  8
1
  6
Continuous
 62
     7
370
    25
100
AcDbLine
 10
612.862861836636
 20
277.3284596149297
 30
0.0
 11
612.362861836636
 21
277.3284596149297
 31
0.0
  0
LINE
  5
16C
330
1F
100
AcDbEntity
  8
1
  6
Continuous
 62
     7
370
    25
100
AcDbLine
 10
612.362861836636
 20
289.8284596149297
 30
0.0
 11
612.362861836636
 21
277.3284596149297
 31
0.0
  0
DIMENSION
  5
177
330
1F
100
AcDbEntity
  8
8
  6
Continuous
 62
     4
370
     9
100
AcDbDimension
280
     0
  2
Dim6
 10
163.0581800540804
 20
333.5784596149298
 30
0.0
 11
163.0581800540803
 21
283.5784596149297
 31
0.0
 70
   160
  1
<>
 71
     5
 42
-1.0
 73
     0
 74
     0
 75
     0
  3
Standard
100
AcDbAlignedDimension
 13
197.362861836636
 23
233.5784596149297
 33
0.0
 14
197.362861836636
 24
333.5784596149297
 34
0.0
 50
89.99999999999991
100
AcDbRotatedDimension
1001
ACAD
1000
DSTYLE
1002
{
1070
   279
1070
     2
1070
   340
1005
F7
1070
   140
1040
3.0
1070
    40
1040
1.0
1070
   147
1040
0.0
1070
    76
1070
     0
1070
    75
1070
     0
1070
   344
1005
0
1070
   343
1005
0
1070
   173
1070
     1
1070
   289
1070
     2
1070
   288
1070
     1
1070
    77
1070
     1
1070
   172
1070
     1
1070
   174
1070
     0
1070
    74
1070
     0
1070
    73
1070
     0
1070
   284
1070
     8
1070
    78
1070
     8
1070
    42
1040
1.0
1070
    44
1040
1.5
1070
    43
1040
30.0
1070
   271
1070
     2
1070
    41
1040
2.0
1002
}
  0
DIMENSION
  5
182
330
1F
100
AcDbEntity
  8
8
  6
Continuous
 62
     4
370
     9
100
AcDbDimension
280
     0
  2
Dim7
 10
141.9245712696993
 20
348.5784596149298
 30
0.0
 11
141.9245712696993
 21
284.4692168934709
 31
0.0
 70
   160
  1
<>
 71
     5
 42
-1.0
 73
     0
 74
     0
 75
     0
  3
Standard
100
AcDbAlignedDimension
 13
182.362861836636
 23
218.5784596149296
 33
0.0
 14
182.362861836636
 24
348.5784596149297
 34
0.0
 50
89.99999999999991
100
AcDbRotatedDimension
1001
ACAD
1000
DSTYLE
1002
{
1070
   279
1070
     2
1070
   340
1005
F7
1070
   140
1040
3.0
1070
    40
1040
1.0
1070
   147
1040
0.0
1070
    76
1070
     0
1070
    75
1070
     0
1070
   344
1005
0
1070
   343
1005
0
1070
   173
1070
     1
1070
   289
1070
     2
1070
   288
1070
     1
1070
    77
1070
     1
1070
   172
1070
     1
1070
   174
1070
     0
1070
    74
1070
     0
1070
    73
1070
     0
1070
   284
1070
     8
1070
    78
1070
     8
1070
    42
1040
1.0
1070
    44
1040
1.5
1070
    43
1040
30.0
1070
   271
1070
     2
1070
    41
1040
2.0
1002
}
  0
DIMENSION
  5
18D
330
1F
100
AcDbEntity
  8
8
  6
Continuous
 62
     4
370
     9
100
AcDbDimension
280
     0
  2
Dim8
 10
121.336352683661
 20
356.5784596149301
 30
0.0
 11
121.336352683661
 21
284.4692168934709
 31
0.0
 70
   160
  1
<>
 71
     5
 42
-1.0
 73
     0
 74
     0
 75
     0
  3
Standard
100
AcDbAlignedDimension
 13
218.262861836636
 23
210.5784596149297
 33
0.0
 14
218.262861836636
 24
356.5784596149297
 34
0.0
 50
89.99999999999991
100
AcDbRotatedDimension
1001
ACAD
1000
DSTYLE
1002
{
1070
   279
1070
     2
1070
   340
1005
F7
1070
   140
1040
3.0
1070
    40
1040
1.0
1070
   147
1040
0.0
1070
    76
1070
     0
1070
    75
1070
     0
1070
   344
1005
0
1070
   343
1005
0
1070
   173
1070
     1
1070
   289
1070
     2
1070
   288
1070
     1
1070
    77
1070
     1
1070
   172
1070
     1
1070
   174
1070
     0
1070
    74
1070
     0
1070
    73
1070
     0
1070
   284
1070
     8
1070
    78
1070
     8
1070
    42
1040
1.0
1070
    44
1040
1.5
1070
    43
1040
30.0
1070
   271
1070
     2
1070
    41
1040
2.0
1002
}
  0
DIMENSION
  5
198
330
1F
100
AcDbEntity
  8
8
  6
Continuous
 62
     4
370
     9
100
AcDbDimension
280
     0
  2
Dim9
 10
100.5798987052049
 20
203.57845961493
 30
0.0
 11
100.5798987052048
 21
284.4692168934709
 31
0.0
 70
   160
  1
<>
 71
     5
 42
-1.0
 73
     0
 74
     0
 75
     0
 53
89.99999999999991
  3
Standard
100
AcDbAlignedDimension
 13
202.3628618366351
 23
363.5784596149297
 33
0.0
 14
202.3628618366351
 24
203.5784596149297
 34
0.0
 50
-89.99999999999991
100
AcDbRotatedDimension
1001
ACAD
1000
DSTYLE
1002
{
1070
   279
1070
     2
1070
   340
1005
F7
1070
   140
1040
3.0
1070
    40
1040
1.0
1070
   147
1040
0.0
1070
    76
1070
     0
1070
    75
1070
     0
1070
   344
1005
0
1070
   343
1005
0
1070
   173
1070
     1
1070
   289
1070
     2
1070
   288
1070
     1
1070
    77
1070
     1
1070
   172
1070
     1
1070
   174
1070
     0
1070
    74
1070
     0
1070
    73
1070
     0
1070
   284
1070
     8
1070
    78
1070
     8
1070
    42
1040
1.0
1070
    44
1040
1.5
1070
    43
1040
30.0
1070
   271
1070
     2
1070
    41
1040
2.0
1002
}
  0
DIMENSION
  5
1A2
330
1F
100
AcDbEntity
  8
8
  6
Continuous
 62
     4
370
     9
100
AcDbDimension
280
     0
  2
Dim10
 10
612.3628618366358
 20
134.7443837040082
 30
0.0
 11
644.3628618366362
 21
134.7443837040082
 31
0.0
 70
   160
  1
(<>
 71
     5
 42
-1.0
 73
     0
 74
     0
 75
     0
  3
Standard
100
AcDbAlignedDimension
 13
630.362861836636
 23
281.0784596149296
 33
0.0
 14
612.362861836636
 24
218.5784596149296
 34
0.0
 50
179.9999999999998
100
AcDbRotatedDimension
1001
ACAD
1000
DSTYLE
1002
{
1070
   279
1070
     2
1070
   340
1005
F7
1070
   140
1040
3.0
1070
    40
1040
1.0
1070
   147
1040
0.0
1070
    76
1070
     0
1070
    75
1070
     0
1070
   344
1005
0
1070
   343
1005
0
1070
   173
1070
     1
1070
   289
1070
     2
1070
   288
1070
     1
1070
    77
1070
     1
1070
   172
1070
     1
1070
   174
1070
     0
1070
    74
1070
     0
1070
    73
1070
     0
1070
   284
1070
     8
1070
    78
1070
     8
1070
    42
1040
1.0
1070
    44
1040
1.5
1070
    43
1040
30.0
1070
   271
1070
     2
1070
    41
1040
2.0
1002
}
  0
DIMENSION
  5
1AC
330
1F
100
AcDbEntity
  8
8
  6
Continuous
 62
     4
370
     9
100
AcDbDimension
280
     0
  2
Dim11
 10
727.128282763784
 20
157.4494639949862
 30
0.0
 11
766.0564859940675
 21
157.4494639949862
 31
0.0
 70
   160
  1
(<>
 71
     5
 42
-1.0
 73
     0
 74
     0
 75
     0
  3
Standard
100
AcDbAlignedDimension
 13
747.5564859940675
 23
203.5784596149297
 33
0.0
 14
727.1282827637842
 24
283.5784596149297
 34
0.0
 50
179.9999999999998
100
AcDbRotatedDimension
1001
ACAD
1000
DSTYLE
1002
{
1070
   279
1070
     2
1070
   340
1005
F7
1070
   140
1040
3.0
1070
    40
1040
1.0
1070
   147
1040
0.0
1070
    76
1070
     0
1070
    75
1070
     0
1070
   344
1005
0
1070
   343
1005
0
1070
   173
1070
     1
1070
   289
1070
     2
1070
   288
1070
     1
1070
    77
1070
     1
1070
   172
1070
     1
1070
   174
1070
     0
1070
    74
1070
     0
1070
    73
1070
     0
1070
   284
1070
     8
1070
    78
1070
     8
1070
    42
1040
1.0
1070
    44
1040
1.5
1070
    43
1040
30.0
1070
   271
1070
     2
1070
    41
1040
2.0
1002
}
  0
ARC
  5
1AD
330
1F
100
AcDbEntity
  8
7
  6
Continuous
 62
     1
370
    25
100
AcDbCircle
 10
651.5192409904552
 20
282.676670685848
 30
0.0
 40
1.387515022395519
100
AcDbArc
 50
138.1902399436259
 51
221.8097600563737
  0
ARC
  5
1AE
330
1F
100
AcDbEntity
  8
7
  6
Continuous
 62
     1
370
    25
100
AcDbCircle
 10
649.4511217156254
 20
282.6766764779697
 30
0.0
 40
1.387299627082371
100
AcDbArc
 50
318.1825978710825
 51
41.81739912887618
  0
LINE
  5
1AF
330
1F
100
AcDbEntity
  8
7
  6
Continuous
 62
     1
370
    25
100
AcDbLine
 10
650.4850393962901
 20
281.7516706858478
 30
0.0
 11
657.8424666968162
 21
281.7516706858476
 31
0.0
  0
ARC
  5
1B0
330
1F
100
AcDbEntity
  8
7
  6
Continuous
 62
     1
370
    25
100
AcDbCircle
 10
651.519225968071
 20
284.5266649478563
 30
0.0
 40
1.387500000000045
100
AcDbArc
 50
138.1900000000026
 51
221.8099970000301
  0
LINE
  5
1B1
330
1F
100
AcDbEntity
  8
7
  6
Continuous
 62
     1
370
    25
100
AcDbLine
 10
650.4850394447226
 20
285.4516592640139
 30
0.0
 11
657.8424666968162
 21
285.4516592640136
 31
0.0
  0
MTEXT
  5
1B2
330
1F
100
AcDbEntity
  8
8
  6
Continuous
 62
     4
370
     9
100
AcDbMText
 10
646.0288498608065
 20
274.2181323391132
 30
0.0
 40
6.0
 41
38.99793999408
 46
6.0
 71
     1
 72
     1
  1
{\fＭＳ ゴシック;\T1.555898;L=500}
 73
     1
 44
1.0
1001
ACAD
1000
ACAD_MTEXT_DEFINED_HEIGHT_BEGIN
1070
    46
1040
6.0
1000
ACAD_MTEXT_DEFINED_HEIGHT_END
  0
INSERT
  5
1B3
330
1F
100
AcDbEntity
  8
8
  6
Continuous
 62
     4
370
     9
100
AcDbBlockReference
  2
_OPEN
 10
220.8128618366359
 20
359.2631383666614
 30
0.0
 41
2.0
 42
2.0
 43
2.0
 50
299.9999999999994
  0
POLYLINE
  5
1B4
330
1F
100
AcDbEntity
  8
8
  6
Continuous
 62
     4
370
     9
100
AcDb2dPolyline
 66
     1
 10
0.0
 20
0.0
 30
0.0
  0
VERTEX
  5
1B5
330
1B4
100
AcDbEntity
  8
8
  6
Continuous
 62
     4
370
     9
100
AcDbVertex
100
AcDb2dVertex
 10
220.8128618366359
 20
359.2631383666614
 30
0.0
  0
VERTEX
  5
1B6
330
1B4
100
AcDbEntity
  8
8
  6
Continuous
 62
     4
370
     9
100
AcDbVertex
100
AcDb2dVertex
 10
205.2504964024083
 20
386.2179459846977
 30
0.0
  0
VERTEX
  5
1B7
330
1B4
100
AcDbEntity
  8
8
  6
Continuous
 62
     4
370
     9
100
AcDbVertex
100
AcDb2dVertex
 10
203.7230364766365
 20
386.2179459846977
 30
0.0
  0
VERTEX
  5
1B8
330
1B4
100
AcDbEntity
  8
8
  6
Continuous
 62
     4
370
     9
100
AcDbVertex
100
AcDb2dVertex
 10
192.2230364766365
 20
386.2179459846977
 30
0.0
  0
SEQEND
  5
1B9
330
1B4
100
AcDbEntity
  8
8
  6
Continuous
 62
     4
370
     9
  0
MTEXT
  5
1BA
330
1F
100
AcDbEntity
  8
8
  6
Continuous
 62
     4
370
     9
100
AcDbMText
 10
203.7230364766365
 20
386.2179459846977
 30
0.0
 40
3.0
 41
16.293666531
 46
3.0
 71
     9
 72
     1
  1
{\fＭＳ ゴシック;\T1.016260;8-Ø6.2}
 73
     1
 44
1.0
1001
ACAD
1000
ACAD_MTEXT_DEFINED_HEIGHT_BEGIN
1070
    46
1040
3.0
1000
ACAD_MTEXT_DEFINED_HEIGHT_END
  0
LINE
  5
1BB
330
1F
100
AcDbEntity
  8
1
  6
Continuous
 62
     7
370
    25
100
AcDbLine
 10
393.9128618366362
 20
218.2617929482631
 30
0.0
 11
400.8128618366359
 21
218.2617929482631
 31
0.0
  0
ARC
  5
1BC
330
1F
100
AcDbEntity
  8
1
  6
Continuous
 62
     7
370
    25
100
AcDbCircle
 10
397.362861836636
 20
221.2288104921226
 30
0.0
 40
4.550350877192955
100
AcDbArc
 50
220.6956985254115
 51
319.3043014745878
  0
LINE
  5
1BD
330
1F
100
AcDbEntity
  8
1
  6
Continuous
 62
     7
370
    25
100
AcDbLine
 10
393.9128618366362
 20
218.5784596149296
 30
0.0
 11
393.9128618366362
 21
218.2617929482631
 31
0.0
  0
LINE
  5
1BE
330
1F
100
AcDbEntity
  8
1
  6
Continuous
 62
     7
370
    25
100
AcDbLine
 10
400.8128618366359
 20
218.5784596149296
 30
0.0
 11
400.8128618366359
 21
218.2617929482631
 31
0.0
  0
LINE
  5
1BF
330
1F
100
AcDbEntity
  8
1
  6
Continuous
 62
     7
370
    25
100
AcDbLine
 10
393.9128618366362
 20
348.8951262815963
 30
0.0
 11
400.8128618366359
 21
348.8951262815963
 31
0.0
  0
ARC
  5
1C0
330
1F
100
AcDbEntity
  8
1
  6
Continuous
 62
     7
370
    25
100
AcDbCircle
 10
397.362861836636
 20
345.9281087377366
 30
0.0
 40
4.550350877192955
100
AcDbArc
 50
40.69569852541188
 51
139.3043014745881
  0
LINE
  5
1C1
330
1F
100
AcDbEntity
  8
1
  6
Continuous
 62
     7
370
    25
100
AcDbLine
 10
393.9128618366362
 20
348.5784596149297
 30
0.0
 11
393.9128618366362
 21
348.8951262815963
 31
0.0
  0
LINE
  5
1C2
330
1F
100
AcDbEntity
  8
1
  6
Continuous
 62
     7
370
    25
100
AcDbLine
 10
400.8128618366359
 20
348.5784596149297
 30
0.0
 11
400.8128618366359
 21
348.8951262815963
 31
0.0
  0
DIMENSION
  5
1CC
330
1F
100
AcDbEntity
  8
8
  6
Continuous
 62
     4
370
     9
100
AcDbDimension
280
     0
  2
Dim12
 10
572.362861836636
 20
179.11109301947
 30
0.0
 11
528.6128618366355
 21
185.11109301947
 31
0.0
 70
   160
  1
<>
 71
     5
 42
-1.0
 73
     0
 74
     0
 75
     0
  3
Standard
100
AcDbAlignedDimension
 13
484.8628618366351
 23
206.4784596149297
 33
0.0
 14
572.362861836636
 24
206.4784596149297
 34
0.0
100
AcDbRotatedDimension
1001
ACAD
1000
DSTYLE
1002
{
1070
   279
1070
     2
1070
   340
1005
F7
1070
   140
1040
3.0
1070
    40
1040
1.0
1070
   147
1040
0.0
1070
    76
1070
     0
1070
    75
1070
     0
1070
   344
1005
0
1070
   343
1005
0
1070
   173
1070
     1
1070
   289
1070
     2
1070
   288
1070
     1
1070
    77
1070
     1
1070
   172
1070
     1
1070
   174
1070
     0
1070
    74
1070
     0
1070
    73
1070
     0
1070
   284
1070
     8
1070
    78
1070
     8
1070
    42
1040
1.0
1070
    44
1040
1.5
1070
    43
1040
30.0
1070
   271
1070
     2
1070
    41
1040
2.0
1002
}
  0
DIMENSION
  5
1D6
330
1F
100
AcDbEntity
  8
8
  6
Continuous
 62
     4
370
     9
100
AcDbDimension
280
     0
  2
Dim13
 10
222.3628618366359
 20
179.11109301947
 30
0.0
 11
266.1128618366365
 21
185.11109301947
 31
0.0
 70
   160
  1
<>
 71
     5
 42
-1.0
 73
     0
 74
     0
 75
     0
  3
Standard
100
AcDbAlignedDimension
 13
309.862861836637
 23
206.4784596149297
 33
0.0
 14
222.362861836636
 24
206.4784596149297
 34
0.0
 50
179.9999999999998
100
AcDbRotatedDimension
1001
ACAD
1000
DSTYLE
1002
{
1070
   279
1070
     2
1070
   340
1005
F7
1070
   140
1040
3.0
1070
    40
1040
1.0
1070
   147
1040
0.0
1070
    76
1070
     0
1070
    75
1070
     0
1070
   344
1005
0
1070
   343
1005
0
1070
   173
1070
     1
1070
   289
1070
     2
1070
   288
1070
     1
1070
    77
1070
     1
1070
   172
1070
     1
1070
   174
1070
     0
1070
    74
1070
     0
1070
    73
1070
     0
1070
   284
1070
     8
1070
    78
1070
     8
1070
    42
1040
1.0
1070
    44
1040
1.5
1070
    43
1040
30.0
1070
   271
1070
     2
1070
    41
1040
2.0
1002
}
  0
CIRCLE
  5
1D7
330
1F
100
AcDbEntity
  8
1
  6
Continuous
 62
     7
370
    25
100
AcDbCircle
 10
222.362861836636
 20
356.5784596149297
 30
0.0
 40
3.099999999999994
  0
CIRCLE
  5
1D8
330
1F
100
AcDbEntity
  8
1
  6
Continuous
 62
     7
370
    25
100
AcDbCircle
 10
309.862861836637
 20
356.5784596149297
 30
0.0
 40
3.100000000000023
  0
CIRCLE
  5
1D9
330
1F
100
AcDbEntity
  8
1
  6
Continuous
 62
     7
370
    25
100
AcDbCircle
 10
484.8628618366351
 20
356.5784596149297
 30
0.0
 40
3.100000000000023
  0
CIRCLE
  5
1DA
330
1F
100
AcDbEntity
  8
1
  6
Continuous
 62
     7
370
    25
100
AcDbCircle
 10
572.362861836636
 20
356.5784596149297
 30
0.0
 40
3.100000000000023
  0
CIRCLE
  5
1DB
330
1F
100
AcDbEntity
  8
1
  6
Continuous
 62
     7
370
    25
100
AcDbCircle
 10
572.362861836636
 20
210.5784596149297
 30
0.0
 40
3.100000000000023
  0
CIRCLE
  5
1DC
330
1F
100
AcDbEntity
  8
1
  6
Continuous
 62
     7
370
    25
100
AcDbCircle
 10
484.8628618366351
 20
210.5784596149297
 30
0.0
 40
3.100000000000023
  0
CIRCLE
  5
1DD
330
1F
100
AcDbEntity
  8
1
  6
Continuous
 62
     7
370
    25
100
AcDbCircle
 10
309.862861836637
 20
210.5784596149297
 30
0.0
 40
3.100000000000023
  0
CIRCLE
  5
1DE
330
1F
100
AcDbEntity
  8
1
  6
Continuous
 62
     7
370
    25
100
AcDbCircle
 10
222.362861836636
 20
210.5784596149297
 30
0.0
 40
3.099999999999994
  0
LINE
  5
1DF
330
1F
100
AcDbEntity
  8
7
  6
Continuous
 62
     1
370
    25
100
AcDbLine
 10
674.7950189843225
 20
288.1016949749301
 30
0.0
 11
666.9602655079658
 21
288.1016949749302
 31
0.0
  0
LINE
  5
1E0
330
1F
100
AcDbEntity
  8
7
  6
Continuous
 62
     1
370
    25
100
AcDbLine
 10
683.7949959843223
 20
285.6016749749299
 30
0.0
 11
670.7949869843222
 21
285.6016749749299
 31
0.0
  0
LINE
  5
1E1
330
1F
100
AcDbEntity
  8
7
  6
Continuous
 62
     1
370
    25
100
AcDbLine
 10
680.7949919843223
 20
284.0016749749299
 30
0.0
 11
671.7949909843222
 21
284.0016749749299
 31
0.0
  0
LINE
  5
1E2
330
1F
100
AcDbEntity
  8
7
  6
Continuous
 62
     1
370
    25
100
AcDbLine
 10
680.7949919843223
 20
282.4016849749298
 30
0.0
 11
671.7949909843222
 21
282.4016849749298
 31
0.0
  0
LINE
  5
1E3
330
1F
100
AcDbEntity
  8
7
  6
Continuous
 62
     1
370
    25
100
AcDbLine
 10
680.7949919843223
 20
283.2016549749298
 30
0.0
 11
671.7949909843222
 21
283.2016549749298
 31
0.0
  0
LINE
  5
1E4
330
1F
100
AcDbEntity
  8
7
  6
Continuous
 62
     1
370
    25
100
AcDbLine
 10
680.7949919843223
 20
284.8016549749299
 30
0.0
 11
671.7949909843222
 21
284.8016549749299
 31
0.0
  0
LINE
  5
1E5
330
1F
100
AcDbEntity
  8
7
  6
Continuous
 62
     1
370
    25
100
AcDbLine
 10
674.7950189843225
 20
279.1016349749295
 30
0.0
 11
666.9602655079658
 21
279.1016349749294
 31
0.0
  0
LINE
  5
1E6
330
1F
100
AcDbEntity
  8
7
  6
Continuous
 62
     1
370
    25
100
AcDbLine
 10
683.7949959843223
 20
281.6016649749298
 30
0.0
 11
670.7949869843222
 21
281.6016649749298
 31
0.0
  0
LINE
  5
1E7
330
1F
100
AcDbEntity
  8
7
  6
Continuous
 62
     1
370
    25
100
AcDbLine
 10
664.1394954292608
 20
287.0919247641842
 30
0.0
 11
657.8424666968162
 21
287.091924764184
 31
0.0
  0
LINE
  5
1E8
330
1F
100
AcDbEntity
  8
7
  6
Continuous
 62
     1
370
    25
100
AcDbLine
 10
664.1394954292608
 20
280.1114051856772
 30
0.0
 11
657.8424666968162
 21
280.1114051856772
 31
0.0
  0
LINE
  5
1E9
330
1F
100
AcDbEntity
  8
7
  6
Continuous
 62
     1
370
    25
100
AcDbLine
 10
657.8424666968162
 20
280.1114051856772
 30
0.0
 11
657.8424666968162
 21
287.091924764184
 31
0.0
  0
ARC
  5
1EA
330
1F
100
AcDbEntity
  8
7
  6
Continuous
 62
     1
370
    25
100
AcDbCircle
 10
666.9602655079663
 20
286.1016949749302
 30
0.0
 40
2.0
100
AcDbArc
 50
90.00000000001303
 51
120.0000000000151
  0
ARC
  5
1EB
330
1F
100
AcDbEntity
  8
7
  6
Continuous
 62
     1
370
    25
100
AcDbCircle
 10
664.1394954292608
 20
289.0919247641833
 30
0.0
 40
2.0
100
AcDbArc
 50
269.9999999999998
 51
300.0000000000147
  0
LINE
  5
1EC
330
1F
100
AcDbEntity
  8
7
  6
Continuous
 62
     1
370
    25
100
AcDbLine
 10
665.9602655079663
 20
287.8337457824983
 30
0.0
 11
665.139495429261
 21
287.359873956615
 31
0.0
  0
ARC
  5
1ED
330
1F
100
AcDbEntity
  8
7
  6
Continuous
 62
     1
370
    25
100
AcDbCircle
 10
666.9602655079663
 20
281.1016349749294
 30
0.0
 40
2.0
100
AcDbArc
 50
239.9999999999846
 51
269.9999999999866
  0
ARC
  5
1EE
330
1F
100
AcDbEntity
  8
7
  6
Continuous
 62
     1
370
    25
100
AcDbCircle
 10
664.1394954292608
 20
278.1114051856763
 30
0.0
 40
2.0
100
AcDbArc
 50
59.99999999998492
 51
89.99999999999991
  0
LINE
  5
1EF
330
1F
100
AcDbEntity
  8
7
  6
Continuous
 62
     1
370
    25
100
AcDbLine
 10
665.9602655079663
 20
279.3695841673614
 30
0.0
 11
665.139495429261
 21
279.8434559932446
 31
0.0
  0
LINE
  5
1F0
330
1F
100
AcDbEntity
  8
7
  6
Continuous
 62
     1
370
    25
100
AcDbLine
 10
670.7949869843222
 20
281.6016649749298
 30
0.0
 11
670.7949869843222
 21
285.6016749749299
 31
0.0
  0
LINE
  5
1F1
330
1F
100
AcDbEntity
  8
7
  6
Continuous
 62
     1
370
    25
100
AcDbLine
 10
671.7949909843222
 20
281.6016649749298
 30
0.0
 11
671.7949909843222
 21
285.6016749749299
 31
0.0
  0
LINE
  5
1F2
330
1F
100
AcDbEntity
  8
7
  6
Continuous
 62
     1
370
    25
100
AcDbLine
 10
683.7949959843223
 20
283.6016649749298
 30
0.0
 11
683.7949959843223
 21
288.8516749749298
 31
0.0
  0
ARC
  5
1F3
330
1F
100
AcDbEntity
  8
7
  6
Continuous
 62
     1
370
    25
100
AcDbCircle
 10
676.7949949843223
 20
287.8516749749298
 30
0.0
 40
1.0
100
AcDbArc
 50
89.99999999999991
 51
179.9999999999998
  0
LINE
  5
1F4
330
1F
100
AcDbEntity
  8
7
  6
Continuous
 62
     1
370
    25
100
AcDbLine
 10
674.7950189843225
 20
287.6016849749298
 30
0.0
 11
675.7949909843222
 21
287.6016849749298
 31
0.0
  0
LINE
  5
1F5
330
1F
100
AcDbEntity
  8
7
  6
Continuous
 62
     1
370
    25
100
AcDbLine
 10
674.7950189843225
 20
288.1016949749301
 30
0.0
 11
674.7950189843225
 21
285.6016749749299
 31
0.0
  0
LINE
  5
1F6
330
1F
100
AcDbEntity
  8
7
  6
Continuous
 62
     1
370
    25
100
AcDbLine
 10
675.7949909843222
 20
287.8516749749298
 30
0.0
 11
675.7949909843222
 21
285.6016749749299
 31
0.0
  0
LINE
  5
1F7
330
1F
100
AcDbEntity
  8
7
  6
Continuous
 62
     1
370
    25
100
AcDbLine
 10
675.7949909843222
 20
287.6016849749298
 30
0.0
 11
675.7949909843222
 21
285.6016749749299
 31
0.0
  0
LINE
  5
1F8
330
1F
100
AcDbEntity
  8
7
  6
Continuous
 62
     1
370
    25
100
AcDbLine
 10
676.7949949843223
 20
278.3516549749298
 30
0.0
 11
683.7949959843223
 21
278.3516549749298
 31
0.0
  0
LINE
  5
1F9
330
1F
100
AcDbEntity
  8
7
  6
Continuous
 62
     1
370
    25
100
AcDbLine
 10
675.7949909843222
 20
279.6016449749298
 30
0.0
 11
674.7950189843225
 21
279.6016449749298
 31
0.0
  0
LINE
  5
1FA
330
1F
100
AcDbEntity
  8
7
  6
Continuous
 62
     1
370
    25
100
AcDbLine
 10
674.7950189843225
 20
279.1016349749295
 30
0.0
 11
674.7950189843225
 21
281.6016549749296
 31
0.0
  0
LINE
  5
1FB
330
1F
100
AcDbEntity
  8
7
  6
Continuous
 62
     1
370
    25
100
AcDbLine
 10
675.7949909843222
 20
279.3516549749298
 30
0.0
 11
675.7949909843222
 21
281.6016649749298
 31
0.0
  0
LINE
  5
1FC
330
1F
100
AcDbEntity
  8
7
  6
Continuous
 62
     1
370
    25
100
AcDbLine
 10
675.7949909843222
 20
281.6016649749298
 30
0.0
 11
675.7949909843222
 21
279.6016449749298
 31
0.0
  0
ARC
  5
1FD
330
1F
100
AcDbEntity
  8
7
  6
Continuous
 62
     1
370
    25
100
AcDbCircle
 10
676.7949949843223
 20
279.3516549749298
 30
0.0
 40
1.0
100
AcDbArc
 50
179.9999999999998
 51
269.9999999999998
  0
LINE
  5
1FE
330
1F
100
AcDbEntity
  8
7
  6
Continuous
 62
     1
370
    25
100
AcDbLine
 10
680.7949919843223
 20
285.6016749749299
 30
0.0
 11
680.7949919843223
 21
281.6016649749298
 31
0.0
  0
LINE
  5
1FF
330
1F
100
AcDbEntity
  8
7
  6
Continuous
 62
     1
370
    25
100
AcDbLine
 10
683.7949959843223
 20
283.6016649749298
 30
0.0
 11
683.7949959843223
 21
278.3516549749298
 31
0.0
  0
LINE
  5
200
330
1F
100
AcDbEntity
  8
7
  6
Continuous
 62
     1
370
    25
100
AcDbLine
 10
682.7949869843222
 20
285.6016749749299
 30
0.0
 11
682.7949869843222
 21
281.6016649749298
 31
0.0
  0
LINE
  5
201
330
1F
100
AcDbEntity
  8
7
  6
Continuous
 62
     1
370
    25
100
AcDbLine
 10
676.7949949843223
 20
288.8516749749298
 30
0.0
 11
683.7949959843223
 21
288.8516749749298
 31
0.0
  0
LINE
  5
202
330
1F
100
AcDbEntity
  8
6
  6
DASHDOT
 62
     1
370
     9
100
AcDbLine
 10
697.5564859940675
 20
283.5784596149297
 30
0.0
 11
752.5564859940675
 21
283.5784596149297
 31
0.0
  0
LINE
  5
203
330
1F
100
AcDbEntity
  8
3
  6
Continuous
 62
     6
370
     9
100
AcDbLine
 10
40.58232328482813
 20
71.21000000000018
 30
0.0
 11
184.2223232848281
 21
71.21000000000018
 31
0.0
  0
LINE
  5
204
330
1F
100
AcDbEntity
  8
3
  6
Continuous
 62
     6
370
     9
100
AcDbLine
 10
40.58232328482813
 20
61.23498004999979
 30
0.0
 11
184.2223232848281
 21
61.23498004999979
 31
0.0
  0
LINE
  5
205
330
1F
100
AcDbEntity
  8
3
  6
Continuous
 62
     6
370
     9
100
AcDbLine
 10
40.58232328482813
 20
51.26000000000019
 30
0.0
 11
184.2223232848281
 21
51.26000000000019
 31
0.0
  0
LINE
  5
206
330
1F
100
AcDbEntity
  8
3
  6
Continuous
 62
     6
370
     9
100
AcDbLine
 10
40.58232328482813
 20
41.2850000000002
 30
0.0
 11
184.2223232848281
 21
41.2850000000002
 31
0.0
  0
LINE
  5
207
330
1F
100
AcDbEntity
  8
3
  6
Continuous
 62
     6
370
     9
100
AcDbLine
 10
128.3623232848281
 20
71.21000000000018
 30
0.0
 11
128.3623232848281
 21
41.2850000000002
 31
0.0
  0
LINE
  5
208
330
1F
100
AcDbEntity
  8
3
  6
Continuous
 62
     6
370
     9
100
AcDbLine
 10
128.3623232848281
 20
71.21000000000018
 30
0.0
 11
128.3623232848281
 21
41.2850000000002
 31
0.0
  0
LINE
  5
209
330
1F
100
AcDbEntity
  8
3
  6
Continuous
 62
     6
370
     9
100
AcDbLine
 10
80.48234323482824
 20
71.21000000000018
 30
0.0
 11
80.48234323482824
 21
41.2850000000002
 31
0.0
  0
LINE
  5
20A
330
1F
100
AcDbEntity
  8
3
  6
Continuous
 62
     6
370
     9
100
AcDbLine
 10
40.58232328482813
 20
71.21000000000018
 30
0.0
 11
40.58232328482813
 21
41.2850000000002
 31
0.0
  0
LINE
  5
20B
330
1F
100
AcDbEntity
  8
3
  6
Continuous
 62
     6
370
     9
100
AcDbLine
 10
40.58232328482813
 20
71.21000000000018
 30
0.0
 11
80.48234323482824
 21
61.23498004999979
 31
0.0
  0
LINE
  5
20C
330
1F
100
AcDbEntity
  8
3
  6
Continuous
 62
     6
370
     9
100
AcDbLine
 10
184.2223232848281
 20
71.21000000000018
 30
0.0
 11
184.2223232848281
 21
41.2850000000002
 31
0.0
  0
MTEXT
  5
20D
330
1F
100
AcDbEntity
  8
5
  6
Continuous
 62
   151
370
     9
100
AcDbMText
 10
40.58243792061879
 20
105.5660525580189
 30
0.0
 40
5.187000000000001
 41
114.598462560148
 46
5.187000000000001
 71
     4
 72
     1
  1
{\fＭＳ ゴシック;\T1.223389;Details of Connector}
 73
     1
 44
1.0
1001
ACAD
1000
ACAD_MTEXT_DEFINED_HEIGHT_BEGIN
1070
    46
1040
5.187000000000001
1000
ACAD_MTEXT_DEFINED_HEIGHT_END
  0
MTEXT
  5
20E
330
1F
100
AcDbEntity
  8
5
  6
Continuous
 62
   151
370
     9
100
AcDbMText
 10
82.47734323482823
 20
66.22249002500044
 30
0.0
 40
3.99
 41
18.4536766306032
 46
3.99
 71
     4
 72
     1
  1
{\fＭＳ ゴシック;\T1.057748;Light}
 73
     1
 44
1.0
1001
ACAD
1000
ACAD_MTEXT_DEFINED_HEIGHT_BEGIN
1070
    46
1040
3.99
1000
ACAD_MTEXT_DEFINED_HEIGHT_END
  0
MTEXT
  5
20F
330
1F
100
AcDbEntity
  8
5
  6
Continuous
 62
   151
370
     9
100
AcDbMText
 10
82.47734323482823
 20
56.24750997499993
 30
0.0
 40
3.99
 41
51.1435257218592
 46
3.99
 71
     4
 72
     1
  1
{\fＭＳ ゴシック;\T1.630044;SMR-03V-B}
 73
     1
 44
1.0
1001
ACAD
1000
ACAD_MTEXT_DEFINED_HEIGHT_BEGIN
1070
    46
1040
3.99
1000
ACAD_MTEXT_DEFINED_HEIGHT_END
  0
MTEXT
  5
210
330
1F
100
AcDbEntity
  8
5
  6
Continuous
 62
   151
370
     9
100
AcDbMText
 10
82.47734323482823
 20
46.27250997499993
 30
0.0
 40
3.99
 41
68.45424438253801
 46
3.99
 71
     4
 72
     1
  1
{\fＭＳ ゴシック;\T1.483065;BYM-001T-P0.6}
 73
     1
 44
1.0
1001
ACAD
1000
ACAD_MTEXT_DEFINED_HEIGHT_BEGIN
1070
    46
1040
3.99
1000
ACAD_MTEXT_DEFINED_HEIGHT_END
  0
MTEXT
  5
211
330
1F
100
AcDbEntity
  8
5
  6
Continuous
 62
   151
370
     9
100
AcDbMText
 10
130.3573232848281
 20
56.24750997499993
 30
0.0
 40
3.99
 41
56.9987731926081
 46
3.99
 71
     4
 72
     1
  1
{\fＭＳ ゴシック;\T1.624779;SMP-03V-BC}
 73
     1
 44
1.0
1001
ACAD
1000
ACAD_MTEXT_DEFINED_HEIGHT_BEGIN
1070
    46
1040
3.99
1000
ACAD_MTEXT_DEFINED_HEIGHT_END
  0
MTEXT
  5
212
330
1F
100
AcDbEntity
  8
5
  6
Continuous
 62
   151
370
     9
100
AcDbMText
 10
130.3573232848281
 20
46.27250997499993
 30
0.0
 40
3.99
 41
73.14229714905753
 46
3.99
 71
     4
 72
     1
  1
{\fＭＳ ゴシック;\T1.465025;BHF-001T-0.8SS}
 73
     1
 44
1.0
1001
ACAD
1000
ACAD_MTEXT_DEFINED_HEIGHT_BEGIN
1070
    46
1040
3.99
1000
ACAD_MTEXT_DEFINED_HEIGHT_END
  0
MTEXT
  5
213
330
1F
100
AcDbEntity
  8
5
  6
Continuous
 62
   151
370
     9
100
AcDbMText
 10
130.3573232848281
 20
66.22249002500044
 30
0.0
 40
3.99
 41
59.8889762071104
 46
3.99
 71
     4
 72
     1
  1
{\fＭＳ ゴシック;\T1.114352;Power　Supply　}
 73
     1
 44
1.0
1001
ACAD
1000
ACAD_MTEXT_DEFINED_HEIGHT_BEGIN
1070
    46
1040
3.99
1000
ACAD_MTEXT_DEFINED_HEIGHT_END
  0
MTEXT
  5
214
330
1F
100
AcDbEntity
  8
5
  6
Continuous
 62
   151
370
     9
100
AcDbMText
 10
42.57732328482813
 20
56.24750997499993
 30
0.0
 40
3.99
 41
41.2265229372696
 46
3.99
 71
     4
 72
     1
  1
{\fＭＳ ゴシック;\T1.310697;Connector}
 73
     1
 44
1.0
1001
ACAD
1000
ACAD_MTEXT_DEFINED_HEIGHT_BEGIN
1070
    46
1040
3.99
1000
ACAD_MTEXT_DEFINED_HEIGHT_END
  0
MTEXT
  5
215
330
1F
100
AcDbEntity
  8
5
  6
Continuous
 62
   151
370
     9
100
AcDbMText
 10
42.57732328482813
 20
46.27250997499993
 30
0.0
 40
3.99
 41
30.6953124576966
 46
3.99
 71
     4
 72
     1
  1
{\fＭＳ ゴシック;\T1.255491;Contact}
 73
     1
 44
1.0
1001
ACAD
1000
ACAD_MTEXT_DEFINED_HEIGHT_BEGIN
1070
    46
1040
3.99
1000
ACAD_MTEXT_DEFINED_HEIGHT_END
  0
LINE
  5
216
330
1F
100
AcDbEntity
  8
7
  6
Continuous
 62
     1
370
    25
100
AcDbLine
 10
110.7611014167943
 20
87.50909314250015
 30
0.0
 11
110.7611014167943
 21
89.18490710750018
 31
0.0
  0
LINE
  5
217
330
1F
100
AcDbEntity
  8
7
  6
Continuous
 62
     1
370
    25
100
AcDbLine
 10
122.9106458307944
 20
80.73606814250019
 30
0.0
 11
122.9106458307944
 21
92.60634607250017
 31
0.0
  0
LINE
  5
218
330
1F
100
AcDbEntity
  8
7
  6
Continuous
 62
     1
370
    25
100
AcDbLine
 10
122.2123930377945
 20
92.60634607250017
 30
0.0
 11
122.2123930377945
 21
80.73606814250019
 31
0.0
  0
LINE
  5
219
330
1F
100
AcDbEntity
  8
7
  6
Continuous
 62
     1
370
    25
100
AcDbLine
 10
121.5141583992943
 20
92.18736814249996
 30
0.0
 11
121.5141583992943
 21
81.15504607249972
 31
0.0
  0
LINE
  5
21A
330
1F
100
AcDbEntity
  8
7
  6
Continuous
 62
     1
370
    25
100
AcDbLine
 10
113.8333832622945
 20
92.18736814249996
 30
0.0
 11
113.8333832622945
 21
81.15504607249972
 31
0.0
  0
LINE
  5
21B
330
1F
100
AcDbEntity
  8
7
  6
Continuous
 62
     1
370
    25
100
AcDbLine
 10
110.3421388482941
 20
89.04522917750035
 30
0.0
 11
110.3421388482941
 21
84.2971710724998
 31
0.0
  0
LINE
  5
21C
330
1F
100
AcDbEntity
  8
7
  6
Continuous
 62
     1
370
    25
100
AcDbLine
 10
118.3720236237947
 20
88.06770012499993
 30
0.0
 11
118.3720236237947
 21
85.27471408999975
 31
0.0
  0
LINE
  5
21D
330
1F
100
AcDbEntity
  8
7
  6
Continuous
 62
     1
370
    25
100
AcDbLine
 10
119.7685278132941
 20
85.27471408999975
 30
0.0
 11
119.7685278132941
 21
88.06770012499993
 31
0.0
  0
LINE
  5
21E
330
1F
100
AcDbEntity
  8
7
  6
Continuous
 62
     1
370
    25
100
AcDbLine
 10
114.2523444342944
 20
92.60634607250017
 30
0.0
 11
121.0951972272945
 21
92.60634607250017
 31
0.0
  0
LINE
  5
21F
330
1F
100
AcDbEntity
  8
7
  6
Continuous
 62
     1
370
    25
100
AcDbLine
 10
113.8334000202945
 20
93.30459607250026
 30
0.0
 11
121.5141416412943
 21
93.30459607250026
 31
0.0
  0
LINE
  5
220
330
1F
100
AcDbEntity
  8
7
  6
Continuous
 62
     1
370
    25
100
AcDbLine
 10
121.5141583992943
 20
94.00281814250013
 30
0.0
 11
113.8333832622945
 21
94.00281814250013
 31
0.0
  0
LINE
  5
221
330
1F
100
AcDbEntity
  8
7
  6
Continuous
 62
     1
370
    25
100
AcDbLine
 10
116.9755361922946
 20
91.2097692650002
 30
0.0
 11
115.5790222272941
 21
91.2097692650002
 31
0.0
  0
LINE
  5
222
330
1F
100
AcDbEntity
  8
7
  6
Continuous
 62
     1
370
    25
100
AcDbLine
 10
115.5790222272941
 20
89.11500530000052
 30
0.0
 11
116.9755361922946
 21
89.11500530000052
 31
0.0
  0
LINE
  5
223
330
1F
100
AcDbEntity
  8
7
  6
Continuous
 62
     1
370
    25
100
AcDbLine
 10
119.7685278132941
 20
88.06770012499993
 30
0.0
 11
118.3720236237947
 21
88.06770012499993
 31
0.0
  0
ARC
  5
224
330
1F
100
AcDbEntity
  8
7
  6
Continuous
 62
     1
370
    25
100
AcDbCircle
 10
121.5141583992943
 20
92.60634607250017
 30
0.0
 40
1.396500000000003
100
AcDbArc
 50
0.0
 51
89.99999999999991
  0
ARC
  5
225
330
1F
100
AcDbEntity
  8
7
  6
Continuous
 62
     1
370
    25
100
AcDbCircle
 10
121.0951972272945
 20
92.18736814249996
 30
0.0
 40
0.4189499999999953
100
AcDbArc
 50
0.0
 51
89.99999999999991
  0
ARC
  5
226
330
1F
100
AcDbEntity
  8
7
  6
Continuous
 62
     1
370
    25
100
AcDbCircle
 10
121.5141416412943
 20
92.60634607250017
 30
0.0
 40
0.6982500000000016
100
AcDbArc
 50
0.0
 51
89.99999999999991
  0
LINE
  5
227
330
1F
100
AcDbEntity
  8
7
  6
Continuous
 62
     1
370
    25
100
AcDbLine
 10
119.7685278132941
 20
91.55888030000057
 30
0.0
 11
118.3720236237947
 21
91.55888030000057
 31
0.0
  0
LINE
  5
228
330
1F
100
AcDbEntity
  8
7
  6
Continuous
 62
     1
370
    25
100
AcDbLine
 10
116.9755361922946
 20
89.11500530000052
 30
0.0
 11
116.9755361922946
 21
91.2097692650002
 31
0.0
  0
LINE
  5
229
330
1F
100
AcDbEntity
  8
7
  6
Continuous
 62
     1
370
    25
100
AcDbLine
 10
118.3720236237947
 20
91.55888030000057
 30
0.0
 11
118.3720236237947
 21
88.76589426500016
 31
0.0
  0
LINE
  5
22A
330
1F
100
AcDbEntity
  8
7
  6
Continuous
 62
     1
370
    25
100
AcDbLine
 10
119.7685278132941
 20
88.76589426500016
 30
0.0
 11
119.7685278132941
 21
91.55888030000057
 31
0.0
  0
LINE
  5
22B
330
1F
100
AcDbEntity
  8
7
  6
Continuous
 62
     1
370
    25
100
AcDbLine
 10
118.3720236237947
 20
88.76589426500016
 30
0.0
 11
119.7685278132941
 21
88.76589426500016
 31
0.0
  0
LINE
  5
22C
330
1F
100
AcDbEntity
  8
7
  6
Continuous
 62
     1
370
    25
100
AcDbLine
 10
111.7386430377945
 20
88.06770710749981
 30
0.0
 11
111.7386430377945
 21
89.4642210725001
 31
0.0
  0
ARC
  5
22D
330
1F
100
AcDbEntity
  8
7
  6
Continuous
 62
     1
370
    25
100
AcDbCircle
 10
110.7611014167943
 20
89.04522917750035
 30
0.0
 40
0.4189499999999953
100
AcDbArc
 50
89.99999999999991
 51
179.9999999999998
  0
LINE
  5
22E
330
1F
100
AcDbEntity
  8
7
  6
Continuous
 62
     1
370
    25
100
AcDbLine
 10
111.0403916412943
 20
89.18490710750018
 30
0.0
 11
111.0403916412943
 21
89.4642210725001
 31
0.0
  0
LINE
  5
22F
330
1F
100
AcDbEntity
  8
7
  6
Continuous
 62
     1
370
    25
100
AcDbLine
 10
110.7611014167943
 20
89.18490710750018
 30
0.0
 11
111.0403916412943
 21
89.18490710750018
 31
0.0
  0
LINE
  5
230
330
1F
100
AcDbEntity
  8
7
  6
Continuous
 62
     1
370
    25
100
AcDbLine
 10
111.7386430377945
 20
88.06770710749981
 30
0.0
 11
113.8333832622945
 21
88.06770710749981
 31
0.0
  0
LINE
  5
231
330
1F
100
AcDbEntity
  8
7
  6
Continuous
 62
     1
370
    25
100
AcDbLine
 10
110.7611014167943
 20
89.4642210725001
 30
0.0
 11
113.8333832622945
 21
89.4642210725001
 31
0.0
  0
ARC
  5
232
330
1F
100
AcDbEntity
  8
7
  6
Continuous
 62
     1
370
    25
100
AcDbCircle
 10
114.2523444342944
 20
92.18736814249996
 30
0.0
 40
0.4189499999999953
100
AcDbArc
 50
89.99999999999991
 51
179.9999999999998
  0
ARC
  5
233
330
1F
100
AcDbEntity
  8
7
  6
Continuous
 62
     1
370
    25
100
AcDbCircle
 10
113.8334000202945
 20
92.60634607250017
 30
0.0
 40
0.6982500000000016
100
AcDbArc
 50
89.99999999999991
 51
179.9999999999998
  0
ARC
  5
234
330
1F
100
AcDbEntity
  8
7
  6
Continuous
 62
     1
370
    25
100
AcDbCircle
 10
113.8333832622945
 20
92.60634607250017
 30
0.0
 40
1.396500000000003
100
AcDbArc
 50
89.99999999999991
 51
179.9999999999998
  0
LINE
  5
235
330
1F
100
AcDbEntity
  8
7
  6
Continuous
 62
     1
370
    25
100
AcDbLine
 10
115.5790222272941
 20
90.86063030000054
 30
0.0
 11
114.8807792097942
 21
90.86063030000054
 31
0.0
  0
LINE
  5
236
330
1F
100
AcDbEntity
  8
7
  6
Continuous
 62
     1
370
    25
100
AcDbLine
 10
115.5790222272941
 20
91.2097692650002
 30
0.0
 11
115.5790222272941
 21
90.86063030000054
 31
0.0
  0
LINE
  5
237
330
1F
100
AcDbEntity
  8
7
  6
Continuous
 62
     1
370
    25
100
AcDbLine
 10
114.8807792097942
 20
90.86063030000054
 30
0.0
 11
114.8807792097942
 21
89.4641582299999
 31
0.0
  0
LINE
  5
238
330
1F
100
AcDbEntity
  8
7
  6
Continuous
 62
     1
370
    25
100
AcDbLine
 10
115.5790222272941
 20
89.4641582299999
 30
0.0
 11
115.5790222272941
 21
89.11500530000052
 31
0.0
  0
LINE
  5
239
330
1F
100
AcDbEntity
  8
7
  6
Continuous
 62
     1
370
    25
100
AcDbLine
 10
114.8807792097942
 20
89.4641582299999
 30
0.0
 11
115.5790222272941
 21
89.4641582299999
 31
0.0
  0
LINE
  5
23A
330
1F
100
AcDbEntity
  8
7
  6
Continuous
 62
     1
370
    25
100
AcDbLine
 10
113.1351486237946
 20
92.60634607250017
 30
0.0
 11
113.1351486237946
 21
89.4642210725001
 31
0.0
  0
LINE
  5
23B
330
1F
100
AcDbEntity
  8
7
  6
Continuous
 62
     1
370
    25
100
AcDbLine
 10
112.4368958307944
 20
92.60634607250017
 30
0.0
 11
112.4368958307944
 21
89.4642210725001
 31
0.0
  0
LINE
  5
23C
330
1F
100
AcDbEntity
  8
7
  6
Continuous
 62
     1
370
    25
100
AcDbLine
 10
121.0951972272945
 20
80.73606814250019
 30
0.0
 11
114.2523444342944
 21
80.73606814250019
 31
0.0
  0
LINE
  5
23D
330
1F
100
AcDbEntity
  8
7
  6
Continuous
 62
     1
370
    25
100
AcDbLine
 10
121.5141416412943
 20
80.03781814250016
 30
0.0
 11
113.8334000202945
 21
80.03781814250016
 31
0.0
  0
LINE
  5
23E
330
1F
100
AcDbEntity
  8
7
  6
Continuous
 62
     1
370
    25
100
AcDbLine
 10
121.5141583992943
 20
79.33959607250023
 30
0.0
 11
113.8333832622945
 21
79.33959607250023
 31
0.0
  0
LINE
  5
23F
330
1F
100
AcDbEntity
  8
7
  6
Continuous
 62
     1
370
    25
100
AcDbLine
 10
115.5790222272941
 20
82.13264494999953
 30
0.0
 11
116.9755361922946
 21
82.13264494999953
 31
0.0
  0
LINE
  5
240
330
1F
100
AcDbEntity
  8
7
  6
Continuous
 62
     1
370
    25
100
AcDbLine
 10
116.9755361922946
 20
84.22740891499984
 30
0.0
 11
115.5790222272941
 21
84.22740891499984
 31
0.0
  0
LINE
  5
241
330
1F
100
AcDbEntity
  8
7
  6
Continuous
 62
     1
370
    25
100
AcDbLine
 10
115.5790222272941
 20
85.62382512500011
 30
0.0
 11
116.9755361922946
 21
85.62382512500011
 31
0.0
  0
LINE
  5
242
330
1F
100
AcDbEntity
  8
7
  6
Continuous
 62
     1
370
    25
100
AcDbLine
 10
116.9755361922946
 20
87.7185890899998
 30
0.0
 11
115.5790222272941
 21
87.7185890899998
 31
0.0
  0
ARC
  5
243
330
1F
100
AcDbEntity
  8
7
  6
Continuous
 62
     1
370
    25
100
AcDbCircle
 10
121.5141583992943
 20
80.73606814250019
 30
0.0
 40
1.396500000000003
100
AcDbArc
 50
269.9999999999998
 51
0.0
  0
ARC
  5
244
330
1F
100
AcDbEntity
  8
7
  6
Continuous
 62
     1
370
    25
100
AcDbCircle
 10
121.0951972272945
 20
81.15504607249972
 30
0.0
 40
0.4189499999999953
100
AcDbArc
 50
269.9999999999998
 51
0.0
  0
ARC
  5
245
330
1F
100
AcDbEntity
  8
7
  6
Continuous
 62
     1
370
    25
100
AcDbCircle
 10
121.5141416412943
 20
80.73606814250019
 30
0.0
 40
0.6982500000000016
100
AcDbArc
 50
269.9999999999998
 51
0.0
  0
LINE
  5
246
330
1F
100
AcDbEntity
  8
7
  6
Continuous
 62
     1
370
    25
100
AcDbLine
 10
118.3720236237947
 20
81.7835339149998
 30
0.0
 11
119.7685278132941
 21
81.7835339149998
 31
0.0
  0
LINE
  5
247
330
1F
100
AcDbEntity
  8
7
  6
Continuous
 62
     1
370
    25
100
AcDbLine
 10
119.7685278132941
 20
81.7835339149998
 30
0.0
 11
119.7685278132941
 21
84.57651994999958
 31
0.0
  0
LINE
  5
248
330
1F
100
AcDbEntity
  8
7
  6
Continuous
 62
     1
370
    25
100
AcDbLine
 10
118.3720236237947
 20
84.57651994999958
 30
0.0
 11
118.3720236237947
 21
81.7835339149998
 31
0.0
  0
LINE
  5
249
330
1F
100
AcDbEntity
  8
7
  6
Continuous
 62
     1
370
    25
100
AcDbLine
 10
116.9755361922946
 20
82.13264494999953
 30
0.0
 11
116.9755361922946
 21
84.22740891499984
 31
0.0
  0
LINE
  5
24A
330
1F
100
AcDbEntity
  8
7
  6
Continuous
 62
     1
370
    25
100
AcDbLine
 10
119.7685278132941
 20
84.57651994999958
 30
0.0
 11
118.3720236237947
 21
84.57651994999958
 31
0.0
  0
LINE
  5
24B
330
1F
100
AcDbEntity
  8
7
  6
Continuous
 62
     1
370
    25
100
AcDbLine
 10
118.3720236237947
 20
85.27471408999975
 30
0.0
 11
119.7685278132941
 21
85.27471408999975
 31
0.0
  0
LINE
  5
24C
330
1F
100
AcDbEntity
  8
7
  6
Continuous
 62
     1
370
    25
100
AcDbLine
 10
116.9755361922946
 20
85.62382512500011
 30
0.0
 11
116.9755361922946
 21
87.7185890899998
 31
0.0
  0
ARC
  5
24D
330
1F
100
AcDbEntity
  8
7
  6
Continuous
 62
     1
370
    25
100
AcDbCircle
 10
114.2523444342944
 20
81.15504607249972
 30
0.0
 40
0.4189499999999953
100
AcDbArc
 50
179.9999999999998
 51
269.9999999999998
  0
ARC
  5
24E
330
1F
100
AcDbEntity
  8
7
  6
Continuous
 62
     1
370
    25
100
AcDbCircle
 10
113.8334000202945
 20
80.73606814250019
 30
0.0
 40
0.6982500000000016
100
AcDbArc
 50
179.9999999999998
 51
269.9999999999998
  0
ARC
  5
24F
330
1F
100
AcDbEntity
  8
7
  6
Continuous
 62
     1
370
    25
100
AcDbCircle
 10
113.8333832622945
 20
80.73606814250019
 30
0.0
 40
1.396500000000003
100
AcDbArc
 50
179.9999999999998
 51
269.9999999999998
  0
LINE
  5
250
330
1F
100
AcDbEntity
  8
7
  6
Continuous
 62
     1
370
    25
100
AcDbLine
 10
114.8807792097942
 20
82.48179788000004
 30
0.0
 11
115.5790222272941
 21
82.48179788000004
 31
0.0
  0
LINE
  5
251
330
1F
100
AcDbEntity
  8
7
  6
Continuous
 62
     1
370
    25
100
AcDbLine
 10
115.5790222272941
 20
82.48179788000004
 30
0.0
 11
115.5790222272941
 21
82.13264494999953
 31
0.0
  0
LINE
  5
252
330
1F
100
AcDbEntity
  8
7
  6
Continuous
 62
     1
370
    25
100
AcDbLine
 10
114.8807792097942
 20
83.87826994999949
 30
0.0
 11
114.8807792097942
 21
82.48179788000004
 31
0.0
  0
LINE
  5
253
330
1F
100
AcDbEntity
  8
7
  6
Continuous
 62
     1
370
    25
100
AcDbLine
 10
115.5790222272941
 20
84.22740891499984
 30
0.0
 11
115.5790222272941
 21
83.87826994999949
 31
0.0
  0
LINE
  5
254
330
1F
100
AcDbEntity
  8
7
  6
Continuous
 62
     1
370
    25
100
AcDbLine
 10
115.5790222272941
 20
83.87826994999949
 30
0.0
 11
114.8807792097942
 21
83.87826994999949
 31
0.0
  0
LINE
  5
255
330
1F
100
AcDbEntity
  8
7
  6
Continuous
 62
     1
370
    25
100
AcDbLine
 10
110.7611014167943
 20
84.15750710750018
 30
0.0
 11
110.7611014167943
 21
85.83332107250021
 31
0.0
  0
LINE
  5
256
330
1F
100
AcDbEntity
  8
7
  6
Continuous
 62
     1
370
    25
100
AcDbLine
 10
111.7386430377945
 20
83.87819314250027
 30
0.0
 11
111.7386430377945
 21
85.27470710749986
 31
0.0
  0
LINE
  5
257
330
1F
100
AcDbEntity
  8
7
  6
Continuous
 62
     1
370
    25
100
AcDbLine
 10
111.0403916412943
 20
85.83332107250021
 30
0.0
 11
110.7611014167943
 21
85.83332107250021
 31
0.0
  0
LINE
  5
258
330
1F
100
AcDbEntity
  8
7
  6
Continuous
 62
     1
370
    25
100
AcDbLine
 10
113.8333832622945
 20
85.27470710749986
 30
0.0
 11
111.7386430377945
 21
85.27470710749986
 31
0.0
  0
ARC
  5
259
330
1F
100
AcDbEntity
  8
7
  6
Continuous
 62
     1
370
    25
100
AcDbCircle
 10
110.7611014167943
 20
84.2971710724998
 30
0.0
 40
0.4189499999999953
100
AcDbArc
 50
179.9999999999998
 51
269.9999999999998
  0
LINE
  5
25A
330
1F
100
AcDbEntity
  8
7
  6
Continuous
 62
     1
370
    25
100
AcDbLine
 10
111.0403916412943
 20
83.87819314250027
 30
0.0
 11
111.0403916412943
 21
84.15750710750018
 31
0.0
  0
LINE
  5
25B
330
1F
100
AcDbEntity
  8
7
  6
Continuous
 62
     1
370
    25
100
AcDbLine
 10
111.0403916412943
 20
84.15750710750018
 30
0.0
 11
110.7611014167943
 21
84.15750710750018
 31
0.0
  0
LINE
  5
25C
330
1F
100
AcDbEntity
  8
7
  6
Continuous
 62
     1
370
    25
100
AcDbLine
 10
110.7611014167943
 20
83.87819314250027
 30
0.0
 11
113.8333832622945
 21
83.87819314250027
 31
0.0
  0
LINE
  5
25D
330
1F
100
AcDbEntity
  8
7
  6
Continuous
 62
     1
370
    25
100
AcDbLine
 10
114.8807792097942
 20
85.972978055
 30
0.0
 11
115.5790222272941
 21
85.972978055
 31
0.0
  0
LINE
  5
25E
330
1F
100
AcDbEntity
  8
7
  6
Continuous
 62
     1
370
    25
100
AcDbLine
 10
115.5790222272941
 20
85.972978055
 30
0.0
 11
115.5790222272941
 21
85.62382512500011
 31
0.0
  0
LINE
  5
25F
330
1F
100
AcDbEntity
  8
7
  6
Continuous
 62
     1
370
    25
100
AcDbLine
 10
113.1351486237946
 20
80.73606814250019
 30
0.0
 11
113.1351486237946
 21
83.87819314250027
 31
0.0
  0
LINE
  5
260
330
1F
100
AcDbEntity
  8
7
  6
Continuous
 62
     1
370
    25
100
AcDbLine
 10
112.4368958307944
 20
80.73606814250019
 30
0.0
 11
112.4368958307944
 21
83.87819314250027
 31
0.0
  0
LINE
  5
261
330
1F
100
AcDbEntity
  8
7
  6
Continuous
 62
     1
370
    25
100
AcDbLine
 10
111.0403916412943
 20
87.50909314250015
 30
0.0
 11
110.7611014167943
 21
87.50909314250015
 31
0.0
  0
LINE
  5
262
330
1F
100
AcDbEntity
  8
7
  6
Continuous
 62
     1
370
    25
100
AcDbLine
 10
115.5790222272941
 20
87.7185890899998
 30
0.0
 11
115.5790222272941
 21
87.36945012500013
 31
0.0
  0
LINE
  5
263
330
1F
100
AcDbEntity
  8
7
  6
Continuous
 62
     1
370
    25
100
AcDbLine
 10
115.5790222272941
 20
87.36945012500013
 30
0.0
 11
114.8807792097942
 21
87.36945012500013
 31
0.0
  0
LINE
  5
264
330
1F
100
AcDbEntity
  8
7
  6
Continuous
 62
     1
370
    25
100
AcDbLine
 10
111.0403916412943
 20
85.83332107250021
 30
0.0
 11
111.0403916412943
 21
87.50909314250015
 31
0.0
  0
LINE
  5
265
330
1F
100
AcDbEntity
  8
7
  6
Continuous
 62
     1
370
    25
100
AcDbLine
 10
114.8807792097942
 20
87.36945012500013
 30
0.0
 11
114.8807792097942
 21
85.972978055
 31
0.0
  0
LINE
  5
266
330
1F
100
AcDbEntity
  8
7
  6
Continuous
 62
     1
370
    25
100
AcDbLine
 10
107.5480648255683
 20
89.46421408999976
 30
0.0
 11
89.39355225706834
 21
89.46421408999976
 31
0.0
  0
LINE
  5
267
330
1F
100
AcDbEntity
  8
7
  6
Continuous
 62
     1
370
    25
100
AcDbLine
 10
103.358559239568
 20
87.22981408999976
 30
0.0
 11
90.79005784306726
 21
87.22981408999976
 31
0.0
  0
LINE
  5
268
330
1F
100
AcDbEntity
  8
7
  6
Continuous
 62
     1
370
    25
100
AcDbLine
 10
103.358559239568
 20
84.99542805499948
 30
0.0
 11
90.79005784306726
 21
84.99542805499948
 31
0.0
  0
LINE
  5
269
330
1F
100
AcDbEntity
  8
7
  6
Continuous
 62
     1
370
    25
100
AcDbLine
 10
103.358559239568
 20
86.11258615999975
 30
0.0
 11
90.79005784306726
 21
86.11258615999975
 31
0.0
  0
LINE
  5
26A
330
1F
100
AcDbEntity
  8
7
  6
Continuous
 62
     1
370
    25
100
AcDbLine
 10
103.358559239568
 20
88.3469861600002
 30
0.0
 11
90.79005784306726
 21
88.3469861600002
 31
0.0
  0
LINE
  5
26B
330
1F
100
AcDbEntity
  8
7
  6
Continuous
 62
     1
370
    25
100
AcDbLine
 10
107.5480648255683
 20
83.87820012500015
 30
0.0
 11
89.39355225706834
 21
83.87820012500015
 31
0.0
  0
LINE
  5
26C
330
1F
100
AcDbEntity
  8
7
  6
Continuous
 62
     1
370
    25
100
AcDbLine
 10
71.30543792061897
 20
88.83578870020222
 30
0.0
 11
40.58243792061879
 21
88.83578870020222
 31
0.0
  0
LINE
  5
26D
330
1F
100
AcDbEntity
  8
7
  6
Continuous
 62
     1
370
    25
100
AcDbLine
 10
71.30535767556499
 20
84.50663870701254
 30
0.0
 11
40.58235767556542
 21
84.50663848309205
 31
0.0
  0
LINE
  5
26E
330
1F
100
AcDbEntity
  8
7
  6
Continuous
 62
     1
370
    25
100
AcDbLine
 10
71.3053576755656
 20
82.76100012500115
 30
0.0
 11
71.3053576755656
 21
90.58140012500087
 31
0.0
  0
LINE
  5
26F
330
1F
100
AcDbEntity
  8
7
  6
Continuous
 62
     1
370
    25
100
AcDbLine
 10
89.39355225706834
 20
83.87820012500015
 30
0.0
 11
89.39355225706834
 21
89.46421408999976
 31
0.0
  0
LINE
  5
270
330
1F
100
AcDbEntity
  8
7
  6
Continuous
 62
     1
370
    25
100
AcDbLine
 10
90.79005784306726
 20
83.87820012500015
 30
0.0
 11
90.79005784306726
 21
89.46421408999976
 31
0.0
  0
LINE
  5
271
330
1F
100
AcDbEntity
  8
7
  6
Continuous
 62
     1
370
    25
100
AcDbLine
 10
107.5480648255683
 20
86.6712001250001
 30
0.0
 11
107.5480648255683
 21
94.00283908999972
 31
0.0
  0
ARC
  5
272
330
1F
100
AcDbEntity
  8
7
  6
Continuous
 62
     1
370
    25
100
AcDbCircle
 10
97.77256342906806
 20
92.60633908999966
 30
0.0
 40
1.396500000000003
100
AcDbArc
 50
89.99999999999991
 51
179.9999999999998
  0
LINE
  5
273
330
1F
100
AcDbEntity
  8
7
  6
Continuous
 62
     1
370
    25
100
AcDbLine
 10
94.97959694506785
 20
92.25722805499993
 30
0.0
 11
96.37605784306731
 21
92.25722805499993
 31
0.0
  0
LINE
  5
274
330
1F
100
AcDbEntity
  8
7
  6
Continuous
 62
     1
370
    25
100
AcDbLine
 10
94.97959694506785
 20
92.95549202000018
 30
0.0
 11
94.97959694506785
 21
89.46421409000021
 31
0.0
  0
LINE
  5
275
330
1F
100
AcDbEntity
  8
7
  6
Continuous
 62
     1
370
    25
100
AcDbLine
 10
96.37605784306731
 20
92.60633908999966
 30
0.0
 11
96.37605784306731
 21
89.46421408999976
 31
0.0
  0
LINE
  5
276
330
1F
100
AcDbEntity
  8
7
  6
Continuous
 62
     1
370
    25
100
AcDbLine
 10
96.37605784306731
 20
92.25722805499993
 30
0.0
 11
96.37605784306731
 21
89.46421408999976
 31
0.0
  0
LINE
  5
277
330
1F
100
AcDbEntity
  8
7
  6
Continuous
 62
     1
370
    25
100
AcDbLine
 10
97.77256342906806
 20
79.33956115999979
 30
0.0
 11
107.5480648255683
 21
79.33956115999979
 31
0.0
  0
LINE
  5
278
330
1F
100
AcDbEntity
  8
7
  6
Continuous
 62
     1
370
    25
100
AcDbLine
 10
96.37605784306731
 20
81.08517219499959
 30
0.0
 11
94.97959694506785
 21
81.08517219499959
 31
0.0
  0
LINE
  5
279
330
1F
100
AcDbEntity
  8
7
  6
Continuous
 62
     1
370
    25
100
AcDbLine
 10
94.97959694506785
 20
80.38690822999979
 30
0.0
 11
94.97959694506785
 21
83.8781861599997
 31
0.0
  0
LINE
  5
27A
330
1F
100
AcDbEntity
  8
7
  6
Continuous
 62
     1
370
    25
100
AcDbLine
 10
96.37605784306731
 20
80.73606115999985
 30
0.0
 11
96.37605784306731
 21
83.87820012500015
 31
0.0
  0
LINE
  5
27B
330
1F
100
AcDbEntity
  8
7
  6
Continuous
 62
     1
370
    25
100
AcDbLine
 10
96.37605784306731
 20
83.87820012500015
 30
0.0
 11
96.37605784306731
 21
81.08517219499959
 31
0.0
  0
ARC
  5
27C
330
1F
100
AcDbEntity
  8
7
  6
Continuous
 62
     1
370
    25
100
AcDbCircle
 10
97.77256342906806
 20
80.73606115999985
 30
0.0
 40
1.396500000000003
100
AcDbArc
 50
179.9999999999998
 51
269.9999999999998
  0
LINE
  5
27D
330
1F
100
AcDbEntity
  8
7
  6
Continuous
 62
     1
370
    25
100
AcDbLine
 10
103.358559239568
 20
89.46421408999976
 30
0.0
 11
103.358559239568
 21
83.87820012500015
 31
0.0
  0
LINE
  5
27E
330
1F
100
AcDbEntity
  8
7
  6
Continuous
 62
     1
370
    25
100
AcDbLine
 10
107.5480648255683
 20
86.6712001250001
 30
0.0
 11
107.5480648255683
 21
79.33956115999979
 31
0.0
  0
LINE
  5
27F
330
1F
100
AcDbEntity
  8
7
  6
Continuous
 62
     1
370
    25
100
AcDbLine
 10
106.1515522570679
 20
89.46421408999976
 30
0.0
 11
106.1515522570679
 21
83.87820012500015
 31
0.0
  0
LINE
  5
280
330
1F
100
AcDbEntity
  8
7
  6
Continuous
 62
     1
370
    25
100
AcDbLine
 10
97.77256342906806
 20
94.00283908999972
 30
0.0
 11
107.5480648255683
 21
94.00283908999972
 31
0.0
  0
INSERT
  5
28A
330
1F
100
AcDbEntity
  8
0
100
AcDbBlockReference
  2
*G29
 10
0.0
 20
0.0
 30
0.0
  0
LINE
  5
28B
330
1F
100
AcDbEntity
  8
7
  6
Continuous
 62
     1
370
    25
100
AcDbLine
 10
94.97959694506785
 20
92.95549202000018
 30
0.0
 11
84.03836371533635
 21
92.95549202000018
 31
0.0
  0
LINE
  5
28C
330
1F
100
AcDbEntity
  8
7
  6
Continuous
 62
     1
370
    25
100
AcDbLine
 10
77.09875798799497
 20
90.58140012500087
 30
0.0
 11
71.3053576755656
 21
90.58140012500087
 31
0.0
  0
ARC
  5
28D
330
1F
100
AcDbEntity
  8
7
  6
Continuous
 62
     1
370
    25
100
AcDbCircle
 10
84.10815515942349
 20
89.63237337155056
 30
0.0
 40
3.32385144032358
100
AcDbArc
 50
91.20313712916247
 51
128.5407048705001
  0
ARC
  5
28E
330
1F
100
AcDbEntity
  8
7
  6
Continuous
 62
     1
370
    25
100
AcDbCircle
 10
76.76738473618012
 20
99.56304592222216
 30
0.0
 40
8.987756642163916
100
AcDbArc
 50
272.1129402668354
 51
301.7409359603985
  0
LINE
  5
28F
330
1F
100
AcDbEntity
  8
7
  6
Continuous
 62
     1
370
    25
100
AcDbLine
 10
82.03716147714447
 20
92.23217597276903
 30
0.0
 11
81.4956583004247
 21
91.91953896792313
 31
0.0
  0
LINE
  5
290
330
1F
100
AcDbEntity
  8
7
  6
Continuous
 62
     1
370
    25
100
AcDbLine
 10
94.97959694506785
 20
80.38690823000184
 30
0.0
 11
84.03836371533635
 21
80.38690823000184
 31
0.0
  0
LINE
  5
291
330
1F
100
AcDbEntity
  8
7
  6
Continuous
 62
     1
370
    25
100
AcDbLine
 10
77.09875798799497
 20
82.76100012500115
 30
0.0
 11
71.3053576755656
 21
82.76100012500115
 31
0.0
  0
ARC
  5
292
330
1F
100
AcDbEntity
  8
7
  6
Continuous
 62
     1
370
    25
100
AcDbCircle
 10
84.10815515942349
 20
83.7100268784514
 30
0.0
 40
3.32385144032358
100
AcDbArc
 50
231.4592951295073
 51
268.7968628708372
  0
ARC
  5
293
330
1F
100
AcDbEntity
  8
7
  6
Continuous
 62
     1
370
    25
100
AcDbCircle
 10
76.76738473618012
 20
73.7793543277798
 30
0.0
 40
8.987756642163916
100
AcDbArc
 50
58.25906403960133
 51
87.88705973316422
  0
LINE
  5
294
330
1F
100
AcDbEntity
  8
7
  6
Continuous
 62
     1
370
    25
100
AcDbLine
 10
82.03716147714447
 20
81.11022427723299
 30
0.0
 11
81.4956583004247
 21
81.42286128207883
 31
0.0
  0
INSERT
  5
2AC
330
1F
100
AcDbEntity
  8
0
100
AcDbBlockReference
  2
*G30
 10
0.0
 20
0.0
 30
0.0
  0
INSERT
  5
2C4
330
1F
100
AcDbEntity
  8
0
100
AcDbBlockReference
  2
*G35
 10
0.0
 20
0.0
 30
0.0
  0
INSERT
  5
2DC
330
1F
100
AcDbEntity
  8
0
100
AcDbBlockReference
  2
*G40
 10
0.0
 20
0.0
 30
0.0
  0
INSERT
  5
2F4
330
1F
100
AcDbEntity
  8
0
100
AcDbBlockReference
  2
*G45
 10
0.0
 20
0.0
 30
0.0
  0
INSERT
  5
30C
330
1F
100
AcDbEntity
  8
0
100
AcDbBlockReference
  2
*G50
 10
0.0
 20
0.0
 30
0.0
  0
INSERT
  5
324
330
1F
100
AcDbEntity
  8
0
100
AcDbBlockReference
  2
*G55
 10
0.0
 20
0.0
 30
0.0
  0
INSERT
  5
33C
330
1F
100
AcDbEntity
  8
0
100
AcDbBlockReference
  2
*G60
 10
0.0
 20
0.0
 30
0.0
  0
INSERT
  5
354
330
1F
100
AcDbEntity
  8
0
100
AcDbBlockReference
  2
*G65
 10
0.0
 20
0.0
 30
0.0
  0
VIEWPORT
  5
6A
330
1B
100
AcDbEntity
 67
     1
  8
0
100
AcDbViewport
 10
420.5
 20
297.0
 30
0.0
 40
841.0
 41
594.0
 68
     1
 69
     1
 12
420.5
 22
297.0
 13
0.0
 23
0.0
 14
0.5
 24
0.5
 15
0.5
 25
0.5
 16
0.0
 26
0.0
 36
1.0
 17
0.0
 27
0.0
 37
0.0
 42
50.0
 43
0.0
 44
0.0
 45
9.0
 50
0.0
 51
0.0
 72
   100
 90
   557152
  1

281
     0
 71
     1
 74
     0
110
0.0
120
0.0
130
0.0
111
1.0
121
0.0
131
0.0
112
0.0
122
1.0
132
0.0
 79
     0
146
0.0
170
     0
 61
     5
292
     1
282
     1
141
0.0
142
0.0
 63
   256
  0
ENDSEC
  0
SECTION
  2
OBJECTS
  0
DICTIONARY
  5
C
330
0
100
AcDbDictionary
281
     1
  3
ACAD_DETAILVIEWSTYLE
350
359
  3
ACAD_GROUP
350
D
  3
ACAD_LAYOUT
350
1A
  3
ACAD_MATERIAL
350
43
  3
ACAD_MLEADERSTYLE
350
358
  3
ACAD_MLINESTYLE
350
17
  3
ACAD_PLOTSETTINGS
350
19
  3
ACAD_PLOTSTYLENAME
350
E
  3
ACAD_SCALELIST
350
47
  3
ACAD_SECTIONVIEWSTYLE
350
35A
  3
ACAD_TABLESTYLE
350
357
  3
ACAD_VISUALSTYLE
350
2A
  3
AcDbVariableDictionary
350
355
  0
SUN
  5
69
330
29
100
AcDbSun
 90
        1
290
     0
 63
     7
421
 16777215
 40
1.0
291
     1
 91
  2455826
 92
 54000000
292
     0
 70
     2
 71
   256
280
     1
  0
DICTIONARY
  5
359
102
{ACAD_REACTORS
330
C
102
}
330
C
100
AcDbDictionary
281
     1
  0
DICTIONARY
  5
D
102
{ACAD_REACTORS
330
C
102
}
330
C
100
AcDbDictionary
281
     1
  0
DICTIONARY
  5
1A
102
{ACAD_REACTORS
330
C
102
}
330
C
100
AcDbDictionary
281
     1
  3
Layout1
350
1E
  3
Layout2
350
26
  3
Model
350
22
  0
DICTIONARY
  5
43
102
{ACAD_REACTORS
330
C
102
}
330
C
100
AcDbDictionary
281
     1
  3
ByBlock
350
45
  3
ByLayer
350
44
  3
Global
350
46
  0
DICTIONARY
  5
358
102
{ACAD_REACTORS
330
C
102
}
330
C
100
AcDbDictionary
281
     1
  0
DICTIONARY
  5
17
102
{ACAD_REACTORS
330
C
102
}
330
C
100
AcDbDictionary
281
     1
  3
Standard
350
18
  0
DICTIONARY
  5
19
102
{ACAD_REACTORS
330
C
102
}
330
C
100
AcDbDictionary
281
     1
  0
ACDBDICTIONARYWDFLT
  5
E
102
{ACAD_REACTORS
330
C
102
}
330
C
100
AcDbDictionary
281
     1
  3
Normal
350
F
100
AcDbDictionaryWithDefault
340
F
  0
DICTIONARY
  5
47
102
{ACAD_REACTORS
330
C
102
}
330
C
100
AcDbDictionary
281
     1
  3
A0
350
48
  3
A1
350
49
  3
A2
350
4A
  3
A3
350
4B
  3
A4
350
4C
  3
A5
350
4D
  3
A6
350
4E
  3
A7
350
4F
  3
A8
350
50
  3
A9
350
51
  3
B0
350
52
  3
B1
350
53
  3
B2
350
54
  3
B3
350
55
  3
B4
350
56
  3
B5
350
57
  3
B6
350
58
  3
B7
350
59
  3
B8
350
5A
  3
B9
350
5B
  3
C0
350
5C
  3
C1
350
5D
  3
C2
350
5E
  3
C3
350
5F
  3
C4
350
60
  3
C5
350
61
  3
C6
350
62
  3
C7
350
63
  3
C8
350
64
  3
C9
350
65
  3
D0
350
66
  3
D1
350
67
  3
D2
350
68
  0
DICTIONARY
  5
35A
102
{ACAD_REACTORS
330
C
102
}
330
C
100
AcDbDictionary
281
     1
  0
DICTIONARY
  5
357
102
{ACAD_REACTORS
330
C
102
}
330
C
100
AcDbDictionary
281
     1
  0
DICTIONARY
  5
2A
102
{ACAD_REACTORS
330
C
102
}
330
C
100
AcDbDictionary
281
     1
  3
2dWireframe
350
2F
  3
Basic
350
32
  3
Brighten
350
36
  3
ColorChange
350
3A
  3
Conceptual
350
34
  3
Dim
350
35
  3
EdgeColorOff
350
3D
  3
Facepattern
350
39
  3
Flat
350
2B
  3
FlatWithEdges
350
2C
  3
Gouraud
350
2D
  3
GouraudWithEdges
350
2E
  3
Hidden
350
31
  3
JitterOff
350
3B
  3
Linepattern
350
38
  3
OverhangOff
350
3C
  3
Realistic
350
33
  3
Shaded
350
42
  3
Shaded with edges
350
41
  3
Shades of Gray
350
3E
  3
Sketchy
350
3F
  3
Thicken
350
37
  3
Wireframe
350
30
  3
X-Ray
350
40
  0
DICTIONARY
  5
355
102
{ACAD_REACTORS
330
C
102
}
330
C
100
AcDbDictionary
281
     1
  3
CANNOSCALE
350
356
  0
LAYOUT
  5
1E
102
{ACAD_REACTORS
330
1A
102
}
330
1A
100
AcDbPlotSettings
  1

  2
none_device
  4

  6

 40
0.0
 41
0.0
 42
0.0
 43
0.0
 44
0.0
 45
0.0
 46
0.0
 47
0.0
 48
0.0
 49
0.0
140
0.0
141
0.0
142
1.0
143
1.0
 70
   688
 72
     0
 73
     0
 74
     5
  7

 75
    16
 76
     0
 77
     2
 78
   300
147
1.0
148
0.0
149
0.0
100
AcDbLayout
  1
Layout1
 70
     1
 71
     1
 10
0.0
 20
0.0
 11
841.0
 21
594.0
 12
0.0
 22
0.0
 32
0.0
 14
0.0
 24
0.0
 34
0.0
 15
841.0
 25
594.0
 35
0.0
146
0.0
 13
0.0
 23
0.0
 33
0.0
 16
1.0
 26
0.0
 36
0.0
 17
0.0
 27
1.0
 37
0.0
 76
     0
330
1B
331
6A
  0
LAYOUT
  5
26
102
{ACAD_REACTORS
330
1A
102
}
330
1A
100
AcDbPlotSettings
  1

  2
none_device
  4

  6

 40
0.0
 41
0.0
 42
0.0
 43
0.0
 44
0.0
 45
0.0
 46
0.0
 47
0.0
 48
0.0
 49
0.0
140
0.0
141
0.0
142
1.0
143
1.0
 70
   688
 72
     0
 73
     0
 74
     5
  7

 75
    16
 76
     0
 77
     2
 78
   300
147
1.0
148
0.0
149
0.0
100
AcDbLayout
  1
Layout2
 70
     1
 71
     2
 10
0.0
 20
0.0
 11
0.0
 21
0.0
 12
0.0
 22
0.0
 32
0.0
 14
0.0
 24
0.0
 34
0.0
 15
0.0
 25
0.0
 35
0.0
146
0.0
 13
0.0
 23
0.0
 33
0.0
 16
1.0
 26
0.0
 36
0.0
 17
0.0
 27
1.0
 37
0.0
 76
     0
330
23
  0
LAYOUT
  5
22
102
{ACAD_REACTORS
330
1A
102
}
330
1A
100
AcDbPlotSettings
  1

  2
none_device
  4
Letter_(8.50_x_11.00_Inches)
  6

 40
6.35
 41
6.35
 42
6.35000508
 43
6.35000508
 44
215.9
 45
279.4
 46
0.0
 47
0.0
 48
0.0
 49
0.0
140
0.0
141
0.0
142
1.0
143
1.0
 70
  1712
 72
     0
 73
     0
 74
     0
  7

 75
     0
 76
     0
 77
     2
 78
   300
147
1.0
148
0.0
149
0.0
100
AcDbLayout
  1
Model
 70
     1
 71
     0
 10
0.0
 20
0.0
 11
841.0
 21
594.0
 12
0.0
 22
0.0
 32
0.0
 14
40.58232328482813
 24
41.2850000000002
 34
0.0
 15
770.5564859940675
 25
389.2179459846977
 35
0.0
146
0.0
 13
0.0
 23
0.0
 33
0.0
 16
1.0
 26
0.0
 36
0.0
 17
0.0
 27
1.0
 37
0.0
 76
     0
330
1F
331
29
  0
MATERIAL
  5
45
102
{ACAD_REACTORS
330
43
102
}
330
43
100
AcDbMaterial
  1
ByBlock
 72
     1
 94
      127
  0
MATERIAL
  5
44
102
{ACAD_REACTORS
330
43
102
}
330
43
100
AcDbMaterial
  1
ByLayer
 72
     1
 94
      127
  0
MATERIAL
  5
46
102
{ACAD_REACTORS
330
43
102
}
330
43
100
AcDbMaterial
  1
Global
 72
     1
 94
      127
  0
MLINESTYLE
  5
18
102
{ACAD_REACTORS
330
17
102
}
330
17
100
AcDbMlineStyle
  2
Standard
 70
     0
  3

 62
   256
 51
90.0
 52
90.0
 71
     2
 49
0.5
 62
   256
  6
BYLAYER
 49
-0.5
 62
   256
  6
BYLAYER
  0
ACDBPLACEHOLDER
  5
F
102
{ACAD_REACTORS
330
E
102
}
330
E
  0
SCALE
  5
48
102
{ACAD_REACTORS
330
47
102
}
330
47
100
AcDbScale
 70
     0
300
1:1
140
1.0
141
1.0
290
     1
  0
SCALE
  5
49
102
{ACAD_REACTORS
330
47
102
}
330
47
100
AcDbScale
 70
     0
300
1:2
140
1.0
141
2.0
290
     0
  0
SCALE
  5
4A
102
{ACAD_REACTORS
330
47
102
}
330
47
100
AcDbScale
 70
     0
300
1:4
140
1.0
141
4.0
290
     0
  0
SCALE
  5
4B
102
{ACAD_REACTORS
330
47
102
}
330
47
100
AcDbScale
 70
     0
300
1:5
140
1.0
141
5.0
290
     0
  0
SCALE
  5
4C
102
{ACAD_REACTORS
330
47
102
}
330
47
100
AcDbScale
 70
     0
300
1:8
140
1.0
141
8.0
290
     0
  0
SCALE
  5
4D
102
{ACAD_REACTORS
330
47
102
}
330
47
100
AcDbScale
 70
     0
300
1:10
140
1.0
141
10.0
290
     0
  0
SCALE
  5
4E
102
{ACAD_REACTORS
330
47
102
}
330
47
100
AcDbScale
 70
     0
300
1:16
140
1.0
141
16.0
290
     0
  0
SCALE
  5
4F
102
{ACAD_REACTORS
330
47
102
}
330
47
100
AcDbScale
 70
     0
300
1:20
140
1.0
141
20.0
290
     0
  0
SCALE
  5
50
102
{ACAD_REACTORS
330
47
102
}
330
47
100
AcDbScale
 70
     0
300
1:30
140
1.0
141
30.0
290
     0
  0
SCALE
  5
51
102
{ACAD_REACTORS
330
47
102
}
330
47
100
AcDbScale
 70
     0
300
1:40
140
1.0
141
40.0
290
     0
  0
SCALE
  5
52
102
{ACAD_REACTORS
330
47
102
}
330
47
100
AcDbScale
 70
     0
300
1:50
140
1.0
141
50.0
290
     0
  0
SCALE
  5
53
102
{ACAD_REACTORS
330
47
102
}
330
47
100
AcDbScale
 70
     0
300
1:100
140
1.0
141
100.0
290
     0
  0
SCALE
  5
54
102
{ACAD_REACTORS
330
47
102
}
330
47
100
AcDbScale
 70
     0
300
2:1
140
2.0
141
1.0
290
     0
  0
SCALE
  5
55
102
{ACAD_REACTORS
330
47
102
}
330
47
100
AcDbScale
 70
     0
300
4:1
140
4.0
141
1.0
290
     0
  0
SCALE
  5
56
102
{ACAD_REACTORS
330
47
102
}
330
47
100
AcDbScale
 70
     0
300
8:1
140
8.0
141
1.0
290
     0
  0
SCALE
  5
57
102
{ACAD_REACTORS
330
47
102
}
330
47
100
AcDbScale
 70
     0
300
10:1
140
10.0
141
1.0
290
     0
  0
SCALE
  5
58
102
{ACAD_REACTORS
330
47
102
}
330
47
100
AcDbScale
 70
     0
300
100:1
140
100.0
141
1.0
290
     0
  0
SCALE
  5
59
102
{ACAD_REACTORS
330
47
102
}
330
47
100
AcDbScale
 70
     0
300
1/128" = 1'-0"
140
0.0078125
141
12.0
290
     0
  0
SCALE
  5
5A
102
{ACAD_REACTORS
330
47
102
}
330
47
100
AcDbScale
 70
     0
300
1/64" = 1'-0"
140
0.015625
141
12.0
290
     0
  0
SCALE
  5
5B
102
{ACAD_REACTORS
330
47
102
}
330
47
100
AcDbScale
 70
     0
300
1/32" = 1'-0"
140
0.03125
141
12.0
290
     0
  0
SCALE
  5
5C
102
{ACAD_REACTORS
330
47
102
}
330
47
100
AcDbScale
 70
     0
300
1/16" = 1'-0"
140
0.0625
141
12.0
290
     0
  0
SCALE
  5
5D
102
{ACAD_REACTORS
330
47
102
}
330
47
100
AcDbScale
 70
     0
300
3/32" = 1'-0"
140
0.09375
141
12.0
290
     0
  0
SCALE
  5
5E
102
{ACAD_REACTORS
330
47
102
}
330
47
100
AcDbScale
 70
     0
300
1/8" = 1'-0"
140
0.125
141
12.0
290
     0
  0
SCALE
  5
5F
102
{ACAD_REACTORS
330
47
102
}
330
47
100
AcDbScale
 70
     0
300
3/16" = 1'-0"
140
0.1875
141
12.0
290
     0
  0
SCALE
  5
60
102
{ACAD_REACTORS
330
47
102
}
330
47
100
AcDbScale
 70
     0
300
1/4" = 1'-0"
140
0.25
141
12.0
290
     0
  0
SCALE
  5
61
102
{ACAD_REACTORS
330
47
102
}
330
47
100
AcDbScale
 70
     0
300
3/8" = 1'-0"
140
0.375
141
12.0
290
     0
  0
SCALE
  5
62
102
{ACAD_REACTORS
330
47
102
}
330
47
100
AcDbScale
 70
     0
300
1/2" = 1'-0"
140
0.5
141
12.0
290
     0
  0
SCALE
  5
63
102
{ACAD_REACTORS
330
47
102
}
330
47
100
AcDbScale
 70
     0
300
3/4" = 1'-0"
140
0.75
141
12.0
290
     0
  0
SCALE
  5
64
102
{ACAD_REACTORS
330
47
102
}
330
47
100
AcDbScale
 70
     0
300
1" = 1'-0"
140
1.0
141
12.0
290
     0
  0
SCALE
  5
65
102
{ACAD_REACTORS
330
47
102
}
330
47
100
AcDbScale
 70
     0
300
1-1/2" = 1'-0"
140
1.5
141
12.0
290
     0
  0
SCALE
  5
66
102
{ACAD_REACTORS
330
47
102
}
330
47
100
AcDbScale
 70
     0
300
3" = 1'-0"
140
3.0
141
12.0
290
     0
  0
SCALE
  5
67
102
{ACAD_REACTORS
330
47
102
}
330
47
100
AcDbScale
 70
     0
300
6" = 1'-0"
140
6.0
141
12.0
290
     0
  0
SCALE
  5
68
102
{ACAD_REACTORS
330
47
102
}
330
47
100
AcDbScale
 70
     0
300
1'-0" = 1'-0"
140
12.0
141
12.0
290
     0
  0
VISUALSTYLE
  5
2F
102
{ACAD_REACTORS
330
2A
102
}
330
2A
100
AcDbVisualStyle
  2
2dWireframe
 70
     4
177
     3
291
     0
 70
    58
 90
        0
176
     1
 90
        2
176
     1
 90
        0
176
     1
 90
        0
176
     1
 40
0.6
176
     1
 40
30.0
176
     1
 62
     7
420
 16777215
176
     1
 90
        1
176
     1
 90
        4
176
     1
 62
     7
176
     1
 62
   257
176
     1
 90
        1
176
     1
 90
        1
176
     1
 40
1.0
176
     1
 90
        0
176
     1
 62
   257
176
     1
 40
1.0
176
     1
 90
        1
176
     1
 90
        6
176
     1
 90
        2
176
     1
 62
     7
176
     1
 90
        5
176
     1
 90
        0
176
     1
 90
        0
176
     1
290
     0
176
     1
 90
        1
176
     1
 40
0.0
176
     1
 90
        0
176
     1
290
     1
176
     1
290
     1
176
     1
290
     0
176
     1
290
     0
176
     1
290
     0
176
     1
290
     0
176
     1
290
     0
176
     1
290
     0
176
     1
290
     0
176
     1
 90
       50
176
     1
 40
0.0
176
     1
 40
1.0
176
     1
 90
        0
176
     1
 62
    18
420
        0
176
     1
 90
       50
176
     1
 90
        3
176
     1
 62
     5
420
      255
176
     1
290
     0
176
     1
 90
       50
176
     1
 90
       50
176
     1
 90
       50
176
     1
290
     0
176
     1
 90
       50
176
     1
 62
   256
176
     0
 40
1.0
176
     0
 90
        2
176
     1
  1
strokes_ogs.tif
176
     1
290
     0
176
     1
 40
1.0
176
     1
 40
1.0
176
     1
  0
VISUALSTYLE
  5
32
102
{ACAD_REACTORS
330
2A
102
}
330
2A
100
AcDbVisualStyle
  2
Basic
 70
     7
177
     3
291
     1
 70
    58
 90
        1
176
     1
 90
        0
176
     1
 90
        1
176
     1
 90
        0
176
     1
 40
0.6
176
     1
 40
30.0
176
     1
 62
     7
420
 16777215
176
     1
 90
        0
176
     1
 90
        4
176
     1
 62
     7
176
     1
 62
   257
176
     1
 90
        1
176
     1
 90
        1
176
     1
 40
1.0
176
     1
 90
        8
176
     1
 62
     7
176
     1
 40
1.0
176
     1
 90
        1
176
     1
 90
        6
176
     1
 90
        2
176
     1
 62
     7
176
     1
 90
        5
176
     1
 90
        0
176
     1
 90
        0
176
     1
290
     0
176
     1
 90
        1
176
     1
 40
0.0
176
     1
 90
        0
176
     1
290
     0
176
     1
290
     1
176
     1
290
     1
176
     1
290
     0
176
     1
290
     0
176
     1
290
     0
176
     1
290
     0
176
     1
290
     0
176
     1
290
     0
176
     1
 90
       50
176
     1
 40
0.0
176
     1
 40
1.0
176
     1
 90
        0
176
     1
 62
    18
420
        0
176
     1
 90
       50
176
     1
 90
        3
176
     1
 62
     5
420
      255
176
     1
290
     0
176
     1
 90
       50
176
     1
 90
       50
176
     1
 90
       50
176
     1
290
     0
176
     1
 90
       50
176
     1
 62
   256
176
     0
 40
1.0
176
     0
 90
        2
176
     1
  1
strokes_ogs.tif
176
     1
290
     0
176
     1
 40
1.0
176
     1
 40
1.0
176
     1
  0
VISUALSTYLE
  5
36
102
{ACAD_REACTORS
330
2A
102
}
330
2A
100
AcDbVisualStyle
  2
Brighten
 70
    12
177
     3
291
     1
 70
    58
 90
        2
176
     1
 90
        2
176
     1
 90
        0
176
     1
 90
        0
176
     1
 40
0.6
176
     1
 40
30.0
176
     1
 62
     7
420
 16777215
176
     1
 90
        1
176
     1
 90
        4
176
     1
 62
     7
176
     1
 62
   257
176
     1
 90
        1
176
     1
 90
        1
176
     1
 40
1.0
176
     1
 90
        8
176
     1
 62
     7
176
     1
 40
1.0
176
     1
 90
        1
176
     1
 90
        6
176
     1
 90
        2
176
     1
 62
     7
176
     1
 90
        5
176
     1
 90
        0
176
     1
 90
        0
176
     1
290
     0
176
     1
 90
        1
176
     1
 40
50.0
176
     1
 90
        0
176
     1
290
     0
176
     1
290
     1
176
     1
290
     1
176
     1
290
     0
176
     1
290
     0
176
     1
290
     0
176
     1
290
     0
176
     1
290
     0
176
     1
290
     0
176
     1
 90
       50
176
     1
 40
0.0
176
     1
 40
1.0
176
     1
 90
        0
176
     1
 62
    18
420
        0
176
     1
 90
       50
176
     1
 90
        3
176
     1
 62
     5
420
      255
176
     1
290
     0
176
     1
 90
       50
176
     1
 90
       50
176
     1
 90
       50
176
     1
290
     0
176
     1
 90
       50
176
     1
 62
   256
176
     0
 40
1.0
176
     0
 90
        2
176
     1
  1
strokes_ogs.tif
176
     1
290
     0
176
     1
 40
1.0
176
     1
 40
1.0
176
     1
  0
VISUALSTYLE
  5
3A
102
{ACAD_REACTORS
330
2A
102
}
330
2A
100
AcDbVisualStyle
  2
ColorChange
 70
    16
177
     3
291
     1
 70
    58
 90
        2
176
     1
 90
        2
176
     1
 90
        3
176
     1
 90
        0
176
     1
 40
0.6
176
     1
 40
30.0
176
     1
 62
     8
420
  8421504
176
     1
 90
        1
176
     1
 90
        4
176
     1
 62
     7
176
     1
 62
   257
176
     1
 90
        1
176
     1
 90
        1
176
     1
 40
1.0
176
     1
 90
        8
176
     1
 62
     8
420
  8421504
176
     1
 40
1.0
176
     1
 90
        1
176
     1
 90
        6
176
     1
 90
        2
176
     1
 62
     7
176
     1
 90
        5
176
     1
 90
        0
176
     1
 90
        0
176
     1
290
     0
176
     1
 90
        1
176
     1
 40
0.0
176
     1
 90
        0
176
     1
290
     0
176
     1
290
     1
176
     1
290
     1
176
     1
290
     0
176
     1
290
     0
176
     1
290
     0
176
     1
290
     0
176
     1
290
     0
176
     1
290
     0
176
     1
 90
       50
176
     1
 40
0.0
176
     1
 40
1.0
176
     1
 90
        0
176
     1
 62
    18
420
        0
176
     1
 90
       50
176
     1
 90
        3
176
     1
 62
     5
420
      255
176
     1
290
     0
176
     1
 90
       50
176
     1
 90
       50
176
     1
 90
       50
176
     1
290
     0
176
     1
 90
       50
176
     1
 62
   256
176
     0
 40
1.0
176
     0
 90
        2
176
     1
  1
strokes_ogs.tif
176
     1
290
     0
176
     1
 40
1.0
176
     1
 40
1.0
176
     1
  0
VISUALSTYLE
  5
34
102
{ACAD_REACTORS
330
2A
102
}
330
2A
100
AcDbVisualStyle
  2
Conceptual
 70
     9
177
     3
291
     0
 70
    58
 90
        3
176
     1
 90
        2
176
     1
 90
        0
176
     1
 90
        0
176
     1
 40
0.6
176
     1
 40
30.0
176
     1
 62
     7
420
 16777215
176
     1
 90
        2
176
     1
 90
        2
176
     1
 62
     7
176
     1
 62
   257
176
     1
 90
        1
176
     1
 90
        1
176
     1
 40
179.0
176
     1
 90
        8
176
     1
 62
     7
176
     1
 40
1.0
176
     1
 90
        1
176
     1
 90
        6
176
     1
 90
        2
176
     1
 62
     7
176
     1
 90
        3
176
     1
 90
        0
176
     1
 90
        0
176
     1
290
     0
176
     1
 90
        1
176
     1
 40
0.0
176
     1
 90
        0
176
     1
290
     0
176
     1
290
     1
176
     1
290
     1
176
     1
290
     0
176
     1
290
     0
176
     1
290
     0
176
     1
290
     0
176
     1
290
     0
176
     1
290
     0
176
     1
 90
       50
176
     1
 40
0.0
176
     1
 40
1.0
176
     1
 90
        0
176
     1
 62
    18
420
        0
176
     1
 90
       50
176
     1
 90
        3
176
     1
 62
     5
420
      255
176
     1
290
     0
176
     1
 90
       50
176
     1
 90
       50
176
     1
 90
       50
176
     1
290
     0
176
     1
 90
       50
176
     1
 62
   256
176
     0
 40
1.0
176
     0
 90
        2
176
     1
  1
strokes_ogs.tif
176
     1
290
     0
176
     1
 40
1.0
176
     1
 40
1.0
176
     1
  0
VISUALSTYLE
  5
35
102
{ACAD_REACTORS
330
2A
102
}
330
2A
100
AcDbVisualStyle
  2
Dim
 70
    11
177
     3
291
     1
 70
    58
 90
        2
176
     1
 90
        2
176
     1
 90
        0
176
     1
 90
        0
176
     1
 40
0.6
176
     1
 40
30.0
176
     1
 62
     7
420
 16777215
176
     1
 90
        1
176
     1
 90
        4
176
     1
 62
     7
176
     1
 62
   257
176
     1
 90
        1
176
     1
 90
        1
176
     1
 40
1.0
176
     1
 90
        8
176
     1
 62
     7
176
     1
 40
1.0
176
     1
 90
        1
176
     1
 90
        6
176
     1
 90
        2
176
     1
 62
     7
176
     1
 90
        5
176
     1
 90
        0
176
     1
 90
        0
176
     1
290
     0
176
     1
 90
        1
176
     1
 40
-50.0
176
     1
 90
        0
176
     1
290
     0
176
     1
290
     1
176
     1
290
     1
176
     1
290
     0
176
     1
290
     0
176
     1
290
     0
176
     1
290
     0
176
     1
290
     0
176
     1
290
     0
176
     1
 90
       50
176
     1
 40
0.0
176
     1
 40
1.0
176
     1
 90
        0
176
     1
 62
    18
420
        0
176
     1
 90
       50
176
     1
 90
        3
176
     1
 62
     5
420
      255
176
     1
290
     0
176
     1
 90
       50
176
     1
 90
       50
176
     1
 90
       50
176
     1
290
     0
176
     1
 90
       50
176
     1
 62
   256
176
     0
 40
1.0
176
     0
 90
        2
176
     1
  1
strokes_ogs.tif
176
     1
290
     0
176
     1
 40
1.0
176
     1
 40
1.0
176
     1
  0
VISUALSTYLE
  5
3D
102
{ACAD_REACTORS
330
2A
102
}
330
2A
100
AcDbVisualStyle
  2
EdgeColorOff
 70
    22
177
     3
291
     1
 70
    58
 90
        2
176
     0
 90
        2
176
     0
 90
        0
176
     0
 90
        0
176
     0
 40
0.6
176
     0
 40
30.0
176
     0
 62
     7
420
 16777215
176
     0
 90
        1
176
     0
 90
        4
176
     0
 62
     7
176
     0
 62
   257
176
     0
 90
        1
176
     0
 90
        1
176
     0
 40
1.0
176
     0
 90
        8
176
     2
 62
     7
176
     0
 40
1.0
176
     0
 90
        1
176
     0
 90
        6
176
     0
 90
        2
176
     0
 62
     7
176
     0
 90
        5
176
     0
 90
        0
176
     0
 90
        0
176
     0
290
     0
176
     0
 90
        1
176
     0
 40
0.0
176
     0
 90
        0
176
     0
290
     0
176
     0
290
     1
176
     0
290
     1
176
     0
290
     0
176
     0
290
     0
176
     0
290
     0
176
     0
290
     0
176
     0
290
     0
176
     0
290
     0
176
     0
 90
       50
176
     0
 40
0.0
176
     0
 40
1.0
176
     0
 90
        0
176
     0
 62
    18
420
        0
176
     0
 90
       50
176
     0
 90
        3
176
     0
 62
     5
420
      255
176
     0
290
     0
176
     0
 90
       50
176
     0
 90
       50
176
     0
 90
       50
176
     0
290
     0
176
     0
 90
       50
176
     0
 62
   256
176
     0
 40
1.0
176
     0
 90
        2
176
     0
  1
strokes_ogs.tif
176
     0
290
     0
176
     0
 40
1.0
176
     0
 40
1.0
176
     0
  0
VISUALSTYLE
  5
39
102
{ACAD_REACTORS
330
2A
102
}
330
2A
100
AcDbVisualStyle
  2
Facepattern
 70
    15
177
     3
291
     1
 70
    58
 90
        2
176
     1
 90
        2
176
     1
 90
        0
176
     1
 90
        0
176
     1
 40
0.6
176
     1
 40
30.0
176
     1
 62
     7
420
 16777215
176
     1
 90
        1
176
     1
 90
        4
176
     1
 62
     7
176
     1
 62
   257
176
     1
 90
        1
176
     1
 90
        1
176
     1
 40
1.0
176
     1
 90
        8
176
     1
 62
     7
176
     1
 40
1.0
176
     1
 90
        1
176
     1
 90
        6
176
     1
 90
        2
176
     1
 62
     7
176
     1
 90
        5
176
     1
 90
        0
176
     1
 90
        0
176
     1
290
     0
176
     1
 90
        1
176
     1
 40
0.0
176
     1
 90
        0
176
     1
290
     0
176
     1
290
     1
176
     1
290
     1
176
     1
290
     0
176
     1
290
     0
176
     1
290
     0
176
     1
290
     0
176
     1
290
     0
176
     1
290
     0
176
     1
 90
       50
176
     1
 40
0.0
176
     1
 40
1.0
176
     1
 90
        0
176
     1
 62
    18
420
        0
176
     1
 90
       50
176
     1
 90
        3
176
     1
 62
     5
420
      255
176
     1
290
     0
176
     1
 90
       50
176
     1
 90
       50
176
     1
 90
       50
176
     1
290
     0
176
     1
 90
       50
176
     1
 62
   256
176
     0
 40
1.0
176
     0
 90
        2
176
     1
  1
strokes_ogs.tif
176
     1
290
     0
176
     1
 40
1.0
176
     1
 40
1.0
176
     1
  0
VISUALSTYLE
  5
2B
102
{ACAD_REACTORS
330
2A
102
}
330
2A
100
AcDbVisualStyle
  2
Flat
 70
     0
177
     3
291
     1
 70
    58
 90
        2
176
     1
 90
        1
176
     1
 90
        1
176
     1
 90
        2
176
     1
 40
0.6
176
     1
 40
30.0
176
     1
 62
     7
420
 16777215
176
     1
 90
        0
176
     1
 90
        0
176
     1
 62
     7
176
     1
 62
   257
176
     1
 90
        1
176
     1
 90
        1
176
     1
 40
1.0
176
     1
 90
        8
176
     1
 62
     7
176
     1
 40
1.0
176
     1
 90
        1
176
     1
 90
        6
176
     1
 90
        2
176
     1
 62
     7
176
     1
 90
        5
176
     1
 90
        0
176
     1
 90
        0
176
     1
290
     0
176
     1
 90
       13
176
     1
 40
0.0
176
     1
 90
        0
176
     1
290
     0
176
     1
290
     1
176
     1
290
     1
176
     1
290
     0
176
     1
290
     0
176
     1
290
     0
176
     1
290
     0
176
     1
290
     0
176
     1
290
     0
176
     1
 90
       50
176
     1
 40
0.0
176
     1
 40
1.0
176
     1
 90
        0
176
     1
 62
    18
420
        0
176
     1
 90
       50
176
     1
 90
        3
176
     1
 62
     5
420
      255
176
     1
290
     0
176
     1
 90
       50
176
     1
 90
       50
176
     1
 90
       50
176
     1
290
     0
176
     1
 90
       50
176
     1
 62
   256
176
     0
 40
1.0
176
     0
 90
        2
176
     1
  1
strokes_ogs.tif
176
     1
290
     0
176
     1
 40
1.0
176
     1
 40
1.0
176
     1
  0
VISUALSTYLE
  5
2C
102
{ACAD_REACTORS
330
2A
102
}
330
2A
100
AcDbVisualStyle
  2
FlatWithEdges
 70
     1
177
     3
291
     1
 70
    58
 90
        2
176
     1
 90
        1
176
     1
 90
        1
176
     1
 90
        2
176
     1
 40
0.6
176
     1
 40
30.0
176
     1
 62
     7
420
 16777215
176
     1
 90
        1
176
     1
 90
        0
176
     1
 62
     7
176
     1
 62
   257
176
     1
 90
        1
176
     1
 90
        1
176
     1
 40
1.0
176
     1
 90
        0
176
     1
 62
   257
176
     1
 40
1.0
176
     1
 90
        1
176
     1
 90
        6
176
     1
 90
        2
176
     1
 62
     7
176
     1
 90
        5
176
     1
 90
        0
176
     1
 90
        0
176
     1
290
     0
176
     1
 90
       13
176
     1
 40
0.0
176
     1
 90
        0
176
     1
290
     0
176
     1
290
     1
176
     1
290
     1
176
     1
290
     0
176
     1
290
     0
176
     1
290
     0
176
     1
290
     0
176
     1
290
     0
176
     1
290
     0
176
     1
 90
       50
176
     1
 40
0.0
176
     1
 40
1.0
176
     1
 90
        0
176
     1
 62
    18
420
        0
176
     1
 90
       50
176
     1
 90
        3
176
     1
 62
     5
420
      255
176
     1
290
     0
176
     1
 90
       50
176
     1
 90
       50
176
     1
 90
       50
176
     1
290
     0
176
     1
 90
       50
176
     1
 62
   256
176
     0
 40
1.0
176
     0
 90
        2
176
     1
  1
strokes_ogs.tif
176
     1
290
     0
176
     1
 40
1.0
176
     1
 40
1.0
176
     1
  0
VISUALSTYLE
  5
2D
102
{ACAD_REACTORS
330
2A
102
}
330
2A
100
AcDbVisualStyle
  2
Gouraud
 70
     2
177
     3
291
     1
 70
    58
 90
        2
176
     1
 90
        2
176
     1
 90
        1
176
     1
 90
        2
176
     1
 40
0.6
176
     1
 40
30.0
176
     1
 62
     7
420
 16777215
176
     1
 90
        0
176
     1
 90
        0
176
     1
 62
     7
176
     1
 62
   257
176
     1
 90
        1
176
     1
 90
        1
176
     1
 40
1.0
176
     1
 90
        0
176
     1
 62
     7
176
     1
 40
1.0
176
     1
 90
        1
176
     1
 90
        6
176
     1
 90
        2
176
     1
 62
     7
176
     1
 90
        5
176
     1
 90
        0
176
     1
 90
        0
176
     1
290
     0
176
     1
 90
       13
176
     1
 40
0.0
176
     1
 90
        0
176
     1
290
     0
176
     1
290
     1
176
     1
290
     1
176
     1
290
     0
176
     1
290
     0
176
     1
290
     0
176
     1
290
     0
176
     1
290
     0
176
     1
290
     0
176
     1
 90
       50
176
     1
 40
0.0
176
     1
 40
1.0
176
     1
 90
        0
176
     1
 62
    18
420
        0
176
     1
 90
       50
176
     1
 90
        3
176
     1
 62
     5
420
      255
176
     1
290
     0
176
     1
 90
       50
176
     1
 90
       50
176
     1
 90
       50
176
     1
290
     0
176
     1
 90
       50
176
     1
 62
   256
176
     0
 40
1.0
176
     0
 90
        2
176
     1
  1
strokes_ogs.tif
176
     1
290
     0
176
     1
 40
1.0
176
     1
 40
1.0
176
     1
  0
VISUALSTYLE
  5
2E
102
{ACAD_REACTORS
330
2A
102
}
330
2A
100
AcDbVisualStyle
  2
GouraudWithEdges
 70
     3
177
     3
291
     1
 70
    58
 90
        2
176
     1
 90
        2
176
     1
 90
        1
176
     1
 90
        2
176
     1
 40
0.6
176
     1
 40
30.0
176
     1
 62
     7
420
 16777215
176
     1
 90
        1
176
     1
 90
        0
176
     1
 62
     7
176
     1
 62
   257
176
     1
 90
        1
176
     1
 90
        1
176
     1
 40
1.0
176
     1
 90
        0
176
     1
 62
   257
176
     1
 40
1.0
176
     1
 90
        1
176
     1
 90
        6
176
     1
 90
        2
176
     1
 62
     7
176
     1
 90
        5
176
     1
 90
        0
176
     1
 90
        0
176
     1
290
     0
176
     1
 90
       13
176
     1
 40
0.0
176
     1
 90
        0
176
     1
290
     0
176
     1
290
     1
176
     1
290
     1
176
     1
290
     0
176
     1
290
     0
176
     1
290
     0
176
     1
290
     0
176
     1
290
     0
176
     1
290
     0
176
     1
 90
       50
176
     1
 40
0.0
176
     1
 40
1.0
176
     1
 90
        0
176
     1
 62
    18
420
        0
176
     1
 90
       50
176
     1
 90
        3
176
     1
 62
     5
420
      255
176
     1
290
     0
176
     1
 90
       50
176
     1
 90
       50
176
     1
 90
       50
176
     1
290
     0
176
     1
 90
       50
176
     1
 62
   256
176
     0
 40
1.0
176
     0
 90
        2
176
     1
  1
strokes_ogs.tif
176
     1
290
     0
176
     1
 40
1.0
176
     1
 40
1.0
176
     1
  0
VISUALSTYLE
  5
31
102
{ACAD_REACTORS
330
2A
102
}
330
2A
100
AcDbVisualStyle
  2
Hidden
 70
     6
177
     3
291
     0
 70
    58
 90
        1
176
     1
 90
        2
176
     1
 90
        2
176
     1
 90
        0
176
     1
 40
0.6
176
     1
 40
30.0
176
     1
 62
     7
420
 16777215
176
     1
 90
        2
176
     1
 90
        2
176
     1
 62
     7
176
     1
 62
   257
176
     1
 90
        2
176
     1
 90
        1
176
     1
 40
40.0
176
     1
 90
        0
176
     1
 62
   257
176
     1
 40
1.0
176
     1
 90
        1
176
     1
 90
        6
176
     1
 90
        2
176
     1
 62
     7
176
     1
 90
        3
176
     1
 90
        0
176
     1
 90
        0
176
     1
290
     0
176
     1
 90
        1
176
     1
 40
0.0
176
     1
 90
        0
176
     1
290
     0
176
     1
290
     1
176
     1
290
     1
176
     1
290
     0
176
     1
290
     0
176
     1
290
     0
176
     1
290
     0
176
     1
290
     0
176
     1
290
     0
176
     1
 90
       50
176
     1
 40
0.0
176
     1
 40
1.0
176
     1
 90
        0
176
     1
 62
    18
420
        0
176
     1
 90
       50
176
     1
 90
        3
176
     1
 62
     5
420
      255
176
     1
290
     0
176
     1
 90
       50
176
     1
 90
       50
176
     1
 90
       50
176
     1
290
     0
176
     1
 90
       50
176
     1
 62
   256
176
     0
 40
1.0
176
     0
 90
        2
176
     1
  1
strokes_ogs.tif
176
     1
290
     0
176
     1
 40
1.0
176
     1
 40
1.0
176
     1
  0
VISUALSTYLE
  5
3B
102
{ACAD_REACTORS
330
2A
102
}
330
2A
100
AcDbVisualStyle
  2
JitterOff
 70
    20
177
     3
291
     1
 70
    58
 90
        2
176
     0
 90
        2
176
     0
 90
        0
176
     0
 90
        0
176
     0
 40
0.6
176
     0
 40
30.0
176
     0
 62
     7
420
 16777215
176
     0
 90
        1
176
     0
 90
        4
176
     0
 62
     7
176
     0
 62
   257
176
     0
 90
        1
176
     0
 90
        1
176
     0
 40
1.0
176
     0
 90
       10
176
     2
 62
     7
176
     0
 40
1.0
176
     0
 90
        1
176
     0
 90
        6
176
     0
 90
        2
176
     0
 62
     7
176
     0
 90
        5
176
     0
 90
        0
176
     0
 90
        0
176
     0
290
     0
176
     0
 90
        1
176
     0
 40
0.0
176
     0
 90
        0
176
     0
290
     0
176
     0
290
     1
176
     0
290
     1
176
     0
290
     0
176
     0
290
     0
176
     0
290
     0
176
     0
290
     0
176
     0
290
     0
176
     0
290
     0
176
     0
 90
       50
176
     0
 40
0.0
176
     0
 40
1.0
176
     0
 90
        0
176
     0
 62
    18
420
        0
176
     0
 90
       50
176
     0
 90
        3
176
     0
 62
     5
420
      255
176
     0
290
     0
176
     0
 90
       50
176
     0
 90
       50
176
     0
 90
       50
176
     0
290
     0
176
     0
 90
       50
176
     0
 62
   256
176
     0
 40
1.0
176
     0
 90
        2
176
     0
  1
strokes_ogs.tif
176
     0
290
     0
176
     0
 40
1.0
176
     0
 40
1.0
176
     0
  0
VISUALSTYLE
  5
38
102
{ACAD_REACTORS
330
2A
102
}
330
2A
100
AcDbVisualStyle
  2
Linepattern
 70
    14
177
     3
291
     1
 70
    58
 90
        2
176
     1
 90
        2
176
     1
 90
        0
176
     1
 90
        0
176
     1
 40
0.6
176
     1
 40
30.0
176
     1
 62
     7
420
 16777215
176
     1
 90
        1
176
     1
 90
        4
176
     1
 62
     7
176
     1
 62
   257
176
     1
 90
        7
176
     1
 90
        7
176
     1
 40
1.0
176
     1
 90
        8
176
     1
 62
     7
176
     1
 40
1.0
176
     1
 90
        1
176
     1
 90
        6
176
     1
 90
        2
176
     1
 62
     7
176
     1
 90
        5
176
     1
 90
        0
176
     1
 90
        0
176
     1
290
     0
176
     1
 90
        1
176
     1
 40
0.0
176
     1
 90
        0
176
     1
290
     0
176
     1
290
     1
176
     1
290
     1
176
     1
290
     0
176
     1
290
     0
176
     1
290
     0
176
     1
290
     0
176
     1
290
     0
176
     1
290
     0
176
     1
 90
       50
176
     1
 40
0.0
176
     1
 40
1.0
176
     1
 90
        0
176
     1
 62
    18
420
        0
176
     1
 90
       50
176
     1
 90
        3
176
     1
 62
     5
420
      255
176
     1
290
     0
176
     1
 90
       50
176
     1
 90
       50
176
     1
 90
       50
176
     1
290
     0
176
     1
 90
       50
176
     1
 62
   256
176
     0
 40
1.0
176
     0
 90
        2
176
     1
  1
strokes_ogs.tif
176
     1
290
     0
176
     1
 40
1.0
176
     1
 40
1.0
176
     1
  0
VISUALSTYLE
  5
3C
102
{ACAD_REACTORS
330
2A
102
}
330
2A
100
AcDbVisualStyle
  2
OverhangOff
 70
    21
177
     3
291
     1
 70
    58
 90
        2
176
     0
 90
        2
176
     0
 90
        0
176
     0
 90
        0
176
     0
 40
0.6
176
     0
 40
30.0
176
     0
 62
     7
420
 16777215
176
     0
 90
        1
176
     0
 90
        4
176
     0
 62
     7
176
     0
 62
   257
176
     0
 90
        1
176
     0
 90
        1
176
     0
 40
1.0
176
     0
 90
        9
176
     2
 62
     7
176
     0
 40
1.0
176
     0
 90
        1
176
     0
 90
        6
176
     0
 90
        2
176
     0
 62
     7
176
     0
 90
        5
176
     0
 90
        0
176
     0
 90
        0
176
     0
290
     0
176
     0
 90
        1
176
     0
 40
0.0
176
     0
 90
        0
176
     0
290
     0
176
     0
290
     1
176
     0
290
     1
176
     0
290
     0
176
     0
290
     0
176
     0
290
     0
176
     0
290
     0
176
     0
290
     0
176
     0
290
     0
176
     0
 90
       50
176
     0
 40
0.0
176
     0
 40
1.0
176
     0
 90
        0
176
     0
 62
    18
420
        0
176
     0
 90
       50
176
     0
 90
        3
176
     0
 62
     5
420
      255
176
     0
290
     0
176
     0
 90
       50
176
     0
 90
       50
176
     0
 90
       50
176
     0
290
     0
176
     0
 90
       50
176
     0
 62
   256
176
     0
 40
1.0
176
     0
 90
        2
176
     0
  1
strokes_ogs.tif
176
     0
290
     0
176
     0
 40
1.0
176
     0
 40
1.0
176
     0
  0
VISUALSTYLE
  5
33
102
{ACAD_REACTORS
330
2A
102
}
330
2A
100
AcDbVisualStyle
  2
Realistic
 70
     8
177
     3
291
     0
 70
    58
 90
        2
176
     1
 90
        3
176
     1
 90
        0
176
     1
 90
        2
176
     1
 40
0.6
176
     1
 40
30.0
176
     1
 62
     7
420
 16777215
176
     1
 90
        0
176
     1
 90
        0
176
     1
 62
     7
176
     1
 62
   257
176
     1
 90
        1
176
     1
 90
        1
176
     1
 40
1.0
176
     1
 90
        8
176
     1
 62
   257
176
     1
 40
1.0
176
     1
 90
        1
176
     1
 90
        6
176
     1
 90
        2
176
     1
 62
     7
176
     1
 90
        3
176
     1
 90
        0
176
     1
 90
        0
176
     1
290
     0
176
     1
 90
       13
176
     1
 40
0.0
176
     1
 90
        0
176
     1
290
     0
176
     1
290
     1
176
     1
290
     1
176
     1
290
     0
176
     1
290
     0
176
     1
290
     0
176
     1
290
     0
176
     1
290
     0
176
     1
290
     0
176
     1
 90
       50
176
     1
 40
0.0
176
     1
 40
1.0
176
     1
 90
        0
176
     1
 62
    18
420
        0
176
     1
 90
       50
176
     1
 90
        3
176
     1
 62
     5
420
      255
176
     1
290
     0
176
     1
 90
       50
176
     1
 90
       50
176
     1
 90
       50
176
     1
290
     0
176
     1
 90
       50
176
     1
 62
   256
176
     0
 40
1.0
176
     0
 90
        2
176
     1
  1
strokes_ogs.tif
176
     1
290
     0
176
     1
 40
1.0
176
     1
 40
1.0
176
     1
  0
VISUALSTYLE
  5
42
102
{ACAD_REACTORS
330
2A
102
}
330
2A
100
AcDbVisualStyle
  2
Shaded
 70
    27
177
     3
291
     0
 70
    58
 90
        2
176
     1
 90
        2
176
     1
 90
        1
176
     1
 90
        2
176
     1
 40
0.6
176
     1
 40
30.0
176
     1
 62
     7
420
 16777215
176
     1
 90
        0
176
     1
 90
        4
176
     1
 62
     7
176
     1
 62
   257
176
     1
 90
        1
176
     1
 90
        1
176
     1
 40
1.0
176
     1
 90
        8
176
     1
 62
   257
176
     1
 40
1.0
176
     1
 90
        1
176
     1
 90
        6
176
     1
 90
        2
176
     1
 62
     8
420
  7895160
176
     1
 90
        3
176
     1
 90
        0
176
     1
 90
        0
176
     1
290
     0
176
     1
 90
        5
176
     1
 40
0.0
176
     1
 90
        0
176
     1
290
     0
176
     1
290
     1
176
     1
290
     1
176
     1
290
     0
176
     1
290
     0
176
     1
290
     0
176
     1
290
     0
176
     1
290
     0
176
     1
290
     0
176
     1
 90
       50
176
     1
 40
0.0
176
     1
 40
1.0
176
     1
 90
        0
176
     1
 62
    18
420
        0
176
     1
 90
       50
176
     1
 90
        3
176
     1
 62
     5
420
      255
176
     1
290
     0
176
     1
 90
       50
176
     1
 90
       50
176
     1
 90
       50
176
     1
290
     0
176
     1
 90
       50
176
     1
 62
   256
176
     0
 40
1.0
176
     0
 90
        2
176
     1
  1
strokes_ogs.tif
176
     1
290
     0
176
     1
 40
1.0
176
     1
 40
1.0
176
     1
  0
VISUALSTYLE
  5
41
102
{ACAD_REACTORS
330
2A
102
}
330
2A
100
AcDbVisualStyle
  2
Shaded with edges
 70
    26
177
     3
291
     0
 70
    58
 90
        2
176
     1
 90
        2
176
     1
 90
        1
176
     1
 90
        2
176
     1
 40
0.6
176
     1
 40
30.0
176
     1
 62
     7
420
 16777215
176
     1
 90
        1
176
     1
 90
       10
176
     1
 62
     7
176
     1
 62
   257
176
     1
 90
        2
176
     1
 90
        1
176
     1
 40
1.0
176
     1
 90
        8
176
     1
 62
   257
176
     1
 40
1.0
176
     1
 90
        1
176
     1
 90
        6
176
     1
 90
        2
176
     1
 62
     7
176
     1
 90
        3
176
     1
 90
        0
176
     1
 90
        0
176
     1
290
     0
176
     1
 90
        5
176
     1
 40
0.0
176
     1
 90
        0
176
     1
290
     0
176
     1
290
     1
176
     1
290
     1
176
     1
290
     0
176
     1
290
     0
176
     1
290
     0
176
     1
290
     0
176
     1
290
     0
176
     1
290
     0
176
     1
 90
       50
176
     1
 40
0.0
176
     1
 40
1.0
176
     1
 90
        0
176
     1
 62
    18
420
        0
176
     1
 90
       50
176
     1
 90
        3
176
     1
 62
     5
420
      255
176
     1
290
     0
176
     1
 90
       50
176
     1
 90
       50
176
     1
 90
       50
176
     1
290
     0
176
     1
 90
       50
176
     1
 62
   256
176
     0
 40
1.0
176
     0
 90
        2
176
     1
  1
strokes_ogs.tif
176
     1
290
     0
176
     1
 40
1.0
176
     1
 40
1.0
176
     1
  0
VISUALSTYLE
  5
3E
102
{ACAD_REACTORS
330
2A
102
}
330
2A
100
AcDbVisualStyle
  2
Shades of Gray
 70
    23
177
     3
291
     0
 70
    58
 90
        2
176
     1
 90
        2
176
     1
 90
        3
176
     1
 90
        0
176
     1
 40
0.6
176
     1
 40
30.0
176
     1
 62
     7
420
 16777215
176
     1
 90
        2
176
     1
 90
        2
176
     1
 62
     7
176
     1
 62
     7
176
     1
 90
        1
176
     1
 90
        1
176
     1
 40
40.0
176
     1
 90
        8
176
     1
 62
     7
176
     1
 40
1.0
176
     1
 90
        1
176
     1
 90
        6
176
     1
 90
        2
176
     1
 62
     7
176
     1
 90
        3
176
     1
 90
        0
176
     1
 90
        0
176
     1
290
     0
176
     1
 90
        1
176
     1
 40
0.0
176
     1
 90
        0
176
     1
290
     0
176
     1
290
     1
176
     1
290
     1
176
     1
290
     0
176
     1
290
     0
176
     1
290
     0
176
     1
290
     0
176
     1
290
     0
176
     1
290
     0
176
     1
 90
       50
176
     1
 40
0.0
176
     1
 40
1.0
176
     1
 90
        0
176
     1
 62
    18
420
        0
176
     1
 90
       50
176
     1
 90
        3
176
     1
 62
     5
420
      255
176
     1
290
     0
176
     1
 90
       50
176
     1
 90
       50
176
     1
 90
       50
176
     1
290
     0
176
     1
 90
       50
176
     1
 62
   256
176
     0
 40
1.0
176
     0
 90
        2
176
     1
  1
strokes_ogs.tif
176
     1
290
     0
176
     1
 40
1.0
176
     1
 40
1.0
176
     1
  0
VISUALSTYLE
  5
3F
102
{ACAD_REACTORS
330
2A
102
}
330
2A
100
AcDbVisualStyle
  2
Sketchy
 70
    24
177
     3
291
     0
 70
    58
 90
        1
176
     1
 90
        2
176
     1
 90
        2
176
     1
 90
        0
176
     1
 40
0.6
176
     1
 40
30.0
176
     1
 62
     7
420
 16777215
176
     1
 90
        2
176
     1
 90
        2
176
     1
 62
     7
176
     1
 62
     7
176
     1
 90
        1
176
     1
 90
        1
176
     1
 40
40.0
176
     1
 90
       11
176
     1
 62
     7
176
     1
 40
1.0
176
     1
 90
        1
176
     1
 90
        6
176
     1
 90
        2
176
     1
 62
     7
176
     1
 90
        6
176
     1
 90
        0
176
     1
 90
        0
176
     1
290
     0
176
     1
 90
        1
176
     1
 40
0.0
176
     1
 90
        0
176
     1
290
     0
176
     1
290
     1
176
     1
290
     1
176
     1
290
     0
176
     1
290
     0
176
     1
290
     0
176
     1
290
     0
176
     1
290
     0
176
     1
290
     0
176
     1
 90
       50
176
     1
 40
0.0
176
     1
 40
1.0
176
     1
 90
        0
176
     1
 62
    18
420
        0
176
     1
 90
       50
176
     1
 90
        3
176
     1
 62
     5
420
      255
176
     1
290
     0
176
     1
 90
       50
176
     1
 90
       50
176
     1
 90
       50
176
     1
290
     0
176
     1
 90
       50
176
     1
 62
   256
176
     0
 40
1.0
176
     0
 90
        2
176
     1
  1
strokes_ogs.tif
176
     1
290
     0
176
     1
 40
1.0
176
     1
 40
1.0
176
     1
  0
VISUALSTYLE
  5
37
102
{ACAD_REACTORS
330
2A
102
}
330
2A
100
AcDbVisualStyle
  2
Thicken
 70
    13
177
     3
291
     1
 70
    58
 90
        2
176
     1
 90
        2
176
     1
 90
        0
176
     1
 90
        0
176
     1
 40
0.6
176
     1
 40
30.0
176
     1
 62
     7
420
 16777215
176
     1
 90
        1
176
     1
 90
        4
176
     1
 62
     7
176
     1
 62
   257
176
     1
 90
        1
176
     1
 90
        1
176
     1
 40
1.0
176
     1
 90
       12
176
     1
 62
     7
176
     1
 40
1.0
176
     1
 90
        1
176
     1
 90
        6
176
     1
 90
        2
176
     1
 62
     7
176
     1
 90
        5
176
     1
 90
        0
176
     1
 90
        0
176
     1
290
     0
176
     1
 90
        1
176
     1
 40
0.0
176
     1
 90
        0
176
     1
290
     0
176
     1
290
     1
176
     1
290
     1
176
     1
290
     0
176
     1
290
     0
176
     1
290
     0
176
     1
290
     0
176
     1
290
     0
176
     1
290
     0
176
     1
 90
       50
176
     1
 40
0.0
176
     1
 40
1.0
176
     1
 90
        0
176
     1
 62
    18
420
        0
176
     1
 90
       50
176
     1
 90
        3
176
     1
 62
     5
420
      255
176
     1
290
     0
176
     1
 90
       50
176
     1
 90
       50
176
     1
 90
       50
176
     1
290
     0
176
     1
 90
       50
176
     1
 62
   256
176
     0
 40
1.0
176
     0
 90
        2
176
     1
  1
strokes_ogs.tif
176
     1
290
     0
176
     1
 40
1.0
176
     1
 40
1.0
176
     1
  0
VISUALSTYLE
  5
30
102
{ACAD_REACTORS
330
2A
102
}
330
2A
100
AcDbVisualStyle
  2
Wireframe
 70
     5
177
     3
291
     0
 70
    58
 90
        0
176
     1
 90
        2
176
     1
 90
        0
176
     1
 90
        0
176
     1
 40
0.6
176
     1
 40
30.0
176
     1
 62
     7
420
 16777215
176
     1
 90
        1
176
     1
 90
        4
176
     1
 62
     7
176
     1
 62
   257
176
     1
 90
        1
176
     1
 90
        1
176
     1
 40
1.0
176
     1
 90
        0
176
     1
 62
   257
176
     1
 40
1.0
176
     1
 90
        1
176
     1
 90
        6
176
     1
 90
        2
176
     1
 62
     7
176
     1
 90
        3
176
     1
 90
        0
176
     1
 90
        0
176
     1
290
     0
176
     1
 90
        1
176
     1
 40
0.0
176
     1
 90
        0
176
     1
290
     0
176
     1
290
     1
176
     1
290
     1
176
     1
290
     0
176
     1
290
     0
176
     1
290
     0
176
     1
290
     0
176
     1
290
     0
176
     1
290
     0
176
     1
 90
       50
176
     1
 40
0.0
176
     1
 40
1.0
176
     1
 90
        0
176
     1
 62
    18
420
        0
176
     1
 90
       50
176
     1
 90
        3
176
     1
 62
     5
420
      255
176
     1
290
     0
176
     1
 90
       50
176
     1
 90
       50
176
     1
 90
       50
176
     1
290
     0
176
     1
 90
       50
176
     1
 62
   256
176
     0
 40
1.0
176
     0
 90
        2
176
     1
  1
strokes_ogs.tif
176
     1
290
     0
176
     1
 40
1.0
176
     1
 40
1.0
176
     1
  0
VISUALSTYLE
  5
40
102
{ACAD_REACTORS
330
2A
102
}
330
2A
100
AcDbVisualStyle
  2
X-Ray
 70
    25
177
     3
291
     0
 70
    58
 90
        2
176
     1
 90
        2
176
     1
 90
        1
176
     1
 90
        1
176
     1
 40
0.5
176
     1
 40
30.0
176
     1
 62
     7
420
 16777215
176
     1
 90
        1
176
     1
 90
        0
176
     1
 62
     7
176
     1
 62
   257
176
     1
 90
        1
176
     1
 90
        1
176
     1
 40
1.0
176
     1
 90
        8
176
     1
 62
     7
176
     1
 40
1.0
176
     1
 90
        1
176
     1
 90
        6
176
     1
 90
        2
176
     1
 62
     7
176
     1
 90
        3
176
     1
 90
        0
176
     1
 90
        0
176
     1
290
     0
176
     1
 90
       13
176
     1
 40
0.0
176
     1
 90
        0
176
     1
290
     0
176
     1
290
     1
176
     1
290
     1
176
     1
290
     0
176
     1
290
     0
176
     1
290
     0
176
     1
290
     0
176
     1
290
     0
176
     1
290
     0
176
     1
 90
       50
176
     1
 40
0.0
176
     1
 40
1.0
176
     1
 90
        0
176
     1
 62
    18
420
        0
176
     1
 90
       50
176
     1
 90
        3
176
     1
 62
     5
420
      255
176
     1
290
     0
176
     1
 90
       50
176
     1
 90
       50
176
     1
 90
       50
176
     1
290
     0
176
     1
 90
       50
176
     1
 62
   256
176
     0
 40
1.0
176
     0
 90
        2
176
     1
  1
strokes_ogs.tif
176
     1
290
     0
176
     1
 40
1.0
176
     1
 40
1.0
176
     1
  0
DICTIONARYVAR
  5
356
102
{ACAD_REACTORS
330
355
102
}
330
355
100
DictionaryVariables
280
     0
  1
1:1
  0
ENDSEC
  0
EOF
