  0
SECTION
  2
HEADER
  9
$ACADVER
  1
AC1014
  9
$ACADMAINTVER
 70
     9
  9
$DWGCODEPAGE
  3
ANSI_932
  9
$INSBASE
 10
0.0
 20
0.0
 30
0.0
  9
$EXTMIN
 10
104.6202918365052
 20
95.66736800559192
 30
0.0
  9
$EXTMAX
 10
744.728192104124
 20
460.4620770423695
 30
0.0
  9
$LIMMIN
 10
0.0
 20
0.0
  9
$LIMMAX
 10
420.0
 20
297.0
  9
$ORTHOMODE
 70
     0
  9
$REGENMODE
 70
     1
  9
$FILLMODE
 70
     1
  9
$QTEXTMODE
 70
     0
  9
$MIRRTEXT
 70
     1
  9
$DRAGMODE
 70
     2
  9
$LTSCALE
 40
0.5
  9
$OSMODE
 70
    37
  9
$ATTMODE
 70
     1
  9
$TEXTSIZE
 40
5.6
  9
$TRACEWID
 40
0.05
  9
$TEXTSTYLE
  7
STANDARD
  9
$CLAYER
  8
0
  9
$CELTYPE
  6
BYLAYER
  9
$CECOLOR
 62
   256
  9
$CELTSCALE
 40
1.0
  9
$DELOBJ
 70
     1
  9
$DISPSILH
 70
     0
  9
$DIMSCALE
 40
1.0
  9
$DIMASZ
 40
1.55291427
  9
$DIMEXO
 40
2.0
  9
$DIMDLI
 40
30.0
  9
$DIMRND
 40
0.0
  9
$DIMDLE
 40
0.0
  9
$DIMEXE
 40
2.0
  9
$DIMTP
 40
0.0
  9
$DIMTM
 40
0.0
  9
$DIMTXT
 40
2.8
  9
$DIMCEN
 40
0.09
  9
$DIMTSZ
 40
0.0
  9
$DIMTOL
 70
     0
  9
$DIMLIM
 70
     0
  9
$DIMTIH
 70
     0
  9
$DIMTOH
 70
     0
  9
$DIMSE1
 70
     0
  9
$DIMSE2
 70
     0
  9
$DIMTAD
 70
     3
  9
$DIMZIN
 70
     8
  9
$DIMBLK
  1

  9
$DIMASO
 70
     1
  9
$DIMSHO
 70
     1
  9
$DIMPOST
  1

  9
$DIMAPOST
  1

  9
$DIMALT
 70
     0
  9
$DIMALTD
 70
     2
  9
$DIMALTF
 40
25.4
  9
$DIMLFAC
 40
1.0
  9
$DIMTOFL
 70
     1
  9
$DIMTVP
 40
0.7
  9
$DIMTIX
 70
     0
  9
$DIMSOXD
 70
     0
  9
$DIMSAH
 70
     0
  9
$DIMBLK1
  1

  9
$DIMBLK2
  1

  9
$DIMSTYLE
  2
STANDARD
  9
$DIMCLRD
 70
     0
  9
$DIMCLRE
 70
     0
  9
$DIMCLRT
 70
     0
  9
$DIMTFAC
 40
0.5
  9
$DIMGAP
 40
0.09
  9
$DIMJUST
 70
     0
  9
$DIMSD1
 70
     0
  9
$DIMSD2
 70
     0
  9
$DIMTOLJ
 70
     1
  9
$DIMTZIN
 70
     8
  9
$DIMALTZ
 70
     0
  9
$DIMALTTZ
 70
     0
  9
$DIMFIT
 70
     5
  9
$DIMUPT
 70
     1
  9
$DIMUNIT
 70
     2
  9
$DIMDEC
 70
     2
  9
$DIMTDEC
 70
     4
  9
$DIMALTU
 70
     2
  9
$DIMALTTD
 70
     2
  9
$DIMTXSTY
  7
STANDARD
  9
$DIMAUNIT
 70
     0
  9
$LUNITS
 70
     2
  9
$LUPREC
 70
     4
  9
$SKETCHINC
 40
0.1
  9
$FILLETRAD
 40
0.5
  9
$AUNITS
 70
     0
  9
$AUPREC
 70
     0
  9
$MENU
  1
.
  9
$ELEVATION
 40
0.0
  9
$PELEVATION
 40
0.0
  9
$THICKNESS
 40
0.0
  9
$LIMCHECK
 70
     0
  9
$CHAMFERA
 40
0.5
  9
$CHAMFERB
 40
0.5
  9
$CHAMFERC
 40
1.0
  9
$CHAMFERD
 40
0.0
  9
$SKPOLY
 70
     0
  9
$TDCREATE
 40
2460098.020416667
  9
$TDUPDATE
 40
2460097.64542147
  9
$TDINDWG
 40
0.0000000116
  9
$TDUSRTIMER
 40
0.0000000116
  9
$USRTIMER
 70
     1
  9
$ANGBASE
 50
0.0
  9
$ANGDIR
 70
     0
  9
$PDMODE
 70
     0
  9
$PDSIZE
 40
0.0
  9
$PLINEWID
 40
0.0
  9
$COORDS
 70
     1
  9
$SPLFRAME
 70
     0
  9
$SPLINETYPE
 70
     6
  9
$SPLINESEGS
 70
     8
  9
$ATTDIA
 70
     0
  9
$ATTREQ
 70
     1
  9
$HANDLING
 70
     1
  9
$HANDSEED
  5
238
  9
$SURFTAB1
 70
     6
  9
$SURFTAB2
 70
     6
  9
$SURFTYPE
 70
     6
  9
$SURFU
 70
     6
  9
$SURFV
 70
     6
  9
$UCSNAME
  2

  9
$UCSORG
 10
0.0
 20
0.0
 30
0.0
  9
$UCSXDIR
 10
1.0
 20
0.0
 30
0.0
  9
$UCSYDIR
 10
0.0
 20
1.0
 30
0.0
  9
$PUCSNAME
  2

  9
$PUCSORG
 10
0.0
 20
0.0
 30
0.0
  9
$PUCSXDIR
 10
1.0
 20
0.0
 30
0.0
  9
$PUCSYDIR
 10
0.0
 20
1.0
 30
0.0
  9
$USERI1
 70
     0
  9
$USERI2
 70
     0
  9
$USERI3
 70
     0
  9
$USERI4
 70
     0
  9
$USERI5
 70
     0
  9
$USERR1
 40
0.0
  9
$USERR2
 40
0.0
  9
$USERR3
 40
0.0
  9
$USERR4
 40
0.0
  9
$USERR5
 40
0.0
  9
$WORLDVIEW
 70
     1
  9
$SHADEDGE
 70
     3
  9
$SHADEDIF
 70
    70
  9
$TILEMODE
 70
     1
  9
$MAXACTVP
 70
    64
  9
$PINSBASE
 10
0.0
 20
0.0
 30
0.0
  9
$PLIMCHECK
 70
     0
  9
$PEXTMIN
 10
0.0
 20
0.0
 30
0.0
  9
$PEXTMAX
 10
420.0
 20
297.0
 30
0.0
  9
$PLIMMIN
 10
0.0
 20
0.0
  9
$PLIMMAX
 10
420.0
 20
297.0
  9
$UNITMODE
 70
     0
  9
$VISRETAIN
 70
     1
  9
$PLINEGEN
 70
     0
  9
$PSLTSCALE
 70
     1
  9
$TREEDEPTH
 70
  3020
  9
$PICKSTYLE
 70
     1
  9
$CMLSTYLE
  2
STANDARD
  9
$CMLJUST
 70
     0
  9
$CMLSCALE
 40
1.0
  9
$PROXYGRAPHICS
 70
     1
  9
$MEASUREMENT
 70
     1
  0
ENDSEC
  0
SECTION
  2
CLASSES
  0
CLASS
  1
ACDBDICTIONARYWDFLT
  2
AcDbDictionaryWithDefault
  3
ObjectDBX Classes
 90
        0
280
     0
281
     0
  0
CLASS
  1
VISUALSTYLE
  2
AcDbVisualStyle
  3
ObjectDBX Classes
 90
     4095
280
     0
281
     0
  0
CLASS
  1
MATERIAL
  2
AcDbMaterial
  3
ObjectDBX Classes
 90
     1153
280
     0
281
     0
  0
CLASS
  1
DICTIONARYVAR
  2
AcDbDictionaryVar
  3
ObjectDBX Classes
 90
        0
280
     0
281
     0
  0
CLASS
  1
XRECORD
  2
AcDbXrecord
  3
AutoCAD 2000
 90
        0
280
     0
281
     0
  0
CLASS
  1
LWPOLYLINE
  2
AcDbPolyline
  3
AutoCAD 2000
 90
        0
280
     0
281
     1
  0
CLASS
  1
HATCH
  2
AcDbHatch
  3
AutoCAD 2000
 90
        0
280
     0
281
     1
  0
CLASS
  1
ACDBPLACEHOLDER
  2
AcDbPlaceHolder
  3
ObjectDBX Classes
 90
        0
280
     0
281
     0
  0
CLASS
  1
LAYOUT
  2
AcDbLayout
  3
ObjectDBX Classes
 90
        0
280
     0
281
     0
  0
ENDSEC
  0
SECTION
  2
TABLES
  0
TABLE
  2
VPORT
  5
8
330
0
100
AcDbSymbolTable
 70
     1
  0
VPORT
  5
29
330
8
100
AcDbSymbolTableRecord
100
AcDbViewportTableRecord
  2
*ACTIVE
 70
     0
 10
0.0
 20
0.0
 11
1.0
 21
1.0
 12
10.42990654205607
 22
4.5
 13
0.0
 23
0.0
 14
0.5
 24
0.5
 15
0.5
 25
0.5
 16
0.0
 26
0.0
 36
1.0
 17
0.0
 27
0.0
 37
0.0
 40
9.0
 41
1.972972972850329
 42
50.0
 43
0.0
 44
0.0
 50
0.0
 51
0.0
 71
     0
 72
   100
 73
     1
 74
     3
 75
     0
 76
     0
 77
     0
 78
     0
  0
ENDTAB
  0
TABLE
  2
LTYPE
  5
5
330
0
100
AcDbSymbolTable
 70
     9
  0
LTYPE
  5
14
330
5
100
AcDbSymbolTableRecord
100
AcDbLinetypeTableRecord
  2
BYBLOCK
 70
     0
  3

 72
    65
 73
     0
 40
0.0
  0
LTYPE
  5
15
330
5
100
AcDbSymbolTableRecord
100
AcDbLinetypeTableRecord
  2
BYLAYER
 70
     0
  3

 72
    65
 73
     0
 40
0.0
  0
LTYPE
  5
16
330
5
100
AcDbSymbolTableRecord
100
AcDbLinetypeTableRecord
  2
CONTINUOUS
 70
     0
  3
Solid line
 72
    65
 73
     0
 40
0.0
  0
LTYPE
  5
8E
330
5
100
AcDbSymbolTableRecord
100
AcDbLinetypeTableRecord
  2
DOT
 70
     0
  3
DOT
 72
    65
 73
     2
 40
4.0
 49
6.0
 74
     0
 49
-2.0
 74
     0
  0
LTYPE
  5
8F
330
5
100
AcDbSymbolTableRecord
100
AcDbLinetypeTableRecord
  2
HIDDEN
 70
     0
  3
HIDDEN
 72
    65
 73
     2
 40
4.2
 49
8.4
 74
     0
 49
-4.2
 74
     0
  0
LTYPE
  5
90
330
5
100
AcDbSymbolTableRecord
100
AcDbLinetypeTableRecord
  2
DASHDOT
 70
     0
  3
DASHDOT
 72
    65
 73
     4
 40
14.5
 49
30.0
 74
     0
 49
-9.0
 74
     0
 49
2.5
 74
     0
 49
-9.0
 74
     0
  0
LTYPE
  5
91
330
5
100
AcDbSymbolTableRecord
100
AcDbLinetypeTableRecord
  2
PHANTOM
 70
     0
  3
PHANTOM
 72
    65
 73
     6
 40
12.0
 49
30.0
 74
     0
 49
-9.0
 74
     0
 49
2.5
 74
     0
 49
-5.0
 74
     0
 49
2.5
 74
     0
 49
-9.0
 74
     0
  0
LTYPE
  5
92
330
5
100
AcDbSymbolTableRecord
100
AcDbLinetypeTableRecord
  2
ACAD_ISO14W100
 70
     0
  3
ACAD_ISO14W100
 72
    65
 73
     8
 40
1.5
 49
12.0
 74
     0
 49
-3.0
 74
     0
 49
0.5
 74
     0
 49
-3.0
 74
     0
 49
0.5
 74
     0
 49
-3.0
 74
     0
 49
0.5
 74
     0
 49
-3.0
 74
     0
  0
LTYPE
  5
93
330
5
100
AcDbSymbolTableRecord
100
AcDbLinetypeTableRecord
  2
ACAD_ISO06W100
 70
     0
  3
ACAD_ISO06W100
 72
    65
 73
     8
 40
13.5
 49
24.0
 74
     0
 49
-3.0
 74
     0
 49
0.5
 74
     0
 49
-3.0
 74
     0
 49
0.5
 74
     0
 49
-3.0
 74
     0
 49
0.5
 74
     0
 49
-3.0
 74
     0
  0
LTYPE
  5
94
330
5
100
AcDbSymbolTableRecord
100
AcDbLinetypeTableRecord
  2
ACAD_ISO11W100
 70
     0
  3
ACAD_ISO11W100
 72
    65
 73
     6
 40
15.5
 49
12.0
 74
     0
 49
-3.0
 74
     0
 49
12.0
 74
     0
 49
-3.0
 74
     0
 49
0.5
 74
     0
 49
-3.0
 74
     0
  0
LTYPE
  5
95
330
5
100
AcDbSymbolTableRecord
100
AcDbLinetypeTableRecord
  2
ACAD_ISO13W100
 70
     0
  3
ACAD_ISO13W100
 72
    65
 73
     8
 40
13.0
 49
12.0
 74
     0
 49
-3.0
 74
     0
 49
12.0
 74
     0
 49
-3.0
 74
     0
 49
0.5
 74
     0
 49
-3.0
 74
     0
 49
0.5
 74
     0
 49
-3.0
 74
     0
  0
ENDTAB
  0
TABLE
  2
LAYER
  5
2
330
0
100
AcDbSymbolTable
 70
    12
  0
LAYER
  5
10
330
2
100
AcDbSymbolTableRecord
100
AcDbLayerTableRecord
  2
0
 70
     0
 62
     7
  6
CONTINUOUS
  0
LAYER
  5
96
330
2
100
AcDbSymbolTableRecord
100
AcDbLayerTableRecord
  2
1
 70
     0
 62
     7
  6
CONTINUOUS
  0
LAYER
  5
97
330
2
100
AcDbSymbolTableRecord
100
AcDbLayerTableRecord
  2
2
 70
     0
 62
   151
  6
CONTINUOUS
  0
LAYER
  5
98
330
2
100
AcDbSymbolTableRecord
100
AcDbLayerTableRecord
  2
3
 70
     0
 62
     3
  6
HIDDEN
  0
LAYER
  5
99
330
2
100
AcDbSymbolTableRecord
100
AcDbLayerTableRecord
  2
4
 70
     0
 62
     1
  6
DASHDOT
  0
LAYER
  5
9A
330
2
100
AcDbSymbolTableRecord
100
AcDbLayerTableRecord
  2
5
 70
     0
 62
     7
  6
CONTINUOUS
  0
LAYER
  5
9B
330
2
100
AcDbSymbolTableRecord
100
AcDbLayerTableRecord
  2
6
 70
     0
 62
     6
  6
CONTINUOUS
  0
LAYER
  5
9C
330
2
100
AcDbSymbolTableRecord
100
AcDbLayerTableRecord
  2
7
 70
     0
 62
     3
  6
CONTINUOUS
  0
LAYER
  5
9D
330
2
100
AcDbSymbolTableRecord
100
AcDbLayerTableRecord
  2
8
 70
     0
 62
     4
  6
CONTINUOUS
  0
LAYER
  5
9E
330
2
100
AcDbSymbolTableRecord
100
AcDbLayerTableRecord
  2
9
 70
     0
 62
     7
  6
CONTINUOUS
  0
LAYER
  5
9F
330
2
100
AcDbSymbolTableRecord
100
AcDbLayerTableRecord
  2
10
 70
     0
 62
     2
  6
CONTINUOUS
  0
LAYER
  5
A0
330
2
100
AcDbSymbolTableRecord
100
AcDbLayerTableRecord
  2
11
 70
     0
 62
     2
  6
CONTINUOUS
  0
ENDTAB
  0
TABLE
  2
STYLE
  5
3
330
0
100
AcDbSymbolTable
 70
     3
  0
STYLE
  5
11
330
3
100
AcDbSymbolTableRecord
100
AcDbTextStyleTableRecord
  2
STANDARD
 70
     0
 40
0.0
 41
1.0
 50
0.0
 71
     0
 42
5.6
  3
txt
  4
bigfont
  0
STYLE
  5
41
330
3
100
AcDbSymbolTableRecord
100
AcDbTextStyleTableRecord
  2
T_STANDARD
 70
     4
 40
10.0
 41
1.0
 50
0.0
 71
     0
 42
10.0
  3
txt
  4
bigfont
  0
STYLE
  5
173
330
3
100
AcDbSymbolTableRecord
100
AcDbTextStyleTableRecord
  2
ＭＳ_ゴシック
 70
     0
 40
0.0
 41
1.0
 50
0.0
 71
     0
 42
0.0
  3

  4

1001
ACAD
1000
ＭＳ ゴシック
1071
      256
  0
ENDTAB
  0
TABLE
  2
VIEW
  5
6
330
0
100
AcDbSymbolTable
 70
     0
  0
ENDTAB
  0
TABLE
  2
UCS
  5
7
330
0
100
AcDbSymbolTable
 70
     0
  0
ENDTAB
  0
TABLE
  2
APPID
  5
9
330
0
100
AcDbSymbolTable
 70
     2
  0
APPID
  5
12
330
9
100
AcDbSymbolTableRecord
100
AcDbRegAppTableRecord
  2
ACAD
 70
     0
  0
APPID
  5
40
330
9
100
AcDbSymbolTableRecord
100
AcDbRegAppTableRecord
  2
ODA
 70
     0
  0
ENDTAB
  0
TABLE
  2
DIMSTYLE
  5
A
330
0
100
AcDbSymbolTable
 70
     1
  0
DIMSTYLE
105
27
102
{ACAD_REACTORS
330
17D
330
187
330
191
330
19B
330
1A5
330
1AF
330
1B9
330
1C3
330
1CD
330
1D7
330
1E1
330
1EB
330
1F5
330
1FD
330
205
102
}
330
A
100
AcDbSymbolTableRecord
100
AcDbDimStyleTableRecord
  2
STANDARD
 70
     0
  3

  4

  5

  6

  7

 40
1.0
 41
0.18
 42
0.0625
 43
0.38
 44
0.18
 45
0.0
 46
0.0
 47
0.0
 48
0.0
140
0.18
141
0.09
142
0.0
143
25.4
144
1.0
145
0.0
146
1.0
147
0.09
 71
     0
 72
     0
 73
     1
 74
     1
 75
     0
 76
     0
 77
     0
 78
     0
170
     0
171
     2
172
     0
173
     0
174
     0
175
     0
176
     0
177
     0
178
     0
270
     2
271
     4
272
     4
273
     2
274
     2
340
11
275
     0
280
     0
281
     0
282
     0
283
     1
284
     0
285
     0
286
     0
287
     3
288
     0
  0
ENDTAB
  0
TABLE
  2
BLOCK_RECORD
  5
1
330
0
100
AcDbSymbolTable
 70
    31
  0
BLOCK_RECORD
  5
1F
330
1
100
AcDbSymbolTableRecord
100
AcDbBlockTableRecord
  2
*MODEL_SPACE
  0
BLOCK_RECORD
  5
1B
330
1
100
AcDbSymbolTableRecord
100
AcDbBlockTableRecord
  2
*PAPER_SPACE
  0
BLOCK_RECORD
  5
42
330
1
100
AcDbSymbolTableRecord
100
AcDbBlockTableRecord
  2
_ORIGIN
  0
BLOCK_RECORD
  5
47
330
1
100
AcDbSymbolTableRecord
100
AcDbBlockTableRecord
  2
_DOTBLANK
  0
BLOCK_RECORD
  5
4C
330
1
100
AcDbSymbolTableRecord
100
AcDbBlockTableRecord
  2
_DOT
  0
BLOCK_RECORD
  5
51
330
1
100
AcDbSymbolTableRecord
100
AcDbBlockTableRecord
  2
_OPEN
  0
BLOCK_RECORD
  5
57
330
1
100
AcDbSymbolTableRecord
100
AcDbBlockTableRecord
  2
_CLOSED
  0
BLOCK_RECORD
  5
5E
330
1
100
AcDbSymbolTableRecord
100
AcDbBlockTableRecord
  2
_CLOSEDBLANK
  0
BLOCK_RECORD
  5
64
330
1
100
AcDbSymbolTableRecord
100
AcDbBlockTableRecord
  2
_ARROWFILLED
  0
BLOCK_RECORD
  5
68
330
1
100
AcDbSymbolTableRecord
100
AcDbBlockTableRecord
  2
_BOXBLANK
  0
BLOCK_RECORD
  5
70
330
1
100
AcDbSymbolTableRecord
100
AcDbBlockTableRecord
  2
_BOXFILLED
  0
BLOCK_RECORD
  5
75
330
1
100
AcDbSymbolTableRecord
100
AcDbBlockTableRecord
  2
_INTEGRAL
  0
BLOCK_RECORD
  5
7A
330
1
100
AcDbSymbolTableRecord
100
AcDbBlockTableRecord
  2
_OBLIQUE
  0
BLOCK_RECORD
  5
7E
330
1
100
AcDbSymbolTableRecord
100
AcDbBlockTableRecord
  2
_NONE
  0
BLOCK_RECORD
  5
81
330
1
100
AcDbSymbolTableRecord
100
AcDbBlockTableRecord
  2
MARK_OPEN
  0
BLOCK_RECORD
  5
86
330
1
100
AcDbSymbolTableRecord
100
AcDbBlockTableRecord
  2
MARK_ORIGIN
  0
BLOCK_RECORD
  5
8A
330
1
100
AcDbSymbolTableRecord
100
AcDbBlockTableRecord
  2
MARK_DOT
  0
BLOCK_RECORD
  5
174
330
1
100
AcDbSymbolTableRecord
100
AcDbBlockTableRecord
  2
DIM1
  0
BLOCK_RECORD
  5
17E
330
1
100
AcDbSymbolTableRecord
100
AcDbBlockTableRecord
  2
DIM2
  0
BLOCK_RECORD
  5
188
330
1
100
AcDbSymbolTableRecord
100
AcDbBlockTableRecord
  2
DIM3
  0
BLOCK_RECORD
  5
192
330
1
100
AcDbSymbolTableRecord
100
AcDbBlockTableRecord
  2
DIM4
  0
BLOCK_RECORD
  5
19C
330
1
100
AcDbSymbolTableRecord
100
AcDbBlockTableRecord
  2
DIM5
  0
BLOCK_RECORD
  5
1A6
330
1
100
AcDbSymbolTableRecord
100
AcDbBlockTableRecord
  2
DIM6
  0
BLOCK_RECORD
  5
1B0
330
1
100
AcDbSymbolTableRecord
100
AcDbBlockTableRecord
  2
DIM7
  0
BLOCK_RECORD
  5
1BA
330
1
100
AcDbSymbolTableRecord
100
AcDbBlockTableRecord
  2
DIM8
  0
BLOCK_RECORD
  5
1C4
330
1
100
AcDbSymbolTableRecord
100
AcDbBlockTableRecord
  2
DIM9
  0
BLOCK_RECORD
  5
1CE
330
1
100
AcDbSymbolTableRecord
100
AcDbBlockTableRecord
  2
DIM10
  0
BLOCK_RECORD
  5
1D8
330
1
100
AcDbSymbolTableRecord
100
AcDbBlockTableRecord
  2
DIM11
  0
BLOCK_RECORD
  5
1E2
330
1
100
AcDbSymbolTableRecord
100
AcDbBlockTableRecord
  2
DIM12
  0
BLOCK_RECORD
  5
1EC
330
1
100
AcDbSymbolTableRecord
100
AcDbBlockTableRecord
  2
DIM13
  0
BLOCK_RECORD
  5
1F6
330
1
100
AcDbSymbolTableRecord
100
AcDbBlockTableRecord
  2
DIM14
  0
BLOCK_RECORD
  5
1FE
330
1
100
AcDbSymbolTableRecord
100
AcDbBlockTableRecord
  2
DIM15
  0
ENDTAB
  0
ENDSEC
  0
SECTION
  2
BLOCKS
  0
BLOCK
  5
20
330
1F
100
AcDbEntity
  8
0
100
AcDbBlockBegin
  2
*MODEL_SPACE
 70
     0
 10
0.0
 20
0.0
 30
0.0
  3
*MODEL_SPACE
  1

  0
ENDBLK
  5
21
330
1F
100
AcDbEntity
  8
0
100
AcDbBlockEnd
  0
BLOCK
  5
1C
330
1B
100
AcDbEntity
 67
     1
  8
0
100
AcDbBlockBegin
  2
*PAPER_SPACE
 70
     0
 10
0.0
 20
0.0
 30
0.0
  3
*PAPER_SPACE
  1

  0
ENDBLK
  5
1D
330
1B
100
AcDbEntity
 67
     1
  8
0
100
AcDbBlockEnd
  0
BLOCK
  5
45
330
42
100
AcDbEntity
  8
0
100
AcDbBlockBegin
  2
_ORIGIN
 70
     0
 10
0.0
 20
0.0
 30
0.0
  3
_ORIGIN
  1

  0
CIRCLE
  5
43
330
42
100
AcDbEntity
  8
0
 62
     0
100
AcDbCircle
 10
0.0
 20
0.0
 30
0.0
 40
0.5
  0
LINE
  5
44
330
42
100
AcDbEntity
  8
0
 62
     0
100
AcDbLine
 10
0.0
 20
0.0
 30
0.0
 11
-1.0
 21
0.0
 31
0.0
  0
ENDBLK
  5
46
330
42
100
AcDbEntity
  8
0
100
AcDbBlockEnd
  0
BLOCK
  5
4A
330
47
100
AcDbEntity
  8
0
100
AcDbBlockBegin
  2
_DOTBLANK
 70
     0
 10
0.0
 20
0.0
 30
0.0
  3
_DOTBLANK
  1

  0
CIRCLE
  5
48
330
47
100
AcDbEntity
  8
0
 62
     0
100
AcDbCircle
 10
0.0
 20
0.0
 30
0.0
 40
0.5
  0
LINE
  5
49
330
47
100
AcDbEntity
  8
0
 62
     0
100
AcDbLine
 10
-0.5
 20
0.0
 30
0.0
 11
-1.0
 21
0.0
 31
0.0
  0
ENDBLK
  5
4B
330
47
100
AcDbEntity
  8
0
100
AcDbBlockEnd
  0
BLOCK
  5
4F
330
4C
100
AcDbEntity
  8
0
100
AcDbBlockBegin
  2
_DOT
 70
     0
 10
0.0
 20
0.0
 30
0.0
  3
_DOT
  1

  0
LWPOLYLINE
  5
4D
330
4C
100
AcDbEntity
  8
0
 62
     0
100
AcDbPolyline
 90
        2
 70
     1
 43
0.5
 10
-0.25
 20
0.0
 42
1.0
 10
0.25
 20
0.0
 42
1.0
  0
LINE
  5
4E
330
4C
100
AcDbEntity
  8
0
 62
     0
100
AcDbLine
 10
-0.5
 20
0.0
 30
0.0
 11
-1.0
 21
0.0
 31
0.0
  0
ENDBLK
  5
50
330
4C
100
AcDbEntity
  8
0
100
AcDbBlockEnd
  0
BLOCK
  5
55
330
51
100
AcDbEntity
  8
0
100
AcDbBlockBegin
  2
_OPEN
 70
     0
 10
0.0
 20
0.0
 30
0.0
  3
_OPEN
  1

  0
LINE
  5
52
330
51
100
AcDbEntity
  8
0
 62
     0
100
AcDbLine
 10
0.0
 20
0.0
 30
0.0
 11
-1.0
 21
0.1666666666666667
 31
0.0
  0
LINE
  5
53
330
51
100
AcDbEntity
  8
0
 62
     0
100
AcDbLine
 10
0.0
 20
0.0
 30
0.0
 11
-1.0
 21
-0.1666666666666667
 31
0.0
  0
LINE
  5
54
330
51
100
AcDbEntity
  8
0
 62
     0
100
AcDbLine
 10
0.0
 20
0.0
 30
0.0
 11
-1.0
 21
0.0
 31
0.0
  0
ENDBLK
  5
56
330
51
100
AcDbEntity
  8
0
100
AcDbBlockEnd
  0
BLOCK
  5
5C
330
57
100
AcDbEntity
  8
0
100
AcDbBlockBegin
  2
_CLOSED
 70
     0
 10
0.0
 20
0.0
 30
0.0
  3
_CLOSED
  1

  0
LINE
  5
58
330
57
100
AcDbEntity
  8
0
 62
     0
100
AcDbLine
 10
0.0
 20
0.0
 30
0.0
 11
-1.0
 21
0.1666666666666667
 31
0.0
  0
LINE
  5
59
330
57
100
AcDbEntity
  8
0
 62
     0
100
AcDbLine
 10
0.0
 20
0.0
 30
0.0
 11
-1.0
 21
-0.1666666666666667
 31
0.0
  0
LINE
  5
5A
330
57
100
AcDbEntity
  8
0
 62
     0
100
AcDbLine
 10
-1.0
 20
0.1666666666666667
 30
0.0
 11
-1.0
 21
-0.1666666666666667
 31
0.0
  0
LINE
  5
5B
330
57
100
AcDbEntity
  8
0
 62
     0
100
AcDbLine
 10
0.0
 20
0.0
 30
0.0
 11
-1.0
 21
0.0
 31
0.0
  0
ENDBLK
  5
5D
330
57
100
AcDbEntity
  8
0
100
AcDbBlockEnd
  0
BLOCK
  5
62
330
5E
100
AcDbEntity
  8
0
100
AcDbBlockBegin
  2
_CLOSEDBLANK
 70
     0
 10
0.0
 20
0.0
 30
0.0
  3
_CLOSEDBLANK
  1

  0
LINE
  5
5F
330
5E
100
AcDbEntity
  8
0
 62
     0
100
AcDbLine
 10
0.0
 20
0.0
 30
0.0
 11
-1.0
 21
0.1666666666666667
 31
0.0
  0
LINE
  5
60
330
5E
100
AcDbEntity
  8
0
 62
     0
100
AcDbLine
 10
0.0
 20
0.0
 30
0.0
 11
-1.0
 21
-0.1666666666666667
 31
0.0
  0
LINE
  5
61
330
5E
100
AcDbEntity
  8
0
 62
     0
100
AcDbLine
 10
-1.0
 20
0.1666666666666667
 30
0.0
 11
-1.0
 21
-0.1666666666666667
 31
0.0
  0
ENDBLK
  5
63
330
5E
100
AcDbEntity
  8
0
100
AcDbBlockEnd
  0
BLOCK
  5
66
330
64
100
AcDbEntity
  8
0
100
AcDbBlockBegin
  2
_ARROWFILLED
 70
     0
 10
0.0
 20
0.0
 30
0.0
  3
_ARROWFILLED
  1

  0
SOLID
  5
65
330
64
100
AcDbEntity
  8
0
 62
     0
100
AcDbTrace
 10
0.0
 20
0.0
 30
0.0
 11
-1.0
 21
-0.1666666666666667
 31
0.0
 12
-1.0
 22
0.1666666666666667
 32
0.0
 13
0.0
 23
0.0
 33
0.0
  0
ENDBLK
  5
67
330
64
100
AcDbEntity
  8
0
100
AcDbBlockEnd
  0
BLOCK
  5
6E
330
68
100
AcDbEntity
  8
0
100
AcDbBlockBegin
  2
_BOXBLANK
 70
     0
 10
0.0
 20
0.0
 30
0.0
  3
_BOXBLANK
  1

  0
LINE
  5
69
330
68
100
AcDbEntity
  8
0
 62
     0
100
AcDbLine
 10
-0.5
 20
-0.5
 30
0.0
 11
0.5
 21
-0.5
 31
0.0
  0
LINE
  5
6A
330
68
100
AcDbEntity
  8
0
 62
     0
100
AcDbLine
 10
0.5
 20
-0.5
 30
0.0
 11
0.5
 21
0.5
 31
0.0
  0
LINE
  5
6B
330
68
100
AcDbEntity
  8
0
 62
     0
100
AcDbLine
 10
0.5
 20
0.5
 30
0.0
 11
-0.5
 21
0.5
 31
0.0
  0
LINE
  5
6C
330
68
100
AcDbEntity
  8
0
 62
     0
100
AcDbLine
 10
-0.5
 20
0.5
 30
0.0
 11
-0.5
 21
-0.5
 31
0.0
  0
LINE
  5
6D
330
68
100
AcDbEntity
  8
0
 62
     0
100
AcDbLine
 10
-0.5
 20
0.0
 30
0.0
 11
-1.0
 21
0.0
 31
0.0
  0
ENDBLK
  5
6F
330
68
100
AcDbEntity
  8
0
100
AcDbBlockEnd
  0
BLOCK
  5
73
330
70
100
AcDbEntity
  8
0
100
AcDbBlockBegin
  2
_BOXFILLED
 70
     0
 10
0.0
 20
0.0
 30
0.0
  3
_BOXFILLED
  1

  0
SOLID
  5
71
330
70
100
AcDbEntity
  8
0
 62
     0
100
AcDbTrace
 10
-0.5
 20
0.5
 30
0.0
 11
0.5
 21
0.5
 31
0.0
 12
-0.5
 22
-0.5
 32
0.0
 13
0.5
 23
-0.5
 33
0.0
  0
LINE
  5
72
330
70
100
AcDbEntity
  8
0
 62
     0
100
AcDbLine
 10
-0.5
 20
0.0
 30
0.0
 11
-1.0
 21
0.0
 31
0.0
  0
ENDBLK
  5
74
330
70
100
AcDbEntity
  8
0
100
AcDbBlockEnd
  0
BLOCK
  5
78
330
75
100
AcDbEntity
  8
0
100
AcDbBlockBegin
  2
_INTEGRAL
 70
     0
 10
0.0
 20
0.0
 30
0.0
  3
_INTEGRAL
  1

  0
ARC
  5
76
330
75
100
AcDbEntity
  8
0
 62
     0
100
AcDbCircle
 10
0.444888
 20
-0.0913346
 30
0.0
 40
0.4541666
100
AcDbArc
 50
101.9999999999999
 51
167.9999999999998
  0
ARC
  5
77
330
75
100
AcDbEntity
  8
0
 62
     0
100
AcDbCircle
 10
-0.444888
 20
0.0913346
 30
0.0
 40
0.4541666
100
AcDbArc
 50
281.9999999999997
 51
347.9999999999997
  0
ENDBLK
  5
79
330
75
100
AcDbEntity
  8
0
100
AcDbBlockEnd
  0
BLOCK
  5
7C
330
7A
100
AcDbEntity
  8
0
100
AcDbBlockBegin
  2
_OBLIQUE
 70
     0
 10
0.0
 20
0.0
 30
0.0
  3
_OBLIQUE
  1

  0
LINE
  5
7B
330
7A
100
AcDbEntity
  8
0
 62
     0
100
AcDbLine
 10
-0.5
 20
-0.5
 30
0.0
 11
0.5
 21
0.5
 31
0.0
  0
ENDBLK
  5
7D
330
7A
100
AcDbEntity
  8
0
100
AcDbBlockEnd
  0
BLOCK
  5
7F
330
7E
100
AcDbEntity
  8
0
100
AcDbBlockBegin
  2
_NONE
 70
     0
 10
0.0
 20
0.0
 30
0.0
  3
_NONE
  1

  0
ENDBLK
  5
80
330
7E
100
AcDbEntity
  8
0
100
AcDbBlockEnd
  0
BLOCK
  5
84
330
81
100
AcDbEntity
  8
0
100
AcDbBlockBegin
  2
MARK_OPEN
 70
     0
 10
0.0
 20
0.0
 30
0.0
  3
MARK_OPEN
  1

  0
LINE
  5
82
330
81
100
AcDbEntity
  8
0
 62
     0
100
AcDbLine
 10
0.0
 20
0.0
 30
0.0
 11
-1.0
 21
0.1666666666666667
 31
0.0
  0
LINE
  5
83
330
81
100
AcDbEntity
  8
0
 62
     0
100
AcDbLine
 10
0.0
 20
0.0
 30
0.0
 11
-1.0
 21
-0.1666666666666667
 31
0.0
  0
ENDBLK
  5
85
330
81
100
AcDbEntity
  8
0
100
AcDbBlockEnd
  0
BLOCK
  5
88
330
86
100
AcDbEntity
  8
0
100
AcDbBlockBegin
  2
MARK_ORIGIN
 70
     0
 10
0.0
 20
0.0
 30
0.0
  3
MARK_ORIGIN
  1

  0
CIRCLE
  5
87
330
86
100
AcDbEntity
  8
0
 62
     0
100
AcDbCircle
 10
0.0
 20
0.0
 30
0.0
 40
0.5
  0
ENDBLK
  5
89
330
86
100
AcDbEntity
  8
0
100
AcDbBlockEnd
  0
BLOCK
  5
8C
330
8A
100
AcDbEntity
  8
0
100
AcDbBlockBegin
  2
MARK_DOT
 70
     0
 10
0.0
 20
0.0
 30
0.0
  3
MARK_DOT
  1

  0
LWPOLYLINE
  5
8B
330
8A
100
AcDbEntity
  8
0
 62
     0
100
AcDbPolyline
 90
        2
 70
     1
 43
0.5
 10
-0.25
 20
0.0
 42
1.0
 10
0.25
 20
0.0
 42
1.0
  0
ENDBLK
  5
8D
330
8A
100
AcDbEntity
  8
0
100
AcDbBlockEnd
  0
BLOCK
  5
175
330
174
100
AcDbEntity
  8
0
100
AcDbBlockBegin
  2
DIM1
 70
     0
 10
0.0
 20
0.0
 30
0.0
  3
DIM1
  1

  0
LINE
  5
177
330
174
100
AcDbEntity
  8
8
  6
CONTINUOUS
 62
     4
100
AcDbLine
 10
687.228192104124
 20
181.8018772179075
 30
0.0
 11
687.2281921041239
 21
95.66736800559192
 31
0.0
  0
LINE
  5
178
330
174
100
AcDbEntity
  8
8
  6
CONTINUOUS
 62
     4
100
AcDbLine
 10
732.228192104124
 20
166.8018772179075
 30
0.0
 11
732.2281921041239
 21
95.66736800559192
 31
0.0
  0
LINE
  5
179
330
174
100
AcDbEntity
  8
8
  6
CONTINUOUS
 62
     4
100
AcDbLine
 10
687.2281921041239
 20
98.66736800559192
 30
0.0
 11
732.2281921041239
 21
98.66736800559192
 31
0.0
  0
MTEXT
  5
17A
330
174
100
AcDbEntity
  8
8
  6
CONTINUOUS
 62
     4
100
AcDbMText
 10
709.728192104124
 20
98.66736800559192
 30
0.0
 40
6.0
 41
48.57142857142856
 71
     8
 72
     1
  1
45
  7
ＭＳ_ゴシック
1001
ACAD
1000
ACAD_MTEXT_DEFINED_HEIGHT_BEGIN
1070
    46
1040
6.0
1000
ACAD_MTEXT_DEFINED_HEIGHT_END
  0
INSERT
  5
17B
330
174
100
AcDbEntity
  8
8
  6
CONTINUOUS
 62
     4
100
AcDbBlockReference
  2
_ARROWFILLED
 10
687.2281921041239
 20
98.66736800559192
 30
0.0
 41
4.0
 42
4.0
 43
4.0
 50
179.9999999999998
  0
INSERT
  5
17C
330
174
100
AcDbEntity
  8
8
  6
CONTINUOUS
 62
     4
100
AcDbBlockReference
  2
_ARROWFILLED
 10
732.2281921041239
 20
98.66736800559192
 30
0.0
 41
4.0
 42
4.0
 43
4.0
 50
359.9999999999997
  0
ENDBLK
  5
176
330
174
100
AcDbEntity
  8
0
100
AcDbBlockEnd
  0
BLOCK
  5
17F
330
17E
100
AcDbEntity
  8
0
100
AcDbBlockBegin
  2
DIM2
 70
     0
 10
0.0
 20
0.0
 30
0.0
  3
DIM2
  1

  0
LINE
  5
181
330
17E
100
AcDbEntity
  8
8
  6
CONTINUOUS
 62
     4
100
AcDbLine
 10
732.228192104124
 20
166.8018772179075
 30
0.0
 11
732.228192104124
 21
140.3670662418244
 31
0.0
  0
LINE
  5
182
330
17E
100
AcDbEntity
  8
8
  6
CONTINUOUS
 62
     4
100
AcDbLine
 10
731.2281921041222
 20
166.8018772179075
 30
0.0
 11
731.2281921041222
 21
140.3670662418244
 31
0.0
  0
LINE
  5
183
330
17E
100
AcDbEntity
  8
8
  6
CONTINUOUS
 62
     4
100
AcDbLine
 10
744.728192104124
 20
143.3670662418244
 30
0.0
 11
723.2281921041222
 21
143.3670662418244
 31
0.0
  0
MTEXT
  5
184
330
17E
100
AcDbEntity
  8
8
  6
CONTINUOUS
 62
     4
100
AcDbMText
 10
741.728192104124
 20
143.3670662418244
 30
0.0
 40
6.0
 41
7.142857142857143
 71
     7
 72
     1
  1
1
  7
ＭＳ_ゴシック
1001
ACAD
1000
ACAD_MTEXT_DEFINED_HEIGHT_BEGIN
1070
    46
1040
6.0
1000
ACAD_MTEXT_DEFINED_HEIGHT_END
  0
INSERT
  5
185
330
17E
100
AcDbEntity
  8
8
  6
CONTINUOUS
 62
     4
100
AcDbBlockReference
  2
_ARROWFILLED
 10
732.228192104124
 20
143.3670662418244
 30
0.0
 41
4.0
 42
4.0
 43
4.0
 50
179.9999999999995
  0
INSERT
  5
186
330
17E
100
AcDbEntity
  8
8
  6
CONTINUOUS
 62
     4
100
AcDbBlockReference
  2
_ARROWFILLED
 10
731.2281921041222
 20
143.3670662418244
 30
0.0
 41
4.0
 42
4.0
 43
4.0
 50
359.9999999999997
  0
ENDBLK
  5
180
330
17E
100
AcDbEntity
  8
0
100
AcDbBlockEnd
  0
BLOCK
  5
189
330
188
100
AcDbEntity
  8
0
100
AcDbBlockBegin
  2
DIM3
 70
     0
 10
0.0
 20
0.0
 30
0.0
  3
DIM3
  1

  0
LINE
  5
18B
330
188
100
AcDbEntity
  8
8
  6
CONTINUOUS
 62
     4
100
AcDbLine
 10
732.228192104124
 20
166.8018772179075
 30
0.0
 11
732.2281921041239
 21
116.9526574721767
 31
0.0
  0
LINE
  5
18C
330
188
100
AcDbEntity
  8
8
  6
CONTINUOUS
 62
     4
100
AcDbLine
 10
698.7281921041231
 20
273.8018772179075
 30
0.0
 11
698.7281921041229
 21
116.9526574721767
 31
0.0
  0
LINE
  5
18D
330
188
100
AcDbEntity
  8
8
  6
CONTINUOUS
 62
     4
100
AcDbLine
 10
732.2281921041239
 20
119.9526574721767
 30
0.0
 11
698.7281921041229
 21
119.9526574721767
 31
0.0
  0
MTEXT
  5
18E
330
188
100
AcDbEntity
  8
8
  6
CONTINUOUS
 62
     4
100
AcDbMText
 10
715.4781921041235
 20
119.9526574721767
 30
0.0
 40
6.0
 41
91.42857142857142
 71
     8
 72
     1
  1
33.5
  7
ＭＳ_ゴシック
1001
ACAD
1000
ACAD_MTEXT_DEFINED_HEIGHT_BEGIN
1070
    46
1040
6.0
1000
ACAD_MTEXT_DEFINED_HEIGHT_END
  0
INSERT
  5
18F
330
188
100
AcDbEntity
  8
8
  6
CONTINUOUS
 62
     4
100
AcDbBlockReference
  2
_ARROWFILLED
 10
732.2281921041239
 20
119.9526574721767
 30
0.0
 41
4.0
 42
4.0
 43
4.0
 50
359.9999999999997
  0
INSERT
  5
190
330
188
100
AcDbEntity
  8
8
  6
CONTINUOUS
 62
     4
100
AcDbBlockReference
  2
_ARROWFILLED
 10
698.7281921041229
 20
119.9526574721767
 30
0.0
 41
4.0
 42
4.0
 43
4.0
 50
179.9999999999998
  0
ENDBLK
  5
18A
330
188
100
AcDbEntity
  8
0
100
AcDbBlockEnd
  0
BLOCK
  5
193
330
192
100
AcDbEntity
  8
0
100
AcDbBlockBegin
  2
DIM4
 70
     0
 10
0.0
 20
0.0
 30
0.0
  3
DIM4
  1

  0
LINE
  5
195
330
192
100
AcDbEntity
  8
8
  6
CONTINUOUS
 62
     4
100
AcDbLine
 10
477.1202918365043
 20
165.7018772179072
 30
0.0
 11
477.1202918365042
 21
141.8018772179075
 31
0.0
  0
LINE
  5
196
330
192
100
AcDbEntity
  8
8
  6
CONTINUOUS
 62
     4
100
AcDbLine
 10
564.6202918365043
 20
165.7018772179072
 30
0.0
 11
564.6202918365043
 21
141.8018772179075
 31
0.0
  0
LINE
  5
197
330
192
100
AcDbEntity
  8
8
  6
CONTINUOUS
 62
     4
100
AcDbLine
 10
477.1202918365042
 20
144.8018772179075
 30
0.0
 11
564.6202918365043
 21
144.8018772179075
 31
0.0
  0
MTEXT
  5
198
330
192
100
AcDbEntity
  8
8
  6
CONTINUOUS
 62
     4
100
AcDbMText
 10
520.8702918365043
 20
144.8018772179075
 30
0.0
 40
6.0
 41
91.42857142857142
 71
     8
 72
     1
  1
87.5
  7
ＭＳ_ゴシック
1001
ACAD
1000
ACAD_MTEXT_DEFINED_HEIGHT_BEGIN
1070
    46
1040
6.0
1000
ACAD_MTEXT_DEFINED_HEIGHT_END
  0
INSERT
  5
199
330
192
100
AcDbEntity
  8
8
  6
CONTINUOUS
 62
     4
100
AcDbBlockReference
  2
_ARROWFILLED
 10
477.1202918365042
 20
144.8018772179075
 30
0.0
 41
4.0
 42
4.0
 43
4.0
 50
179.9999999999998
  0
INSERT
  5
19A
330
192
100
AcDbEntity
  8
8
  6
CONTINUOUS
 62
     4
100
AcDbBlockReference
  2
_ARROWFILLED
 10
564.6202918365043
 20
144.8018772179075
 30
0.0
 41
4.0
 42
4.0
 43
4.0
 50
359.9999999999997
  0
ENDBLK
  5
194
330
192
100
AcDbEntity
  8
0
100
AcDbBlockEnd
  0
BLOCK
  5
19D
330
19C
100
AcDbEntity
  8
0
100
AcDbBlockBegin
  2
DIM5
 70
     0
 10
0.0
 20
0.0
 30
0.0
  3
DIM5
  1

  0
LINE
  5
19F
330
19C
100
AcDbEntity
  8
8
  6
CONTINUOUS
 62
     4
100
AcDbLine
 10
189.6202918365047
 20
196.8018772179075
 30
0.0
 11
189.6202918365046
 21
125.8018772179075
 31
0.0
  0
LINE
  5
1A0
330
19C
100
AcDbEntity
  8
8
  6
CONTINUOUS
 62
     4
100
AcDbLine
 10
589.6202918365043
 20
196.8018772179075
 30
0.0
 11
589.6202918365042
 21
125.8018772179075
 31
0.0
  0
LINE
  5
1A1
330
19C
100
AcDbEntity
  8
8
  6
CONTINUOUS
 62
     4
100
AcDbLine
 10
189.6202918365046
 20
128.8018772179075
 30
0.0
 11
589.6202918365042
 21
128.8018772179075
 31
0.0
  0
MTEXT
  5
1A2
330
19C
100
AcDbEntity
  8
8
  6
CONTINUOUS
 62
     4
100
AcDbMText
 10
389.6202918365043
 20
128.8018772179075
 30
0.0
 40
6.0
 41
77.14285714285714
 71
     8
 72
     1
  1
400
  7
ＭＳ_ゴシック
1001
ACAD
1000
ACAD_MTEXT_DEFINED_HEIGHT_BEGIN
1070
    46
1040
6.0
1000
ACAD_MTEXT_DEFINED_HEIGHT_END
  0
INSERT
  5
1A3
330
19C
100
AcDbEntity
  8
8
  6
CONTINUOUS
 62
     4
100
AcDbBlockReference
  2
_ARROWFILLED
 10
189.6202918365046
 20
128.8018772179075
 30
0.0
 41
4.0
 42
4.0
 43
4.0
 50
179.9999999999998
  0
INSERT
  5
1A4
330
19C
100
AcDbEntity
  8
8
  6
CONTINUOUS
 62
     4
100
AcDbBlockReference
  2
_ARROWFILLED
 10
589.6202918365042
 20
128.8018772179075
 30
0.0
 41
4.0
 42
4.0
 43
4.0
 50
359.9999999999997
  0
ENDBLK
  5
19E
330
19C
100
AcDbEntity
  8
0
100
AcDbBlockEnd
  0
BLOCK
  5
1A7
330
1A6
100
AcDbEntity
  8
0
100
AcDbBlockBegin
  2
DIM6
 70
     0
 10
0.0
 20
0.0
 30
0.0
  3
DIM6
  1

  0
LINE
  5
1A9
330
1A6
100
AcDbEntity
  8
8
  6
CONTINUOUS
 62
     4
100
AcDbLine
 10
174.6202918365047
 20
181.8018772179057
 30
0.0
 11
174.6202918365046
 21
109.8018772179075
 31
0.0
  0
LINE
  5
1AA
330
1A6
100
AcDbEntity
  8
8
  6
CONTINUOUS
 62
     4
100
AcDbLine
 10
604.6202918365043
 20
181.8018772179075
 30
0.0
 11
604.6202918365042
 21
109.8018772179075
 31
0.0
  0
LINE
  5
1AB
330
1A6
100
AcDbEntity
  8
8
  6
CONTINUOUS
 62
     4
100
AcDbLine
 10
174.6202918365046
 20
112.8018772179075
 30
0.0
 11
604.6202918365042
 21
112.8018772179075
 31
0.0
  0
MTEXT
  5
1AC
330
1A6
100
AcDbEntity
  8
8
  6
CONTINUOUS
 62
     4
100
AcDbMText
 10
389.6202918365046
 20
112.8018772179075
 30
0.0
 40
6.0
 41
77.14285714285714
 71
     8
 72
     1
  1
430
  7
ＭＳ_ゴシック
1001
ACAD
1000
ACAD_MTEXT_DEFINED_HEIGHT_BEGIN
1070
    46
1040
6.0
1000
ACAD_MTEXT_DEFINED_HEIGHT_END
  0
INSERT
  5
1AD
330
1A6
100
AcDbEntity
  8
8
  6
CONTINUOUS
 62
     4
100
AcDbBlockReference
  2
_ARROWFILLED
 10
174.6202918365046
 20
112.8018772179075
 30
0.0
 41
4.0
 42
4.0
 43
4.0
 50
179.9999999999998
  0
INSERT
  5
1AE
330
1A6
100
AcDbEntity
  8
8
  6
CONTINUOUS
 62
     4
100
AcDbBlockReference
  2
_ARROWFILLED
 10
604.6202918365042
 20
112.8018772179075
 30
0.0
 41
4.0
 42
4.0
 43
4.0
 50
359.9999999999997
  0
ENDBLK
  5
1A8
330
1A6
100
AcDbEntity
  8
0
100
AcDbBlockEnd
  0
BLOCK
  5
1B1
330
1B0
100
AcDbEntity
  8
0
100
AcDbBlockBegin
  2
DIM7
 70
     0
 10
0.0
 20
0.0
 30
0.0
  3
DIM7
  1

  0
LINE
  5
1B3
330
1B0
100
AcDbEntity
  8
8
  6
CONTINUOUS
 62
     4
100
AcDbLine
 10
187.6202918365047
 20
198.8018772179075
 30
0.0
 11
155.6202918365047
 21
198.8018772179076
 31
0.0
  0
LINE
  5
1B4
330
1B0
100
AcDbEntity
  8
8
  6
CONTINUOUS
 62
     4
100
AcDbLine
 10
187.6202918365047
 20
398.8018772179075
 30
0.0
 11
155.6202918365047
 21
398.8018772179076
 31
0.0
  0
LINE
  5
1B5
330
1B0
100
AcDbEntity
  8
8
  6
CONTINUOUS
 62
     4
100
AcDbLine
 10
158.6202918365047
 20
198.8018772179076
 30
0.0
 11
158.6202918365047
 21
398.8018772179076
 31
0.0
  0
MTEXT
  5
1B6
330
1B0
100
AcDbEntity
  8
8
  6
CONTINUOUS
 62
     4
100
AcDbMText
 10
158.6202918365047
 20
298.8018772179075
 30
0.0
 40
6.0
 41
77.14285714285714
 71
     8
 72
     1
  1
200
  7
ＭＳ_ゴシック
 11
1.615544574432587E-15
 21
1.0
 31
0.0
1001
ACAD
1000
ACAD_MTEXT_DEFINED_HEIGHT_BEGIN
1070
    46
1040
6.0
1000
ACAD_MTEXT_DEFINED_HEIGHT_END
  0
INSERT
  5
1B7
330
1B0
100
AcDbEntity
  8
8
  6
CONTINUOUS
 62
     4
100
AcDbBlockReference
  2
_ARROWFILLED
 10
158.6202918365047
 20
198.8018772179076
 30
0.0
 41
4.0
 42
4.0
 43
4.0
 50
269.9999999999998
  0
INSERT
  5
1B8
330
1B0
100
AcDbEntity
  8
8
  6
CONTINUOUS
 62
     4
100
AcDbBlockReference
  2
_ARROWFILLED
 10
158.6202918365047
 20
398.8018772179076
 30
0.0
 41
4.0
 42
4.0
 43
4.0
 50
89.99999999999991
  0
ENDBLK
  5
1B2
330
1B0
100
AcDbEntity
  8
0
100
AcDbBlockEnd
  0
BLOCK
  5
1BB
330
1BA
100
AcDbEntity
  8
0
100
AcDbBlockBegin
  2
DIM8
 70
     0
 10
0.0
 20
0.0
 30
0.0
  3
DIM8
  1

  0
LINE
  5
1BD
330
1BA
100
AcDbEntity
  8
8
  6
CONTINUOUS
 62
     4
100
AcDbLine
 10
172.6202918365047
 20
183.8018772179075
 30
0.0
 11
139.6202918365052
 21
183.8018772179076
 31
0.0
  0
LINE
  5
1BE
330
1BA
100
AcDbEntity
  8
8
  6
CONTINUOUS
 62
     4
100
AcDbLine
 10
172.6202918365047
 20
413.8018772179075
 30
0.0
 11
139.6202918365052
 21
413.8018772179076
 31
0.0
  0
LINE
  5
1BF
330
1BA
100
AcDbEntity
  8
8
  6
CONTINUOUS
 62
     4
100
AcDbLine
 10
142.6202918365052
 20
183.8018772179076
 30
0.0
 11
142.6202918365052
 21
413.8018772179076
 31
0.0
  0
MTEXT
  5
1C0
330
1BA
100
AcDbEntity
  8
8
  6
CONTINUOUS
 62
     4
100
AcDbMText
 10
142.6202918365052
 20
298.8018772179075
 30
0.0
 40
6.0
 41
77.14285714285714
 71
     8
 72
     1
  1
230
  7
ＭＳ_ゴシック
 11
1.615544574432587E-15
 21
1.0
 31
0.0
1001
ACAD
1000
ACAD_MTEXT_DEFINED_HEIGHT_BEGIN
1070
    46
1040
6.0
1000
ACAD_MTEXT_DEFINED_HEIGHT_END
  0
INSERT
  5
1C1
330
1BA
100
AcDbEntity
  8
8
  6
CONTINUOUS
 62
     4
100
AcDbBlockReference
  2
_ARROWFILLED
 10
142.6202918365052
 20
183.8018772179076
 30
0.0
 41
4.0
 42
4.0
 43
4.0
 50
269.9999999999998
  0
INSERT
  5
1C2
330
1BA
100
AcDbEntity
  8
8
  6
CONTINUOUS
 62
     4
100
AcDbBlockReference
  2
_ARROWFILLED
 10
142.6202918365052
 20
413.8018772179076
 30
0.0
 41
4.0
 42
4.0
 43
4.0
 50
89.99999999999991
  0
ENDBLK
  5
1BC
330
1BA
100
AcDbEntity
  8
0
100
AcDbBlockEnd
  0
BLOCK
  5
1C5
330
1C4
100
AcDbEntity
  8
0
100
AcDbBlockBegin
  2
DIM9
 70
     0
 10
0.0
 20
0.0
 30
0.0
  3
DIM9
  1

  0
LINE
  5
1C7
330
1C4
100
AcDbEntity
  8
8
  6
CONTINUOUS
 62
     4
100
AcDbLine
 10
204.5202918365048
 20
175.8018772179075
 30
0.0
 11
123.6202918365052
 21
175.8018772179078
 31
0.0
  0
LINE
  5
1C8
330
1C4
100
AcDbEntity
  8
8
  6
CONTINUOUS
 62
     4
100
AcDbLine
 10
204.5202918365048
 20
421.8018772179075
 30
0.0
 11
123.6202918365052
 21
421.8018772179078
 31
0.0
  0
LINE
  5
1C9
330
1C4
100
AcDbEntity
  8
8
  6
CONTINUOUS
 62
     4
100
AcDbLine
 10
126.6202918365052
 20
175.8018772179078
 30
0.0
 11
126.6202918365052
 21
421.8018772179078
 31
0.0
  0
MTEXT
  5
1CA
330
1C4
100
AcDbEntity
  8
8
  6
CONTINUOUS
 62
     4
100
AcDbMText
 10
126.6202918365052
 20
298.8018772179075
 30
0.0
 40
6.0
 41
77.14285714285714
 71
     8
 72
     1
  1
246
  7
ＭＳ_ゴシック
 11
1.615544574432587E-15
 21
1.0
 31
0.0
1001
ACAD
1000
ACAD_MTEXT_DEFINED_HEIGHT_BEGIN
1070
    46
1040
6.0
1000
ACAD_MTEXT_DEFINED_HEIGHT_END
  0
INSERT
  5
1CB
330
1C4
100
AcDbEntity
  8
8
  6
CONTINUOUS
 62
     4
100
AcDbBlockReference
  2
_ARROWFILLED
 10
126.6202918365052
 20
175.8018772179078
 30
0.0
 41
4.0
 42
4.0
 43
4.0
 50
269.9999999999998
  0
INSERT
  5
1CC
330
1C4
100
AcDbEntity
  8
8
  6
CONTINUOUS
 62
     4
100
AcDbBlockReference
  2
_ARROWFILLED
 10
126.6202918365052
 20
421.8018772179078
 30
0.0
 41
4.0
 42
4.0
 43
4.0
 50
89.99999999999991
  0
ENDBLK
  5
1C6
330
1C4
100
AcDbEntity
  8
0
100
AcDbBlockEnd
  0
BLOCK
  5
1CF
330
1CE
100
AcDbEntity
  8
0
100
AcDbBlockBegin
  2
DIM10
 70
     0
 10
0.0
 20
0.0
 30
0.0
  3
DIM10
  1

  0
LINE
  5
1D1
330
1CE
100
AcDbEntity
  8
8
  6
CONTINUOUS
 62
     4
100
AcDbLine
 10
192.6202918365038
 20
428.8018772179075
 30
0.0
 11
107.6202918365052
 21
428.8018772179078
 31
0.0
  0
LINE
  5
1D2
330
1CE
100
AcDbEntity
  8
8
  6
CONTINUOUS
 62
     4
100
AcDbLine
 10
192.6202918365038
 20
168.8018772179075
 30
0.0
 11
107.6202918365052
 21
168.8018772179078
 31
0.0
  0
LINE
  5
1D3
330
1CE
100
AcDbEntity
  8
8
  6
CONTINUOUS
 62
     4
100
AcDbLine
 10
110.6202918365052
 20
428.8018772179078
 30
0.0
 11
110.6202918365052
 21
168.8018772179078
 31
0.0
  0
MTEXT
  5
1D4
330
1CE
100
AcDbEntity
  8
8
  6
CONTINUOUS
 62
     4
100
AcDbMText
 10
110.6202918365052
 20
298.8018772179075
 30
0.0
 40
6.0
 41
77.14285714285714
 71
     8
 72
     1
  1
260
  7
ＭＳ_ゴシック
 11
1.615544574432587E-15
 21
1.0
 31
0.0
1001
ACAD
1000
ACAD_MTEXT_DEFINED_HEIGHT_BEGIN
1070
    46
1040
6.0
1000
ACAD_MTEXT_DEFINED_HEIGHT_END
  0
INSERT
  5
1D5
330
1CE
100
AcDbEntity
  8
8
  6
CONTINUOUS
 62
     4
100
AcDbBlockReference
  2
_ARROWFILLED
 10
110.6202918365052
 20
428.8018772179078
 30
0.0
 41
4.0
 42
4.0
 43
4.0
 50
89.99999999999991
  0
INSERT
  5
1D6
330
1CE
100
AcDbEntity
  8
8
  6
CONTINUOUS
 62
     4
100
AcDbBlockReference
  2
_ARROWFILLED
 10
110.6202918365052
 20
168.8018772179078
 30
0.0
 41
4.0
 42
4.0
 43
4.0
 50
269.9999999999998
  0
ENDBLK
  5
1D0
330
1CE
100
AcDbEntity
  8
0
100
AcDbBlockEnd
  0
BLOCK
  5
1D9
330
1D8
100
AcDbEntity
  8
0
100
AcDbBlockBegin
  2
DIM11
 70
     0
 10
0.0
 20
0.0
 30
0.0
  3
DIM11
  1

  0
LINE
  5
1DB
330
1D8
100
AcDbEntity
  8
8
  6
CONTINUOUS
 62
     4
100
AcDbLine
 10
214.6202918365047
 20
165.7018772179072
 30
0.0
 11
214.6202918365047
 21
141.8018772179075
 31
0.0
  0
LINE
  5
1DC
330
1D8
100
AcDbEntity
  8
8
  6
CONTINUOUS
 62
     4
100
AcDbLine
 10
302.1202918365047
 20
165.7018772179072
 30
0.0
 11
302.1202918365046
 21
141.8018772179075
 31
0.0
  0
LINE
  5
1DD
330
1D8
100
AcDbEntity
  8
8
  6
CONTINUOUS
 62
     4
100
AcDbLine
 10
214.6202918365047
 20
144.8018772179075
 30
0.0
 11
302.1202918365046
 21
144.8018772179075
 31
0.0
  0
MTEXT
  5
1DE
330
1D8
100
AcDbEntity
  8
8
  6
CONTINUOUS
 62
     4
100
AcDbMText
 10
258.3702918365046
 20
144.8018772179075
 30
0.0
 40
6.0
 41
91.42857142857142
 71
     8
 72
     1
  1
87.5
  7
ＭＳ_ゴシック
1001
ACAD
1000
ACAD_MTEXT_DEFINED_HEIGHT_BEGIN
1070
    46
1040
6.0
1000
ACAD_MTEXT_DEFINED_HEIGHT_END
  0
INSERT
  5
1DF
330
1D8
100
AcDbEntity
  8
8
  6
CONTINUOUS
 62
     4
100
AcDbBlockReference
  2
_ARROWFILLED
 10
214.6202918365047
 20
144.8018772179075
 30
0.0
 41
4.0
 42
4.0
 43
4.0
 50
179.9999999999998
  0
INSERT
  5
1E0
330
1D8
100
AcDbEntity
  8
8
  6
CONTINUOUS
 62
     4
100
AcDbBlockReference
  2
_ARROWFILLED
 10
302.1202918365046
 20
144.8018772179075
 30
0.0
 41
4.0
 42
4.0
 43
4.0
 50
359.9999999999997
  0
ENDBLK
  5
1DA
330
1D8
100
AcDbEntity
  8
0
100
AcDbBlockEnd
  0
BLOCK
  5
1E3
330
1E2
100
AcDbEntity
  8
0
100
AcDbBlockBegin
  2
DIM12
 70
     0
 10
0.0
 20
0.0
 30
0.0
  3
DIM12
  1

  0
LINE
  5
1E5
330
1E2
100
AcDbEntity
  8
8
  6
CONTINUOUS
 62
     4
100
AcDbLine
 10
302.1202918365047
 20
165.7018772179072
 30
0.0
 11
302.1202918365046
 21
141.8018772179075
 31
0.0
  0
LINE
  5
1E6
330
1E2
100
AcDbEntity
  8
8
  6
CONTINUOUS
 62
     4
100
AcDbLine
 10
477.1202918365043
 20
165.7018772179072
 30
0.0
 11
477.1202918365042
 21
141.8018772179075
 31
0.0
  0
LINE
  5
1E7
330
1E2
100
AcDbEntity
  8
8
  6
CONTINUOUS
 62
     4
100
AcDbLine
 10
302.1202918365046
 20
144.8018772179075
 30
0.0
 11
477.1202918365042
 21
144.8018772179075
 31
0.0
  0
MTEXT
  5
1E8
330
1E2
100
AcDbEntity
  8
8
  6
CONTINUOUS
 62
     4
100
AcDbMText
 10
389.6202918365043
 20
144.8018772179075
 30
0.0
 40
6.0
 41
72.85714285714286
 71
     8
 72
     1
  1
175
  7
ＭＳ_ゴシック
1001
ACAD
1000
ACAD_MTEXT_DEFINED_HEIGHT_BEGIN
1070
    46
1040
6.0
1000
ACAD_MTEXT_DEFINED_HEIGHT_END
  0
INSERT
  5
1E9
330
1E2
100
AcDbEntity
  8
8
  6
CONTINUOUS
 62
     4
100
AcDbBlockReference
  2
_ARROWFILLED
 10
302.1202918365046
 20
144.8018772179075
 30
0.0
 41
4.0
 42
4.0
 43
4.0
 50
179.9999999999998
  0
INSERT
  5
1EA
330
1E2
100
AcDbEntity
  8
8
  6
CONTINUOUS
 62
     4
100
AcDbBlockReference
  2
_ARROWFILLED
 10
477.1202918365042
 20
144.8018772179075
 30
0.0
 41
4.0
 42
4.0
 43
4.0
 50
359.9999999999997
  0
ENDBLK
  5
1E4
330
1E2
100
AcDbEntity
  8
0
100
AcDbBlockEnd
  0
BLOCK
  5
1ED
330
1EC
100
AcDbEntity
  8
0
100
AcDbBlockBegin
  2
DIM13
 70
     0
 10
0.0
 20
0.0
 30
0.0
  3
DIM13
  1

  0
LINE
  5
1EF
330
1EC
100
AcDbEntity
  8
8
  6
CONTINUOUS
 62
     4
100
AcDbLine
 10
604.6202918365043
 20
181.8018772179075
 30
0.0
 11
604.6202918365042
 21
109.8018772179075
 31
0.0
  0
LINE
  5
1F0
330
1EC
100
AcDbEntity
  8
8
  6
CONTINUOUS
 62
     4
100
AcDbLine
 10
639.6202918365061
 20
273.8018772179075
 30
0.0
 11
639.6202918365059
 21
109.8018772179075
 31
0.0
  0
LINE
  5
1F1
330
1EC
100
AcDbEntity
  8
8
  6
CONTINUOUS
 62
     4
100
AcDbLine
 10
604.6202918365042
 20
112.8018772179075
 30
0.0
 11
639.6202918365059
 21
112.8018772179075
 31
0.0
  0
MTEXT
  5
1F2
330
1EC
100
AcDbEntity
  8
8
  6
CONTINUOUS
 62
     4
100
AcDbMText
 10
622.1202918365052
 20
112.8018772179075
 30
0.0
 40
6.0
 41
48.57142857142856
 71
     8
 72
     1
  1
35
  7
ＭＳ_ゴシック
1001
ACAD
1000
ACAD_MTEXT_DEFINED_HEIGHT_BEGIN
1070
    46
1040
6.0
1000
ACAD_MTEXT_DEFINED_HEIGHT_END
  0
INSERT
  5
1F3
330
1EC
100
AcDbEntity
  8
8
  6
CONTINUOUS
 62
     4
100
AcDbBlockReference
  2
_ARROWFILLED
 10
604.6202918365042
 20
112.8018772179075
 30
0.0
 41
4.0
 42
4.0
 43
4.0
 50
179.9999999999998
  0
INSERT
  5
1F4
330
1EC
100
AcDbEntity
  8
8
  6
CONTINUOUS
 62
     4
100
AcDbBlockReference
  2
_ARROWFILLED
 10
639.6202918365059
 20
112.8018772179075
 30
0.0
 41
4.0
 42
4.0
 43
4.0
 50
359.9999999999997
  0
ENDBLK
  5
1EE
330
1EC
100
AcDbEntity
  8
0
100
AcDbBlockEnd
  0
BLOCK
  5
1F7
330
1F6
100
AcDbEntity
  8
0
100
AcDbBlockBegin
  2
DIM14
 70
     0
 10
0.0
 20
0.0
 30
0.0
  3
DIM14
  1

  0
LINE
  5
1F9
330
1F6
100
AcDbEntity
  8
8
  6
CONTINUOUS
 62
     4
100
AcDbLine
 10
376.3022005056239
 20
277.0561088180011
 30
0.0
 11
486.7091039250917
 21
457.3284084939331
 31
0.0
  0
MTEXT
  5
1FA
330
1F6
100
AcDbEntity
  8
8
  6
CONTINUOUS
 62
     4
100
AcDbMText
 10
482.0086011024376
 20
449.6534314116075
 30
0.0
 40
6.0
 41
75.71428571428571
 71
     7
 72
     1
  1
\U+220535
  7
ＭＳ_ゴシック
 11
0.5222780914068492
 21
0.8527752313689809
 31
0.0
1001
ACAD
1000
ACAD_MTEXT_DEFINED_HEIGHT_BEGIN
1070
    46
1040
6.0
1000
ACAD_MTEXT_DEFINED_HEIGHT_END
  0
INSERT
  5
1FB
330
1F6
100
AcDbEntity
  8
8
  6
CONTINUOUS
 62
     4
100
AcDbBlockReference
  2
_ARROWFILLED
 10
380.4804252368787
 20
283.878310668953
 30
0.0
 41
4.0
 42
4.0
 43
4.0
 50
58.5148142089812
  0
INSERT
  5
1FC
330
1F6
100
AcDbEntity
  8
8
  6
CONTINUOUS
 62
     4
100
AcDbBlockReference
  2
_ARROWFILLED
 10
398.760158436118
 20
313.7254437668666
 30
0.0
 41
4.0
 42
4.0
 43
4.0
 50
238.5148142089812
  0
ENDBLK
  5
1F8
330
1F6
100
AcDbEntity
  8
0
100
AcDbBlockEnd
  0
BLOCK
  5
1FF
330
1FE
100
AcDbEntity
  8
0
100
AcDbBlockBegin
  2
DIM15
 70
     0
 10
0.0
 20
0.0
 30
0.0
  3
DIM15
  1

  0
LINE
  5
201
330
1FE
100
AcDbEntity
  8
8
  6
CONTINUOUS
 62
     4
100
AcDbLine
 10
369.4432181799545
 20
275.929717314253
 30
0.0
 11
528.2067729114441
 21
455.8995916629369
 31
0.0
  0
MTEXT
  5
202
330
1FE
100
AcDbEntity
  8
8
  6
CONTINUOUS
 62
     4
100
AcDbMText
 10
522.25288232427
 20
449.1504297241506
 30
0.0
 40
6.0
 41
75.71428571428571
 71
     7
 72
     1
  1
\U+220545
  7
ＭＳ_ゴシック
 11
0.6615433985751176
 21
0.7499068820871582
 31
0.0
1001
ACAD
1000
ACAD_MTEXT_DEFINED_HEIGHT_BEGIN
1070
    46
1040
6.0
1000
ACAD_MTEXT_DEFINED_HEIGHT_END
  0
INSERT
  5
203
330
1FE
100
AcDbEntity
  8
8
  6
CONTINUOUS
 62
     4
100
AcDbBlockReference
  2
_ARROWFILLED
 10
374.7355653685555
 20
281.9289723709502
 30
0.0
 41
4.0
 42
4.0
 43
4.0
 50
48.58231237432108
  0
INSERT
  5
204
330
1FE
100
AcDbEntity
  8
8
  6
CONTINUOUS
 62
     4
100
AcDbBlockReference
  2
_ARROWFILLED
 10
404.5050183044351
 20
315.6747820648716
 30
0.0
 41
4.0
 42
4.0
 43
4.0
 50
228.582312374321
  0
ENDBLK
  5
200
330
1FE
100
AcDbEntity
  8
0
100
AcDbBlockEnd
  0
ENDSEC
  0
SECTION
  2
ENTITIES
  0
LINE
  5
A1
330
1F
100
AcDbEntity
  8
9
  6
CONTINUOUS
 62
     7
100
AcDbLine
 10
725.6781921041238
 20
183.4852105512418
 30
0.0
 11
718.7781921041233
 21
183.4852105512418
 31
0.0
  0
ARC
  5
A2
330
1F
100
AcDbEntity
  8
9
  6
CONTINUOUS
 62
     7
100
AcDbCircle
 10
722.228192104124
 20
186.4522280951005
 30
0.0
 40
4.550350877192955
100
AcDbArc
 50
220.6956985253369
 51
319.3043014746624
  0
LINE
  5
A3
330
1F
100
AcDbEntity
  8
9
  6
CONTINUOUS
 62
     7
100
AcDbLine
 10
725.6781921041238
 20
183.8018772179075
 30
0.0
 11
725.6781921041238
 21
183.4852105512418
 31
0.0
  0
LINE
  5
A4
330
1F
100
AcDbEntity
  8
9
  6
CONTINUOUS
 62
     7
100
AcDbLine
 10
718.7781921041233
 20
183.8018772179075
 30
0.0
 11
718.7781921041233
 21
183.4852105512418
 31
0.0
  0
LINE
  5
A5
330
1F
100
AcDbEntity
  8
9
  6
CONTINUOUS
 62
     7
100
AcDbLine
 10
687.228192104124
 20
413.8018772179075
 30
0.0
 11
687.228192104124
 21
183.8018772179075
 31
0.0
  0
LINE
  5
A6
330
1F
100
AcDbEntity
  8
9
  6
CONTINUOUS
 62
     7
100
AcDbLine
 10
732.228192104124
 20
428.8018772179075
 30
0.0
 11
732.228192104124
 21
168.8018772179075
 31
0.0
  0
LINE
  5
A7
330
1F
100
AcDbEntity
  8
9
  6
CONTINUOUS
 62
     7
100
AcDbLine
 10
731.228192104124
 20
428.8018772179075
 30
0.0
 11
731.2281921041222
 21
168.8018772179075
 31
0.0
  0
LINE
  5
A8
330
1F
100
AcDbEntity
  8
9
  6
CONTINUOUS
 62
     7
100
AcDbLine
 10
687.228192104124
 20
413.8018772179075
 30
0.0
 11
731.228192104124
 21
413.8018772179057
 31
0.0
  0
LINE
  5
A9
330
1F
100
AcDbEntity
  8
9
  6
CONTINUOUS
 62
     7
100
AcDbLine
 10
731.228192104124
 20
412.8018772179057
 30
0.0
 11
732.228192104124
 21
412.8018772179057
 31
0.0
  0
LINE
  5
AA
330
1F
100
AcDbEntity
  8
9
  6
CONTINUOUS
 62
     7
100
AcDbLine
 10
731.228192104124
 20
428.8018772179075
 30
0.0
 11
732.228192104124
 21
428.8018772179075
 31
0.0
  0
LINE
  5
AB
330
1F
100
AcDbEntity
  8
9
  6
CONTINUOUS
 62
     7
100
AcDbLine
 10
687.228192104124
 20
183.8018772179075
 30
0.0
 11
731.2281921041222
 21
183.8018772179075
 31
0.0
  0
LINE
  5
AC
330
1F
100
AcDbEntity
  8
9
  6
CONTINUOUS
 62
     7
100
AcDbLine
 10
731.2281921041222
 20
184.8018772179075
 30
0.0
 11
732.228192104124
 21
184.8018772179075
 31
0.0
  0
LINE
  5
AD
330
1F
100
AcDbEntity
  8
9
  6
CONTINUOUS
 62
     7
100
AcDbLine
 10
731.228192104124
 20
168.8018772179075
 30
0.0
 11
732.228192104124
 21
168.8018772179075
 31
0.0
  0
LINE
  5
AE
330
1F
100
AcDbEntity
  8
4
  6
DASHDOT
 62
     1
100
AcDbLine
 10
677.228192104124
 20
298.8018772179075
 30
0.0
 11
742.228192104124
 21
298.8018772179075
 31
0.0
  0
LINE
  5
AF
330
1F
100
AcDbEntity
  8
4
  6
DASHDOT
 62
     1
100
AcDbLine
 10
729.2281921041222
 20
175.8018772179075
 30
0.0
 11
734.228192104124
 21
175.8018772179075
 31
0.0
  0
LINE
  5
B0
330
1F
100
AcDbEntity
  8
4
  6
DASHDOT
 62
     1
100
AcDbLine
 10
729.2281921041222
 20
421.8018772179075
 30
0.0
 11
734.228192104124
 21
421.8018772179075
 31
0.0
  0
LINE
  5
B1
330
1F
100
AcDbEntity
  8
9
  6
CONTINUOUS
 62
     7
100
AcDbLine
 10
698.7281921041231
 20
321.8018772179075
 30
0.0
 11
731.2281921041231
 21
321.8018772179075
 31
0.0
  0
LINE
  5
B2
330
1F
100
AcDbEntity
  8
9
  6
CONTINUOUS
 62
     7
100
AcDbLine
 10
698.7281921041231
 20
321.8018772179075
 30
0.0
 11
698.7281921041231
 21
275.8018772179075
 31
0.0
  0
LINE
  5
B3
330
1F
100
AcDbEntity
  8
9
  6
CONTINUOUS
 62
     7
100
AcDbLine
 10
698.7281921041231
 20
275.8018772179075
 30
0.0
 11
731.2281921041231
 21
275.8018772179075
 31
0.0
  0
LINE
  5
B4
330
1F
100
AcDbEntity
  8
9
  6
CONTINUOUS
 62
     7
100
AcDbLine
 10
725.5781921041244
 20
271.5358705784365
 30
0.0
 11
725.5781921041244
 21
264.3018772179057
 31
0.0
  0
LINE
  5
B5
330
1F
100
AcDbEntity
  8
11
  6
CONTINUOUS
 62
     2
100
AcDbLine
 10
725.0397305656625
 20
269.0018772179046
 30
0.0
 11
725.5781921041234
 21
269.9345199604431
 31
0.0
  0
LINE
  5
B6
330
1F
100
AcDbEntity
  8
9
  6
CONTINUOUS
 62
     7
100
AcDbLine
 10
724.7781921041242
 20
263.5018772179046
 30
0.0
 11
725.5781921041244
 21
264.3018772179057
 31
0.0
  0
LINE
  5
B7
330
1F
100
AcDbEntity
  8
11
  6
CONTINUOUS
 62
     2
100
AcDbLine
 10
725.0397305656625
 20
269.0018772179046
 30
0.0
 11
725.0397305656625
 21
263.7634156794429
 31
0.0
  0
LINE
  5
B8
330
1F
100
AcDbEntity
  8
9
  6
CONTINUOUS
 62
     7
100
AcDbLine
 10
729.2281921041249
 20
273.5018772179046
 30
0.0
 11
729.2281921041249
 21
275.8018772179057
 31
0.0
  0
LINE
  5
B9
330
1F
100
AcDbEntity
  8
9
  6
CONTINUOUS
 62
     7
100
AcDbLine
 10
700.2281921041249
 20
273.5018772179046
 30
0.0
 11
700.2281921041249
 21
275.8018772179057
 31
0.0
  0
LINE
  5
BA
330
1F
100
AcDbEntity
  8
11
  6
CONTINUOUS
 62
     2
100
AcDbLine
 10
704.4166536425855
 20
269.0018772179046
 30
0.0
 11
703.8781921041245
 21
269.9345199604431
 31
0.0
  0
LINE
  5
BB
330
1F
100
AcDbEntity
  8
9
  6
CONTINUOUS
 62
     7
100
AcDbLine
 10
729.2281921041249
 20
273.5018772179046
 30
0.0
 11
700.2281921041249
 21
273.5018772179046
 31
0.0
  0
LINE
  5
BC
330
1F
100
AcDbEntity
  8
9
  6
CONTINUOUS
 62
     7
100
AcDbLine
 10
703.8781921041245
 20
269.0018772179046
 30
0.0
 11
725.5781921041244
 21
269.0018772179046
 31
0.0
  0
LINE
  5
BD
330
1F
100
AcDbEntity
  8
9
  6
CONTINUOUS
 62
     7
100
AcDbLine
 10
704.6781921041229
 20
263.5018772179046
 30
0.0
 11
703.8781921041245
 21
264.3018772179057
 31
0.0
  0
LINE
  5
BE
330
1F
100
AcDbEntity
  8
9
  6
CONTINUOUS
 62
     7
100
AcDbLine
 10
703.8781921041245
 20
264.3018772179057
 30
0.0
 11
725.5781921041244
 21
264.3018772179057
 31
0.0
  0
LINE
  5
BF
330
1F
100
AcDbEntity
  8
9
  6
CONTINUOUS
 62
     7
100
AcDbLine
 10
703.8781921041245
 20
271.5285920491169
 30
0.0
 11
703.8781921041245
 21
264.3018772179057
 31
0.0
  0
LINE
  5
C0
330
1F
100
AcDbEntity
  8
11
  6
CONTINUOUS
 62
     2
100
AcDbLine
 10
704.4166536425855
 20
269.0018772179046
 30
0.0
 11
704.4166536425855
 21
263.7634156794429
 31
0.0
  0
LINE
  5
C1
330
1F
100
AcDbEntity
  8
9
  6
CONTINUOUS
 62
     7
100
AcDbLine
 10
704.6781921041229
 20
263.5018772179046
 30
0.0
 11
724.7781921041242
 21
263.5018772179046
 31
0.0
  0
LINE
  5
C2
330
1F
100
AcDbEntity
  8
9
  6
CONTINUOUS
 62
     7
100
AcDbLine
 10
729.0172142364745
 20
273.5018772179046
 30
0.0
 11
723.5172142364745
 21
273.5018772179046
 31
0.0
  0
ARC
  5
C3
330
1F
100
AcDbEntity
  8
9
  6
CONTINUOUS
 62
     7
100
AcDbCircle
 10
726.2672142364745
 20
278.5018772179046
 30
0.0
 40
7.0
100
AcDbArc
 50
253.448644000064
 51
286.5513559999121
  0
LINE
  5
C4
330
1F
100
AcDbEntity
  8
9
  6
CONTINUOUS
 62
     7
100
AcDbLine
 10
729.0172142364745
 20
273.5018772179046
 30
0.0
 11
728.9750922364747
 21
272.6981522179049
 31
0.0
  0
ARC
  5
C5
330
1F
100
AcDbEntity
  8
9
  6
CONTINUOUS
 62
     7
100
AcDbCircle
 10
727.9764622364746
 20
272.7504882179055
 30
0.0
 40
1.0
100
AcDbArc
 50
286.5513559999366
 51
356.9999999999939
  0
LINE
  5
C6
330
1F
100
AcDbEntity
  8
9
  6
CONTINUOUS
 62
     7
100
AcDbLine
 10
723.5172142364745
 20
273.5018772179046
 30
0.0
 11
723.5593362364734
 21
272.6981522179049
 31
0.0
  0
ARC
  5
C7
330
1F
100
AcDbEntity
  8
9
  6
CONTINUOUS
 62
     7
100
AcDbCircle
 10
724.5579662364744
 20
272.7504882179055
 30
0.0
 40
1.0
100
AcDbArc
 50
183.0000000000054
 51
253.4486440000627
  0
LINE
  5
C8
330
1F
100
AcDbEntity
  8
9
  6
CONTINUOUS
 62
     7
100
AcDbLine
 10
706.0172142364745
 20
273.5018772179046
 30
0.0
 11
700.5172142364754
 21
273.5018772179046
 31
0.0
  0
ARC
  5
C9
330
1F
100
AcDbEntity
  8
9
  6
CONTINUOUS
 62
     7
100
AcDbCircle
 10
703.2672142364754
 20
278.5018772179046
 30
0.0
 40
7.0
100
AcDbArc
 50
253.448644000064
 51
286.5513559999121
  0
LINE
  5
CA
330
1F
100
AcDbEntity
  8
9
  6
CONTINUOUS
 62
     7
100
AcDbLine
 10
706.0172142364745
 20
273.5018772179046
 30
0.0
 11
705.9750922364747
 21
272.6981522179049
 31
0.0
  0
ARC
  5
CB
330
1F
100
AcDbEntity
  8
9
  6
CONTINUOUS
 62
     7
100
AcDbCircle
 10
704.9764622364746
 20
272.7504882179055
 30
0.0
 40
1.0
100
AcDbArc
 50
286.5513559999366
 51
356.9999999999939
  0
LINE
  5
CC
330
1F
100
AcDbEntity
  8
9
  6
CONTINUOUS
 62
     7
100
AcDbLine
 10
700.5172142364754
 20
273.5018772179046
 30
0.0
 11
700.5593362364734
 21
272.6981522179049
 31
0.0
  0
ARC
  5
CD
330
1F
100
AcDbEntity
  8
9
  6
CONTINUOUS
 62
     7
100
AcDbCircle
 10
701.5579662364735
 20
272.7504882179055
 30
0.0
 40
1.0
100
AcDbArc
 50
183.0000000000054
 51
253.4486440000627
  0
ARC
  5
CE
330
1F
100
AcDbEntity
  8
9
  6
CONTINUOUS
 62
     7
100
AcDbCircle
 10
721.4281921041238
 20
336.0018772179064
 30
0.0
 40
0.5
100
AcDbArc
 50
0.0
 51
89.99999999999991
  0
ARC
  5
CF
330
1F
100
AcDbEntity
  8
9
  6
CONTINUOUS
 62
     7
100
AcDbCircle
 10
723.0281921041242
 20
336.0018772179064
 30
0.0
 40
0.5
100
AcDbArc
 50
89.99999999999991
 51
179.9999999999998
  0
CIRCLE
  5
D0
330
1F
100
AcDbEntity
  8
9
  6
CONTINUOUS
 62
     7
100
AcDbCircle
 10
722.228192104124
 20
336.8018772179057
 30
0.0
 40
3.450000000000045
  0
LINE
  5
D1
330
1F
100
AcDbEntity
  8
9
  6
CONTINUOUS
 62
     7
100
AcDbLine
 10
721.9281921041238
 20
336.0018772179064
 30
0.0
 11
721.9281921041238
 21
335.351877217905
 31
0.0
  0
LINE
  5
D2
330
1F
100
AcDbEntity
  8
9
  6
CONTINUOUS
 62
     7
100
AcDbLine
 10
722.5281921041242
 20
336.0018772179064
 30
0.0
 11
722.5281921041242
 21
335.351877217905
 31
0.0
  0
LINE
  5
D3
330
1F
100
AcDbEntity
  8
9
  6
CONTINUOUS
 62
     7
100
AcDbLine
 10
721.9281921041238
 20
335.351877217905
 30
0.0
 11
722.5281921041242
 21
335.351877217905
 31
0.0
  0
LINE
  5
D4
330
1F
100
AcDbEntity
  8
9
  6
CONTINUOUS
 62
     7
100
AcDbLine
 10
721.4281921041238
 20
337.101877217905
 30
0.0
 11
720.7781921041242
 21
337.101877217905
 31
0.0
  0
LINE
  5
D5
330
1F
100
AcDbEntity
  8
9
  6
CONTINUOUS
 62
     7
100
AcDbLine
 10
721.4281921041238
 20
336.5018772179064
 30
0.0
 11
720.7781921041242
 21
336.5018772179064
 31
0.0
  0
ARC
  5
D6
330
1F
100
AcDbEntity
  8
9
  6
CONTINUOUS
 62
     7
100
AcDbCircle
 10
723.0281921041242
 20
337.601877217905
 30
0.0
 40
0.5
100
AcDbArc
 50
179.9999999999998
 51
269.9999999999998
  0
ARC
  5
D7
330
1F
100
AcDbEntity
  8
9
  6
CONTINUOUS
 62
     7
100
AcDbCircle
 10
721.4281921041238
 20
337.601877217905
 30
0.0
 40
0.5
100
AcDbArc
 50
269.9999999999998
 51
0.0
  0
LINE
  5
D8
330
1F
100
AcDbEntity
  8
9
  6
CONTINUOUS
 62
     7
100
AcDbLine
 10
722.5281921041242
 20
337.601877217905
 30
0.0
 11
722.5281921041242
 21
338.2518772179064
 31
0.0
  0
LINE
  5
D9
330
1F
100
AcDbEntity
  8
9
  6
CONTINUOUS
 62
     7
100
AcDbLine
 10
721.9281921041238
 20
337.601877217905
 30
0.0
 11
721.9281921041238
 21
338.2518772179064
 31
0.0
  0
LINE
  5
DA
330
1F
100
AcDbEntity
  8
9
  6
CONTINUOUS
 62
     7
100
AcDbLine
 10
723.0281921041242
 20
337.101877217905
 30
0.0
 11
723.6781921041238
 21
337.101877217905
 31
0.0
  0
LINE
  5
DB
330
1F
100
AcDbEntity
  8
9
  6
CONTINUOUS
 62
     7
100
AcDbLine
 10
723.0281921041242
 20
336.5018772179064
 30
0.0
 11
723.6781921041238
 21
336.5018772179064
 31
0.0
  0
LINE
  5
DC
330
1F
100
AcDbEntity
  8
9
  6
CONTINUOUS
 62
     7
100
AcDbLine
 10
723.6781921041238
 20
336.5018772179064
 30
0.0
 11
723.6781921041238
 21
337.101877217905
 31
0.0
  0
LINE
  5
DD
330
1F
100
AcDbEntity
  8
9
  6
CONTINUOUS
 62
     7
100
AcDbLine
 10
722.5281921041242
 20
338.2518772179064
 30
0.0
 11
721.9281921041238
 21
338.2518772179064
 31
0.0
  0
LINE
  5
DE
330
1F
100
AcDbEntity
  8
9
  6
CONTINUOUS
 62
     7
100
AcDbLine
 10
720.7781921041242
 20
337.101877217905
 30
0.0
 11
720.7781921041242
 21
336.5018772179064
 31
0.0
  0
ARC
  5
DF
330
1F
100
AcDbEntity
  8
9
  6
CONTINUOUS
 62
     7
100
AcDbCircle
 10
721.4281921041238
 20
260.0018772179064
 30
0.0
 40
0.5
100
AcDbArc
 50
0.0
 51
89.99999999999991
  0
ARC
  5
E0
330
1F
100
AcDbEntity
  8
9
  6
CONTINUOUS
 62
     7
100
AcDbCircle
 10
723.0281921041242
 20
260.0018772179064
 30
0.0
 40
0.5
100
AcDbArc
 50
89.99999999999991
 51
179.9999999999998
  0
ARC
  5
E1
330
1F
100
AcDbEntity
  8
9
  6
CONTINUOUS
 62
     7
100
AcDbCircle
 10
722.228192104124
 20
260.8018772179057
 30
0.0
 40
3.450000000000045
100
AcDbArc
 50
128.4999504092793
 51
51.50004959072073
  0
LINE
  5
E2
330
1F
100
AcDbEntity
  8
9
  6
CONTINUOUS
 62
     7
100
AcDbLine
 10
721.9281921041238
 20
260.0018772179064
 30
0.0
 11
721.9281921041238
 21
259.351877217905
 31
0.0
  0
LINE
  5
E3
330
1F
100
AcDbEntity
  8
9
  6
CONTINUOUS
 62
     7
100
AcDbLine
 10
722.5281921041242
 20
260.0018772179064
 30
0.0
 11
722.5281921041242
 21
259.351877217905
 31
0.0
  0
LINE
  5
E4
330
1F
100
AcDbEntity
  8
9
  6
CONTINUOUS
 62
     7
100
AcDbLine
 10
721.9281921041238
 20
259.351877217905
 30
0.0
 11
722.5281921041242
 21
259.351877217905
 31
0.0
  0
LINE
  5
E5
330
1F
100
AcDbEntity
  8
9
  6
CONTINUOUS
 62
     7
100
AcDbLine
 10
721.4281921041238
 20
261.101877217905
 30
0.0
 11
720.7781921041242
 21
261.101877217905
 31
0.0
  0
LINE
  5
E6
330
1F
100
AcDbEntity
  8
9
  6
CONTINUOUS
 62
     7
100
AcDbLine
 10
721.4281921041238
 20
260.5018772179064
 30
0.0
 11
720.7781921041242
 21
260.5018772179064
 31
0.0
  0
ARC
  5
E7
330
1F
100
AcDbEntity
  8
9
  6
CONTINUOUS
 62
     7
100
AcDbCircle
 10
723.0281921041242
 20
261.601877217905
 30
0.0
 40
0.5
100
AcDbArc
 50
179.9999999999998
 51
269.9999999999998
  0
ARC
  5
E8
330
1F
100
AcDbEntity
  8
9
  6
CONTINUOUS
 62
     7
100
AcDbCircle
 10
721.4281921041238
 20
261.601877217905
 30
0.0
 40
0.5
100
AcDbArc
 50
269.9999999999998
 51
0.0
  0
LINE
  5
E9
330
1F
100
AcDbEntity
  8
9
  6
CONTINUOUS
 62
     7
100
AcDbLine
 10
722.5281921041242
 20
261.601877217905
 30
0.0
 11
722.5281921041242
 21
262.2518772179064
 31
0.0
  0
LINE
  5
EA
330
1F
100
AcDbEntity
  8
9
  6
CONTINUOUS
 62
     7
100
AcDbLine
 10
721.9281921041238
 20
261.601877217905
 30
0.0
 11
721.9281921041238
 21
262.2518772179064
 31
0.0
  0
LINE
  5
EB
330
1F
100
AcDbEntity
  8
9
  6
CONTINUOUS
 62
     7
100
AcDbLine
 10
723.0281921041242
 20
261.101877217905
 30
0.0
 11
723.6781921041238
 21
261.101877217905
 31
0.0
  0
LINE
  5
EC
330
1F
100
AcDbEntity
  8
9
  6
CONTINUOUS
 62
     7
100
AcDbLine
 10
723.0281921041242
 20
260.5018772179064
 30
0.0
 11
723.6781921041238
 21
260.5018772179064
 31
0.0
  0
LINE
  5
ED
330
1F
100
AcDbEntity
  8
9
  6
CONTINUOUS
 62
     7
100
AcDbLine
 10
723.6781921041238
 20
260.5018772179064
 30
0.0
 11
723.6781921041238
 21
261.101877217905
 31
0.0
  0
LINE
  5
EE
330
1F
100
AcDbEntity
  8
9
  6
CONTINUOUS
 62
     7
100
AcDbLine
 10
722.5281921041242
 20
262.2518772179064
 30
0.0
 11
721.9281921041238
 21
262.2518772179064
 31
0.0
  0
LINE
  5
EF
330
1F
100
AcDbEntity
  8
9
  6
CONTINUOUS
 62
     7
100
AcDbLine
 10
720.7781921041242
 20
261.101877217905
 30
0.0
 11
720.7781921041242
 21
260.5018772179064
 31
0.0
  0
LINE
  5
F0
330
1F
100
AcDbEntity
  8
9
  6
CONTINUOUS
 62
     7
100
AcDbLine
 10
725.6781921041238
 20
414.1185438845732
 30
0.0
 11
718.7781921041233
 21
414.1185438845732
 31
0.0
  0
ARC
  5
F1
330
1F
100
AcDbEntity
  8
9
  6
CONTINUOUS
 62
     7
100
AcDbCircle
 10
722.228192104124
 20
411.1515263407146
 30
0.0
 40
4.550350877192955
100
AcDbArc
 50
40.69569852533728
 51
139.3043014746627
  0
LINE
  5
F2
330
1F
100
AcDbEntity
  8
9
  6
CONTINUOUS
 62
     7
100
AcDbLine
 10
725.6781921041238
 20
413.8018772179075
 30
0.0
 11
725.6781921041238
 21
414.1185438845732
 31
0.0
  0
LINE
  5
F3
330
1F
100
AcDbEntity
  8
9
  6
CONTINUOUS
 62
     7
100
AcDbLine
 10
718.7781921041233
 20
413.8018772179075
 30
0.0
 11
718.7781921041233
 21
414.1185438845732
 31
0.0
  0
LINE
  5
F4
330
1F
100
AcDbEntity
  8
4
  6
DASHDOT
 62
     1
100
AcDbLine
 10
677.228192104124
 20
298.8018772179075
 30
0.0
 11
742.228192104124
 21
298.8018772179075
 31
0.0
  0
LINE
  5
F5
330
1F
100
AcDbEntity
  8
9
  6
CONTINUOUS
 62
     7
100
AcDbLine
 10
589.6202918365043
 20
198.8018772179075
 30
0.0
 11
589.6202918365043
 21
398.8018772179075
 31
0.0
  0
LINE
  5
F6
330
1F
100
AcDbEntity
  8
9
  6
CONTINUOUS
 62
     7
100
AcDbLine
 10
589.6202918365043
 20
398.8018772179075
 30
0.0
 11
189.6202918365043
 21
398.8018772179075
 31
0.0
  0
LINE
  5
F7
330
1F
100
AcDbEntity
  8
9
  6
CONTINUOUS
 62
     7
100
AcDbLine
 10
189.6202918365047
 20
398.8018772179075
 30
0.0
 11
189.6202918365047
 21
198.8018772179075
 31
0.0
  0
LINE
  5
F8
330
1F
100
AcDbEntity
  8
4
  6
DASHDOT
 62
     1
100
AcDbLine
 10
389.6202918365052
 20
438.8018772179075
 30
0.0
 11
389.6202918365047
 21
158.8018772179075
 31
0.0
  0
LINE
  5
F9
330
1F
100
AcDbEntity
  8
9
  6
CONTINUOUS
 62
     7
100
AcDbLine
 10
189.6202918365043
 20
198.8018772179075
 30
0.0
 11
589.6202918365043
 21
198.8018772179075
 31
0.0
  0
LINE
  5
FA
330
1F
100
AcDbEntity
  8
9
  6
CONTINUOUS
 62
     7
100
AcDbLine
 10
604.6202918365043
 20
413.8018772179075
 30
0.0
 11
604.6202918365043
 21
183.8018772179075
 31
0.0
  0
LINE
  5
FB
330
1F
100
AcDbEntity
  8
9
  6
CONTINUOUS
 62
     7
100
AcDbLine
 10
604.6202918365043
 20
183.8018772179075
 30
0.0
 11
174.6202918365047
 21
183.8018772179057
 31
0.0
  0
LINE
  5
FC
330
1F
100
AcDbEntity
  8
9
  6
CONTINUOUS
 62
     7
100
AcDbLine
 10
604.6202918365043
 20
413.8018772179075
 30
0.0
 11
174.6202918365047
 21
413.8018772179075
 31
0.0
  0
LINE
  5
FD
330
1F
100
AcDbEntity
  8
9
  6
CONTINUOUS
 62
     7
100
AcDbLine
 10
174.6202918365047
 20
413.8018772179075
 30
0.0
 11
174.6202918365047
 21
183.8018772179075
 31
0.0
  0
LINE
  5
FE
330
1F
100
AcDbEntity
  8
9
  6
CONTINUOUS
 62
     7
100
AcDbLine
 10
589.6202918365043
 20
173.8018772179075
 30
0.0
 11
589.6202918365043
 21
183.8018772179075
 31
0.0
  0
ARC
  5
FF
330
1F
100
AcDbEntity
  8
9
  6
CONTINUOUS
 62
     7
100
AcDbCircle
 10
584.6202918365052
 20
173.8018772179075
 30
0.0
 40
5.0
100
AcDbArc
 50
269.9999999999998
 51
0.0
  0
LINE
  5
100
330
1F
100
AcDbEntity
  8
9
  6
CONTINUOUS
 62
     7
100
AcDbLine
 10
194.6202918365038
 20
168.8018772179075
 30
0.0
 11
584.6202918365052
 21
168.8018772179075
 31
0.0
  0
LINE
  5
101
330
1F
100
AcDbEntity
  8
9
  6
CONTINUOUS
 62
     7
100
AcDbLine
 10
189.6202918365047
 20
173.8018772179075
 30
0.0
 11
189.6202918365047
 21
183.8018772179075
 31
0.0
  0
ARC
  5
102
330
1F
100
AcDbEntity
  8
9
  6
CONTINUOUS
 62
     7
100
AcDbCircle
 10
194.6202918365038
 20
173.8018772179075
 30
0.0
 40
5.0
100
AcDbArc
 50
179.9999999999998
 51
269.9999999999998
  0
LINE
  5
103
330
1F
100
AcDbEntity
  8
9
  6
CONTINUOUS
 62
     7
100
AcDbLine
 10
589.6202918365043
 20
423.8018772179075
 30
0.0
 11
589.6202918365043
 21
413.8018772179075
 31
0.0
  0
ARC
  5
104
330
1F
100
AcDbEntity
  8
9
  6
CONTINUOUS
 62
     7
100
AcDbCircle
 10
584.6202918365052
 20
423.8018772179075
 30
0.0
 40
5.0
100
AcDbArc
 50
0.0
 51
89.99999999999991
  0
LINE
  5
105
330
1F
100
AcDbEntity
  8
9
  6
CONTINUOUS
 62
     7
100
AcDbLine
 10
194.6202918365047
 20
428.8018772179075
 30
0.0
 11
584.6202918365052
 21
428.8018772179075
 31
0.0
  0
LINE
  5
106
330
1F
100
AcDbEntity
  8
9
  6
CONTINUOUS
 62
     7
100
AcDbLine
 10
189.6202918365047
 20
423.8018772179075
 30
0.0
 11
189.6202918365047
 21
413.8018772179075
 31
0.0
  0
ARC
  5
107
330
1F
100
AcDbEntity
  8
9
  6
CONTINUOUS
 62
     7
100
AcDbCircle
 10
194.6202918365038
 20
423.8018772179075
 30
0.0
 40
5.0
100
AcDbArc
 50
89.99999999999991
 51
179.9999999999998
  0
LINE
  5
108
330
1F
100
AcDbEntity
  8
9
  6
CONTINUOUS
 62
     7
100
AcDbLine
 10
188.0702918365064
 20
183.4852105512418
 30
0.0
 11
181.1702918365067
 21
183.4852105512418
 31
0.0
  0
ARC
  5
109
330
1F
100
AcDbEntity
  8
9
  6
CONTINUOUS
 62
     7
100
AcDbCircle
 10
184.6202918365066
 20
186.4522280951005
 30
0.0
 40
4.550350877192983
100
AcDbArc
 50
220.695698525394
 51
319.3043014746053
  0
LINE
  5
10A
330
1F
100
AcDbEntity
  8
9
  6
CONTINUOUS
 62
     7
100
AcDbLine
 10
188.0702918365064
 20
183.8018772179075
 30
0.0
 11
188.0702918365064
 21
183.4852105512418
 31
0.0
  0
LINE
  5
10B
330
1F
100
AcDbEntity
  8
9
  6
CONTINUOUS
 62
     7
100
AcDbLine
 10
181.1702918365067
 20
183.8018772179075
 30
0.0
 11
181.1702918365067
 21
183.4852105512418
 31
0.0
  0
LINE
  5
10C
330
1F
100
AcDbEntity
  8
9
  6
CONTINUOUS
 62
     7
100
AcDbLine
 10
209.5702918365064
 20
183.4852105512418
 30
0.0
 11
202.6702918365058
 21
183.4852105512418
 31
0.0
  0
ARC
  5
10D
330
1F
100
AcDbEntity
  8
9
  6
CONTINUOUS
 62
     7
100
AcDbCircle
 10
206.1202918365066
 20
186.4522280951005
 30
0.0
 40
4.550350877192983
100
AcDbArc
 50
220.695698525394
 51
319.3043014746053
  0
LINE
  5
10E
330
1F
100
AcDbEntity
  8
9
  6
CONTINUOUS
 62
     7
100
AcDbLine
 10
209.5702918365064
 20
183.8018772179075
 30
0.0
 11
209.5702918365064
 21
183.4852105512418
 31
0.0
  0
LINE
  5
10F
330
1F
100
AcDbEntity
  8
9
  6
CONTINUOUS
 62
     7
100
AcDbLine
 10
202.6702918365058
 20
183.8018772179075
 30
0.0
 11
202.6702918365058
 21
183.4852105512418
 31
0.0
  0
LINE
  5
110
330
1F
100
AcDbEntity
  8
9
  6
CONTINUOUS
 62
     7
100
AcDbLine
 10
188.0702918365064
 20
414.118543884575
 30
0.0
 11
181.1702918365067
 21
414.118543884575
 31
0.0
  0
ARC
  5
111
330
1F
100
AcDbEntity
  8
9
  6
CONTINUOUS
 62
     7
100
AcDbCircle
 10
184.6202918365066
 20
411.1515263407146
 30
0.0
 40
4.550350877192983
100
AcDbArc
 50
40.6956985253941
 51
139.3043014746059
  0
LINE
  5
112
330
1F
100
AcDbEntity
  8
9
  6
CONTINUOUS
 62
     7
100
AcDbLine
 10
188.0702918365064
 20
413.8018772179075
 30
0.0
 11
188.0702918365064
 21
414.118543884575
 31
0.0
  0
LINE
  5
113
330
1F
100
AcDbEntity
  8
9
  6
CONTINUOUS
 62
     7
100
AcDbLine
 10
181.1702918365067
 20
413.8018772179075
 30
0.0
 11
181.1702918365067
 21
414.118543884575
 31
0.0
  0
LINE
  5
114
330
1F
100
AcDbEntity
  8
9
  6
CONTINUOUS
 62
     7
100
AcDbLine
 10
209.5702918365064
 20
414.118543884575
 30
0.0
 11
202.6702918365058
 21
414.118543884575
 31
0.0
  0
ARC
  5
115
330
1F
100
AcDbEntity
  8
9
  6
CONTINUOUS
 62
     7
100
AcDbCircle
 10
206.1202918365066
 20
411.1515263407146
 30
0.0
 40
4.550350877192983
100
AcDbArc
 50
40.6956985253941
 51
139.3043014746059
  0
LINE
  5
116
330
1F
100
AcDbEntity
  8
9
  6
CONTINUOUS
 62
     7
100
AcDbLine
 10
209.5702918365064
 20
413.8018772179075
 30
0.0
 11
209.5702918365064
 21
414.118543884575
 31
0.0
  0
LINE
  5
117
330
1F
100
AcDbEntity
  8
9
  6
CONTINUOUS
 62
     7
100
AcDbLine
 10
202.6702918365058
 20
413.8018772179075
 30
0.0
 11
202.6702918365058
 21
414.118543884575
 31
0.0
  0
LINE
  5
118
330
1F
100
AcDbEntity
  8
9
  6
CONTINUOUS
 62
     7
100
AcDbLine
 10
591.1702918365036
 20
414.1185438845732
 30
0.0
 11
598.0702918365032
 21
414.1185438845732
 31
0.0
  0
ARC
  5
119
330
1F
100
AcDbEntity
  8
9
  6
CONTINUOUS
 62
     7
100
AcDbCircle
 10
594.6202918365025
 20
411.1515263407146
 30
0.0
 40
4.550350877192955
100
AcDbArc
 50
40.6956985253941
 51
139.3043014746059
  0
LINE
  5
11A
330
1F
100
AcDbEntity
  8
9
  6
CONTINUOUS
 62
     7
100
AcDbLine
 10
591.1702918365036
 20
413.8018772179075
 30
0.0
 11
591.1702918365036
 21
414.1185438845732
 31
0.0
  0
LINE
  5
11B
330
1F
100
AcDbEntity
  8
9
  6
CONTINUOUS
 62
     7
100
AcDbLine
 10
598.0702918365032
 20
413.8018772179075
 30
0.0
 11
598.0702918365032
 21
414.1185438845732
 31
0.0
  0
LINE
  5
11C
330
1F
100
AcDbEntity
  8
9
  6
CONTINUOUS
 62
     7
100
AcDbLine
 10
569.6702918365045
 20
414.1185438845732
 30
0.0
 11
576.5702918365032
 21
414.1185438845732
 31
0.0
  0
ARC
  5
11D
330
1F
100
AcDbEntity
  8
9
  6
CONTINUOUS
 62
     7
100
AcDbCircle
 10
573.1202918365034
 20
411.1515263407146
 30
0.0
 40
4.550350877192955
100
AcDbArc
 50
40.6956985253941
 51
139.3043014746059
  0
LINE
  5
11E
330
1F
100
AcDbEntity
  8
9
  6
CONTINUOUS
 62
     7
100
AcDbLine
 10
569.6702918365045
 20
413.8018772179075
 30
0.0
 11
569.6702918365045
 21
414.1185438845732
 31
0.0
  0
LINE
  5
11F
330
1F
100
AcDbEntity
  8
9
  6
CONTINUOUS
 62
     7
100
AcDbLine
 10
576.5702918365032
 20
413.8018772179075
 30
0.0
 11
576.5702918365032
 21
414.1185438845732
 31
0.0
  0
LINE
  5
120
330
1F
100
AcDbEntity
  8
9
  6
CONTINUOUS
 62
     7
100
AcDbLine
 10
591.1702918365036
 20
183.4852105512418
 30
0.0
 11
598.0702918365032
 21
183.4852105512418
 31
0.0
  0
ARC
  5
121
330
1F
100
AcDbEntity
  8
9
  6
CONTINUOUS
 62
     7
100
AcDbCircle
 10
594.6202918365025
 20
186.4522280951005
 30
0.0
 40
4.550350877192955
100
AcDbArc
 50
220.695698525394
 51
319.3043014746053
  0
LINE
  5
122
330
1F
100
AcDbEntity
  8
9
  6
CONTINUOUS
 62
     7
100
AcDbLine
 10
591.1702918365036
 20
183.8018772179075
 30
0.0
 11
591.1702918365036
 21
183.4852105512418
 31
0.0
  0
LINE
  5
123
330
1F
100
AcDbEntity
  8
9
  6
CONTINUOUS
 62
     7
100
AcDbLine
 10
598.0702918365032
 20
183.8018772179075
 30
0.0
 11
598.0702918365032
 21
183.4852105512418
 31
0.0
  0
LINE
  5
124
330
1F
100
AcDbEntity
  8
9
  6
CONTINUOUS
 62
     7
100
AcDbLine
 10
569.6702918365045
 20
183.4852105512418
 30
0.0
 11
576.5702918365032
 21
183.4852105512418
 31
0.0
  0
ARC
  5
125
330
1F
100
AcDbEntity
  8
9
  6
CONTINUOUS
 62
     7
100
AcDbCircle
 10
573.1202918365034
 20
186.4522280951005
 30
0.0
 40
4.550350877192955
100
AcDbArc
 50
220.695698525394
 51
319.3043014746053
  0
LINE
  5
126
330
1F
100
AcDbEntity
  8
9
  6
CONTINUOUS
 62
     7
100
AcDbLine
 10
569.6702918365045
 20
183.8018772179075
 30
0.0
 11
569.6702918365045
 21
183.4852105512418
 31
0.0
  0
LINE
  5
127
330
1F
100
AcDbEntity
  8
9
  6
CONTINUOUS
 62
     7
100
AcDbLine
 10
576.5702918365032
 20
183.8018772179075
 30
0.0
 11
576.5702918365032
 21
183.4852105512418
 31
0.0
  0
LINE
  5
128
330
1F
100
AcDbEntity
  8
9
  6
CONTINUOUS
 62
     7
100
AcDbLine
 10
174.3036251698372
 20
302.2518772179064
 30
0.0
 11
174.3036251698372
 21
295.3518772179068
 31
0.0
  0
ARC
  5
129
330
1F
100
AcDbEntity
  8
9
  6
CONTINUOUS
 62
     7
100
AcDbCircle
 10
177.2706427136977
 20
298.8018772179075
 30
0.0
 40
4.550350877192983
100
AcDbArc
 50
130.6956985253535
 51
229.3043014746418
  0
LINE
  5
12A
330
1F
100
AcDbEntity
  8
9
  6
CONTINUOUS
 62
     7
100
AcDbLine
 10
174.6202918365047
 20
302.2518772179064
 30
0.0
 11
174.3036251698372
 21
302.2518772179064
 31
0.0
  0
LINE
  5
12B
330
1F
100
AcDbEntity
  8
9
  6
CONTINUOUS
 62
     7
100
AcDbLine
 10
174.6202918365047
 20
295.3518772179068
 30
0.0
 11
174.3036251698372
 21
295.3518772179068
 31
0.0
  0
LINE
  5
12C
330
1F
100
AcDbEntity
  8
4
  6
DASHDOT
 62
     1
100
AcDbLine
 10
614.6202918365043
 20
298.8018772179075
 30
0.0
 11
164.6202918365047
 21
298.8018772179075
 31
0.0
  0
LINE
  5
12D
330
1F
100
AcDbEntity
  8
9
  6
CONTINUOUS
 62
     7
100
AcDbLine
 10
393.0702918365068
 20
183.48521055124
 30
0.0
 11
386.1702918365058
 21
183.48521055124
 31
0.0
  0
ARC
  5
12E
330
1F
100
AcDbEntity
  8
9
  6
CONTINUOUS
 62
     7
100
AcDbCircle
 10
389.6202918365066
 20
186.4522280951005
 30
0.0
 40
4.550350877192955
100
AcDbArc
 50
220.695698525394
 51
319.3043014746053
  0
LINE
  5
12F
330
1F
100
AcDbEntity
  8
9
  6
CONTINUOUS
 62
     7
100
AcDbLine
 10
393.0702918365068
 20
183.8018772179075
 30
0.0
 11
393.0702918365068
 21
183.48521055124
 31
0.0
  0
LINE
  5
130
330
1F
100
AcDbEntity
  8
9
  6
CONTINUOUS
 62
     7
100
AcDbLine
 10
386.1702918365058
 20
183.8018772179075
 30
0.0
 11
386.1702918365058
 21
183.48521055124
 31
0.0
  0
LINE
  5
131
330
1F
100
AcDbEntity
  8
4
  6
DASHDOT
 62
     1
100
AcDbLine
 10
294.0202918365048
 20
421.8018772179075
 30
0.0
 11
310.2202918365047
 21
421.8018772179075
 31
0.0
  0
LINE
  5
132
330
1F
100
AcDbEntity
  8
4
  6
DASHDOT
 62
     1
100
AcDbLine
 10
302.1202918365047
 20
413.7018772179072
 30
0.0
 11
302.1202918365047
 21
429.901877217907
 31
0.0
  0
LINE
  5
133
330
1F
100
AcDbEntity
  8
9
  6
CONTINUOUS
 62
     7
100
AcDbLine
 10
639.6202918365061
 20
275.8018772179075
 30
0.0
 11
639.6202918365061
 21
321.8018772179075
 31
0.0
  0
LINE
  5
134
330
1F
100
AcDbEntity
  8
9
  6
CONTINUOUS
 62
     7
100
AcDbLine
 10
639.6202918365061
 20
320.3018772179075
 30
0.0
 11
604.6202918365043
 21
320.3018772179075
 31
0.0
  0
LINE
  5
135
330
1F
100
AcDbEntity
  8
9
  6
CONTINUOUS
 62
     7
100
AcDbLine
 10
639.6202918365061
 20
321.8018772179075
 30
0.0
 11
604.6202918365061
 21
321.8018772179075
 31
0.0
  0
LINE
  5
136
330
1F
100
AcDbEntity
  8
9
  6
CONTINUOUS
 62
     7
100
AcDbLine
 10
639.6202918365061
 20
277.3018772179075
 30
0.0
 11
604.6202918365043
 21
277.3018772179075
 31
0.0
  0
LINE
  5
137
330
1F
100
AcDbEntity
  8
9
  6
CONTINUOUS
 62
     7
100
AcDbLine
 10
639.6202918365061
 20
275.8018772179075
 30
0.0
 11
604.6202918365061
 21
275.8018772179075
 31
0.0
  0
LINE
  5
138
330
1F
100
AcDbEntity
  8
9
  6
CONTINUOUS
 62
     7
100
AcDbLine
 10
632.4702918365056
 20
271.5358705784365
 30
0.0
 11
632.4702918365056
 21
264.3018772179057
 31
0.0
  0
LINE
  5
139
330
1F
100
AcDbEntity
  8
11
  6
CONTINUOUS
 62
     2
100
AcDbLine
 10
631.9318302980419
 20
269.0018772179046
 30
0.0
 11
632.4702918365028
 21
269.9345199604431
 31
0.0
  0
LINE
  5
13A
330
1F
100
AcDbEntity
  8
9
  6
CONTINUOUS
 62
     7
100
AcDbLine
 10
631.6702918365036
 20
263.5018772179046
 30
0.0
 11
632.4702918365056
 21
264.3018772179057
 31
0.0
  0
LINE
  5
13B
330
1F
100
AcDbEntity
  8
11
  6
CONTINUOUS
 62
     2
100
AcDbLine
 10
631.9318302980419
 20
269.0018772179046
 30
0.0
 11
631.9318302980419
 21
263.7634156794429
 31
0.0
  0
LINE
  5
13C
330
1F
100
AcDbEntity
  8
9
  6
CONTINUOUS
 62
     7
100
AcDbLine
 10
636.1202918365043
 20
273.5018772179046
 30
0.0
 11
636.1202918365043
 21
275.8018772179057
 31
0.0
  0
LINE
  5
13D
330
1F
100
AcDbEntity
  8
9
  6
CONTINUOUS
 62
     7
100
AcDbLine
 10
607.1202918365043
 20
273.5018772179046
 30
0.0
 11
607.1202918365043
 21
275.8018772179057
 31
0.0
  0
LINE
  5
13E
330
1F
100
AcDbEntity
  8
11
  6
CONTINUOUS
 62
     2
100
AcDbLine
 10
611.3087533749649
 20
269.0018772179046
 30
0.0
 11
610.7702918365039
 21
269.9345199604431
 31
0.0
  0
LINE
  5
13F
330
1F
100
AcDbEntity
  8
9
  6
CONTINUOUS
 62
     7
100
AcDbLine
 10
636.1202918365043
 20
273.5018772179046
 30
0.0
 11
607.1202918365043
 21
273.5018772179046
 31
0.0
  0
LINE
  5
140
330
1F
100
AcDbEntity
  8
9
  6
CONTINUOUS
 62
     7
100
AcDbLine
 10
610.7702918365039
 20
269.0018772179046
 30
0.0
 11
632.4702918365056
 21
269.0018772179046
 31
0.0
  0
LINE
  5
141
330
1F
100
AcDbEntity
  8
9
  6
CONTINUOUS
 62
     7
100
AcDbLine
 10
611.5702918365032
 20
263.5018772179046
 30
0.0
 11
610.7702918365039
 21
264.3018772179057
 31
0.0
  0
LINE
  5
142
330
1F
100
AcDbEntity
  8
9
  6
CONTINUOUS
 62
     7
100
AcDbLine
 10
610.7702918365039
 20
264.3018772179057
 30
0.0
 11
632.4702918365056
 21
264.3018772179057
 31
0.0
  0
LINE
  5
143
330
1F
100
AcDbEntity
  8
9
  6
CONTINUOUS
 62
     7
100
AcDbLine
 10
610.7702918365039
 20
271.5285920491169
 30
0.0
 11
610.7702918365039
 21
264.3018772179057
 31
0.0
  0
LINE
  5
144
330
1F
100
AcDbEntity
  8
11
  6
CONTINUOUS
 62
     2
100
AcDbLine
 10
611.3087533749649
 20
269.0018772179046
 30
0.0
 11
611.3087533749649
 21
263.7634156794429
 31
0.0
  0
LINE
  5
145
330
1F
100
AcDbEntity
  8
9
  6
CONTINUOUS
 62
     7
100
AcDbLine
 10
611.5702918365032
 20
263.5018772179046
 30
0.0
 11
631.6702918365036
 21
263.5018772179046
 31
0.0
  0
LINE
  5
146
330
1F
100
AcDbEntity
  8
9
  6
CONTINUOUS
 62
     7
100
AcDbLine
 10
635.9093139688557
 20
273.5018772179046
 30
0.0
 11
630.4093139688557
 21
273.5018772179046
 31
0.0
  0
ARC
  5
147
330
1F
100
AcDbEntity
  8
9
  6
CONTINUOUS
 62
     7
100
AcDbCircle
 10
633.1593139688557
 20
278.5018772179046
 30
0.0
 40
7.0
100
AcDbArc
 50
253.448644000064
 51
286.5513559999121
  0
LINE
  5
148
330
1F
100
AcDbEntity
  8
9
  6
CONTINUOUS
 62
     7
100
AcDbLine
 10
635.9093139688557
 20
273.5018772179046
 30
0.0
 11
635.8671919688541
 21
272.6981522179049
 31
0.0
  0
ARC
  5
149
330
1F
100
AcDbEntity
  8
9
  6
CONTINUOUS
 62
     7
100
AcDbCircle
 10
634.868561968854
 20
272.7504882179055
 30
0.0
 40
1.0
100
AcDbArc
 50
286.5513559999366
 51
356.9999999999939
  0
LINE
  5
14A
330
1F
100
AcDbEntity
  8
9
  6
CONTINUOUS
 62
     7
100
AcDbLine
 10
630.4093139688557
 20
273.5018772179046
 30
0.0
 11
630.4514359688546
 21
272.6981522179049
 31
0.0
  0
ARC
  5
14B
330
1F
100
AcDbEntity
  8
9
  6
CONTINUOUS
 62
     7
100
AcDbCircle
 10
631.4500659688538
 20
272.7504882179055
 30
0.0
 40
1.0
100
AcDbArc
 50
183.0000000000054
 51
253.4486440000627
  0
LINE
  5
14C
330
1F
100
AcDbEntity
  8
9
  6
CONTINUOUS
 62
     7
100
AcDbLine
 10
612.9093139688557
 20
273.5018772179046
 30
0.0
 11
607.4093139688557
 21
273.5018772179046
 31
0.0
  0
ARC
  5
14D
330
1F
100
AcDbEntity
  8
9
  6
CONTINUOUS
 62
     7
100
AcDbCircle
 10
610.1593139688557
 20
278.5018772179046
 30
0.0
 40
7.0
100
AcDbArc
 50
253.448644000064
 51
286.5513559999121
  0
LINE
  5
14E
330
1F
100
AcDbEntity
  8
9
  6
CONTINUOUS
 62
     7
100
AcDbLine
 10
612.9093139688557
 20
273.5018772179046
 30
0.0
 11
612.8671919688541
 21
272.6981522179049
 31
0.0
  0
ARC
  5
14F
330
1F
100
AcDbEntity
  8
9
  6
CONTINUOUS
 62
     7
100
AcDbCircle
 10
611.868561968854
 20
272.7504882179055
 30
0.0
 40
1.0
100
AcDbArc
 50
286.5513559999366
 51
356.9999999999939
  0
LINE
  5
150
330
1F
100
AcDbEntity
  8
9
  6
CONTINUOUS
 62
     7
100
AcDbLine
 10
607.4093139688557
 20
273.5018772179046
 30
0.0
 11
607.4514359688546
 21
272.6981522179049
 31
0.0
  0
ARC
  5
151
330
1F
100
AcDbEntity
  8
9
  6
CONTINUOUS
 62
     7
100
AcDbCircle
 10
608.4500659688538
 20
272.7504882179055
 30
0.0
 40
1.0
100
AcDbArc
 50
183.0000000000054
 51
253.4486440000627
  0
LINE
  5
152
330
1F
100
AcDbEntity
  8
9
  6
CONTINUOUS
 62
     7
100
AcDbLine
 10
604.9369585031727
 20
333.351877217905
 30
0.0
 11
604.9369585031727
 21
340.2518772179064
 31
0.0
  0
ARC
  5
153
330
1F
100
AcDbEntity
  8
9
  6
CONTINUOUS
 62
     7
100
AcDbCircle
 10
601.9699409593113
 20
336.8018772179057
 30
0.0
 40
4.550350877192955
100
AcDbArc
 50
310.6956985254262
 51
49.30430147457344
  0
LINE
  5
154
330
1F
100
AcDbEntity
  8
9
  6
CONTINUOUS
 62
     7
100
AcDbLine
 10
604.6202918365043
 20
333.351877217905
 30
0.0
 11
604.9369585031727
 21
333.351877217905
 31
0.0
  0
LINE
  5
155
330
1F
100
AcDbEntity
  8
9
  6
CONTINUOUS
 62
     7
100
AcDbLine
 10
604.6202918365043
 20
340.2518772179064
 30
0.0
 11
604.9369585031727
 21
340.2518772179064
 31
0.0
  0
LINE
  5
156
330
1F
100
AcDbEntity
  8
9
  6
CONTINUOUS
 62
     7
100
AcDbLine
 10
604.9369585031727
 20
264.2518772179046
 30
0.0
 11
604.9369585031727
 21
257.351877217905
 31
0.0
  0
ARC
  5
157
330
1F
100
AcDbEntity
  8
9
  6
CONTINUOUS
 62
     7
100
AcDbCircle
 10
601.9699409593113
 20
260.8018772179057
 30
0.0
 40
4.550350877192955
100
AcDbArc
 50
310.6956985254262
 51
49.30430147457344
  0
LINE
  5
158
330
1F
100
AcDbEntity
  8
9
  6
CONTINUOUS
 62
     7
100
AcDbLine
 10
604.6202918365043
 20
264.2518772179046
 30
0.0
 11
604.9369585031727
 21
264.2518772179046
 31
0.0
  0
LINE
  5
159
330
1F
100
AcDbEntity
  8
9
  6
CONTINUOUS
 62
     7
100
AcDbLine
 10
604.6202918365043
 20
257.351877217905
 30
0.0
 11
604.9369585031727
 21
257.351877217905
 31
0.0
  0
CIRCLE
  5
15A
330
1F
100
AcDbEntity
  8
9
  6
CONTINUOUS
 62
     7
100
AcDbCircle
 10
214.6202918365047
 20
421.8018772179075
 30
0.0
 40
3.099999999999994
  0
CIRCLE
  5
15B
330
1F
100
AcDbEntity
  8
9
  6
CONTINUOUS
 62
     7
100
AcDbCircle
 10
302.1202918365047
 20
421.8018772179075
 30
0.0
 40
3.100000000000023
  0
CIRCLE
  5
15C
330
1F
100
AcDbEntity
  8
9
  6
CONTINUOUS
 62
     7
100
AcDbCircle
 10
477.1202918365043
 20
421.8018772179075
 30
0.0
 40
3.100000000000023
  0
CIRCLE
  5
15D
330
1F
100
AcDbEntity
  8
9
  6
CONTINUOUS
 62
     7
100
AcDbCircle
 10
564.6202918365043
 20
421.8018772179075
 30
0.0
 40
3.100000000000023
  0
CIRCLE
  5
15E
330
1F
100
AcDbEntity
  8
9
  6
CONTINUOUS
 62
     7
100
AcDbCircle
 10
214.6202918365047
 20
175.8018772179075
 30
0.0
 40
3.099999999999994
  0
CIRCLE
  5
15F
330
1F
100
AcDbEntity
  8
9
  6
CONTINUOUS
 62
     7
100
AcDbCircle
 10
302.1202918365047
 20
175.8018772179075
 30
0.0
 40
3.100000000000023
  0
CIRCLE
  5
160
330
1F
100
AcDbEntity
  8
9
  6
CONTINUOUS
 62
     7
100
AcDbCircle
 10
477.1202918365043
 20
175.8018772179075
 30
0.0
 40
3.100000000000023
  0
CIRCLE
  5
161
330
1F
100
AcDbEntity
  8
9
  6
CONTINUOUS
 62
     7
100
AcDbCircle
 10
564.6202918365043
 20
175.8018772179075
 30
0.0
 40
3.100000000000023
  0
LINE
  5
162
330
1F
100
AcDbEntity
  8
4
  6
DASHDOT
 62
     1
100
AcDbLine
 10
206.5202918365048
 20
421.8018772179075
 30
0.0
 11
222.7202918365047
 21
421.8018772179075
 31
0.0
  0
LINE
  5
163
330
1F
100
AcDbEntity
  8
4
  6
DASHDOT
 62
     1
100
AcDbLine
 10
214.6202918365047
 20
413.7018772179072
 30
0.0
 11
214.6202918365047
 21
429.901877217907
 31
0.0
  0
LINE
  5
164
330
1F
100
AcDbEntity
  8
4
  6
DASHDOT
 62
     1
100
AcDbLine
 10
469.0202918365039
 20
421.8018772179075
 30
0.0
 11
485.2202918365047
 21
421.8018772179075
 31
0.0
  0
LINE
  5
165
330
1F
100
AcDbEntity
  8
4
  6
DASHDOT
 62
     1
100
AcDbLine
 10
477.1202918365043
 20
413.7018772179072
 30
0.0
 11
477.1202918365043
 21
429.901877217907
 31
0.0
  0
LINE
  5
166
330
1F
100
AcDbEntity
  8
4
  6
DASHDOT
 62
     1
100
AcDbLine
 10
556.5202918365039
 20
421.8018772179075
 30
0.0
 11
572.7202918365047
 21
421.8018772179075
 31
0.0
  0
LINE
  5
167
330
1F
100
AcDbEntity
  8
4
  6
DASHDOT
 62
     1
100
AcDbLine
 10
564.6202918365043
 20
413.7018772179072
 30
0.0
 11
564.6202918365043
 21
429.901877217907
 31
0.0
  0
LINE
  5
168
330
1F
100
AcDbEntity
  8
4
  6
DASHDOT
 62
     1
100
AcDbLine
 10
556.5202918365039
 20
175.8018772179075
 30
0.0
 11
572.7202918365047
 21
175.8018772179075
 31
0.0
  0
LINE
  5
169
330
1F
100
AcDbEntity
  8
4
  6
DASHDOT
 62
     1
100
AcDbLine
 10
564.6202918365043
 20
167.7018772179072
 30
0.0
 11
564.6202918365043
 21
183.901877217907
 31
0.0
  0
LINE
  5
16A
330
1F
100
AcDbEntity
  8
4
  6
DASHDOT
 62
     1
100
AcDbLine
 10
469.0202918365039
 20
175.8018772179075
 30
0.0
 11
485.2202918365047
 21
175.8018772179075
 31
0.0
  0
LINE
  5
16B
330
1F
100
AcDbEntity
  8
4
  6
DASHDOT
 62
     1
100
AcDbLine
 10
477.1202918365043
 20
167.7018772179072
 30
0.0
 11
477.1202918365043
 21
183.901877217907
 31
0.0
  0
LINE
  5
16C
330
1F
100
AcDbEntity
  8
4
  6
DASHDOT
 62
     1
100
AcDbLine
 10
294.0202918365048
 20
175.8018772179075
 30
0.0
 11
310.2202918365047
 21
175.8018772179075
 31
0.0
  0
LINE
  5
16D
330
1F
100
AcDbEntity
  8
4
  6
DASHDOT
 62
     1
100
AcDbLine
 10
302.1202918365047
 20
167.7018772179072
 30
0.0
 11
302.1202918365047
 21
183.901877217907
 31
0.0
  0
LINE
  5
16E
330
1F
100
AcDbEntity
  8
4
  6
DASHDOT
 62
     1
100
AcDbLine
 10
206.5202918365048
 20
175.8018772179075
 30
0.0
 11
222.7202918365047
 21
175.8018772179075
 31
0.0
  0
LINE
  5
16F
330
1F
100
AcDbEntity
  8
4
  6
DASHDOT
 62
     1
100
AcDbLine
 10
214.6202918365047
 20
167.7018772179072
 30
0.0
 11
214.6202918365047
 21
183.901877217907
 31
0.0
  0
CIRCLE
  5
170
330
1F
100
AcDbEntity
  8
9
  6
CONTINUOUS
 62
     7
100
AcDbCircle
 10
389.6202918364966
 20
298.8018772179103
 30
0.0
 40
17.5
  0
CIRCLE
  5
171
330
1F
100
AcDbEntity
  8
3
  6
HIDDEN
 62
     3
100
AcDbCircle
 10
389.6202918364966
 20
298.8018772179103
 30
0.0
 40
22.5
  0
HATCH
  5
172
330
1F
100
AcDbEntity
  8
10
  6
CONTINUOUS
 62
     2
100
AcDbHatch
 10
0.0
 20
0.0
 30
0.0
210
0.0
220
0.0
230
1.0
  2

 70
     0
 71
     0
 91
        4
 92
        0
 93
       40
 72
     1
 10
589.6202918365043
 20
398.8018772179075
 11
389.6202918365052
 21
398.8018772179075
 72
     1
 10
389.6202918365052
 20
398.8018772179075
 11
389.6202918365052
 21
321.3018772179103
 72
     1
 10
389.6202918364958
 20
321.3018772179103
 11
390.6017280522159
 21
321.2804622035021
 72
     1
 10
390.6017280522159
 20
321.2804622035021
 11
391.5812960483182
 21
321.2162579249746
 72
     1
 10
391.5812960483182
 20
321.2162579249746
 11
392.5571311614471
 21
321.1093865988211
 72
     1
 10
392.5571311614471
 20
321.1093865988211
 11
393.5273758340019
 21
320.960051660685
 72
     1
 10
393.5273758340019
 20
320.960051660685
 11
394.4901831501033
 21
320.7685373781088
 72
     1
 10
394.4901831501033
 20
320.7685373781088
 11
395.4437203513028
 21
320.5352083094143
 72
     1
 10
395.4437203513028
 20
320.5352083094143
 11
396.3861723253423
 21
320.2605086097454
 72
     1
 10
396.3861723253423
 20
320.2605086097454
 11
397.3157450613237
 21
319.9449611855932
 72
     1
 10
397.3157450613237
 20
319.9449611855932
 11
398.2306690647107
 21
319.5891666994142
 72
     1
 10
398.2306690647107
 20
319.5891666994142
 11
399.129202725662
 21
319.1938024262348
 72
     1
 10
399.129202725662
 20
319.1938024262348
 11
400.0096356342845
 21
318.7596209644202
 72
     1
 10
400.0096356342845
 20
318.7596209644202
 11
400.8702918364963
 21
318.28744880306
 72
     1
 10
400.8702918364963
 20
318.28744880306
 11
401.7095330242998
 21
317.7781847487001
 72
     1
 10
401.7095330242998
 20
317.7781847487001
 11
402.5257616543949
 21
317.2327982144124
 72
     1
 10
402.5257616543949
 20
317.2327982144124
 11
403.3174239891926
 21
316.6523273744629
 72
     1
 10
403.3174239891926
 20
316.6523273744629
 11
404.0830130544436
 21
316.0378771880871
 72
     1
 10
404.0830130544436
 20
316.0378771880871
 11
404.8210715078488
 21
315.3906172961378
 72
     1
 10
404.8210715078488
 20
315.3906172961378
 11
405.5301944131938
 21
314.7117797946073
 72
     1
 10
405.5301944131938
 20
314.7117797946073
 11
406.2090319147243
 21
314.0026568892623
 72
     1
 10
406.2090319147243
 20
314.0026568892623
 11
406.8562918066735
 21
313.2645984358571
 72
     1
 10
406.8562918066735
 20
313.2645984358571
 11
407.4707419930494
 21
312.4990093706061
 72
     1
 10
407.4707419930494
 20
312.4990093706061
 11
408.0512128329989
 21
311.7073470358084
 72
     1
 10
408.0512128329989
 20
311.7073470358084
 11
408.5965993672866
 21
310.8911184057134
 72
     1
 10
408.5965993672866
 20
310.8911184057134
 11
409.1058634216465
 21
310.0518772179098
 72
     1
 10
409.1058634216465
 20
310.0518772179098
 11
409.5780355830067
 21
309.191221015698
 72
     1
 10
409.5780355830067
 20
309.191221015698
 11
410.0122170448213
 21
308.3107881070754
 72
     1
 10
410.0122170448213
 20
308.3107881070754
 11
410.4075813180007
 21
307.4122544461242
 72
     1
 10
410.4075813180007
 20
307.4122544461242
 11
410.7633758041796
 21
306.4973304427372
 72
     1
 10
410.7633758041796
 20
306.4973304427372
 11
411.0789232283319
 21
305.5677577067557
 72
     1
 10
411.0789232283319
 20
305.5677577067557
 11
411.3536229280008
 21
304.6253057327162
 72
     1
 10
411.3536229280008
 20
304.6253057327162
 11
411.5869519966953
 21
303.6717685315168
 72
     1
 10
411.5869519966953
 20
303.6717685315168
 11
411.7784662792715
 21
302.7089612154154
 72
     1
 10
411.7784662792715
 20
302.7089612154154
 11
411.9278012174075
 21
301.7387165428606
 72
     1
 10
411.9278012174075
 20
301.7387165428606
 11
412.034672543561
 21
300.7628814297317
 72
     1
 10
412.034672543561
 20
300.7628814297317
 11
412.0988768220886
 21
299.7833134336294
 72
     1
 10
412.0988768220886
 20
299.7833134336294
 11
412.1202918364968
 21
298.8018772179093
 72
     1
 10
412.120291836497
 20
298.8018772179075
 11
589.6202918365043
 21
298.8018772179075
 72
     1
 10
589.6202918365043
 20
298.8018772179075
 11
589.6202918365043
 21
398.8018772179075
 97
        0
 92
        0
 93
       40
 72
     1
 10
389.6202918365052
 20
398.8018772179075
 11
189.6202918365047
 21
398.8018772179075
 72
     1
 10
189.6202918365047
 20
398.8018772179075
 11
189.6202918365047
 21
298.8018772179075
 72
     1
 10
189.6202918365047
 20
298.8018772179075
 11
367.1202918364966
 21
298.8018772179075
 72
     1
 10
367.1202918364966
 20
298.8018772179094
 11
367.1417068509048
 21
299.7833134336295
 72
     1
 10
367.1417068509048
 20
299.7833134336295
 11
367.2059111294324
 21
300.7628814297318
 72
     1
 10
367.2059111294324
 20
300.7628814297318
 11
367.3127824555859
 21
301.7387165428606
 72
     1
 10
367.3127824555859
 20
301.7387165428606
 11
367.4621173937219
 21
302.7089612154155
 72
     1
 10
367.4621173937219
 20
302.7089612154155
 11
367.6536316762981
 21
303.6717685315169
 72
     1
 10
367.6536316762981
 20
303.6717685315169
 11
367.8869607449926
 21
304.6253057327163
 72
     1
 10
367.8869607449926
 20
304.6253057327163
 11
368.1616604446615
 21
305.5677577067557
 72
     1
 10
368.1616604446615
 20
305.5677577067557
 11
368.4772078688137
 21
306.4973304427372
 72
     1
 10
368.4772078688137
 20
306.4973304427372
 11
368.8330023549927
 21
307.4122544461242
 72
     1
 10
368.8330023549927
 20
307.4122544461242
 11
369.2283666281721
 21
308.3107881070754
 72
     1
 10
369.2283666281721
 20
308.3107881070754
 11
369.6625480899867
 21
309.1912210156979
 72
     1
 10
369.6625480899867
 20
309.1912210156979
 11
370.1347202513468
 21
310.0518772179097
 72
     1
 10
370.1347202513468
 20
310.0518772179097
 11
370.6439843057068
 21
310.8911184057133
 72
     1
 10
370.6439843057068
 20
310.8911184057133
 11
371.1893708399945
 21
311.7073470358083
 72
     1
 10
371.1893708399945
 20
311.7073470358083
 11
371.769841679944
 21
312.499009370606
 72
     1
 10
371.769841679944
 20
312.499009370606
 11
372.3842918663198
 21
313.2645984358569
 72
     1
 10
372.3842918663198
 20
313.2645984358569
 11
373.031551758269
 21
314.0026568892621
 72
     1
 10
373.031551758269
 20
314.0026568892621
 11
373.7103892597995
 21
314.7117797946071
 72
     1
 10
373.7103892597995
 20
314.7117797946071
 11
374.4195121651445
 21
315.3906172961376
 72
     1
 10
374.4195121651445
 20
315.3906172961376
 11
375.1575706185497
 21
316.0378771880868
 72
     1
 10
375.1575706185497
 20
316.0378771880868
 11
375.9231596838007
 21
316.6523273744626
 72
     1
 10
375.9231596838007
 20
316.6523273744626
 11
376.7148220185983
 21
317.2327982144122
 72
     1
 10
376.7148220185983
 20
317.2327982144122
 11
377.5310506486934
 21
317.7781847486998
 72
     1
 10
377.5310506486934
 20
317.7781847486998
 11
378.370291836497
 21
318.2874488030598
 72
     1
 10
378.370291836497
 20
318.2874488030598
 11
379.2309480387087
 21
318.7596209644199
 72
     1
 10
379.2309480387087
 20
318.7596209644199
 11
380.1113809473313
 21
319.1938024262345
 72
     1
 10
380.1113809473313
 20
319.1938024262345
 11
381.0099146082825
 21
319.5891666994139
 72
     1
 10
381.0099146082825
 20
319.5891666994139
 11
381.9248386116695
 21
319.9449611855928
 72
     1
 10
381.9248386116695
 20
319.9449611855928
 11
382.8544113476509
 21
320.260508609745
 72
     1
 10
382.8544113476509
 20
320.260508609745
 11
383.7968633216904
 21
320.535208309414
 72
     1
 10
383.7968633216904
 20
320.535208309414
 11
384.7504005228898
 21
320.7685373781084
 72
     1
 10
384.7504005228898
 20
320.7685373781084
 11
385.7132078389912
 21
320.9600516606846
 72
     1
 10
385.7132078389912
 20
320.9600516606846
 11
386.683452511546
 21
321.1093865988207
 72
     1
 10
386.683452511546
 20
321.1093865988207
 11
387.6592876246748
 21
321.2162579249742
 72
     1
 10
387.6592876246748
 20
321.2162579249742
 11
388.6388556207771
 21
321.2804622035017
 72
     1
 10
388.6388556207771
 20
321.2804622035017
 11
389.6202918364972
 21
321.3018772179099
 72
     1
 10
389.6202918365052
 20
321.3018772179103
 11
389.6202918365052
 21
398.8018772179075
 97
        0
 92
        0
 93
       40
 72
     1
 10
367.1202918364968
 20
298.8018772179111
 11
367.1417068509051
 21
297.820441002191
 72
     1
 10
367.1417068509051
 20
297.820441002191
 11
367.2059111294326
 21
296.8408730060888
 72
     1
 10
367.2059111294326
 20
296.8408730060888
 11
367.3127824555861
 21
295.8650378929599
 72
     1
 10
367.3127824555861
 20
295.8650378929599
 11
367.4621173937222
 21
294.8947932204051
 72
     1
 10
367.4621173937222
 20
294.8947932204051
 11
367.6536316762983
 21
293.9319859043036
 72
     1
 10
367.6536316762983
 20
293.9319859043036
 11
367.8869607449928
 21
292.9784487031042
 72
     1
 10
367.8869607449928
 20
292.9784487031042
 11
368.1616604446617
 21
292.0359967290648
 72
     1
 10
368.1616604446617
 20
292.0359967290648
 11
368.4772078688139
 21
291.1064239930834
 72
     1
 10
368.4772078688139
 20
291.1064239930834
 11
368.8330023549929
 21
290.1914999896964
 72
     1
 10
368.8330023549929
 20
290.1914999896964
 11
369.2283666281722
 21
289.2929663287451
 72
     1
 10
369.2283666281722
 20
289.2929663287451
 11
369.6625480899869
 21
288.4125334201225
 72
     1
 10
369.6625480899869
 20
288.4125334201225
 11
370.1347202513471
 21
287.5518772179108
 72
     1
 10
370.1347202513471
 20
287.5518772179108
 11
370.643984305707
 21
286.7126360301072
 72
     1
 10
370.643984305707
 20
286.7126360301072
 11
371.1893708399946
 21
285.8964074000122
 72
     1
 10
371.1893708399946
 20
285.8964074000122
 11
371.7698416799441
 21
285.1047450652144
 72
     1
 10
371.7698416799441
 20
285.1047450652144
 11
372.3842918663199
 21
284.3391559999635
 72
     1
 10
372.3842918663199
 20
284.3391559999635
 11
373.0315517582692
 21
283.6010975465583
 72
     1
 10
373.0315517582692
 20
283.6010975465583
 11
373.7103892597997
 21
282.8919746412133
 72
     1
 10
373.7103892597997
 20
282.8919746412133
 11
374.4195121651447
 21
282.2131371396828
 72
     1
 10
374.4195121651447
 20
282.2131371396828
 11
375.1575706185499
 21
281.5658772477335
 72
     1
 10
375.1575706185499
 20
281.5658772477335
 11
375.9231596838009
 21
280.9514270613577
 72
     1
 10
375.9231596838009
 20
280.9514270613577
 11
376.7148220185986
 21
280.3709562214082
 72
     1
 10
376.7148220185986
 20
280.3709562214082
 11
377.5310506486936
 21
279.8255696871205
 72
     1
 10
377.5310506486936
 20
279.8255696871205
 11
378.3702918364971
 21
279.3163056327606
 72
     1
 10
378.3702918364971
 20
279.3163056327606
 11
379.2309480387089
 21
278.8441334714005
 72
     1
 10
379.2309480387089
 20
278.8441334714005
 11
380.1113809473314
 21
278.4099520095858
 72
     1
 10
380.1113809473314
 20
278.4099520095858
 11
381.0099146082827
 21
278.0145877364064
 72
     1
 10
381.0099146082827
 20
278.0145877364064
 11
381.9248386116697
 21
277.6587932502275
 72
     1
 10
381.9248386116697
 20
277.6587932502275
 11
382.8544113476511
 21
277.3432458260753
 72
     1
 10
382.8544113476511
 20
277.3432458260753
 11
383.7968633216906
 21
277.0685461264063
 72
     1
 10
383.7968633216906
 20
277.0685461264063
 11
384.75040052289
 21
276.8352170577119
 72
     1
 10
384.75040052289
 20
276.8352170577119
 11
385.7132078389914
 21
276.6437027751357
 72
     1
 10
385.7132078389914
 20
276.6437027751357
 11
386.6834525115462
 21
276.4943678369996
 72
     1
 10
386.6834525115462
 20
276.4943678369996
 11
387.6592876246751
 21
276.3874965108461
 72
     1
 10
387.6592876246751
 20
276.3874965108461
 11
388.6388556207774
 21
276.3232922323185
 72
     1
 10
388.6388556207774
 20
276.3232922323185
 11
389.6202918364975
 21
276.3018772179103
 72
     1
 10
389.6202918365047
 20
276.3018772179103
 11
389.6202918365047
 21
198.8018772179075
 72
     1
 10
389.6202918365047
 20
198.8018772179075
 11
189.6202918365047
 21
198.8018772179075
 72
     1
 10
189.6202918365047
 20
198.8018772179075
 11
189.6202918365047
 21
298.8018772179075
 72
     1
 10
189.6202918365047
 20
298.8018772179075
 11
367.1202918364966
 21
298.8018772179075
 97
        0
 92
        0
 93
       40
 72
     1
 10
589.6202918365043
 20
298.8018772179075
 11
412.120291836497
 21
298.8018772179075
 72
     1
 10
412.120291836497
 20
298.8018772179103
 11
412.0988768220888
 21
297.8204410021903
 72
     1
 10
412.0988768220888
 20
297.8204410021903
 11
412.0346725435613
 21
296.840873006088
 72
     1
 10
412.0346725435613
 20
296.840873006088
 11
411.9278012174077
 21
295.8650378929592
 72
     1
 10
411.9278012174077
 20
295.8650378929592
 11
411.7784662792717
 21
294.8947932204044
 72
     1
 10
411.7784662792717
 20
294.8947932204044
 11
411.5869519966955
 21
293.931985904303
 72
     1
 10
411.5869519966955
 20
293.931985904303
 11
411.353622928001
 21
292.9784487031036
 72
     1
 10
411.353622928001
 20
292.9784487031036
 11
411.0789232283321
 21
292.0359967290642
 72
     1
 10
411.0789232283321
 20
292.0359967290642
 11
410.7633758041799
 21
291.1064239930828
 72
     1
 10
410.7633758041799
 20
291.1064239930828
 11
410.407581318001
 21
290.1914999896958
 72
     1
 10
410.407581318001
 20
290.1914999896958
 11
410.0122170448216
 21
289.2929663287446
 72
     1
 10
410.0122170448216
 20
289.2929663287446
 11
409.578035583007
 21
288.4125334201221
 72
     1
 10
409.578035583007
 20
288.4125334201221
 11
409.1058634216469
 21
287.5518772179104
 72
     1
 10
409.1058634216469
 20
287.5518772179104
 11
408.5965993672869
 21
286.7126360301069
 72
     1
 10
408.5965993672869
 20
286.7126360301069
 11
408.0512128329993
 21
285.8964074000119
 72
     1
 10
408.0512128329993
 20
285.8964074000119
 11
407.4707419930498
 21
285.1047450652142
 72
     1
 10
407.4707419930498
 20
285.1047450652142
 11
406.856291806674
 21
284.3391559999633
 72
     1
 10
406.856291806674
 20
284.3391559999633
 11
406.2090319147248
 21
283.6010975465581
 72
     1
 10
406.2090319147248
 20
283.6010975465581
 11
405.5301944131943
 21
282.8919746412132
 72
     1
 10
405.5301944131943
 20
282.8919746412132
 11
404.8210715078494
 21
282.2131371396827
 72
     1
 10
404.8210715078494
 20
282.2131371396827
 11
404.0830130544441
 21
281.5658772477335
 72
     1
 10
404.0830130544441
 20
281.5658772477335
 11
403.3174239891932
 21
280.9514270613577
 72
     1
 10
403.3174239891932
 20
280.9514270613577
 11
402.5257616543955
 21
280.3709562214082
 72
     1
 10
402.5257616543955
 20
280.3709562214082
 11
401.7095330243005
 21
279.8255696871206
 72
     1
 10
401.7095330243005
 20
279.8255696871206
 11
400.870291836497
 21
279.3163056327606
 72
     1
 10
400.870291836497
 20
279.3163056327606
 11
400.0096356342852
 21
278.8441334714005
 72
     1
 10
400.0096356342852
 20
278.8441334714005
 11
399.1292027256628
 21
278.4099520095859
 72
     1
 10
399.1292027256628
 20
278.4099520095859
 11
398.2306690647115
 21
278.0145877364066
 72
     1
 10
398.2306690647115
 20
278.0145877364066
 11
397.3157450613245
 21
277.6587932502276
 72
     1
 10
397.3157450613245
 20
277.6587932502276
 11
396.3861723253432
 21
277.3432458260755
 72
     1
 10
396.3861723253432
 20
277.3432458260755
 11
395.4437203513037
 21
277.0685461264065
 72
     1
 10
395.4437203513037
 20
277.0685461264065
 11
394.4901831501044
 21
276.835217057712
 72
     1
 10
394.4901831501044
 20
276.835217057712
 11
393.527375834003
 21
276.6437027751359
 72
     1
 10
393.527375834003
 20
276.6437027751359
 11
392.5571311614482
 21
276.4943678369999
 72
     1
 10
392.5571311614482
 20
276.4943678369999
 11
391.5812960483194
 21
276.3874965108463
 72
     1
 10
391.5812960483194
 20
276.3874965108463
 11
390.6017280522171
 21
276.3232922323188
 72
     1
 10
390.6017280522171
 20
276.3232922323188
 11
389.6202918364971
 21
276.3018772179106
 72
     1
 10
389.6202918365047
 20
276.3018772179103
 11
389.6202918365047
 21
198.8018772179075
 72
     1
 10
389.6202918365047
 20
198.8018772179075
 11
589.6202918365043
 21
198.8018772179075
 72
     1
 10
589.6202918365043
 20
198.8018772179075
 11
589.6202918365043
 21
298.8018772179075
 97
        0
 75
     0
 76
     2
 52
0.0
 41
0.5
 77
     0
 78
     2
 53
45.0
 43
-3699.559753911371
 44
6315.235608566985
 45
-6.735192090801775
 46
6.735192090802229
 79
     0
 53
135.0
 43
-3699.559753911371
 44
6315.235608566985
 45
-6.735192090802229
 46
-6.735192090802229
 79
     0
 98
        0
  0
DIMENSION
  5
17D
330
1F
100
AcDbEntity
  8
8
  6
CONTINUOUS
 62
     4
100
AcDbDimension
  2
DIM1
 10
732.2281921041239
 20
98.66736800559192
 30
0.0
 11
709.728192104124
 21
98.66736800559192
 31
0.0
 70
   160
  1
<>
  3
STANDARD
100
AcDbAlignedDimension
 13
687.228192104124
 23
183.8018772179075
 33
0.0
 14
732.228192104124
 24
168.8018772179075
 34
0.0
100
AcDbRotatedDimension
1001
ACAD
1000
DSTYLE
1002
{
1070
   287
1070
     4
1070
     7
1000

1070
     6
1000

1070
   279
1070
     1
1070
   340
1005
173
1070
   140
1040
6.0
1070
    40
1040
1.0
1070
   147
1040
0.0
1070
    76
1070
     0
1070
    75
1070
     0
1070
   173
1070
     1
1070
   289
1070
     2
1070
   288
1070
     1
1070
    77
1070
     1
1070
   172
1070
     1
1070
   174
1070
     0
1070
    74
1070
     0
1070
    73
1070
     0
1070
   284
1070
     8
1070
    78
1070
     8
1070
    42
1040
2.0
1070
    44
1040
3.0
1070
    43
1040
30.0
1070
   271
1070
     2
1070
    41
1040
4.0
1002
}
  0
DIMENSION
  5
187
330
1F
100
AcDbEntity
  8
8
  6
CONTINUOUS
 62
     4
100
AcDbDimension
  2
DIM2
 10
731.2281921041222
 20
143.3670662418244
 30
0.0
 11
743.228192104124
 21
143.3670662418244
 31
0.0
 70
   160
  1
<>
  3
STANDARD
100
AcDbAlignedDimension
 13
732.228192104124
 23
168.8018772179075
 33
0.0
 14
731.2281921041222
 24
168.8018772179075
 34
0.0
 50
179.9999999999998
100
AcDbRotatedDimension
1001
ACAD
1000
DSTYLE
1002
{
1070
   287
1070
     4
1070
     7
1000

1070
     6
1000

1070
   279
1070
     1
1070
   340
1005
173
1070
   140
1040
6.0
1070
    40
1040
1.0
1070
   147
1040
0.0
1070
    76
1070
     0
1070
    75
1070
     0
1070
   173
1070
     1
1070
   289
1070
     2
1070
   288
1070
     1
1070
    77
1070
     1
1070
   172
1070
     1
1070
   174
1070
     0
1070
    74
1070
     0
1070
    73
1070
     0
1070
   284
1070
     8
1070
    78
1070
     8
1070
    42
1040
2.0
1070
    44
1040
3.0
1070
    43
1040
30.0
1070
   271
1070
     2
1070
    41
1040
4.0
1002
}
  0
DIMENSION
  5
191
330
1F
100
AcDbEntity
  8
8
  6
CONTINUOUS
 62
     4
100
AcDbDimension
  2
DIM3
 10
698.7281921041229
 20
119.9526574721767
 30
0.0
 11
715.4781921041235
 21
119.9526574721767
 31
0.0
 70
   160
  1
<>
  3
STANDARD
100
AcDbAlignedDimension
 13
732.228192104124
 23
168.8018772179075
 33
0.0
 14
698.7281921041231
 24
275.8018772179075
 34
0.0
 50
179.9999999999998
100
AcDbRotatedDimension
1001
ACAD
1000
DSTYLE
1002
{
1070
   287
1070
     4
1070
     7
1000

1070
     6
1000

1070
   279
1070
     1
1070
   340
1005
173
1070
   140
1040
6.0
1070
    40
1040
1.0
1070
   147
1040
0.0
1070
    76
1070
     0
1070
    75
1070
     0
1070
   173
1070
     1
1070
   289
1070
     2
1070
   288
1070
     1
1070
    77
1070
     1
1070
   172
1070
     1
1070
   174
1070
     0
1070
    74
1070
     0
1070
    73
1070
     0
1070
   284
1070
     8
1070
    78
1070
     8
1070
    42
1040
2.0
1070
    44
1040
3.0
1070
    43
1040
30.0
1070
   271
1070
     2
1070
    41
1040
4.0
1002
}
  0
DIMENSION
  5
19B
330
1F
100
AcDbEntity
  8
8
  6
CONTINUOUS
 62
     4
100
AcDbDimension
  2
DIM4
 10
564.6202918365043
 20
144.8018772179075
 30
0.0
 11
520.8702918365043
 21
144.8018772179075
 31
0.0
 70
   160
  1
<>
  3
STANDARD
100
AcDbAlignedDimension
 13
477.1202918365043
 23
167.7018772179072
 33
0.0
 14
564.6202918365043
 24
167.7018772179072
 34
0.0
100
AcDbRotatedDimension
1001
ACAD
1000
DSTYLE
1002
{
1070
   287
1070
     4
1070
     7
1000

1070
     6
1000

1070
   279
1070
     1
1070
   340
1005
173
1070
   140
1040
6.0
1070
    40
1040
1.0
1070
   147
1040
0.0
1070
    76
1070
     0
1070
    75
1070
     0
1070
   173
1070
     1
1070
   289
1070
     2
1070
   288
1070
     1
1070
    77
1070
     1
1070
   172
1070
     1
1070
   174
1070
     0
1070
    74
1070
     0
1070
    73
1070
     0
1070
   284
1070
     8
1070
    78
1070
     8
1070
    42
1040
2.0
1070
    44
1040
3.0
1070
    43
1040
30.0
1070
   271
1070
     2
1070
    41
1040
4.0
1002
}
  0
DIMENSION
  5
1A5
330
1F
100
AcDbEntity
  8
8
  6
CONTINUOUS
 62
     4
100
AcDbDimension
  2
DIM5
 10
589.6202918365042
 20
128.8018772179075
 30
0.0
 11
389.6202918365043
 21
128.8018772179075
 31
0.0
 70
   160
  1
<>
  3
STANDARD
100
AcDbAlignedDimension
 13
189.6202918365047
 23
198.8018772179075
 33
0.0
 14
589.6202918365043
 24
198.8018772179075
 34
0.0
100
AcDbRotatedDimension
1001
ACAD
1000
DSTYLE
1002
{
1070
   287
1070
     4
1070
     7
1000

1070
     6
1000

1070
   279
1070
     1
1070
   340
1005
173
1070
   140
1040
6.0
1070
    40
1040
1.0
1070
   147
1040
0.0
1070
    76
1070
     0
1070
    75
1070
     0
1070
   173
1070
     1
1070
   289
1070
     2
1070
   288
1070
     1
1070
    77
1070
     1
1070
   172
1070
     1
1070
   174
1070
     0
1070
    74
1070
     0
1070
    73
1070
     0
1070
   284
1070
     8
1070
    78
1070
     8
1070
    42
1040
2.0
1070
    44
1040
3.0
1070
    43
1040
30.0
1070
   271
1070
     2
1070
    41
1040
4.0
1002
}
  0
DIMENSION
  5
1AF
330
1F
100
AcDbEntity
  8
8
  6
CONTINUOUS
 62
     4
100
AcDbDimension
  2
DIM6
 10
604.6202918365042
 20
112.8018772179075
 30
0.0
 11
389.6202918365046
 21
112.8018772179075
 31
0.0
 70
   160
  1
<>
  3
STANDARD
100
AcDbAlignedDimension
 13
174.6202918365047
 23
183.8018772179057
 33
0.0
 14
604.6202918365043
 24
183.8018772179075
 34
0.0
100
AcDbRotatedDimension
1001
ACAD
1000
DSTYLE
1002
{
1070
   287
1070
     4
1070
     7
1000

1070
     6
1000

1070
   279
1070
     1
1070
   340
1005
173
1070
   140
1040
6.0
1070
    40
1040
1.0
1070
   147
1040
0.0
1070
    76
1070
     0
1070
    75
1070
     0
1070
   173
1070
     1
1070
   289
1070
     2
1070
   288
1070
     1
1070
    77
1070
     1
1070
   172
1070
     1
1070
   174
1070
     0
1070
    74
1070
     0
1070
    73
1070
     0
1070
   284
1070
     8
1070
    78
1070
     8
1070
    42
1040
2.0
1070
    44
1040
3.0
1070
    43
1040
30.0
1070
   271
1070
     2
1070
    41
1040
4.0
1002
}
  0
DIMENSION
  5
1B9
330
1F
100
AcDbEntity
  8
8
  6
CONTINUOUS
 62
     4
100
AcDbDimension
  2
DIM7
 10
158.6202918365047
 20
398.8018772179076
 30
0.0
 11
158.6202918365047
 21
298.8018772179075
 31
0.0
 70
   160
  1
<>
  3
STANDARD
100
AcDbAlignedDimension
 13
189.6202918365047
 23
198.8018772179075
 33
0.0
 14
189.6202918365047
 24
398.8018772179075
 34
0.0
 50
89.99999999999991
100
AcDbRotatedDimension
1001
ACAD
1000
DSTYLE
1002
{
1070
   287
1070
     4
1070
     7
1000

1070
     6
1000

1070
   279
1070
     1
1070
   340
1005
173
1070
   140
1040
6.0
1070
    40
1040
1.0
1070
   147
1040
0.0
1070
    76
1070
     0
1070
    75
1070
     0
1070
   173
1070
     1
1070
   289
1070
     2
1070
   288
1070
     1
1070
    77
1070
     1
1070
   172
1070
     1
1070
   174
1070
     0
1070
    74
1070
     0
1070
    73
1070
     0
1070
   284
1070
     8
1070
    78
1070
     8
1070
    42
1040
2.0
1070
    44
1040
3.0
1070
    43
1040
30.0
1070
   271
1070
     2
1070
    41
1040
4.0
1002
}
  0
DIMENSION
  5
1C3
330
1F
100
AcDbEntity
  8
8
  6
CONTINUOUS
 62
     4
100
AcDbDimension
  2
DIM8
 10
142.6202918365052
 20
413.8018772179076
 30
0.0
 11
142.6202918365052
 21
298.8018772179075
 31
0.0
 70
   160
  1
<>
  3
STANDARD
100
AcDbAlignedDimension
 13
174.6202918365047
 23
183.8018772179075
 33
0.0
 14
174.6202918365047
 24
413.8018772179075
 34
0.0
 50
89.99999999999991
100
AcDbRotatedDimension
1001
ACAD
1000
DSTYLE
1002
{
1070
   287
1070
     4
1070
     7
1000

1070
     6
1000

1070
   279
1070
     1
1070
   340
1005
173
1070
   140
1040
6.0
1070
    40
1040
1.0
1070
   147
1040
0.0
1070
    76
1070
     0
1070
    75
1070
     0
1070
   173
1070
     1
1070
   289
1070
     2
1070
   288
1070
     1
1070
    77
1070
     1
1070
   172
1070
     1
1070
   174
1070
     0
1070
    74
1070
     0
1070
    73
1070
     0
1070
   284
1070
     8
1070
    78
1070
     8
1070
    42
1040
2.0
1070
    44
1040
3.0
1070
    43
1040
30.0
1070
   271
1070
     2
1070
    41
1040
4.0
1002
}
  0
DIMENSION
  5
1CD
330
1F
100
AcDbEntity
  8
8
  6
CONTINUOUS
 62
     4
100
AcDbDimension
  2
DIM9
 10
126.6202918365052
 20
421.8018772179078
 30
0.0
 11
126.6202918365052
 21
298.8018772179075
 31
0.0
 70
   160
  1
<>
  3
STANDARD
100
AcDbAlignedDimension
 13
206.5202918365048
 23
175.8018772179075
 33
0.0
 14
206.5202918365048
 24
421.8018772179075
 34
0.0
 50
89.99999999999991
100
AcDbRotatedDimension
1001
ACAD
1000
DSTYLE
1002
{
1070
   287
1070
     4
1070
     7
1000

1070
     6
1000

1070
   279
1070
     1
1070
   340
1005
173
1070
   140
1040
6.0
1070
    40
1040
1.0
1070
   147
1040
0.0
1070
    76
1070
     0
1070
    75
1070
     0
1070
   173
1070
     1
1070
   289
1070
     2
1070
   288
1070
     1
1070
    77
1070
     1
1070
   172
1070
     1
1070
   174
1070
     0
1070
    74
1070
     0
1070
    73
1070
     0
1070
   284
1070
     8
1070
    78
1070
     8
1070
    42
1040
2.0
1070
    44
1040
3.0
1070
    43
1040
30.0
1070
   271
1070
     2
1070
    41
1040
4.0
1002
}
  0
DIMENSION
  5
1D7
330
1F
100
AcDbEntity
  8
8
  6
CONTINUOUS
 62
     4
100
AcDbDimension
  2
DIM10
 10
110.6202918365052
 20
168.8018772179078
 30
0.0
 11
110.6202918365052
 21
298.8018772179075
 31
0.0
 70
   160
  1
<>
 53
89.99999999999991
  3
STANDARD
100
AcDbAlignedDimension
 13
194.6202918365038
 23
428.8018772179075
 33
0.0
 14
194.6202918365038
 24
168.8018772179075
 34
0.0
 50
-89.99999999999991
100
AcDbRotatedDimension
1001
ACAD
1000
DSTYLE
1002
{
1070
   287
1070
     4
1070
     7
1000

1070
     6
1000

1070
   279
1070
     1
1070
   340
1005
173
1070
   140
1040
6.0
1070
    40
1040
1.0
1070
   147
1040
0.0
1070
    76
1070
     0
1070
    75
1070
     0
1070
   173
1070
     1
1070
   289
1070
     2
1070
   288
1070
     1
1070
    77
1070
     1
1070
   172
1070
     1
1070
   174
1070
     0
1070
    74
1070
     0
1070
    73
1070
     0
1070
   284
1070
     8
1070
    78
1070
     8
1070
    42
1040
2.0
1070
    44
1040
3.0
1070
    43
1040
30.0
1070
   271
1070
     2
1070
    41
1040
4.0
1002
}
  0
DIMENSION
  5
1E1
330
1F
100
AcDbEntity
  8
8
  6
CONTINUOUS
 62
     4
100
AcDbDimension
  2
DIM11
 10
302.1202918365046
 20
144.8018772179075
 30
0.0
 11
258.3702918365046
 21
144.8018772179075
 31
0.0
 70
   160
  1
<>
  3
STANDARD
100
AcDbAlignedDimension
 13
214.6202918365047
 23
167.7018772179072
 33
0.0
 14
302.1202918365047
 24
167.7018772179072
 34
0.0
100
AcDbRotatedDimension
1001
ACAD
1000
DSTYLE
1002
{
1070
   287
1070
     4
1070
     7
1000

1070
     6
1000

1070
   279
1070
     1
1070
   340
1005
173
1070
   140
1040
6.0
1070
    40
1040
1.0
1070
   147
1040
0.0
1070
    76
1070
     0
1070
    75
1070
     0
1070
   173
1070
     1
1070
   289
1070
     2
1070
   288
1070
     1
1070
    77
1070
     1
1070
   172
1070
     1
1070
   174
1070
     0
1070
    74
1070
     0
1070
    73
1070
     0
1070
   284
1070
     8
1070
    78
1070
     8
1070
    42
1040
2.0
1070
    44
1040
3.0
1070
    43
1040
30.0
1070
   271
1070
     2
1070
    41
1040
4.0
1002
}
  0
DIMENSION
  5
1EB
330
1F
100
AcDbEntity
  8
8
  6
CONTINUOUS
 62
     4
100
AcDbDimension
  2
DIM12
 10
477.1202918365042
 20
144.8018772179075
 30
0.0
 11
389.6202918365043
 21
144.8018772179075
 31
0.0
 70
   160
  1
<>
  3
STANDARD
100
AcDbAlignedDimension
 13
302.1202918365047
 23
167.7018772179072
 33
0.0
 14
477.1202918365043
 24
167.7018772179072
 34
0.0
100
AcDbRotatedDimension
1001
ACAD
1000
DSTYLE
1002
{
1070
   287
1070
     4
1070
     7
1000

1070
     6
1000

1070
   279
1070
     1
1070
   340
1005
173
1070
   140
1040
6.0
1070
    40
1040
1.0
1070
   147
1040
0.0
1070
    76
1070
     0
1070
    75
1070
     0
1070
   173
1070
     1
1070
   289
1070
     2
1070
   288
1070
     1
1070
    77
1070
     1
1070
   172
1070
     1
1070
   174
1070
     0
1070
    74
1070
     0
1070
    73
1070
     0
1070
   284
1070
     8
1070
    78
1070
     8
1070
    42
1040
2.0
1070
    44
1040
3.0
1070
    43
1040
30.0
1070
   271
1070
     2
1070
    41
1040
4.0
1002
}
  0
DIMENSION
  5
1F5
330
1F
100
AcDbEntity
  8
8
  6
CONTINUOUS
 62
     4
100
AcDbDimension
  2
DIM13
 10
639.6202918365059
 20
112.8018772179075
 30
0.0
 11
622.1202918365052
 21
112.8018772179075
 31
0.0
 70
   160
  1
<>
  3
STANDARD
100
AcDbAlignedDimension
 13
604.6202918365043
 23
183.8018772179075
 33
0.0
 14
639.6202918365061
 24
275.8018772179075
 34
0.0
100
AcDbRotatedDimension
1001
ACAD
1000
DSTYLE
1002
{
1070
   287
1070
     4
1070
     7
1000

1070
     6
1000

1070
   279
1070
     1
1070
   340
1005
173
1070
   140
1040
6.0
1070
    40
1040
1.0
1070
   147
1040
0.0
1070
    76
1070
     0
1070
    75
1070
     0
1070
   173
1070
     1
1070
   289
1070
     2
1070
   288
1070
     1
1070
    77
1070
     1
1070
   172
1070
     1
1070
   174
1070
     0
1070
    74
1070
     0
1070
    73
1070
     0
1070
   284
1070
     8
1070
    78
1070
     8
1070
    42
1040
2.0
1070
    44
1040
3.0
1070
    43
1040
30.0
1070
   271
1070
     2
1070
    41
1040
4.0
1002
}
  0
DIMENSION
  5
1FD
330
1F
100
AcDbEntity
  8
8
  6
CONTINUOUS
 62
     4
100
AcDbDimension
  2
DIM14
 10
380.4804252368787
 20
283.878310668953
 30
0.0
 11
481.8005268196615
 21
455.0577542269885
 31
0.0
 70
   163
  1
\U+2205<>
  3
STANDARD
100
AcDbDiametricDimension
 15
398.760158436118
 25
313.7254437668666
 35
0.0
 40
0.0
1001
ACAD
1000
DSTYLE
1002
{
1070
   287
1070
     2
1070
     7
1000

1070
     6
1000

1070
   340
1005
173
1070
   140
1040
6.0
1070
    40
1040
1.0
1070
   147
1040
0.0
1070
    76
1070
     0
1070
    75
1070
     0
1070
   173
1070
     1
1070
   289
1070
     2
1070
   288
1070
     1
1070
    77
1070
     1
1070
   172
1070
     1
1070
   174
1070
     0
1070
    74
1070
     0
1070
    73
1070
     0
1070
   284
1070
     8
1070
    78
1070
     8
1070
    42
1040
2.0
1070
    44
1040
3.0
1070
    43
1040
30.0
1070
   271
1070
     2
1070
    41
1040
4.0
1002
}
  0
DIMENSION
  5
205
330
1F
100
AcDbEntity
  8
8
  6
CONTINUOUS
 62
     4
100
AcDbDimension
  2
DIM15
 10
374.7355653685555
 20
281.9289723709502
 30
0.0
 11
522.9801069715966
 21
454.5096408892682
 31
0.0
 70
   163
  1
\U+2205<>
  3
STANDARD
100
AcDbDiametricDimension
 15
404.5050183044351
 25
315.6747820648716
 35
0.0
 40
0.0
1001
ACAD
1000
DSTYLE
1002
{
1070
   287
1070
     2
1070
     7
1000

1070
     6
1000

1070
   340
1005
173
1070
   140
1040
6.0
1070
    40
1040
1.0
1070
   147
1040
0.0
1070
    76
1070
     0
1070
    75
1070
     0
1070
   173
1070
     1
1070
   289
1070
     2
1070
   288
1070
     1
1070
    77
1070
     1
1070
   172
1070
     1
1070
   174
1070
     0
1070
    74
1070
     0
1070
    73
1070
     0
1070
   284
1070
     8
1070
    78
1070
     8
1070
    42
1040
2.0
1070
    44
1040
3.0
1070
    43
1040
30.0
1070
   271
1070
     2
1070
    41
1040
4.0
1002
}
  0
INSERT
  5
206
330
1F
100
AcDbEntity
  8
8
  6
CONTINUOUS
 62
     4
100
AcDbBlockReference
  2
_OPEN
 10
216.1702918365045
 20
424.4865559696391
 30
0.0
 41
8.0
 42
8.0
 43
8.0
 50
239.9999999999994
  0
POLYLINE
  5
207
330
1F
100
AcDbEntity
  8
8
  6
CONTINUOUS
 62
     4
100
AcDb2dPolyline
 66
     1
 10
0.0
 20
0.0
 30
0.0
  0
VERTEX
  5
208
330
207
100
AcDbEntity
  8
8
  6
CONTINUOUS
 62
     4
100
AcDbVertex
100
AcDb2dVertex
 10
216.1702918365045
 20
424.4865559696391
 30
0.0
  0
VERTEX
  5
209
330
207
100
AcDbEntity
  8
8
  6
CONTINUOUS
 62
     4
100
AcDbVertex
100
AcDb2dVertex
 10
229.6702918365049
 20
447.8692418718192
 30
0.0
  0
VERTEX
  5
20A
330
207
100
AcDbEntity
  8
8
  6
CONTINUOUS
 62
     4
100
AcDbVertex
100
AcDb2dVertex
 10
252.390291836505
 20
447.8692418718192
 30
0.0
  0
SEQEND
  5
20B
330
207
100
AcDbEntity
  8
8
  6
CONTINUOUS
 62
     4
  0
MTEXT
  5
20C
330
1F
100
AcDbEntity
  8
8
  6
CONTINUOUS
 62
     4
100
AcDbMText
 10
234.3902918365049
 20
447.8692418718192
 30
0.0
 40
6.0
 41
25.4998018761
 71
     7
 72
     1
  1
{\fＭＳ ゴシック;\T0.760103;8-\U+00D86.2}
1001
ACAD
1000
ACAD_MTEXT_DEFINED_HEIGHT_BEGIN
1070
    46
1040
6.0
1000
ACAD_MTEXT_DEFINED_HEIGHT_END
  0
VIEWPORT
  5
3F
330
1B
100
AcDbEntity
 67
     1
  8
0
100
AcDbViewport
 10
420.0
 20
297.0
 30
0.0
 40
840.0
 41
594.0
 68
     1
 69
     1
1001
ACAD
1000
MVIEW
1002
{
1070
    16
1010
0.0
1020
0.0
1030
0.0
1010
0.0
1020
0.0
1030
1.0
1040
0.0
1040
9.0
1040
420.0
1040
297.0
1040
50.0
1040
0.0
1040
0.0
1070
     0
1070
   100
1070
     0
1070
     3
1070
     0
1070
     0
1070
     0
1070
     0
1040
0.0
1040
0.0
1040
0.0
1040
0.5
1040
0.5
1040
0.5
1040
0.5
1070
     0
1002
{
1002
}
1002
}
  0
ENDSEC
  0
SECTION
  2
OBJECTS
  0
DICTIONARY
  5
C
330
0
100
AcDbDictionary
  3
ACAD_GROUP
350
D
  3
ACAD_LAYOUT
350
1A
  3
ACAD_MATERIAL
350
3B
  3
ACAD_MLEADERSTYLE
350
22F
  3
ACAD_MLINESTYLE
350
17
  3
ACAD_PLOTSETTINGS
350
19
  3
ACAD_VISUALSTYLE
350
2A
  3
ACDBHEADERROUNDTRIPXREC
350
20D
  3
ACDBVARIABLEDICTIONARY
350
22D
  0
DICTIONARY
  5
D
102
{ACAD_REACTORS
330
C
102
}
330
C
100
AcDbDictionary
  0
DICTIONARY
  5
1A
102
{ACAD_REACTORS
330
C
102
}
330
C
100
AcDbDictionary
  0
DICTIONARY
  5
3B
102
{ACAD_REACTORS
330
C
102
}
330
C
100
AcDbDictionary
  3
BYBLOCK
350
3D
  3
BYLAYER
350
3C
  3
GLOBAL
350
3E
  0
DICTIONARY
  5
22F
102
{ACAD_REACTORS
330
C
102
}
330
C
100
AcDbDictionary
  0
DICTIONARY
  5
17
102
{ACAD_REACTORS
330
C
102
}
330
C
100
AcDbDictionary
  3
STANDARD
350
18
  0
DICTIONARY
  5
19
102
{ACAD_REACTORS
330
C
102
}
330
C
100
AcDbDictionary
  0
DICTIONARY
  5
2A
102
{ACAD_REACTORS
330
C
102
}
330
C
100
AcDbDictionary
  3
2DWIREFRAME
350
2F
  3
3D_HIDDEN
350
31
  3
3DWIREFRAME
350
30
  3
BASIC
350
32
  3
BRIGHTEN
350
36
  3
COLORCHANGE
350
3A
  3
CONCEPTUAL
350
34
  3
DIM
350
35
  3
FACEPATTERN
350
39
  3
FLAT
350
2B
  3
FLATWITHEDGES
350
2C
  3
GOURAUD
350
2D
  3
GOURAUDWITHEDGES
350
2E
  3
LINEPATTERN
350
38
  3
REALISTIC
350
33
  3
THICKEN
350
37
  0
DICTIONARY
  5
20D
102
{ACAD_REACTORS
330
C
102
}
330
C
100
AcDbDictionary
  3
CEPSNTYPE
350
216
  3
DIMSTYLEDATA
350
22C
  3
FINGERPRINTGUID
350
217
  3
HYPERLINKBASE
350
210
  3
INSUNITS
350
215
  3
LAYOUTDICT
350
212
  3
LWETCUNION
350
214
  3
PLOTSETDICT
350
213
  3
PSVPSCALE
350
219
  3
PUCSBASE
350
21C
  3
PUCSORGBACK
350
222
  3
PUCSORGBOTTOM
350
21E
  3
PUCSORGFRONT
350
221
  3
PUCSORGLEFT
350
21F
  3
PUCSORGRIGHT
350
220
  3
PUCSORGTOP
350
21D
  3
PUCSORTHOREF
350
21A
  3
PUCSORTHOVIEW
350
21B
  3
STYLESHEET
350
211
  3
TSTACKALIGN
350
20E
  3
TSTACKSIZE
350
20F
  3
UCSBASE
350
225
  3
UCSORGBACK
350
22B
  3
UCSORGBOTTOM
350
227
  3
UCSORGFRONT
350
22A
  3
UCSORGLEFT
350
228
  3
UCSORGRIGHT
350
229
  3
UCSORGTOP
350
226
  3
UCSORTHOREF
350
223
  3
UCSORTHOVIEW
350
224
  3
VERSIONGUID
350
218
  0
DICTIONARY
  5
22D
102
{ACAD_REACTORS
330
C
102
}
330
C
100
AcDbDictionary
  3
DIMASSOC
350
230
  3
HIDETEXT
350
231
  0
MATERIAL
  5
3D
102
{ACAD_REACTORS
330
3B
102
}
102
{ACAD_XDICTIONARY
360
234
102
}
330
3B
100
AcDbMaterial
  1
ByBlock
  0
MATERIAL
  5
3C
102
{ACAD_REACTORS
330
3B
102
}
102
{ACAD_XDICTIONARY
360
232
102
}
330
3B
100
AcDbMaterial
  1
ByLayer
  0
MATERIAL
  5
3E
102
{ACAD_REACTORS
330
3B
102
}
102
{ACAD_XDICTIONARY
360
236
102
}
330
3B
100
AcDbMaterial
  1
Global
  0
MLINESTYLE
  5
18
102
{ACAD_REACTORS
330
17
102
}
330
17
100
AcDbMlineStyle
  2
Standard
 70
     0
  3

 62
   256
 51
90.0
 52
90.0
 71
     2
 49
0.5
 62
   256
  6
BYLAYER
 49
-0.5
 62
   256
  6
BYLAYER
  0
ACAD_PROXY_OBJECT
  5
2F
102
{ACAD_REACTORS
330
2A
102
}
330
2A
100
AcDbProxyObject
 90
      499
 91
      501
 93
      436
310
42CC9915DA5C99599C985B595049028333333333333E3BF0000000000000FB0107901411070040501600405405064090741402480A0340
1001
ACAD
1000
AcDbSavedByObjectVersion
1070
     0
  0
ACAD_PROXY_OBJECT
  5
31
102
{ACAD_REACTORS
330
2A
102
}
330
2A
100
AcDbProxyObject
 90
      499
 91
      501
 93
      500
310
424CD108121A5919195B90640502408333333333333E3BF0000000000000FB01079024090700405020000000000001110200405405064090740C02480A0340
1001
ACAD
1000
AcDbSavedByObjectVersion
1070
     0
  0
ACAD_PROXY_OBJECT
  5
30
102
{ACAD_REACTORS
330
2A
102
}
330
2A
100
AcDbProxyObject
 90
      499
 91
      501
 93
      436
310
42CCD915DA5C99599C985B595059028333333333333E3BF0000000000000FB0107901411070040501600405405064090741402480A0340
1001
ACAD
1000
AcDbSavedByObjectVersion
1070
     0
  0
ACAD_PROXY_OBJECT
  5
32
102
{ACAD_REACTORS
330
2A
102
}
330
2A
100
AcDbProxyObject
 90
      499
 91
      501
 93
      388
310
4150985CDA58D07406404333333333333E3BF0000000000000FB0107A41107004050150841D405064090741402480A0350
1001
ACAD
1000
AcDbSavedByObjectVersion
1070
     0
  0
ACAD_PROXY_OBJECT
  5
36
102
{ACAD_REACTORS
330
2A
102
}
330
2A
100
AcDbProxyObject
 90
      499
 91
      501
 93
      428
310
42109C9A59DA1D195B90C409028333333333333E3BF0000000000000FB010790141107004050150841D405064090741402480A029950
1001
ACAD
1000
AcDbSavedByObjectVersion
1070
     0
  0
ACAD_PROXY_OBJECT
  5
3A
102
{ACAD_REACTORS
330
2A
102
}
330
2A
100
AcDbProxyObject
 90
      499
 91
      501
 93
      452
310
42D0DBDB1BDC90DA185B99D95104090240C333333333333E3BF0000000000000FB0108901411070040501508421405064090741402480A0350
1001
ACAD
1000
AcDbSavedByObjectVersion
1070
     0
  0
ACAD_PROXY_OBJECT
  5
34
102
{ACAD_REACTORS
330
2A
102
}
330
2A
100
AcDbProxyObject
 90
      499
 91
      501
 93
      500
310
4290DBDB98D95C1D1D585B10940D028333333333333E3BF0000000000000FB0107902409070040501000000000000111010841D405064090740C02480A0340
1001
ACAD
1000
AcDbSavedByObjectVersion
1070
     0
  0
ACAD_PROXY_OBJECT
  5
35
102
{ACAD_REACTORS
330
2A
102
}
330
2A
100
AcDbProxyObject
 90
      499
 91
      501
 93
      412
310
40D11A5B50B409028333333333333E3BF0000000000000FB010790141107004050150841D405064090741402480A02677FFFFFD0
1001
ACAD
1000
AcDbSavedByObjectVersion
1070
     0
  0
ACAD_PROXY_OBJECT
  5
39
102
{ACAD_REACTORS
330
2A
102
}
330
2A
100
AcDbProxyObject
 90
      499
 91
      501
 93
      444
310
42D19858D95C185D1D195C9B90F409028333333333333E3BF0000000000000FB010790141107004050150841D405064090741402480A0350
1001
ACAD
1000
AcDbSavedByObjectVersion
1070
     0
  0
ACAD_PROXY_OBJECT
  5
2B
102
{ACAD_REACTORS
330
2A
102
}
330
2A
100
AcDbProxyObject
 90
      499
 91
      501
 93
      388
310
41119B185D240901404333333333333E3BF0000000000000F9010740A41107004050150841D405064090741402480A1B50
1001
ACAD
1000
AcDbSavedByObjectVersion
1070
     0
  0
ACAD_PROXY_OBJECT
  5
2C
102
{ACAD_REACTORS
330
2A
102
}
330
2A
100
AcDbProxyObject
 90
      499
 91
      501
 93
      476
310
43519B185D15DA5D1A115919D95CD0140901404333333333333E3BF0000000000000F9010740901411070040501600405405064090741402480A1B50
1001
ACAD
1000
AcDbSavedByObjectVersion
1070
     0
  0
ACAD_PROXY_OBJECT
  5
2D
102
{ACAD_REACTORS
330
2A
102
}
330
2A
100
AcDbProxyObject
 90
      499
 91
      501
 93
      412
310
41D1DBDD5C985D5910240902404333333333333E3BF0000000000000F9010740A411070040501641D405064090741402480A1B50
1001
ACAD
1000
AcDbSavedByObjectVersion
1070
     0
  0
ACAD_PROXY_OBJECT
  5
2E
102
{ACAD_REACTORS
330
2A
102
}
330
2A
100
AcDbProxyObject
 90
      499
 91
      501
 93
      500
310
4411DBDD5C985D5915DA5D1A115919D95CD0340902404333333333333E3BF0000000000000F9010740901411070040501600405405064090741402480A1B50
1001
ACAD
1000
AcDbSavedByObjectVersion
1070
     0
  0
ACAD_PROXY_OBJECT
  5
38
102
{ACAD_REACTORS
330
2A
102
}
330
2A
100
AcDbProxyObject
 90
      499
 91
      501
 93
      444
310
42D31A5B995C185D1D195C9B90E409028333333333333E3BF0000000000000FB010790141107004050750841D405064090741402483A0350
1001
ACAD
1000
AcDbSavedByObjectVersion
1070
     0
  0
ACAD_PROXY_OBJECT
  5
33
102
{ACAD_REACTORS
330
2A
102
}
330
2A
100
AcDbProxyObject
 90
      499
 91
      501
 93
      420
310
425499585B1A5CDD1A58D08409028333333333333E3BF0000000000000FB01079019070040501508421405064090741402480A1B40
1001
ACAD
1000
AcDbSavedByObjectVersion
1070
     0
  0
ACAD_PROXY_OBJECT
  5
37
102
{ACAD_REACTORS
330
2A
102
}
330
2A
100
AcDbProxyObject
 90
      499
 91
      501
 93
      412
310
41D51A1A58DAD95B90D409028333333333333E3BF0000000000000FB010790141107004050150C41D405064090741402480A0350
1001
ACAD
1000
AcDbSavedByObjectVersion
1070
     0
  0
XRECORD
  5
216
102
{ACAD_REACTORS
330
20D
102
}
330
20D
100
AcDbXrecord
 90
        0
  0
XRECORD
  5
22C
102
{ACAD_REACTORS
330
20D
102
}
330
20D
100
AcDbXrecord
1000
DSTYLE
1002
{
1070
   171
 70
     2
1070
   143
 40
25.4
1070
   274
 70
     2
1070
    41
 40
1.55291427
1070
   289
 70
     2
1070
   141
 40
0.09
1070
    43
 40
30.0
1070
   278
 70
    46
1070
    44
 40
2.0
1070
    42
 40
2.0
1070
   147
 40
0.09
1070
    77
 70
     3
1070
   272
 70
     4
1070
   146
 40
0.5
1070
   279
 70
     2
1070
   283
 70
     1
1070
   145
 40
0.7
1070
   340
340
11
1070
   140
 40
2.8
1070
   288
 70
     1
1002
}
  0
XRECORD
  5
217
102
{ACAD_REACTORS
330
20D
102
}
330
20D
100
AcDbXrecord
  1
{59F09795-1960-4B90-97DF-0EA9E3A909AE}
  0
XRECORD
  5
210
102
{ACAD_REACTORS
330
20D
102
}
330
20D
100
AcDbXrecord
  1

  0
XRECORD
  5
215
102
{ACAD_REACTORS
330
20D
102
}
330
20D
100
AcDbXrecord
 90
        4
  0
XRECORD
  5
212
102
{ACAD_REACTORS
330
20D
102
}
330
20D
100
AcDbXrecord
340
1A
  0
XRECORD
  5
214
102
{ACAD_REACTORS
330
20D
102
}
330
20D
100
AcDbXrecord
 90
    10781
  0
XRECORD
  5
213
102
{ACAD_REACTORS
330
20D
102
}
330
20D
100
AcDbXrecord
340
19
  0
XRECORD
  5
219
102
{ACAD_REACTORS
330
20D
102
}
330
20D
100
AcDbXrecord
 40
0.0
  0
XRECORD
  5
21C
102
{ACAD_REACTORS
330
20D
102
}
330
20D
100
AcDbXrecord
340
0
  0
XRECORD
  5
222
102
{ACAD_REACTORS
330
20D
102
}
330
20D
100
AcDbXrecord
 10
0.0
 20
0.0
 30
0.0
  0
XRECORD
  5
21E
102
{ACAD_REACTORS
330
20D
102
}
330
20D
100
AcDbXrecord
 10
0.0
 20
0.0
 30
0.0
  0
XRECORD
  5
221
102
{ACAD_REACTORS
330
20D
102
}
330
20D
100
AcDbXrecord
 10
0.0
 20
0.0
 30
0.0
  0
XRECORD
  5
21F
102
{ACAD_REACTORS
330
20D
102
}
330
20D
100
AcDbXrecord
 10
0.0
 20
0.0
 30
0.0
  0
XRECORD
  5
220
102
{ACAD_REACTORS
330
20D
102
}
330
20D
100
AcDbXrecord
 10
0.0
 20
0.0
 30
0.0
  0
XRECORD
  5
21D
102
{ACAD_REACTORS
330
20D
102
}
330
20D
100
AcDbXrecord
 10
0.0
 20
0.0
 30
0.0
  0
XRECORD
  5
21A
102
{ACAD_REACTORS
330
20D
102
}
330
20D
100
AcDbXrecord
340
0
  0
XRECORD
  5
21B
102
{ACAD_REACTORS
330
20D
102
}
330
20D
100
AcDbXrecord
 70
     0
  0
XRECORD
  5
211
102
{ACAD_REACTORS
330
20D
102
}
330
20D
100
AcDbXrecord
  1

  0
XRECORD
  5
20E
102
{ACAD_REACTORS
330
20D
102
}
330
20D
100
AcDbXrecord
 90
        1
  0
XRECORD
  5
20F
102
{ACAD_REACTORS
330
20D
102
}
330
20D
100
AcDbXrecord
 90
       70
  0
XRECORD
  5
225
102
{ACAD_REACTORS
330
20D
102
}
330
20D
100
AcDbXrecord
340
0
  0
XRECORD
  5
22B
102
{ACAD_REACTORS
330
20D
102
}
330
20D
100
AcDbXrecord
 10
0.0
 20
0.0
 30
0.0
  0
XRECORD
  5
227
102
{ACAD_REACTORS
330
20D
102
}
330
20D
100
AcDbXrecord
 10
0.0
 20
0.0
 30
0.0
  0
XRECORD
  5
22A
102
{ACAD_REACTORS
330
20D
102
}
330
20D
100
AcDbXrecord
 10
0.0
 20
0.0
 30
0.0
  0
XRECORD
  5
228
102
{ACAD_REACTORS
330
20D
102
}
330
20D
100
AcDbXrecord
 10
0.0
 20
0.0
 30
0.0
  0
XRECORD
  5
229
102
{ACAD_REACTORS
330
20D
102
}
330
20D
100
AcDbXrecord
 10
0.0
 20
0.0
 30
0.0
  0
XRECORD
  5
226
102
{ACAD_REACTORS
330
20D
102
}
330
20D
100
AcDbXrecord
 10
0.0
 20
0.0
 30
0.0
  0
XRECORD
  5
223
102
{ACAD_REACTORS
330
20D
102
}
330
20D
100
AcDbXrecord
340
0
  0
XRECORD
  5
224
102
{ACAD_REACTORS
330
20D
102
}
330
20D
100
AcDbXrecord
 70
     0
  0
XRECORD
  5
218
102
{ACAD_REACTORS
330
20D
102
}
330
20D
100
AcDbXrecord
  1
{FAEB1C32-E019-11D5-929B-00C0DF256EC4}
  0
DICTIONARYVAR
  5
230
102
{ACAD_REACTORS
330
22D
102
}
330
22D
100
DictionaryVariables
280
     0
  1
1
  0
DICTIONARYVAR
  5
231
102
{ACAD_REACTORS
330
22D
102
}
330
22D
100
DictionaryVariables
280
     0
  1
1
  0
DICTIONARY
  5
234
330
3D
100
AcDbDictionary
280
     1
  3
ACAD_XREC_ROUNDTRIP
360
235
  0
DICTIONARY
  5
232
330
3C
100
AcDbDictionary
280
     1
  3
ACAD_XREC_ROUNDTRIP
360
233
  0
DICTIONARY
  5
236
330
3E
100
AcDbDictionary
280
     1
  3
ACAD_XREC_ROUNDTRIP
360
237
  0
XRECORD
  5
235
102
{ACAD_REACTORS
330
234
102
}
330
234
100
AcDbXrecord
102
MATERIAL
148
0.0
149
0.0
149
0.0
 93
        0
 94
      127
282
     0
 72
     1
 77
     1
171
     1
175
     1
179
     1
273
     0
  0
XRECORD
  5
233
102
{ACAD_REACTORS
330
232
102
}
330
232
100
AcDbXrecord
102
MATERIAL
148
0.0
149
0.0
149
0.0
 93
        0
 94
      127
282
     0
 72
     1
 77
     1
171
     1
175
     1
179
     1
273
     0
  0
XRECORD
  5
237
102
{ACAD_REACTORS
330
236
102
}
330
236
100
AcDbXrecord
102
MATERIAL
148
0.0
149
0.0
149
0.0
 93
        0
 94
      127
282
     0
 72
     1
 77
     1
171
     1
175
     1
179
     1
273
     0
  0
ENDSEC
  0
EOF
