  0
SECTION
  2
HEADER
  9
$ACADVER
  1
AC1014
  9
$ACADMAINTVER
 70
     9
  9
$DWGCODEPAGE
  3
ANSI_932
  9
$INSBASE
 10
0.0
 20
0.0
 30
0.0
  9
$EXTMIN
 10
104.6202918365052
 20
95.66736800559192
 30
0.0
  9
$EXTMAX
 10
744.728192104124
 20
458.0874740471687
 30
0.0
  9
$LIMMIN
 10
0.0
 20
0.0
  9
$LIMMAX
 10
420.0
 20
297.0
  9
$ORTHOMODE
 70
     0
  9
$REGENMODE
 70
     1
  9
$FILLMODE
 70
     1
  9
$QTEXTMODE
 70
     0
  9
$MIRRTEXT
 70
     1
  9
$DRAGMODE
 70
     2
  9
$LTSCALE
 40
0.5
  9
$OSMODE
 70
    37
  9
$ATTMODE
 70
     1
  9
$TEXTSIZE
 40
5.6
  9
$TRACEWID
 40
0.05
  9
$TEXTSTYLE
  7
STANDARD
  9
$CLAYER
  8
0
  9
$CELTYPE
  6
BYLAYER
  9
$CECOLOR
 62
   256
  9
$CELTSCALE
 40
1.0
  9
$DELOBJ
 70
     1
  9
$DISPSILH
 70
     0
  9
$DIMSCALE
 40
1.0
  9
$DIMASZ
 40
1.55291427
  9
$DIMEXO
 40
2.0
  9
$DIMDLI
 40
30.0
  9
$DIMRND
 40
0.0
  9
$DIMDLE
 40
0.0
  9
$DIMEXE
 40
2.0
  9
$DIMTP
 40
0.0
  9
$DIMTM
 40
0.0
  9
$DIMTXT
 40
2.8
  9
$DIMCEN
 40
0.09
  9
$DIMTSZ
 40
0.0
  9
$DIMTOL
 70
     0
  9
$DIMLIM
 70
     0
  9
$DIMTIH
 70
     0
  9
$DIMTOH
 70
     0
  9
$DIMSE1
 70
     0
  9
$DIMSE2
 70
     0
  9
$DIMTAD
 70
     3
  9
$DIMZIN
 70
     8
  9
$DIMBLK
  1

  9
$DIMASO
 70
     1
  9
$DIMSHO
 70
     1
  9
$DIMPOST
  1

  9
$DIMAPOST
  1

  9
$DIMALT
 70
     0
  9
$DIMALTD
 70
     2
  9
$DIMALTF
 40
25.4
  9
$DIMLFAC
 40
1.0
  9
$DIMTOFL
 70
     1
  9
$DIMTVP
 40
0.7
  9
$DIMTIX
 70
     0
  9
$DIMSOXD
 70
     0
  9
$DIMSAH
 70
     0
  9
$DIMBLK1
  1

  9
$DIMBLK2
  1

  9
$DIMSTYLE
  2
STANDARD
  9
$DIMCLRD
 70
     0
  9
$DIMCLRE
 70
     0
  9
$DIMCLRT
 70
     0
  9
$DIMTFAC
 40
0.5
  9
$DIMGAP
 40
0.09
  9
$DIMJUST
 70
     0
  9
$DIMSD1
 70
     0
  9
$DIMSD2
 70
     0
  9
$DIMTOLJ
 70
     1
  9
$DIMTZIN
 70
     8
  9
$DIMALTZ
 70
     0
  9
$DIMALTTZ
 70
     0
  9
$DIMFIT
 70
     5
  9
$DIMUPT
 70
     1
  9
$DIMUNIT
 70
     2
  9
$DIMDEC
 70
     2
  9
$DIMTDEC
 70
     4
  9
$DIMALTU
 70
     2
  9
$DIMALTTD
 70
     2
  9
$DIMTXSTY
  7
STANDARD
  9
$DIMAUNIT
 70
     0
  9
$LUNITS
 70
     2
  9
$LUPREC
 70
     4
  9
$SKETCHINC
 40
0.1
  9
$FILLETRAD
 40
0.5
  9
$AUNITS
 70
     0
  9
$AUPREC
 70
     0
  9
$MENU
  1
.
  9
$ELEVATION
 40
0.0
  9
$PELEVATION
 40
0.0
  9
$THICKNESS
 40
0.0
  9
$LIMCHECK
 70
     0
  9
$CHAMFERA
 40
0.5
  9
$CHAMFERB
 40
0.5
  9
$CHAMFERC
 40
1.0
  9
$CHAMFERD
 40
0.0
  9
$SKPOLY
 70
     0
  9
$TDCREATE
 40
2460098.02712963
  9
$TDUPDATE
 40
2460097.652134607
  9
$TDINDWG
 40
0.0000000116
  9
$TDUSRTIMER
 40
0.0000000116
  9
$USRTIMER
 70
     1
  9
$ANGBASE
 50
0.0
  9
$ANGDIR
 70
     0
  9
$PDMODE
 70
     0
  9
$PDSIZE
 40
0.0
  9
$PLINEWID
 40
0.0
  9
$COORDS
 70
     1
  9
$SPLFRAME
 70
     0
  9
$SPLINETYPE
 70
     6
  9
$SPLINESEGS
 70
     8
  9
$ATTDIA
 70
     0
  9
$ATTREQ
 70
     1
  9
$HANDLING
 70
     1
  9
$HANDSEED
  5
238
  9
$SURFTAB1
 70
     6
  9
$SURFTAB2
 70
     6
  9
$SURFTYPE
 70
     6
  9
$SURFU
 70
     6
  9
$SURFV
 70
     6
  9
$UCSNAME
  2

  9
$UCSORG
 10
0.0
 20
0.0
 30
0.0
  9
$UCSXDIR
 10
1.0
 20
0.0
 30
0.0
  9
$UCSYDIR
 10
0.0
 20
1.0
 30
0.0
  9
$PUCSNAME
  2

  9
$PUCSORG
 10
0.0
 20
0.0
 30
0.0
  9
$PUCSXDIR
 10
1.0
 20
0.0
 30
0.0
  9
$PUCSYDIR
 10
0.0
 20
1.0
 30
0.0
  9
$USERI1
 70
     0
  9
$USERI2
 70
     0
  9
$USERI3
 70
     0
  9
$USERI4
 70
     0
  9
$USERI5
 70
     0
  9
$USERR1
 40
0.0
  9
$USERR2
 40
0.0
  9
$USERR3
 40
0.0
  9
$USERR4
 40
0.0
  9
$USERR5
 40
0.0
  9
$WORLDVIEW
 70
     1
  9
$SHADEDGE
 70
     3
  9
$SHADEDIF
 70
    70
  9
$TILEMODE
 70
     1
  9
$MAXACTVP
 70
    64
  9
$PINSBASE
 10
0.0
 20
0.0
 30
0.0
  9
$PLIMCHECK
 70
     0
  9
$PEXTMIN
 10
0.0
 20
0.0
 30
0.0
  9
$PEXTMAX
 10
420.0
 20
297.0
 30
0.0
  9
$PLIMMIN
 10
0.0
 20
0.0
  9
$PLIMMAX
 10
420.0
 20
297.0
  9
$UNITMODE
 70
     0
  9
$VISRETAIN
 70
     1
  9
$PLINEGEN
 70
     0
  9
$PSLTSCALE
 70
     1
  9
$TREEDEPTH
 70
  3020
  9
$PICKSTYLE
 70
     1
  9
$CMLSTYLE
  2
STANDARD
  9
$CMLJUST
 70
     0
  9
$CMLSCALE
 40
1.0
  9
$PROXYGRAPHICS
 70
     1
  9
$MEASUREMENT
 70
     1
  0
ENDSEC
  0
SECTION
  2
CLASSES
  0
CLASS
  1
ACDBDICTIONARYWDFLT
  2
AcDbDictionaryWithDefault
  3
ObjectDBX Classes
 90
        0
280
     0
281
     0
  0
CLASS
  1
VISUALSTYLE
  2
AcDbVisualStyle
  3
ObjectDBX Classes
 90
     4095
280
     0
281
     0
  0
CLASS
  1
MATERIAL
  2
AcDbMaterial
  3
ObjectDBX Classes
 90
     1153
280
     0
281
     0
  0
CLASS
  1
DICTIONARYVAR
  2
AcDbDictionaryVar
  3
ObjectDBX Classes
 90
        0
280
     0
281
     0
  0
CLASS
  1
XRECORD
  2
AcDbXrecord
  3
AutoCAD 2000
 90
        0
280
     0
281
     0
  0
CLASS
  1
LWPOLYLINE
  2
AcDbPolyline
  3
AutoCAD 2000
 90
        0
280
     0
281
     1
  0
CLASS
  1
HATCH
  2
AcDbHatch
  3
AutoCAD 2000
 90
        0
280
     0
281
     1
  0
CLASS
  1
ACDBPLACEHOLDER
  2
AcDbPlaceHolder
  3
ObjectDBX Classes
 90
        0
280
     0
281
     0
  0
CLASS
  1
LAYOUT
  2
AcDbLayout
  3
ObjectDBX Classes
 90
        0
280
     0
281
     0
  0
ENDSEC
  0
SECTION
  2
TABLES
  0
TABLE
  2
VPORT
  5
8
330
0
100
AcDbSymbolTable
 70
     1
  0
VPORT
  5
29
330
8
100
AcDbSymbolTableRecord
100
AcDbViewportTableRecord
  2
*ACTIVE
 70
     0
 10
0.0
 20
0.0
 11
1.0
 21
1.0
 12
10.42990654205607
 22
4.5
 13
0.0
 23
0.0
 14
0.5
 24
0.5
 15
0.5
 25
0.5
 16
0.0
 26
0.0
 36
1.0
 17
0.0
 27
0.0
 37
0.0
 40
9.0
 41
1.972972972850329
 42
50.0
 43
0.0
 44
0.0
 50
0.0
 51
0.0
 71
     0
 72
   100
 73
     1
 74
     3
 75
     0
 76
     0
 77
     0
 78
     0
  0
ENDTAB
  0
TABLE
  2
LTYPE
  5
5
330
0
100
AcDbSymbolTable
 70
     9
  0
LTYPE
  5
14
330
5
100
AcDbSymbolTableRecord
100
AcDbLinetypeTableRecord
  2
BYBLOCK
 70
     0
  3

 72
    65
 73
     0
 40
0.0
  0
LTYPE
  5
15
330
5
100
AcDbSymbolTableRecord
100
AcDbLinetypeTableRecord
  2
BYLAYER
 70
     0
  3

 72
    65
 73
     0
 40
0.0
  0
LTYPE
  5
16
330
5
100
AcDbSymbolTableRecord
100
AcDbLinetypeTableRecord
  2
CONTINUOUS
 70
     0
  3
Solid line
 72
    65
 73
     0
 40
0.0
  0
LTYPE
  5
8E
330
5
100
AcDbSymbolTableRecord
100
AcDbLinetypeTableRecord
  2
DOT
 70
     0
  3
DOT
 72
    65
 73
     2
 40
4.0
 49
6.0
 74
     0
 49
-2.0
 74
     0
  0
LTYPE
  5
8F
330
5
100
AcDbSymbolTableRecord
100
AcDbLinetypeTableRecord
  2
HIDDEN
 70
     0
  3
HIDDEN
 72
    65
 73
     2
 40
4.2
 49
8.4
 74
     0
 49
-4.2
 74
     0
  0
LTYPE
  5
90
330
5
100
AcDbSymbolTableRecord
100
AcDbLinetypeTableRecord
  2
DASHDOT
 70
     0
  3
DASHDOT
 72
    65
 73
     4
 40
14.5
 49
30.0
 74
     0
 49
-9.0
 74
     0
 49
2.5
 74
     0
 49
-9.0
 74
     0
  0
LTYPE
  5
91
330
5
100
AcDbSymbolTableRecord
100
AcDbLinetypeTableRecord
  2
PHANTOM
 70
     0
  3
PHANTOM
 72
    65
 73
     6
 40
12.0
 49
30.0
 74
     0
 49
-9.0
 74
     0
 49
2.5
 74
     0
 49
-5.0
 74
     0
 49
2.5
 74
     0
 49
-9.0
 74
     0
  0
LTYPE
  5
92
330
5
100
AcDbSymbolTableRecord
100
AcDbLinetypeTableRecord
  2
ACAD_ISO14W100
 70
     0
  3
ACAD_ISO14W100
 72
    65
 73
     8
 40
1.5
 49
12.0
 74
     0
 49
-3.0
 74
     0
 49
0.5
 74
     0
 49
-3.0
 74
     0
 49
0.5
 74
     0
 49
-3.0
 74
     0
 49
0.5
 74
     0
 49
-3.0
 74
     0
  0
LTYPE
  5
93
330
5
100
AcDbSymbolTableRecord
100
AcDbLinetypeTableRecord
  2
ACAD_ISO06W100
 70
     0
  3
ACAD_ISO06W100
 72
    65
 73
     8
 40
13.5
 49
24.0
 74
     0
 49
-3.0
 74
     0
 49
0.5
 74
     0
 49
-3.0
 74
     0
 49
0.5
 74
     0
 49
-3.0
 74
     0
 49
0.5
 74
     0
 49
-3.0
 74
     0
  0
LTYPE
  5
94
330
5
100
AcDbSymbolTableRecord
100
AcDbLinetypeTableRecord
  2
ACAD_ISO11W100
 70
     0
  3
ACAD_ISO11W100
 72
    65
 73
     6
 40
15.5
 49
12.0
 74
     0
 49
-3.0
 74
     0
 49
12.0
 74
     0
 49
-3.0
 74
     0
 49
0.5
 74
     0
 49
-3.0
 74
     0
  0
LTYPE
  5
95
330
5
100
AcDbSymbolTableRecord
100
AcDbLinetypeTableRecord
  2
ACAD_ISO13W100
 70
     0
  3
ACAD_ISO13W100
 72
    65
 73
     8
 40
13.0
 49
12.0
 74
     0
 49
-3.0
 74
     0
 49
12.0
 74
     0
 49
-3.0
 74
     0
 49
0.5
 74
     0
 49
-3.0
 74
     0
 49
0.5
 74
     0
 49
-3.0
 74
     0
  0
ENDTAB
  0
TABLE
  2
LAYER
  5
2
330
0
100
AcDbSymbolTable
 70
    12
  0
LAYER
  5
10
330
2
100
AcDbSymbolTableRecord
100
AcDbLayerTableRecord
  2
0
 70
     0
 62
     7
  6
CONTINUOUS
  0
LAYER
  5
96
330
2
100
AcDbSymbolTableRecord
100
AcDbLayerTableRecord
  2
1
 70
     0
 62
     7
  6
CONTINUOUS
  0
LAYER
  5
97
330
2
100
AcDbSymbolTableRecord
100
AcDbLayerTableRecord
  2
2
 70
     0
 62
   151
  6
CONTINUOUS
  0
LAYER
  5
98
330
2
100
AcDbSymbolTableRecord
100
AcDbLayerTableRecord
  2
3
 70
     0
 62
     3
  6
HIDDEN
  0
LAYER
  5
99
330
2
100
AcDbSymbolTableRecord
100
AcDbLayerTableRecord
  2
4
 70
     0
 62
     1
  6
DASHDOT
  0
LAYER
  5
9A
330
2
100
AcDbSymbolTableRecord
100
AcDbLayerTableRecord
  2
5
 70
     0
 62
     7
  6
CONTINUOUS
  0
LAYER
  5
9B
330
2
100
AcDbSymbolTableRecord
100
AcDbLayerTableRecord
  2
6
 70
     0
 62
     6
  6
CONTINUOUS
  0
LAYER
  5
9C
330
2
100
AcDbSymbolTableRecord
100
AcDbLayerTableRecord
  2
7
 70
     0
 62
     3
  6
CONTINUOUS
  0
LAYER
  5
9D
330
2
100
AcDbSymbolTableRecord
100
AcDbLayerTableRecord
  2
8
 70
     0
 62
     4
  6
CONTINUOUS
  0
LAYER
  5
9E
330
2
100
AcDbSymbolTableRecord
100
AcDbLayerTableRecord
  2
9
 70
     0
 62
     7
  6
CONTINUOUS
  0
LAYER
  5
9F
330
2
100
AcDbSymbolTableRecord
100
AcDbLayerTableRecord
  2
10
 70
     0
 62
     2
  6
CONTINUOUS
  0
LAYER
  5
A0
330
2
100
AcDbSymbolTableRecord
100
AcDbLayerTableRecord
  2
11
 70
     0
 62
     2
  6
CONTINUOUS
  0
ENDTAB
  0
TABLE
  2
STYLE
  5
3
330
0
100
AcDbSymbolTable
 70
     3
  0
STYLE
  5
11
330
3
100
AcDbSymbolTableRecord
100
AcDbTextStyleTableRecord
  2
STANDARD
 70
     0
 40
0.0
 41
1.0
 50
0.0
 71
     0
 42
5.6
  3
txt
  4
bigfont
  0
STYLE
  5
41
330
3
100
AcDbSymbolTableRecord
100
AcDbTextStyleTableRecord
  2
T_STANDARD
 70
     4
 40
10.0
 41
1.0
 50
0.0
 71
     0
 42
10.0
  3
txt
  4
bigfont
  0
STYLE
  5
173
330
3
100
AcDbSymbolTableRecord
100
AcDbTextStyleTableRecord
  2
ＭＳ_ゴシック
 70
     0
 40
0.0
 41
1.0
 50
0.0
 71
     0
 42
0.0
  3

  4

1001
ACAD
1000
ＭＳ ゴシック
1071
      256
  0
ENDTAB
  0
TABLE
  2
VIEW
  5
6
330
0
100
AcDbSymbolTable
 70
     0
  0
ENDTAB
  0
TABLE
  2
UCS
  5
7
330
0
100
AcDbSymbolTable
 70
     0
  0
ENDTAB
  0
TABLE
  2
APPID
  5
9
330
0
100
AcDbSymbolTable
 70
     2
  0
APPID
  5
12
330
9
100
AcDbSymbolTableRecord
100
AcDbRegAppTableRecord
  2
ACAD
 70
     0
  0
APPID
  5
40
330
9
100
AcDbSymbolTableRecord
100
AcDbRegAppTableRecord
  2
ODA
 70
     0
  0
ENDTAB
  0
TABLE
  2
DIMSTYLE
  5
A
330
0
100
AcDbSymbolTable
 70
     1
  0
DIMSTYLE
105
27
102
{ACAD_REACTORS
330
17D
330
187
330
191
330
19B
330
1A5
330
1AF
330
1B9
330
1C3
330
1CD
330
1D7
330
1E1
330
1EB
330
1F5
330
1FD
330
205
102
}
330
A
100
AcDbSymbolTableRecord
100
AcDbDimStyleTableRecord
  2
STANDARD
 70
     0
  3

  4

  5

  6

  7

 40
1.0
 41
0.18
 42
0.0625
 43
0.38
 44
0.18
 45
0.0
 46
0.0
 47
0.0
 48
0.0
140
0.18
141
0.09
142
0.0
143
25.4
144
1.0
145
0.0
146
1.0
147
0.09
 71
     0
 72
     0
 73
     1
 74
     1
 75
     0
 76
     0
 77
     0
 78
     0
170
     0
171
     2
172
     0
173
     0
174
     0
175
     0
176
     0
177
     0
178
     0
270
     2
271
     4
272
     4
273
     2
274
     2
340
11
275
     0
280
     0
281
     0
282
     0
283
     1
284
     0
285
     0
286
     0
287
     3
288
     0
  0
ENDTAB
  0
TABLE
  2
BLOCK_RECORD
  5
1
330
0
100
AcDbSymbolTable
 70
    31
  0
BLOCK_RECORD
  5
1F
330
1
100
AcDbSymbolTableRecord
100
AcDbBlockTableRecord
  2
*MODEL_SPACE
  0
BLOCK_RECORD
  5
1B
330
1
100
AcDbSymbolTableRecord
100
AcDbBlockTableRecord
  2
*PAPER_SPACE
  0
BLOCK_RECORD
  5
42
330
1
100
AcDbSymbolTableRecord
100
AcDbBlockTableRecord
  2
_ORIGIN
  0
BLOCK_RECORD
  5
47
330
1
100
AcDbSymbolTableRecord
100
AcDbBlockTableRecord
  2
_DOTBLANK
  0
BLOCK_RECORD
  5
4C
330
1
100
AcDbSymbolTableRecord
100
AcDbBlockTableRecord
  2
_DOT
  0
BLOCK_RECORD
  5
51
330
1
100
AcDbSymbolTableRecord
100
AcDbBlockTableRecord
  2
_OPEN
  0
BLOCK_RECORD
  5
57
330
1
100
AcDbSymbolTableRecord
100
AcDbBlockTableRecord
  2
_CLOSED
  0
BLOCK_RECORD
  5
5E
330
1
100
AcDbSymbolTableRecord
100
AcDbBlockTableRecord
  2
_CLOSEDBLANK
  0
BLOCK_RECORD
  5
64
330
1
100
AcDbSymbolTableRecord
100
AcDbBlockTableRecord
  2
_ARROWFILLED
  0
BLOCK_RECORD
  5
68
330
1
100
AcDbSymbolTableRecord
100
AcDbBlockTableRecord
  2
_BOXBLANK
  0
BLOCK_RECORD
  5
70
330
1
100
AcDbSymbolTableRecord
100
AcDbBlockTableRecord
  2
_BOXFILLED
  0
BLOCK_RECORD
  5
75
330
1
100
AcDbSymbolTableRecord
100
AcDbBlockTableRecord
  2
_INTEGRAL
  0
BLOCK_RECORD
  5
7A
330
1
100
AcDbSymbolTableRecord
100
AcDbBlockTableRecord
  2
_OBLIQUE
  0
BLOCK_RECORD
  5
7E
330
1
100
AcDbSymbolTableRecord
100
AcDbBlockTableRecord
  2
_NONE
  0
BLOCK_RECORD
  5
81
330
1
100
AcDbSymbolTableRecord
100
AcDbBlockTableRecord
  2
MARK_OPEN
  0
BLOCK_RECORD
  5
86
330
1
100
AcDbSymbolTableRecord
100
AcDbBlockTableRecord
  2
MARK_ORIGIN
  0
BLOCK_RECORD
  5
8A
330
1
100
AcDbSymbolTableRecord
100
AcDbBlockTableRecord
  2
MARK_DOT
  0
BLOCK_RECORD
  5
174
330
1
100
AcDbSymbolTableRecord
100
AcDbBlockTableRecord
  2
DIM1
  0
BLOCK_RECORD
  5
17E
330
1
100
AcDbSymbolTableRecord
100
AcDbBlockTableRecord
  2
DIM2
  0
BLOCK_RECORD
  5
188
330
1
100
AcDbSymbolTableRecord
100
AcDbBlockTableRecord
  2
DIM3
  0
BLOCK_RECORD
  5
192
330
1
100
AcDbSymbolTableRecord
100
AcDbBlockTableRecord
  2
DIM4
  0
BLOCK_RECORD
  5
19C
330
1
100
AcDbSymbolTableRecord
100
AcDbBlockTableRecord
  2
DIM5
  0
BLOCK_RECORD
  5
1A6
330
1
100
AcDbSymbolTableRecord
100
AcDbBlockTableRecord
  2
DIM6
  0
BLOCK_RECORD
  5
1B0
330
1
100
AcDbSymbolTableRecord
100
AcDbBlockTableRecord
  2
DIM7
  0
BLOCK_RECORD
  5
1BA
330
1
100
AcDbSymbolTableRecord
100
AcDbBlockTableRecord
  2
DIM8
  0
BLOCK_RECORD
  5
1C4
330
1
100
AcDbSymbolTableRecord
100
AcDbBlockTableRecord
  2
DIM9
  0
BLOCK_RECORD
  5
1CE
330
1
100
AcDbSymbolTableRecord
100
AcDbBlockTableRecord
  2
DIM10
  0
BLOCK_RECORD
  5
1D8
330
1
100
AcDbSymbolTableRecord
100
AcDbBlockTableRecord
  2
DIM11
  0
BLOCK_RECORD
  5
1E2
330
1
100
AcDbSymbolTableRecord
100
AcDbBlockTableRecord
  2
DIM12
  0
BLOCK_RECORD
  5
1EC
330
1
100
AcDbSymbolTableRecord
100
AcDbBlockTableRecord
  2
DIM13
  0
BLOCK_RECORD
  5
1F6
330
1
100
AcDbSymbolTableRecord
100
AcDbBlockTableRecord
  2
DIM14
  0
BLOCK_RECORD
  5
1FE
330
1
100
AcDbSymbolTableRecord
100
AcDbBlockTableRecord
  2
DIM15
  0
ENDTAB
  0
ENDSEC
  0
SECTION
  2
BLOCKS
  0
BLOCK
  5
20
330
1F
100
AcDbEntity
  8
0
100
AcDbBlockBegin
  2
*MODEL_SPACE
 70
     0
 10
0.0
 20
0.0
 30
0.0
  3
*MODEL_SPACE
  1

  0
ENDBLK
  5
21
330
1F
100
AcDbEntity
  8
0
100
AcDbBlockEnd
  0
BLOCK
  5
1C
330
1B
100
AcDbEntity
 67
     1
  8
0
100
AcDbBlockBegin
  2
*PAPER_SPACE
 70
     0
 10
0.0
 20
0.0
 30
0.0
  3
*PAPER_SPACE
  1

  0
ENDBLK
  5
1D
330
1B
100
AcDbEntity
 67
     1
  8
0
100
AcDbBlockEnd
  0
BLOCK
  5
45
330
42
100
AcDbEntity
  8
0
100
AcDbBlockBegin
  2
_ORIGIN
 70
     0
 10
0.0
 20
0.0
 30
0.0
  3
_ORIGIN
  1

  0
CIRCLE
  5
43
330
42
100
AcDbEntity
  8
0
 62
     0
100
AcDbCircle
 10
0.0
 20
0.0
 30
0.0
 40
0.5
  0
LINE
  5
44
330
42
100
AcDbEntity
  8
0
 62
     0
100
AcDbLine
 10
0.0
 20
0.0
 30
0.0
 11
-1.0
 21
0.0
 31
0.0
  0
ENDBLK
  5
46
330
42
100
AcDbEntity
  8
0
100
AcDbBlockEnd
  0
BLOCK
  5
4A
330
47
100
AcDbEntity
  8
0
100
AcDbBlockBegin
  2
_DOTBLANK
 70
     0
 10
0.0
 20
0.0
 30
0.0
  3
_DOTBLANK
  1

  0
CIRCLE
  5
48
330
47
100
AcDbEntity
  8
0
 62
     0
100
AcDbCircle
 10
0.0
 20
0.0
 30
0.0
 40
0.5
  0
LINE
  5
49
330
47
100
AcDbEntity
  8
0
 62
     0
100
AcDbLine
 10
-0.5
 20
0.0
 30
0.0
 11
-1.0
 21
0.0
 31
0.0
  0
ENDBLK
  5
4B
330
47
100
AcDbEntity
  8
0
100
AcDbBlockEnd
  0
BLOCK
  5
4F
330
4C
100
AcDbEntity
  8
0
100
AcDbBlockBegin
  2
_DOT
 70
     0
 10
0.0
 20
0.0
 30
0.0
  3
_DOT
  1

  0
LWPOLYLINE
  5
4D
330
4C
100
AcDbEntity
  8
0
 62
     0
100
AcDbPolyline
 90
        2
 70
     1
 43
0.5
 10
-0.25
 20
0.0
 42
1.0
 10
0.25
 20
0.0
 42
1.0
  0
LINE
  5
4E
330
4C
100
AcDbEntity
  8
0
 62
     0
100
AcDbLine
 10
-0.5
 20
0.0
 30
0.0
 11
-1.0
 21
0.0
 31
0.0
  0
ENDBLK
  5
50
330
4C
100
AcDbEntity
  8
0
100
AcDbBlockEnd
  0
BLOCK
  5
55
330
51
100
AcDbEntity
  8
0
100
AcDbBlockBegin
  2
_OPEN
 70
     0
 10
0.0
 20
0.0
 30
0.0
  3
_OPEN
  1

  0
LINE
  5
52
330
51
100
AcDbEntity
  8
0
 62
     0
100
AcDbLine
 10
0.0
 20
0.0
 30
0.0
 11
-1.0
 21
0.1666666666666667
 31
0.0
  0
LINE
  5
53
330
51
100
AcDbEntity
  8
0
 62
     0
100
AcDbLine
 10
0.0
 20
0.0
 30
0.0
 11
-1.0
 21
-0.1666666666666667
 31
0.0
  0
LINE
  5
54
330
51
100
AcDbEntity
  8
0
 62
     0
100
AcDbLine
 10
0.0
 20
0.0
 30
0.0
 11
-1.0
 21
0.0
 31
0.0
  0
ENDBLK
  5
56
330
51
100
AcDbEntity
  8
0
100
AcDbBlockEnd
  0
BLOCK
  5
5C
330
57
100
AcDbEntity
  8
0
100
AcDbBlockBegin
  2
_CLOSED
 70
     0
 10
0.0
 20
0.0
 30
0.0
  3
_CLOSED
  1

  0
LINE
  5
58
330
57
100
AcDbEntity
  8
0
 62
     0
100
AcDbLine
 10
0.0
 20
0.0
 30
0.0
 11
-1.0
 21
0.1666666666666667
 31
0.0
  0
LINE
  5
59
330
57
100
AcDbEntity
  8
0
 62
     0
100
AcDbLine
 10
0.0
 20
0.0
 30
0.0
 11
-1.0
 21
-0.1666666666666667
 31
0.0
  0
LINE
  5
5A
330
57
100
AcDbEntity
  8
0
 62
     0
100
AcDbLine
 10
-1.0
 20
0.1666666666666667
 30
0.0
 11
-1.0
 21
-0.1666666666666667
 31
0.0
  0
LINE
  5
5B
330
57
100
AcDbEntity
  8
0
 62
     0
100
AcDbLine
 10
0.0
 20
0.0
 30
0.0
 11
-1.0
 21
0.0
 31
0.0
  0
ENDBLK
  5
5D
330
57
100
AcDbEntity
  8
0
100
AcDbBlockEnd
  0
BLOCK
  5
62
330
5E
100
AcDbEntity
  8
0
100
AcDbBlockBegin
  2
_CLOSEDBLANK
 70
     0
 10
0.0
 20
0.0
 30
0.0
  3
_CLOSEDBLANK
  1

  0
LINE
  5
5F
330
5E
100
AcDbEntity
  8
0
 62
     0
100
AcDbLine
 10
0.0
 20
0.0
 30
0.0
 11
-1.0
 21
0.1666666666666667
 31
0.0
  0
LINE
  5
60
330
5E
100
AcDbEntity
  8
0
 62
     0
100
AcDbLine
 10
0.0
 20
0.0
 30
0.0
 11
-1.0
 21
-0.1666666666666667
 31
0.0
  0
LINE
  5
61
330
5E
100
AcDbEntity
  8
0
 62
     0
100
AcDbLine
 10
-1.0
 20
0.1666666666666667
 30
0.0
 11
-1.0
 21
-0.1666666666666667
 31
0.0
  0
ENDBLK
  5
63
330
5E
100
AcDbEntity
  8
0
100
AcDbBlockEnd
  0
BLOCK
  5
66
330
64
100
AcDbEntity
  8
0
100
AcDbBlockBegin
  2
_ARROWFILLED
 70
     0
 10
0.0
 20
0.0
 30
0.0
  3
_ARROWFILLED
  1

  0
SOLID
  5
65
330
64
100
AcDbEntity
  8
0
 62
     0
100
AcDbTrace
 10
0.0
 20
0.0
 30
0.0
 11
-1.0
 21
-0.1666666666666667
 31
0.0
 12
-1.0
 22
0.1666666666666667
 32
0.0
 13
0.0
 23
0.0
 33
0.0
  0
ENDBLK
  5
67
330
64
100
AcDbEntity
  8
0
100
AcDbBlockEnd
  0
BLOCK
  5
6E
330
68
100
AcDbEntity
  8
0
100
AcDbBlockBegin
  2
_BOXBLANK
 70
     0
 10
0.0
 20
0.0
 30
0.0
  3
_BOXBLANK
  1

  0
LINE
  5
69
330
68
100
AcDbEntity
  8
0
 62
     0
100
AcDbLine
 10
-0.5
 20
-0.5
 30
0.0
 11
0.5
 21
-0.5
 31
0.0
  0
LINE
  5
6A
330
68
100
AcDbEntity
  8
0
 62
     0
100
AcDbLine
 10
0.5
 20
-0.5
 30
0.0
 11
0.5
 21
0.5
 31
0.0
  0
LINE
  5
6B
330
68
100
AcDbEntity
  8
0
 62
     0
100
AcDbLine
 10
0.5
 20
0.5
 30
0.0
 11
-0.5
 21
0.5
 31
0.0
  0
LINE
  5
6C
330
68
100
AcDbEntity
  8
0
 62
     0
100
AcDbLine
 10
-0.5
 20
0.5
 30
0.0
 11
-0.5
 21
-0.5
 31
0.0
  0
LINE
  5
6D
330
68
100
AcDbEntity
  8
0
 62
     0
100
AcDbLine
 10
-0.5
 20
0.0
 30
0.0
 11
-1.0
 21
0.0
 31
0.0
  0
ENDBLK
  5
6F
330
68
100
AcDbEntity
  8
0
100
AcDbBlockEnd
  0
BLOCK
  5
73
330
70
100
AcDbEntity
  8
0
100
AcDbBlockBegin
  2
_BOXFILLED
 70
     0
 10
0.0
 20
0.0
 30
0.0
  3
_BOXFILLED
  1

  0
SOLID
  5
71
330
70
100
AcDbEntity
  8
0
 62
     0
100
AcDbTrace
 10
-0.5
 20
0.5
 30
0.0
 11
0.5
 21
0.5
 31
0.0
 12
-0.5
 22
-0.5
 32
0.0
 13
0.5
 23
-0.5
 33
0.0
  0
LINE
  5
72
330
70
100
AcDbEntity
  8
0
 62
     0
100
AcDbLine
 10
-0.5
 20
0.0
 30
0.0
 11
-1.0
 21
0.0
 31
0.0
  0
ENDBLK
  5
74
330
70
100
AcDbEntity
  8
0
100
AcDbBlockEnd
  0
BLOCK
  5
78
330
75
100
AcDbEntity
  8
0
100
AcDbBlockBegin
  2
_INTEGRAL
 70
     0
 10
0.0
 20
0.0
 30
0.0
  3
_INTEGRAL
  1

  0
ARC
  5
76
330
75
100
AcDbEntity
  8
0
 62
     0
100
AcDbCircle
 10
0.444888
 20
-0.0913346
 30
0.0
 40
0.4541666
100
AcDbArc
 50
101.9999999999999
 51
167.9999999999998
  0
ARC
  5
77
330
75
100
AcDbEntity
  8
0
 62
     0
100
AcDbCircle
 10
-0.444888
 20
0.0913346
 30
0.0
 40
0.4541666
100
AcDbArc
 50
281.9999999999997
 51
347.9999999999997
  0
ENDBLK
  5
79
330
75
100
AcDbEntity
  8
0
100
AcDbBlockEnd
  0
BLOCK
  5
7C
330
7A
100
AcDbEntity
  8
0
100
AcDbBlockBegin
  2
_OBLIQUE
 70
     0
 10
0.0
 20
0.0
 30
0.0
  3
_OBLIQUE
  1

  0
LINE
  5
7B
330
7A
100
AcDbEntity
  8
0
 62
     0
100
AcDbLine
 10
-0.5
 20
-0.5
 30
0.0
 11
0.5
 21
0.5
 31
0.0
  0
ENDBLK
  5
7D
330
7A
100
AcDbEntity
  8
0
100
AcDbBlockEnd
  0
BLOCK
  5
7F
330
7E
100
AcDbEntity
  8
0
100
AcDbBlockBegin
  2
_NONE
 70
     0
 10
0.0
 20
0.0
 30
0.0
  3
_NONE
  1

  0
ENDBLK
  5
80
330
7E
100
AcDbEntity
  8
0
100
AcDbBlockEnd
  0
BLOCK
  5
84
330
81
100
AcDbEntity
  8
0
100
AcDbBlockBegin
  2
MARK_OPEN
 70
     0
 10
0.0
 20
0.0
 30
0.0
  3
MARK_OPEN
  1

  0
LINE
  5
82
330
81
100
AcDbEntity
  8
0
 62
     0
100
AcDbLine
 10
0.0
 20
0.0
 30
0.0
 11
-1.0
 21
0.1666666666666667
 31
0.0
  0
LINE
  5
83
330
81
100
AcDbEntity
  8
0
 62
     0
100
AcDbLine
 10
0.0
 20
0.0
 30
0.0
 11
-1.0
 21
-0.1666666666666667
 31
0.0
  0
ENDBLK
  5
85
330
81
100
AcDbEntity
  8
0
100
AcDbBlockEnd
  0
BLOCK
  5
88
330
86
100
AcDbEntity
  8
0
100
AcDbBlockBegin
  2
MARK_ORIGIN
 70
     0
 10
0.0
 20
0.0
 30
0.0
  3
MARK_ORIGIN
  1

  0
CIRCLE
  5
87
330
86
100
AcDbEntity
  8
0
 62
     0
100
AcDbCircle
 10
0.0
 20
0.0
 30
0.0
 40
0.5
  0
ENDBLK
  5
89
330
86
100
AcDbEntity
  8
0
100
AcDbBlockEnd
  0
BLOCK
  5
8C
330
8A
100
AcDbEntity
  8
0
100
AcDbBlockBegin
  2
MARK_DOT
 70
     0
 10
0.0
 20
0.0
 30
0.0
  3
MARK_DOT
  1

  0
LWPOLYLINE
  5
8B
330
8A
100
AcDbEntity
  8
0
 62
     0
100
AcDbPolyline
 90
        2
 70
     1
 43
0.5
 10
-0.25
 20
0.0
 42
1.0
 10
0.25
 20
0.0
 42
1.0
  0
ENDBLK
  5
8D
330
8A
100
AcDbEntity
  8
0
100
AcDbBlockEnd
  0
BLOCK
  5
175
330
174
100
AcDbEntity
  8
0
100
AcDbBlockBegin
  2
DIM1
 70
     0
 10
0.0
 20
0.0
 30
0.0
  3
DIM1
  1

  0
LINE
  5
177
330
174
100
AcDbEntity
  8
8
  6
CONTINUOUS
 62
     4
100
AcDbLine
 10
687.228192104124
 20
181.8018772179075
 30
0.0
 11
687.2281921041239
 21
95.66736800559192
 31
0.0
  0
LINE
  5
178
330
174
100
AcDbEntity
  8
8
  6
CONTINUOUS
 62
     4
100
AcDbLine
 10
732.228192104124
 20
166.8018772179075
 30
0.0
 11
732.2281921041239
 21
95.66736800559192
 31
0.0
  0
LINE
  5
179
330
174
100
AcDbEntity
  8
8
  6
CONTINUOUS
 62
     4
100
AcDbLine
 10
687.2281921041239
 20
98.66736800559192
 30
0.0
 11
732.2281921041239
 21
98.66736800559192
 31
0.0
  0
MTEXT
  5
17A
330
174
100
AcDbEntity
  8
8
  6
CONTINUOUS
 62
     4
100
AcDbMText
 10
709.728192104124
 20
98.66736800559192
 30
0.0
 40
6.0
 41
48.57142857142856
 71
     8
 72
     1
  1
45
  7
ＭＳ_ゴシック
1001
ACAD
1000
ACAD_MTEXT_DEFINED_HEIGHT_BEGIN
1070
    46
1040
6.0
1000
ACAD_MTEXT_DEFINED_HEIGHT_END
  0
INSERT
  5
17B
330
174
100
AcDbEntity
  8
8
  6
CONTINUOUS
 62
     4
100
AcDbBlockReference
  2
_ARROWFILLED
 10
687.2281921041239
 20
98.66736800559192
 30
0.0
 41
4.0
 42
4.0
 43
4.0
 50
179.9999999999998
  0
INSERT
  5
17C
330
174
100
AcDbEntity
  8
8
  6
CONTINUOUS
 62
     4
100
AcDbBlockReference
  2
_ARROWFILLED
 10
732.2281921041239
 20
98.66736800559192
 30
0.0
 41
4.0
 42
4.0
 43
4.0
 50
359.9999999999997
  0
ENDBLK
  5
176
330
174
100
AcDbEntity
  8
0
100
AcDbBlockEnd
  0
BLOCK
  5
17F
330
17E
100
AcDbEntity
  8
0
100
AcDbBlockBegin
  2
DIM2
 70
     0
 10
0.0
 20
0.0
 30
0.0
  3
DIM2
  1

  0
LINE
  5
181
330
17E
100
AcDbEntity
  8
8
  6
CONTINUOUS
 62
     4
100
AcDbLine
 10
732.228192104124
 20
166.8018772179075
 30
0.0
 11
732.228192104124
 21
140.3670662418244
 31
0.0
  0
LINE
  5
182
330
17E
100
AcDbEntity
  8
8
  6
CONTINUOUS
 62
     4
100
AcDbLine
 10
731.2281921041222
 20
166.8018772179075
 30
0.0
 11
731.2281921041222
 21
140.3670662418244
 31
0.0
  0
LINE
  5
183
330
17E
100
AcDbEntity
  8
8
  6
CONTINUOUS
 62
     4
100
AcDbLine
 10
744.728192104124
 20
143.3670662418244
 30
0.0
 11
723.2281921041222
 21
143.3670662418244
 31
0.0
  0
MTEXT
  5
184
330
17E
100
AcDbEntity
  8
8
  6
CONTINUOUS
 62
     4
100
AcDbMText
 10
741.728192104124
 20
143.3670662418244
 30
0.0
 40
6.0
 41
7.142857142857143
 71
     7
 72
     1
  1
1
  7
ＭＳ_ゴシック
1001
ACAD
1000
ACAD_MTEXT_DEFINED_HEIGHT_BEGIN
1070
    46
1040
6.0
1000
ACAD_MTEXT_DEFINED_HEIGHT_END
  0
INSERT
  5
185
330
17E
100
AcDbEntity
  8
8
  6
CONTINUOUS
 62
     4
100
AcDbBlockReference
  2
_ARROWFILLED
 10
732.228192104124
 20
143.3670662418244
 30
0.0
 41
4.0
 42
4.0
 43
4.0
 50
179.9999999999995
  0
INSERT
  5
186
330
17E
100
AcDbEntity
  8
8
  6
CONTINUOUS
 62
     4
100
AcDbBlockReference
  2
_ARROWFILLED
 10
731.2281921041222
 20
143.3670662418244
 30
0.0
 41
4.0
 42
4.0
 43
4.0
 50
359.9999999999997
  0
ENDBLK
  5
180
330
17E
100
AcDbEntity
  8
0
100
AcDbBlockEnd
  0
BLOCK
  5
189
330
188
100
AcDbEntity
  8
0
100
AcDbBlockBegin
  2
DIM3
 70
     0
 10
0.0
 20
0.0
 30
0.0
  3
DIM3
  1

  0
LINE
  5
18B
330
188
100
AcDbEntity
  8
8
  6
CONTINUOUS
 62
     4
100
AcDbLine
 10
732.228192104124
 20
166.8018772179075
 30
0.0
 11
732.2281921041239
 21
116.9526574721767
 31
0.0
  0
LINE
  5
18C
330
188
100
AcDbEntity
  8
8
  6
CONTINUOUS
 62
     4
100
AcDbLine
 10
698.7281921041231
 20
273.8018772179075
 30
0.0
 11
698.7281921041229
 21
116.9526574721767
 31
0.0
  0
LINE
  5
18D
330
188
100
AcDbEntity
  8
8
  6
CONTINUOUS
 62
     4
100
AcDbLine
 10
732.2281921041239
 20
119.9526574721767
 30
0.0
 11
698.7281921041229
 21
119.9526574721767
 31
0.0
  0
MTEXT
  5
18E
330
188
100
AcDbEntity
  8
8
  6
CONTINUOUS
 62
     4
100
AcDbMText
 10
715.4781921041235
 20
119.9526574721767
 30
0.0
 40
6.0
 41
91.42857142857142
 71
     8
 72
     1
  1
33.5
  7
ＭＳ_ゴシック
1001
ACAD
1000
ACAD_MTEXT_DEFINED_HEIGHT_BEGIN
1070
    46
1040
6.0
1000
ACAD_MTEXT_DEFINED_HEIGHT_END
  0
INSERT
  5
18F
330
188
100
AcDbEntity
  8
8
  6
CONTINUOUS
 62
     4
100
AcDbBlockReference
  2
_ARROWFILLED
 10
732.2281921041239
 20
119.9526574721767
 30
0.0
 41
4.0
 42
4.0
 43
4.0
 50
359.9999999999997
  0
INSERT
  5
190
330
188
100
AcDbEntity
  8
8
  6
CONTINUOUS
 62
     4
100
AcDbBlockReference
  2
_ARROWFILLED
 10
698.7281921041229
 20
119.9526574721767
 30
0.0
 41
4.0
 42
4.0
 43
4.0
 50
179.9999999999998
  0
ENDBLK
  5
18A
330
188
100
AcDbEntity
  8
0
100
AcDbBlockEnd
  0
BLOCK
  5
193
330
192
100
AcDbEntity
  8
0
100
AcDbBlockBegin
  2
DIM4
 70
     0
 10
0.0
 20
0.0
 30
0.0
  3
DIM4
  1

  0
LINE
  5
195
330
192
100
AcDbEntity
  8
8
  6
CONTINUOUS
 62
     4
100
AcDbLine
 10
477.1202918365043
 20
165.7018772179072
 30
0.0
 11
477.1202918365042
 21
141.8018772179075
 31
0.0
  0
LINE
  5
196
330
192
100
AcDbEntity
  8
8
  6
CONTINUOUS
 62
     4
100
AcDbLine
 10
564.6202918365043
 20
165.7018772179072
 30
0.0
 11
564.6202918365043
 21
141.8018772179075
 31
0.0
  0
LINE
  5
197
330
192
100
AcDbEntity
  8
8
  6
CONTINUOUS
 62
     4
100
AcDbLine
 10
477.1202918365042
 20
144.8018772179075
 30
0.0
 11
564.6202918365043
 21
144.8018772179075
 31
0.0
  0
MTEXT
  5
198
330
192
100
AcDbEntity
  8
8
  6
CONTINUOUS
 62
     4
100
AcDbMText
 10
520.8702918365043
 20
144.8018772179075
 30
0.0
 40
6.0
 41
91.42857142857142
 71
     8
 72
     1
  1
87.5
  7
ＭＳ_ゴシック
1001
ACAD
1000
ACAD_MTEXT_DEFINED_HEIGHT_BEGIN
1070
    46
1040
6.0
1000
ACAD_MTEXT_DEFINED_HEIGHT_END
  0
INSERT
  5
199
330
192
100
AcDbEntity
  8
8
  6
CONTINUOUS
 62
     4
100
AcDbBlockReference
  2
_ARROWFILLED
 10
477.1202918365042
 20
144.8018772179075
 30
0.0
 41
4.0
 42
4.0
 43
4.0
 50
179.9999999999998
  0
INSERT
  5
19A
330
192
100
AcDbEntity
  8
8
  6
CONTINUOUS
 62
     4
100
AcDbBlockReference
  2
_ARROWFILLED
 10
564.6202918365043
 20
144.8018772179075
 30
0.0
 41
4.0
 42
4.0
 43
4.0
 50
359.9999999999997
  0
ENDBLK
  5
194
330
192
100
AcDbEntity
  8
0
100
AcDbBlockEnd
  0
BLOCK
  5
19D
330
19C
100
AcDbEntity
  8
0
100
AcDbBlockBegin
  2
DIM5
 70
     0
 10
0.0
 20
0.0
 30
0.0
  3
DIM5
  1

  0
LINE
  5
19F
330
19C
100
AcDbEntity
  8
8
  6
CONTINUOUS
 62
     4
100
AcDbLine
 10
189.6202918365052
 20
196.8018772179075
 30
0.0
 11
189.6202918365051
 21
125.8018772179075
 31
0.0
  0
LINE
  5
1A0
330
19C
100
AcDbEntity
  8
8
  6
CONTINUOUS
 62
     4
100
AcDbLine
 10
589.6202918365043
 20
196.8018772179075
 30
0.0
 11
589.6202918365042
 21
125.8018772179075
 31
0.0
  0
LINE
  5
1A1
330
19C
100
AcDbEntity
  8
8
  6
CONTINUOUS
 62
     4
100
AcDbLine
 10
189.6202918365051
 20
128.8018772179075
 30
0.0
 11
589.6202918365042
 21
128.8018772179075
 31
0.0
  0
MTEXT
  5
1A2
330
19C
100
AcDbEntity
  8
8
  6
CONTINUOUS
 62
     4
100
AcDbMText
 10
389.6202918365043
 20
128.8018772179075
 30
0.0
 40
6.0
 41
77.14285714285714
 71
     8
 72
     1
  1
400
  7
ＭＳ_ゴシック
1001
ACAD
1000
ACAD_MTEXT_DEFINED_HEIGHT_BEGIN
1070
    46
1040
6.0
1000
ACAD_MTEXT_DEFINED_HEIGHT_END
  0
INSERT
  5
1A3
330
19C
100
AcDbEntity
  8
8
  6
CONTINUOUS
 62
     4
100
AcDbBlockReference
  2
_ARROWFILLED
 10
189.6202918365051
 20
128.8018772179075
 30
0.0
 41
4.0
 42
4.0
 43
4.0
 50
179.9999999999998
  0
INSERT
  5
1A4
330
19C
100
AcDbEntity
  8
8
  6
CONTINUOUS
 62
     4
100
AcDbBlockReference
  2
_ARROWFILLED
 10
589.6202918365042
 20
128.8018772179075
 30
0.0
 41
4.0
 42
4.0
 43
4.0
 50
359.9999999999997
  0
ENDBLK
  5
19E
330
19C
100
AcDbEntity
  8
0
100
AcDbBlockEnd
  0
BLOCK
  5
1A7
330
1A6
100
AcDbEntity
  8
0
100
AcDbBlockBegin
  2
DIM6
 70
     0
 10
0.0
 20
0.0
 30
0.0
  3
DIM6
  1

  0
LINE
  5
1A9
330
1A6
100
AcDbEntity
  8
8
  6
CONTINUOUS
 62
     4
100
AcDbLine
 10
174.6202918365052
 20
181.8018772179057
 30
0.0
 11
174.6202918365051
 21
109.8018772179075
 31
0.0
  0
LINE
  5
1AA
330
1A6
100
AcDbEntity
  8
8
  6
CONTINUOUS
 62
     4
100
AcDbLine
 10
604.6202918365043
 20
181.8018772179075
 30
0.0
 11
604.6202918365042
 21
109.8018772179075
 31
0.0
  0
LINE
  5
1AB
330
1A6
100
AcDbEntity
  8
8
  6
CONTINUOUS
 62
     4
100
AcDbLine
 10
174.6202918365051
 20
112.8018772179075
 30
0.0
 11
604.6202918365042
 21
112.8018772179075
 31
0.0
  0
MTEXT
  5
1AC
330
1A6
100
AcDbEntity
  8
8
  6
CONTINUOUS
 62
     4
100
AcDbMText
 10
389.6202918365052
 20
112.8018772179075
 30
0.0
 40
6.0
 41
77.14285714285714
 71
     8
 72
     1
  1
430
  7
ＭＳ_ゴシック
1001
ACAD
1000
ACAD_MTEXT_DEFINED_HEIGHT_BEGIN
1070
    46
1040
6.0
1000
ACAD_MTEXT_DEFINED_HEIGHT_END
  0
INSERT
  5
1AD
330
1A6
100
AcDbEntity
  8
8
  6
CONTINUOUS
 62
     4
100
AcDbBlockReference
  2
_ARROWFILLED
 10
174.6202918365051
 20
112.8018772179075
 30
0.0
 41
4.0
 42
4.0
 43
4.0
 50
179.9999999999998
  0
INSERT
  5
1AE
330
1A6
100
AcDbEntity
  8
8
  6
CONTINUOUS
 62
     4
100
AcDbBlockReference
  2
_ARROWFILLED
 10
604.6202918365042
 20
112.8018772179075
 30
0.0
 41
4.0
 42
4.0
 43
4.0
 50
359.9999999999997
  0
ENDBLK
  5
1A8
330
1A6
100
AcDbEntity
  8
0
100
AcDbBlockEnd
  0
BLOCK
  5
1B1
330
1B0
100
AcDbEntity
  8
0
100
AcDbBlockBegin
  2
DIM7
 70
     0
 10
0.0
 20
0.0
 30
0.0
  3
DIM7
  1

  0
LINE
  5
1B3
330
1B0
100
AcDbEntity
  8
8
  6
CONTINUOUS
 62
     4
100
AcDbLine
 10
187.6202918365052
 20
198.8018772179075
 30
0.0
 11
155.6202918365052
 21
198.8018772179076
 31
0.0
  0
LINE
  5
1B4
330
1B0
100
AcDbEntity
  8
8
  6
CONTINUOUS
 62
     4
100
AcDbLine
 10
187.6202918365052
 20
398.8018772179075
 30
0.0
 11
155.6202918365052
 21
398.8018772179076
 31
0.0
  0
LINE
  5
1B5
330
1B0
100
AcDbEntity
  8
8
  6
CONTINUOUS
 62
     4
100
AcDbLine
 10
158.6202918365052
 20
198.8018772179076
 30
0.0
 11
158.6202918365052
 21
398.8018772179076
 31
0.0
  0
MTEXT
  5
1B6
330
1B0
100
AcDbEntity
  8
8
  6
CONTINUOUS
 62
     4
100
AcDbMText
 10
158.6202918365052
 20
298.8018772179075
 30
0.0
 40
6.0
 41
77.14285714285714
 71
     8
 72
     1
  1
200
  7
ＭＳ_ゴシック
 11
1.615544574432587E-15
 21
1.0
 31
0.0
1001
ACAD
1000
ACAD_MTEXT_DEFINED_HEIGHT_BEGIN
1070
    46
1040
6.0
1000
ACAD_MTEXT_DEFINED_HEIGHT_END
  0
INSERT
  5
1B7
330
1B0
100
AcDbEntity
  8
8
  6
CONTINUOUS
 62
     4
100
AcDbBlockReference
  2
_ARROWFILLED
 10
158.6202918365052
 20
198.8018772179076
 30
0.0
 41
4.0
 42
4.0
 43
4.0
 50
269.9999999999998
  0
INSERT
  5
1B8
330
1B0
100
AcDbEntity
  8
8
  6
CONTINUOUS
 62
     4
100
AcDbBlockReference
  2
_ARROWFILLED
 10
158.6202918365052
 20
398.8018772179076
 30
0.0
 41
4.0
 42
4.0
 43
4.0
 50
89.99999999999991
  0
ENDBLK
  5
1B2
330
1B0
100
AcDbEntity
  8
0
100
AcDbBlockEnd
  0
BLOCK
  5
1BB
330
1BA
100
AcDbEntity
  8
0
100
AcDbBlockBegin
  2
DIM8
 70
     0
 10
0.0
 20
0.0
 30
0.0
  3
DIM8
  1

  0
LINE
  5
1BD
330
1BA
100
AcDbEntity
  8
8
  6
CONTINUOUS
 62
     4
100
AcDbLine
 10
172.6202918365052
 20
183.8018772179075
 30
0.0
 11
139.6202918365052
 21
183.8018772179076
 31
0.0
  0
LINE
  5
1BE
330
1BA
100
AcDbEntity
  8
8
  6
CONTINUOUS
 62
     4
100
AcDbLine
 10
172.6202918365052
 20
413.8018772179075
 30
0.0
 11
139.6202918365052
 21
413.8018772179076
 31
0.0
  0
LINE
  5
1BF
330
1BA
100
AcDbEntity
  8
8
  6
CONTINUOUS
 62
     4
100
AcDbLine
 10
142.6202918365052
 20
183.8018772179076
 30
0.0
 11
142.6202918365052
 21
413.8018772179076
 31
0.0
  0
MTEXT
  5
1C0
330
1BA
100
AcDbEntity
  8
8
  6
CONTINUOUS
 62
     4
100
AcDbMText
 10
142.6202918365052
 20
298.8018772179075
 30
0.0
 40
6.0
 41
77.14285714285714
 71
     8
 72
     1
  1
230
  7
ＭＳ_ゴシック
 11
1.615544574432587E-15
 21
1.0
 31
0.0
1001
ACAD
1000
ACAD_MTEXT_DEFINED_HEIGHT_BEGIN
1070
    46
1040
6.0
1000
ACAD_MTEXT_DEFINED_HEIGHT_END
  0
INSERT
  5
1C1
330
1BA
100
AcDbEntity
  8
8
  6
CONTINUOUS
 62
     4
100
AcDbBlockReference
  2
_ARROWFILLED
 10
142.6202918365052
 20
183.8018772179076
 30
0.0
 41
4.0
 42
4.0
 43
4.0
 50
269.9999999999998
  0
INSERT
  5
1C2
330
1BA
100
AcDbEntity
  8
8
  6
CONTINUOUS
 62
     4
100
AcDbBlockReference
  2
_ARROWFILLED
 10
142.6202918365052
 20
413.8018772179076
 30
0.0
 41
4.0
 42
4.0
 43
4.0
 50
89.99999999999991
  0
ENDBLK
  5
1BC
330
1BA
100
AcDbEntity
  8
0
100
AcDbBlockEnd
  0
BLOCK
  5
1C5
330
1C4
100
AcDbEntity
  8
0
100
AcDbBlockBegin
  2
DIM9
 70
     0
 10
0.0
 20
0.0
 30
0.0
  3
DIM9
  1

  0
LINE
  5
1C7
330
1C4
100
AcDbEntity
  8
8
  6
CONTINUOUS
 62
     4
100
AcDbLine
 10
204.5202918365048
 20
175.8018772179075
 30
0.0
 11
123.6202918365052
 21
175.8018772179078
 31
0.0
  0
LINE
  5
1C8
330
1C4
100
AcDbEntity
  8
8
  6
CONTINUOUS
 62
     4
100
AcDbLine
 10
204.5202918365048
 20
421.8018772179075
 30
0.0
 11
123.6202918365052
 21
421.8018772179078
 31
0.0
  0
LINE
  5
1C9
330
1C4
100
AcDbEntity
  8
8
  6
CONTINUOUS
 62
     4
100
AcDbLine
 10
126.6202918365052
 20
175.8018772179078
 30
0.0
 11
126.6202918365052
 21
421.8018772179078
 31
0.0
  0
MTEXT
  5
1CA
330
1C4
100
AcDbEntity
  8
8
  6
CONTINUOUS
 62
     4
100
AcDbMText
 10
126.6202918365052
 20
298.8018772179075
 30
0.0
 40
6.0
 41
77.14285714285714
 71
     8
 72
     1
  1
246
  7
ＭＳ_ゴシック
 11
1.615544574432587E-15
 21
1.0
 31
0.0
1001
ACAD
1000
ACAD_MTEXT_DEFINED_HEIGHT_BEGIN
1070
    46
1040
6.0
1000
ACAD_MTEXT_DEFINED_HEIGHT_END
  0
INSERT
  5
1CB
330
1C4
100
AcDbEntity
  8
8
  6
CONTINUOUS
 62
     4
100
AcDbBlockReference
  2
_ARROWFILLED
 10
126.6202918365052
 20
175.8018772179078
 30
0.0
 41
4.0
 42
4.0
 43
4.0
 50
269.9999999999998
  0
INSERT
  5
1CC
330
1C4
100
AcDbEntity
  8
8
  6
CONTINUOUS
 62
     4
100
AcDbBlockReference
  2
_ARROWFILLED
 10
126.6202918365052
 20
421.8018772179078
 30
0.0
 41
4.0
 42
4.0
 43
4.0
 50
89.99999999999991
  0
ENDBLK
  5
1C6
330
1C4
100
AcDbEntity
  8
0
100
AcDbBlockEnd
  0
BLOCK
  5
1CF
330
1CE
100
AcDbEntity
  8
0
100
AcDbBlockBegin
  2
DIM10
 70
     0
 10
0.0
 20
0.0
 30
0.0
  3
DIM10
  1

  0
LINE
  5
1D1
330
1CE
100
AcDbEntity
  8
8
  6
CONTINUOUS
 62
     4
100
AcDbLine
 10
192.6202918365034
 20
428.8018772179075
 30
0.0
 11
107.6202918365052
 21
428.8018772179078
 31
0.0
  0
LINE
  5
1D2
330
1CE
100
AcDbEntity
  8
8
  6
CONTINUOUS
 62
     4
100
AcDbLine
 10
192.6202918365034
 20
168.8018772179075
 30
0.0
 11
107.6202918365052
 21
168.8018772179078
 31
0.0
  0
LINE
  5
1D3
330
1CE
100
AcDbEntity
  8
8
  6
CONTINUOUS
 62
     4
100
AcDbLine
 10
110.6202918365052
 20
428.8018772179078
 30
0.0
 11
110.6202918365052
 21
168.8018772179078
 31
0.0
  0
MTEXT
  5
1D4
330
1CE
100
AcDbEntity
  8
8
  6
CONTINUOUS
 62
     4
100
AcDbMText
 10
110.6202918365052
 20
298.8018772179075
 30
0.0
 40
6.0
 41
77.14285714285714
 71
     8
 72
     1
  1
260
  7
ＭＳ_ゴシック
 11
1.615544574432587E-15
 21
1.0
 31
0.0
1001
ACAD
1000
ACAD_MTEXT_DEFINED_HEIGHT_BEGIN
1070
    46
1040
6.0
1000
ACAD_MTEXT_DEFINED_HEIGHT_END
  0
INSERT
  5
1D5
330
1CE
100
AcDbEntity
  8
8
  6
CONTINUOUS
 62
     4
100
AcDbBlockReference
  2
_ARROWFILLED
 10
110.6202918365052
 20
428.8018772179078
 30
0.0
 41
4.0
 42
4.0
 43
4.0
 50
89.99999999999991
  0
INSERT
  5
1D6
330
1CE
100
AcDbEntity
  8
8
  6
CONTINUOUS
 62
     4
100
AcDbBlockReference
  2
_ARROWFILLED
 10
110.6202918365052
 20
168.8018772179078
 30
0.0
 41
4.0
 42
4.0
 43
4.0
 50
269.9999999999998
  0
ENDBLK
  5
1D0
330
1CE
100
AcDbEntity
  8
0
100
AcDbBlockEnd
  0
BLOCK
  5
1D9
330
1D8
100
AcDbEntity
  8
0
100
AcDbBlockBegin
  2
DIM11
 70
     0
 10
0.0
 20
0.0
 30
0.0
  3
DIM11
  1

  0
LINE
  5
1DB
330
1D8
100
AcDbEntity
  8
8
  6
CONTINUOUS
 62
     4
100
AcDbLine
 10
214.6202918365052
 20
165.7018772179072
 30
0.0
 11
214.6202918365052
 21
141.8018772179075
 31
0.0
  0
LINE
  5
1DC
330
1D8
100
AcDbEntity
  8
8
  6
CONTINUOUS
 62
     4
100
AcDbLine
 10
302.1202918365052
 20
165.7018772179072
 30
0.0
 11
302.1202918365051
 21
141.8018772179075
 31
0.0
  0
LINE
  5
1DD
330
1D8
100
AcDbEntity
  8
8
  6
CONTINUOUS
 62
     4
100
AcDbLine
 10
214.6202918365052
 20
144.8018772179075
 30
0.0
 11
302.1202918365051
 21
144.8018772179075
 31
0.0
  0
MTEXT
  5
1DE
330
1D8
100
AcDbEntity
  8
8
  6
CONTINUOUS
 62
     4
100
AcDbMText
 10
258.3702918365052
 20
144.8018772179075
 30
0.0
 40
6.0
 41
91.42857142857142
 71
     8
 72
     1
  1
87.5
  7
ＭＳ_ゴシック
1001
ACAD
1000
ACAD_MTEXT_DEFINED_HEIGHT_BEGIN
1070
    46
1040
6.0
1000
ACAD_MTEXT_DEFINED_HEIGHT_END
  0
INSERT
  5
1DF
330
1D8
100
AcDbEntity
  8
8
  6
CONTINUOUS
 62
     4
100
AcDbBlockReference
  2
_ARROWFILLED
 10
214.6202918365052
 20
144.8018772179075
 30
0.0
 41
4.0
 42
4.0
 43
4.0
 50
179.9999999999998
  0
INSERT
  5
1E0
330
1D8
100
AcDbEntity
  8
8
  6
CONTINUOUS
 62
     4
100
AcDbBlockReference
  2
_ARROWFILLED
 10
302.1202918365051
 20
144.8018772179075
 30
0.0
 41
4.0
 42
4.0
 43
4.0
 50
359.9999999999997
  0
ENDBLK
  5
1DA
330
1D8
100
AcDbEntity
  8
0
100
AcDbBlockEnd
  0
BLOCK
  5
1E3
330
1E2
100
AcDbEntity
  8
0
100
AcDbBlockBegin
  2
DIM12
 70
     0
 10
0.0
 20
0.0
 30
0.0
  3
DIM12
  1

  0
LINE
  5
1E5
330
1E2
100
AcDbEntity
  8
8
  6
CONTINUOUS
 62
     4
100
AcDbLine
 10
302.1202918365052
 20
165.7018772179072
 30
0.0
 11
302.1202918365051
 21
141.8018772179075
 31
0.0
  0
LINE
  5
1E6
330
1E2
100
AcDbEntity
  8
8
  6
CONTINUOUS
 62
     4
100
AcDbLine
 10
477.1202918365043
 20
165.7018772179072
 30
0.0
 11
477.1202918365042
 21
141.8018772179075
 31
0.0
  0
LINE
  5
1E7
330
1E2
100
AcDbEntity
  8
8
  6
CONTINUOUS
 62
     4
100
AcDbLine
 10
302.1202918365051
 20
144.8018772179075
 30
0.0
 11
477.1202918365042
 21
144.8018772179075
 31
0.0
  0
MTEXT
  5
1E8
330
1E2
100
AcDbEntity
  8
8
  6
CONTINUOUS
 62
     4
100
AcDbMText
 10
389.6202918365043
 20
144.8018772179075
 30
0.0
 40
6.0
 41
72.85714285714286
 71
     8
 72
     1
  1
175
  7
ＭＳ_ゴシック
1001
ACAD
1000
ACAD_MTEXT_DEFINED_HEIGHT_BEGIN
1070
    46
1040
6.0
1000
ACAD_MTEXT_DEFINED_HEIGHT_END
  0
INSERT
  5
1E9
330
1E2
100
AcDbEntity
  8
8
  6
CONTINUOUS
 62
     4
100
AcDbBlockReference
  2
_ARROWFILLED
 10
302.1202918365051
 20
144.8018772179075
 30
0.0
 41
4.0
 42
4.0
 43
4.0
 50
179.9999999999998
  0
INSERT
  5
1EA
330
1E2
100
AcDbEntity
  8
8
  6
CONTINUOUS
 62
     4
100
AcDbBlockReference
  2
_ARROWFILLED
 10
477.1202918365042
 20
144.8018772179075
 30
0.0
 41
4.0
 42
4.0
 43
4.0
 50
359.9999999999997
  0
ENDBLK
  5
1E4
330
1E2
100
AcDbEntity
  8
0
100
AcDbBlockEnd
  0
BLOCK
  5
1ED
330
1EC
100
AcDbEntity
  8
0
100
AcDbBlockBegin
  2
DIM13
 70
     0
 10
0.0
 20
0.0
 30
0.0
  3
DIM13
  1

  0
LINE
  5
1EF
330
1EC
100
AcDbEntity
  8
8
  6
CONTINUOUS
 62
     4
100
AcDbLine
 10
604.6202918365043
 20
181.8018772179075
 30
0.0
 11
604.6202918365042
 21
109.8018772179075
 31
0.0
  0
LINE
  5
1F0
330
1EC
100
AcDbEntity
  8
8
  6
CONTINUOUS
 62
     4
100
AcDbLine
 10
639.6202918365061
 20
273.8018772179075
 30
0.0
 11
639.6202918365059
 21
109.8018772179075
 31
0.0
  0
LINE
  5
1F1
330
1EC
100
AcDbEntity
  8
8
  6
CONTINUOUS
 62
     4
100
AcDbLine
 10
604.6202918365042
 20
112.8018772179075
 30
0.0
 11
639.6202918365059
 21
112.8018772179075
 31
0.0
  0
MTEXT
  5
1F2
330
1EC
100
AcDbEntity
  8
8
  6
CONTINUOUS
 62
     4
100
AcDbMText
 10
622.1202918365052
 20
112.8018772179075
 30
0.0
 40
6.0
 41
48.57142857142856
 71
     8
 72
     1
  1
35
  7
ＭＳ_ゴシック
1001
ACAD
1000
ACAD_MTEXT_DEFINED_HEIGHT_BEGIN
1070
    46
1040
6.0
1000
ACAD_MTEXT_DEFINED_HEIGHT_END
  0
INSERT
  5
1F3
330
1EC
100
AcDbEntity
  8
8
  6
CONTINUOUS
 62
     4
100
AcDbBlockReference
  2
_ARROWFILLED
 10
604.6202918365042
 20
112.8018772179075
 30
0.0
 41
4.0
 42
4.0
 43
4.0
 50
179.9999999999998
  0
INSERT
  5
1F4
330
1EC
100
AcDbEntity
  8
8
  6
CONTINUOUS
 62
     4
100
AcDbBlockReference
  2
_ARROWFILLED
 10
639.6202918365059
 20
112.8018772179075
 30
0.0
 41
4.0
 42
4.0
 43
4.0
 50
359.9999999999997
  0
ENDBLK
  5
1EE
330
1EC
100
AcDbEntity
  8
0
100
AcDbBlockEnd
  0
BLOCK
  5
1F7
330
1F6
100
AcDbEntity
  8
0
100
AcDbBlockBegin
  2
DIM14
 70
     0
 10
0.0
 20
0.0
 30
0.0
  3
DIM14
  1

  0
LINE
  5
1F9
330
1F6
100
AcDbEntity
  8
8
  6
CONTINUOUS
 62
     4
100
AcDbLine
 10
361.4515375546882
 20
269.7025424796241
 30
0.0
 11
536.9930588995835
 21
451.0432378820009
 31
0.0
  0
MTEXT
  5
1FA
330
1F6
100
AcDbEntity
  8
8
  6
CONTINUOUS
 62
     4
100
AcDbMText
 10
530.7333357258533
 20
444.5767190512648
 30
0.0
 40
6.0
 41
75.71428571428571
 71
     7
 72
     1
  1
\U+220565
  7
ＭＳ_ゴシック
 11
0.6955247970818383
 21
0.7185020923033333
 31
0.0
1001
ACAD
1000
ACAD_MTEXT_DEFINED_HEIGHT_BEGIN
1070
    46
1040
6.0
1000
ACAD_MTEXT_DEFINED_HEIGHT_END
  0
INSERT
  5
1FB
330
1F6
100
AcDbEntity
  8
8
  6
CONTINUOUS
 62
     4
100
AcDbBlockReference
  2
_ARROWFILLED
 10
367.0157359313429
 20
275.4505592180508
 30
0.0
 41
4.0
 42
4.0
 43
4.0
 50
45.93094848189884
  0
INSERT
  5
1FC
330
1F6
100
AcDbEntity
  8
8
  6
CONTINUOUS
 62
     4
100
AcDbBlockReference
  2
_ARROWFILLED
 10
412.2248477416628
 20
322.1531952177679
 30
0.0
 41
4.0
 42
4.0
 43
4.0
 50
225.9309484818988
  0
ENDBLK
  5
1F8
330
1F6
100
AcDbEntity
  8
0
100
AcDbBlockEnd
  0
BLOCK
  5
1FF
330
1FE
100
AcDbEntity
  8
0
100
AcDbBlockBegin
  2
DIM15
 70
     0
 10
0.0
 20
0.0
 30
0.0
  3
DIM15
  1

  0
LINE
  5
201
330
1FE
100
AcDbEntity
  8
8
  6
CONTINUOUS
 62
     4
100
AcDbLine
 10
373.125309444432
 20
267.3667765200378
 30
0.0
 11
471.7395456155718
 21
455.2995896992128
 31
0.0
  0
MTEXT
  5
202
330
1FE
100
AcDbEntity
  8
8
  6
CONTINUOUS
 62
     4
100
AcDbMText
 10
467.5577190936382
 20
447.330127550457
 30
0.0
 40
6.0
 41
75.71428571428571
 71
     7
 72
     1
  1
\U+220555
  7
ＭＳ_ゴシック
 11
0.4646473913260042
 21
0.8854957943061836
 31
0.0
1001
ACAD
1000
ACAD_MTEXT_DEFINED_HEIGHT_BEGIN
1070
    46
1040
6.0
1000
ACAD_MTEXT_DEFINED_HEIGHT_END
  0
INSERT
  5
203
330
1FE
100
AcDbEntity
  8
8
  6
CONTINUOUS
 62
     4
100
AcDbBlockReference
  2
_ARROWFILLED
 10
376.8424885750401
 20
274.4507428744873
 30
0.0
 41
4.0
 42
4.0
 43
4.0
 50
62.31259578981361
  0
INSERT
  5
204
330
1FE
100
AcDbEntity
  8
8
  6
CONTINUOUS
 62
     4
100
AcDbBlockReference
  2
_ARROWFILLED
 10
402.3980950979704
 20
323.1530115613276
 30
0.0
 41
4.0
 42
4.0
 43
4.0
 50
242.3125957898136
  0
ENDBLK
  5
200
330
1FE
100
AcDbEntity
  8
0
100
AcDbBlockEnd
  0
ENDSEC
  0
SECTION
  2
ENTITIES
  0
LINE
  5
A1
330
1F
100
AcDbEntity
  8
9
  6
CONTINUOUS
 62
     7
100
AcDbLine
 10
725.6781921041238
 20
183.4852105512418
 30
0.0
 11
718.7781921041233
 21
183.4852105512418
 31
0.0
  0
ARC
  5
A2
330
1F
100
AcDbEntity
  8
9
  6
CONTINUOUS
 62
     7
100
AcDbCircle
 10
722.228192104124
 20
186.4522280951005
 30
0.0
 40
4.550350877192955
100
AcDbArc
 50
220.6956985253369
 51
319.3043014746624
  0
LINE
  5
A3
330
1F
100
AcDbEntity
  8
9
  6
CONTINUOUS
 62
     7
100
AcDbLine
 10
725.6781921041238
 20
183.8018772179075
 30
0.0
 11
725.6781921041238
 21
183.4852105512418
 31
0.0
  0
LINE
  5
A4
330
1F
100
AcDbEntity
  8
9
  6
CONTINUOUS
 62
     7
100
AcDbLine
 10
718.7781921041233
 20
183.8018772179075
 30
0.0
 11
718.7781921041233
 21
183.4852105512418
 31
0.0
  0
LINE
  5
A5
330
1F
100
AcDbEntity
  8
9
  6
CONTINUOUS
 62
     7
100
AcDbLine
 10
687.228192104124
 20
413.8018772179075
 30
0.0
 11
687.228192104124
 21
183.8018772179075
 31
0.0
  0
LINE
  5
A6
330
1F
100
AcDbEntity
  8
9
  6
CONTINUOUS
 62
     7
100
AcDbLine
 10
732.228192104124
 20
428.8018772179075
 30
0.0
 11
732.228192104124
 21
168.8018772179075
 31
0.0
  0
LINE
  5
A7
330
1F
100
AcDbEntity
  8
9
  6
CONTINUOUS
 62
     7
100
AcDbLine
 10
731.228192104124
 20
428.8018772179075
 30
0.0
 11
731.2281921041222
 21
168.8018772179075
 31
0.0
  0
LINE
  5
A8
330
1F
100
AcDbEntity
  8
9
  6
CONTINUOUS
 62
     7
100
AcDbLine
 10
687.228192104124
 20
413.8018772179075
 30
0.0
 11
731.228192104124
 21
413.8018772179057
 31
0.0
  0
LINE
  5
A9
330
1F
100
AcDbEntity
  8
9
  6
CONTINUOUS
 62
     7
100
AcDbLine
 10
731.228192104124
 20
412.8018772179057
 30
0.0
 11
732.228192104124
 21
412.8018772179057
 31
0.0
  0
LINE
  5
AA
330
1F
100
AcDbEntity
  8
9
  6
CONTINUOUS
 62
     7
100
AcDbLine
 10
731.228192104124
 20
428.8018772179075
 30
0.0
 11
732.228192104124
 21
428.8018772179075
 31
0.0
  0
LINE
  5
AB
330
1F
100
AcDbEntity
  8
9
  6
CONTINUOUS
 62
     7
100
AcDbLine
 10
687.228192104124
 20
183.8018772179075
 30
0.0
 11
731.2281921041222
 21
183.8018772179075
 31
0.0
  0
LINE
  5
AC
330
1F
100
AcDbEntity
  8
9
  6
CONTINUOUS
 62
     7
100
AcDbLine
 10
731.2281921041222
 20
184.8018772179075
 30
0.0
 11
732.228192104124
 21
184.8018772179075
 31
0.0
  0
LINE
  5
AD
330
1F
100
AcDbEntity
  8
9
  6
CONTINUOUS
 62
     7
100
AcDbLine
 10
731.228192104124
 20
168.8018772179075
 30
0.0
 11
732.228192104124
 21
168.8018772179075
 31
0.0
  0
LINE
  5
AE
330
1F
100
AcDbEntity
  8
4
  6
DASHDOT
 62
     1
100
AcDbLine
 10
677.228192104124
 20
298.8018772179075
 30
0.0
 11
742.228192104124
 21
298.8018772179075
 31
0.0
  0
LINE
  5
AF
330
1F
100
AcDbEntity
  8
4
  6
DASHDOT
 62
     1
100
AcDbLine
 10
729.2281921041222
 20
175.8018772179075
 30
0.0
 11
734.228192104124
 21
175.8018772179075
 31
0.0
  0
LINE
  5
B0
330
1F
100
AcDbEntity
  8
4
  6
DASHDOT
 62
     1
100
AcDbLine
 10
729.2281921041222
 20
421.8018772179075
 30
0.0
 11
734.228192104124
 21
421.8018772179075
 31
0.0
  0
LINE
  5
B1
330
1F
100
AcDbEntity
  8
9
  6
CONTINUOUS
 62
     7
100
AcDbLine
 10
698.7281921041231
 20
321.8018772179075
 30
0.0
 11
731.2281921041231
 21
321.8018772179075
 31
0.0
  0
LINE
  5
B2
330
1F
100
AcDbEntity
  8
9
  6
CONTINUOUS
 62
     7
100
AcDbLine
 10
698.7281921041231
 20
321.8018772179075
 30
0.0
 11
698.7281921041231
 21
275.8018772179075
 31
0.0
  0
LINE
  5
B3
330
1F
100
AcDbEntity
  8
9
  6
CONTINUOUS
 62
     7
100
AcDbLine
 10
698.7281921041231
 20
275.8018772179075
 30
0.0
 11
731.2281921041231
 21
275.8018772179075
 31
0.0
  0
LINE
  5
B4
330
1F
100
AcDbEntity
  8
9
  6
CONTINUOUS
 62
     7
100
AcDbLine
 10
725.5781921041244
 20
271.5358705784365
 30
0.0
 11
725.5781921041244
 21
264.3018772179057
 31
0.0
  0
LINE
  5
B5
330
1F
100
AcDbEntity
  8
11
  6
CONTINUOUS
 62
     2
100
AcDbLine
 10
725.0397305656625
 20
269.0018772179046
 30
0.0
 11
725.5781921041234
 21
269.9345199604431
 31
0.0
  0
LINE
  5
B6
330
1F
100
AcDbEntity
  8
9
  6
CONTINUOUS
 62
     7
100
AcDbLine
 10
724.7781921041242
 20
263.5018772179046
 30
0.0
 11
725.5781921041244
 21
264.3018772179057
 31
0.0
  0
LINE
  5
B7
330
1F
100
AcDbEntity
  8
11
  6
CONTINUOUS
 62
     2
100
AcDbLine
 10
725.0397305656625
 20
269.0018772179046
 30
0.0
 11
725.0397305656625
 21
263.7634156794429
 31
0.0
  0
LINE
  5
B8
330
1F
100
AcDbEntity
  8
9
  6
CONTINUOUS
 62
     7
100
AcDbLine
 10
729.2281921041249
 20
273.5018772179046
 30
0.0
 11
729.2281921041249
 21
275.8018772179057
 31
0.0
  0
LINE
  5
B9
330
1F
100
AcDbEntity
  8
9
  6
CONTINUOUS
 62
     7
100
AcDbLine
 10
700.2281921041249
 20
273.5018772179046
 30
0.0
 11
700.2281921041249
 21
275.8018772179057
 31
0.0
  0
LINE
  5
BA
330
1F
100
AcDbEntity
  8
11
  6
CONTINUOUS
 62
     2
100
AcDbLine
 10
704.4166536425855
 20
269.0018772179046
 30
0.0
 11
703.8781921041245
 21
269.9345199604431
 31
0.0
  0
LINE
  5
BB
330
1F
100
AcDbEntity
  8
9
  6
CONTINUOUS
 62
     7
100
AcDbLine
 10
729.2281921041249
 20
273.5018772179046
 30
0.0
 11
700.2281921041249
 21
273.5018772179046
 31
0.0
  0
LINE
  5
BC
330
1F
100
AcDbEntity
  8
9
  6
CONTINUOUS
 62
     7
100
AcDbLine
 10
703.8781921041245
 20
269.0018772179046
 30
0.0
 11
725.5781921041244
 21
269.0018772179046
 31
0.0
  0
LINE
  5
BD
330
1F
100
AcDbEntity
  8
9
  6
CONTINUOUS
 62
     7
100
AcDbLine
 10
704.6781921041229
 20
263.5018772179046
 30
0.0
 11
703.8781921041245
 21
264.3018772179057
 31
0.0
  0
LINE
  5
BE
330
1F
100
AcDbEntity
  8
9
  6
CONTINUOUS
 62
     7
100
AcDbLine
 10
703.8781921041245
 20
264.3018772179057
 30
0.0
 11
725.5781921041244
 21
264.3018772179057
 31
0.0
  0
LINE
  5
BF
330
1F
100
AcDbEntity
  8
9
  6
CONTINUOUS
 62
     7
100
AcDbLine
 10
703.8781921041245
 20
271.5285920491169
 30
0.0
 11
703.8781921041245
 21
264.3018772179057
 31
0.0
  0
LINE
  5
C0
330
1F
100
AcDbEntity
  8
11
  6
CONTINUOUS
 62
     2
100
AcDbLine
 10
704.4166536425855
 20
269.0018772179046
 30
0.0
 11
704.4166536425855
 21
263.7634156794429
 31
0.0
  0
LINE
  5
C1
330
1F
100
AcDbEntity
  8
9
  6
CONTINUOUS
 62
     7
100
AcDbLine
 10
704.6781921041229
 20
263.5018772179046
 30
0.0
 11
724.7781921041242
 21
263.5018772179046
 31
0.0
  0
LINE
  5
C2
330
1F
100
AcDbEntity
  8
9
  6
CONTINUOUS
 62
     7
100
AcDbLine
 10
729.0172142364745
 20
273.5018772179046
 30
0.0
 11
723.5172142364745
 21
273.5018772179046
 31
0.0
  0
ARC
  5
C3
330
1F
100
AcDbEntity
  8
9
  6
CONTINUOUS
 62
     7
100
AcDbCircle
 10
726.2672142364745
 20
278.5018772179046
 30
0.0
 40
7.0
100
AcDbArc
 50
253.448644000064
 51
286.5513559999121
  0
LINE
  5
C4
330
1F
100
AcDbEntity
  8
9
  6
CONTINUOUS
 62
     7
100
AcDbLine
 10
729.0172142364745
 20
273.5018772179046
 30
0.0
 11
728.9750922364747
 21
272.6981522179049
 31
0.0
  0
ARC
  5
C5
330
1F
100
AcDbEntity
  8
9
  6
CONTINUOUS
 62
     7
100
AcDbCircle
 10
727.9764622364746
 20
272.7504882179055
 30
0.0
 40
1.0
100
AcDbArc
 50
286.5513559999366
 51
356.9999999999939
  0
LINE
  5
C6
330
1F
100
AcDbEntity
  8
9
  6
CONTINUOUS
 62
     7
100
AcDbLine
 10
723.5172142364745
 20
273.5018772179046
 30
0.0
 11
723.5593362364734
 21
272.6981522179049
 31
0.0
  0
ARC
  5
C7
330
1F
100
AcDbEntity
  8
9
  6
CONTINUOUS
 62
     7
100
AcDbCircle
 10
724.5579662364744
 20
272.7504882179055
 30
0.0
 40
1.0
100
AcDbArc
 50
183.0000000000054
 51
253.4486440000627
  0
LINE
  5
C8
330
1F
100
AcDbEntity
  8
9
  6
CONTINUOUS
 62
     7
100
AcDbLine
 10
706.0172142364745
 20
273.5018772179046
 30
0.0
 11
700.5172142364754
 21
273.5018772179046
 31
0.0
  0
ARC
  5
C9
330
1F
100
AcDbEntity
  8
9
  6
CONTINUOUS
 62
     7
100
AcDbCircle
 10
703.2672142364754
 20
278.5018772179046
 30
0.0
 40
7.0
100
AcDbArc
 50
253.448644000064
 51
286.5513559999121
  0
LINE
  5
CA
330
1F
100
AcDbEntity
  8
9
  6
CONTINUOUS
 62
     7
100
AcDbLine
 10
706.0172142364745
 20
273.5018772179046
 30
0.0
 11
705.9750922364747
 21
272.6981522179049
 31
0.0
  0
ARC
  5
CB
330
1F
100
AcDbEntity
  8
9
  6
CONTINUOUS
 62
     7
100
AcDbCircle
 10
704.9764622364746
 20
272.7504882179055
 30
0.0
 40
1.0
100
AcDbArc
 50
286.5513559999366
 51
356.9999999999939
  0
LINE
  5
CC
330
1F
100
AcDbEntity
  8
9
  6
CONTINUOUS
 62
     7
100
AcDbLine
 10
700.5172142364754
 20
273.5018772179046
 30
0.0
 11
700.5593362364734
 21
272.6981522179049
 31
0.0
  0
ARC
  5
CD
330
1F
100
AcDbEntity
  8
9
  6
CONTINUOUS
 62
     7
100
AcDbCircle
 10
701.5579662364735
 20
272.7504882179055
 30
0.0
 40
1.0
100
AcDbArc
 50
183.0000000000054
 51
253.4486440000627
  0
ARC
  5
CE
330
1F
100
AcDbEntity
  8
9
  6
CONTINUOUS
 62
     7
100
AcDbCircle
 10
721.4281921041238
 20
336.0018772179064
 30
0.0
 40
0.5
100
AcDbArc
 50
0.0
 51
89.99999999999991
  0
ARC
  5
CF
330
1F
100
AcDbEntity
  8
9
  6
CONTINUOUS
 62
     7
100
AcDbCircle
 10
723.0281921041242
 20
336.0018772179064
 30
0.0
 40
0.5
100
AcDbArc
 50
89.99999999999991
 51
179.9999999999998
  0
CIRCLE
  5
D0
330
1F
100
AcDbEntity
  8
9
  6
CONTINUOUS
 62
     7
100
AcDbCircle
 10
722.228192104124
 20
336.8018772179057
 30
0.0
 40
3.450000000000045
  0
LINE
  5
D1
330
1F
100
AcDbEntity
  8
9
  6
CONTINUOUS
 62
     7
100
AcDbLine
 10
721.9281921041238
 20
336.0018772179064
 30
0.0
 11
721.9281921041238
 21
335.351877217905
 31
0.0
  0
LINE
  5
D2
330
1F
100
AcDbEntity
  8
9
  6
CONTINUOUS
 62
     7
100
AcDbLine
 10
722.5281921041242
 20
336.0018772179064
 30
0.0
 11
722.5281921041242
 21
335.351877217905
 31
0.0
  0
LINE
  5
D3
330
1F
100
AcDbEntity
  8
9
  6
CONTINUOUS
 62
     7
100
AcDbLine
 10
721.9281921041238
 20
335.351877217905
 30
0.0
 11
722.5281921041242
 21
335.351877217905
 31
0.0
  0
LINE
  5
D4
330
1F
100
AcDbEntity
  8
9
  6
CONTINUOUS
 62
     7
100
AcDbLine
 10
721.4281921041238
 20
337.101877217905
 30
0.0
 11
720.7781921041242
 21
337.101877217905
 31
0.0
  0
LINE
  5
D5
330
1F
100
AcDbEntity
  8
9
  6
CONTINUOUS
 62
     7
100
AcDbLine
 10
721.4281921041238
 20
336.5018772179064
 30
0.0
 11
720.7781921041242
 21
336.5018772179064
 31
0.0
  0
ARC
  5
D6
330
1F
100
AcDbEntity
  8
9
  6
CONTINUOUS
 62
     7
100
AcDbCircle
 10
723.0281921041242
 20
337.601877217905
 30
0.0
 40
0.5
100
AcDbArc
 50
179.9999999999998
 51
269.9999999999998
  0
ARC
  5
D7
330
1F
100
AcDbEntity
  8
9
  6
CONTINUOUS
 62
     7
100
AcDbCircle
 10
721.4281921041238
 20
337.601877217905
 30
0.0
 40
0.5
100
AcDbArc
 50
269.9999999999998
 51
0.0
  0
LINE
  5
D8
330
1F
100
AcDbEntity
  8
9
  6
CONTINUOUS
 62
     7
100
AcDbLine
 10
722.5281921041242
 20
337.601877217905
 30
0.0
 11
722.5281921041242
 21
338.2518772179064
 31
0.0
  0
LINE
  5
D9
330
1F
100
AcDbEntity
  8
9
  6
CONTINUOUS
 62
     7
100
AcDbLine
 10
721.9281921041238
 20
337.601877217905
 30
0.0
 11
721.9281921041238
 21
338.2518772179064
 31
0.0
  0
LINE
  5
DA
330
1F
100
AcDbEntity
  8
9
  6
CONTINUOUS
 62
     7
100
AcDbLine
 10
723.0281921041242
 20
337.101877217905
 30
0.0
 11
723.6781921041238
 21
337.101877217905
 31
0.0
  0
LINE
  5
DB
330
1F
100
AcDbEntity
  8
9
  6
CONTINUOUS
 62
     7
100
AcDbLine
 10
723.0281921041242
 20
336.5018772179064
 30
0.0
 11
723.6781921041238
 21
336.5018772179064
 31
0.0
  0
LINE
  5
DC
330
1F
100
AcDbEntity
  8
9
  6
CONTINUOUS
 62
     7
100
AcDbLine
 10
723.6781921041238
 20
336.5018772179064
 30
0.0
 11
723.6781921041238
 21
337.101877217905
 31
0.0
  0
LINE
  5
DD
330
1F
100
AcDbEntity
  8
9
  6
CONTINUOUS
 62
     7
100
AcDbLine
 10
722.5281921041242
 20
338.2518772179064
 30
0.0
 11
721.9281921041238
 21
338.2518772179064
 31
0.0
  0
LINE
  5
DE
330
1F
100
AcDbEntity
  8
9
  6
CONTINUOUS
 62
     7
100
AcDbLine
 10
720.7781921041242
 20
337.101877217905
 30
0.0
 11
720.7781921041242
 21
336.5018772179064
 31
0.0
  0
ARC
  5
DF
330
1F
100
AcDbEntity
  8
9
  6
CONTINUOUS
 62
     7
100
AcDbCircle
 10
721.4281921041238
 20
260.0018772179064
 30
0.0
 40
0.5
100
AcDbArc
 50
0.0
 51
89.99999999999991
  0
ARC
  5
E0
330
1F
100
AcDbEntity
  8
9
  6
CONTINUOUS
 62
     7
100
AcDbCircle
 10
723.0281921041242
 20
260.0018772179064
 30
0.0
 40
0.5
100
AcDbArc
 50
89.99999999999991
 51
179.9999999999998
  0
ARC
  5
E1
330
1F
100
AcDbEntity
  8
9
  6
CONTINUOUS
 62
     7
100
AcDbCircle
 10
722.228192104124
 20
260.8018772179057
 30
0.0
 40
3.450000000000045
100
AcDbArc
 50
128.4999504092793
 51
51.50004959072073
  0
LINE
  5
E2
330
1F
100
AcDbEntity
  8
9
  6
CONTINUOUS
 62
     7
100
AcDbLine
 10
721.9281921041238
 20
260.0018772179064
 30
0.0
 11
721.9281921041238
 21
259.351877217905
 31
0.0
  0
LINE
  5
E3
330
1F
100
AcDbEntity
  8
9
  6
CONTINUOUS
 62
     7
100
AcDbLine
 10
722.5281921041242
 20
260.0018772179064
 30
0.0
 11
722.5281921041242
 21
259.351877217905
 31
0.0
  0
LINE
  5
E4
330
1F
100
AcDbEntity
  8
9
  6
CONTINUOUS
 62
     7
100
AcDbLine
 10
721.9281921041238
 20
259.351877217905
 30
0.0
 11
722.5281921041242
 21
259.351877217905
 31
0.0
  0
LINE
  5
E5
330
1F
100
AcDbEntity
  8
9
  6
CONTINUOUS
 62
     7
100
AcDbLine
 10
721.4281921041238
 20
261.101877217905
 30
0.0
 11
720.7781921041242
 21
261.101877217905
 31
0.0
  0
LINE
  5
E6
330
1F
100
AcDbEntity
  8
9
  6
CONTINUOUS
 62
     7
100
AcDbLine
 10
721.4281921041238
 20
260.5018772179064
 30
0.0
 11
720.7781921041242
 21
260.5018772179064
 31
0.0
  0
ARC
  5
E7
330
1F
100
AcDbEntity
  8
9
  6
CONTINUOUS
 62
     7
100
AcDbCircle
 10
723.0281921041242
 20
261.601877217905
 30
0.0
 40
0.5
100
AcDbArc
 50
179.9999999999998
 51
269.9999999999998
  0
ARC
  5
E8
330
1F
100
AcDbEntity
  8
9
  6
CONTINUOUS
 62
     7
100
AcDbCircle
 10
721.4281921041238
 20
261.601877217905
 30
0.0
 40
0.5
100
AcDbArc
 50
269.9999999999998
 51
0.0
  0
LINE
  5
E9
330
1F
100
AcDbEntity
  8
9
  6
CONTINUOUS
 62
     7
100
AcDbLine
 10
722.5281921041242
 20
261.601877217905
 30
0.0
 11
722.5281921041242
 21
262.2518772179064
 31
0.0
  0
LINE
  5
EA
330
1F
100
AcDbEntity
  8
9
  6
CONTINUOUS
 62
     7
100
AcDbLine
 10
721.9281921041238
 20
261.601877217905
 30
0.0
 11
721.9281921041238
 21
262.2518772179064
 31
0.0
  0
LINE
  5
EB
330
1F
100
AcDbEntity
  8
9
  6
CONTINUOUS
 62
     7
100
AcDbLine
 10
723.0281921041242
 20
261.101877217905
 30
0.0
 11
723.6781921041238
 21
261.101877217905
 31
0.0
  0
LINE
  5
EC
330
1F
100
AcDbEntity
  8
9
  6
CONTINUOUS
 62
     7
100
AcDbLine
 10
723.0281921041242
 20
260.5018772179064
 30
0.0
 11
723.6781921041238
 21
260.5018772179064
 31
0.0
  0
LINE
  5
ED
330
1F
100
AcDbEntity
  8
9
  6
CONTINUOUS
 62
     7
100
AcDbLine
 10
723.6781921041238
 20
260.5018772179064
 30
0.0
 11
723.6781921041238
 21
261.101877217905
 31
0.0
  0
LINE
  5
EE
330
1F
100
AcDbEntity
  8
9
  6
CONTINUOUS
 62
     7
100
AcDbLine
 10
722.5281921041242
 20
262.2518772179064
 30
0.0
 11
721.9281921041238
 21
262.2518772179064
 31
0.0
  0
LINE
  5
EF
330
1F
100
AcDbEntity
  8
9
  6
CONTINUOUS
 62
     7
100
AcDbLine
 10
720.7781921041242
 20
261.101877217905
 30
0.0
 11
720.7781921041242
 21
260.5018772179064
 31
0.0
  0
LINE
  5
F0
330
1F
100
AcDbEntity
  8
9
  6
CONTINUOUS
 62
     7
100
AcDbLine
 10
725.6781921041238
 20
414.1185438845732
 30
0.0
 11
718.7781921041233
 21
414.1185438845732
 31
0.0
  0
ARC
  5
F1
330
1F
100
AcDbEntity
  8
9
  6
CONTINUOUS
 62
     7
100
AcDbCircle
 10
722.228192104124
 20
411.1515263407146
 30
0.0
 40
4.550350877192955
100
AcDbArc
 50
40.69569852533728
 51
139.3043014746627
  0
LINE
  5
F2
330
1F
100
AcDbEntity
  8
9
  6
CONTINUOUS
 62
     7
100
AcDbLine
 10
725.6781921041238
 20
413.8018772179075
 30
0.0
 11
725.6781921041238
 21
414.1185438845732
 31
0.0
  0
LINE
  5
F3
330
1F
100
AcDbEntity
  8
9
  6
CONTINUOUS
 62
     7
100
AcDbLine
 10
718.7781921041233
 20
413.8018772179075
 30
0.0
 11
718.7781921041233
 21
414.1185438845732
 31
0.0
  0
LINE
  5
F4
330
1F
100
AcDbEntity
  8
4
  6
DASHDOT
 62
     1
100
AcDbLine
 10
677.228192104124
 20
298.8018772179075
 30
0.0
 11
742.228192104124
 21
298.8018772179075
 31
0.0
  0
LINE
  5
F5
330
1F
100
AcDbEntity
  8
9
  6
CONTINUOUS
 62
     7
100
AcDbLine
 10
589.6202918365043
 20
198.8018772179075
 30
0.0
 11
589.6202918365043
 21
398.8018772179075
 31
0.0
  0
LINE
  5
F6
330
1F
100
AcDbEntity
  8
9
  6
CONTINUOUS
 62
     7
100
AcDbLine
 10
589.6202918365043
 20
398.8018772179075
 30
0.0
 11
189.6202918365043
 21
398.8018772179075
 31
0.0
  0
LINE
  5
F7
330
1F
100
AcDbEntity
  8
9
  6
CONTINUOUS
 62
     7
100
AcDbLine
 10
189.6202918365052
 20
398.8018772179075
 30
0.0
 11
189.6202918365052
 21
198.8018772179075
 31
0.0
  0
LINE
  5
F8
330
1F
100
AcDbEntity
  8
4
  6
DASHDOT
 62
     1
100
AcDbLine
 10
389.6202918365052
 20
438.8018772179075
 30
0.0
 11
389.6202918365052
 21
158.8018772179075
 31
0.0
  0
LINE
  5
F9
330
1F
100
AcDbEntity
  8
9
  6
CONTINUOUS
 62
     7
100
AcDbLine
 10
189.6202918365043
 20
198.8018772179075
 30
0.0
 11
589.6202918365043
 21
198.8018772179075
 31
0.0
  0
LINE
  5
FA
330
1F
100
AcDbEntity
  8
9
  6
CONTINUOUS
 62
     7
100
AcDbLine
 10
604.6202918365043
 20
413.8018772179075
 30
0.0
 11
604.6202918365043
 21
183.8018772179075
 31
0.0
  0
LINE
  5
FB
330
1F
100
AcDbEntity
  8
9
  6
CONTINUOUS
 62
     7
100
AcDbLine
 10
604.6202918365043
 20
183.8018772179075
 30
0.0
 11
174.6202918365052
 21
183.8018772179057
 31
0.0
  0
LINE
  5
FC
330
1F
100
AcDbEntity
  8
9
  6
CONTINUOUS
 62
     7
100
AcDbLine
 10
604.6202918365043
 20
413.8018772179075
 30
0.0
 11
174.6202918365052
 21
413.8018772179075
 31
0.0
  0
LINE
  5
FD
330
1F
100
AcDbEntity
  8
9
  6
CONTINUOUS
 62
     7
100
AcDbLine
 10
174.6202918365052
 20
413.8018772179075
 30
0.0
 11
174.6202918365052
 21
183.8018772179075
 31
0.0
  0
LINE
  5
FE
330
1F
100
AcDbEntity
  8
9
  6
CONTINUOUS
 62
     7
100
AcDbLine
 10
589.6202918365043
 20
173.8018772179075
 30
0.0
 11
589.6202918365043
 21
183.8018772179075
 31
0.0
  0
ARC
  5
FF
330
1F
100
AcDbEntity
  8
9
  6
CONTINUOUS
 62
     7
100
AcDbCircle
 10
584.6202918365052
 20
173.8018772179075
 30
0.0
 40
5.0
100
AcDbArc
 50
269.9999999999998
 51
0.0
  0
LINE
  5
100
330
1F
100
AcDbEntity
  8
9
  6
CONTINUOUS
 62
     7
100
AcDbLine
 10
194.6202918365034
 20
168.8018772179075
 30
0.0
 11
584.6202918365052
 21
168.8018772179075
 31
0.0
  0
LINE
  5
101
330
1F
100
AcDbEntity
  8
9
  6
CONTINUOUS
 62
     7
100
AcDbLine
 10
189.6202918365052
 20
173.8018772179075
 30
0.0
 11
189.6202918365052
 21
183.8018772179075
 31
0.0
  0
ARC
  5
102
330
1F
100
AcDbEntity
  8
9
  6
CONTINUOUS
 62
     7
100
AcDbCircle
 10
194.6202918365034
 20
173.8018772179075
 30
0.0
 40
5.0
100
AcDbArc
 50
179.9999999999998
 51
269.9999999999998
  0
LINE
  5
103
330
1F
100
AcDbEntity
  8
9
  6
CONTINUOUS
 62
     7
100
AcDbLine
 10
589.6202918365043
 20
423.8018772179075
 30
0.0
 11
589.6202918365043
 21
413.8018772179075
 31
0.0
  0
ARC
  5
104
330
1F
100
AcDbEntity
  8
9
  6
CONTINUOUS
 62
     7
100
AcDbCircle
 10
584.6202918365052
 20
423.8018772179075
 30
0.0
 40
5.0
100
AcDbArc
 50
0.0
 51
89.99999999999991
  0
LINE
  5
105
330
1F
100
AcDbEntity
  8
9
  6
CONTINUOUS
 62
     7
100
AcDbLine
 10
194.6202918365052
 20
428.8018772179075
 30
0.0
 11
584.6202918365052
 21
428.8018772179075
 31
0.0
  0
LINE
  5
106
330
1F
100
AcDbEntity
  8
9
  6
CONTINUOUS
 62
     7
100
AcDbLine
 10
189.6202918365052
 20
423.8018772179075
 30
0.0
 11
189.6202918365052
 21
413.8018772179075
 31
0.0
  0
ARC
  5
107
330
1F
100
AcDbEntity
  8
9
  6
CONTINUOUS
 62
     7
100
AcDbCircle
 10
194.6202918365034
 20
423.8018772179075
 30
0.0
 40
5.0
100
AcDbArc
 50
89.99999999999991
 51
179.9999999999998
  0
LINE
  5
108
330
1F
100
AcDbEntity
  8
9
  6
CONTINUOUS
 62
     7
100
AcDbLine
 10
188.0702918365059
 20
183.4852105512418
 30
0.0
 11
181.1702918365063
 21
183.4852105512418
 31
0.0
  0
ARC
  5
109
330
1F
100
AcDbEntity
  8
9
  6
CONTINUOUS
 62
     7
100
AcDbCircle
 10
184.620291836507
 20
186.4522280951005
 30
0.0
 40
4.550350877192983
100
AcDbArc
 50
220.695698525394
 51
319.3043014746053
  0
LINE
  5
10A
330
1F
100
AcDbEntity
  8
9
  6
CONTINUOUS
 62
     7
100
AcDbLine
 10
188.0702918365059
 20
183.8018772179075
 30
0.0
 11
188.0702918365059
 21
183.4852105512418
 31
0.0
  0
LINE
  5
10B
330
1F
100
AcDbEntity
  8
9
  6
CONTINUOUS
 62
     7
100
AcDbLine
 10
181.1702918365063
 20
183.8018772179075
 30
0.0
 11
181.1702918365063
 21
183.4852105512418
 31
0.0
  0
LINE
  5
10C
330
1F
100
AcDbEntity
  8
9
  6
CONTINUOUS
 62
     7
100
AcDbLine
 10
209.5702918365059
 20
183.4852105512418
 30
0.0
 11
202.6702918365063
 21
183.4852105512418
 31
0.0
  0
ARC
  5
10D
330
1F
100
AcDbEntity
  8
9
  6
CONTINUOUS
 62
     7
100
AcDbCircle
 10
206.120291836507
 20
186.4522280951005
 30
0.0
 40
4.550350877192983
100
AcDbArc
 50
220.695698525394
 51
319.3043014746053
  0
LINE
  5
10E
330
1F
100
AcDbEntity
  8
9
  6
CONTINUOUS
 62
     7
100
AcDbLine
 10
209.5702918365059
 20
183.8018772179075
 30
0.0
 11
209.5702918365059
 21
183.4852105512418
 31
0.0
  0
LINE
  5
10F
330
1F
100
AcDbEntity
  8
9
  6
CONTINUOUS
 62
     7
100
AcDbLine
 10
202.6702918365063
 20
183.8018772179075
 30
0.0
 11
202.6702918365063
 21
183.4852105512418
 31
0.0
  0
LINE
  5
110
330
1F
100
AcDbEntity
  8
9
  6
CONTINUOUS
 62
     7
100
AcDbLine
 10
188.0702918365059
 20
414.118543884575
 30
0.0
 11
181.1702918365063
 21
414.118543884575
 31
0.0
  0
ARC
  5
111
330
1F
100
AcDbEntity
  8
9
  6
CONTINUOUS
 62
     7
100
AcDbCircle
 10
184.620291836507
 20
411.1515263407146
 30
0.0
 40
4.550350877192983
100
AcDbArc
 50
40.6956985253941
 51
139.3043014746059
  0
LINE
  5
112
330
1F
100
AcDbEntity
  8
9
  6
CONTINUOUS
 62
     7
100
AcDbLine
 10
188.0702918365059
 20
413.8018772179075
 30
0.0
 11
188.0702918365059
 21
414.118543884575
 31
0.0
  0
LINE
  5
113
330
1F
100
AcDbEntity
  8
9
  6
CONTINUOUS
 62
     7
100
AcDbLine
 10
181.1702918365063
 20
413.8018772179075
 30
0.0
 11
181.1702918365063
 21
414.118543884575
 31
0.0
  0
LINE
  5
114
330
1F
100
AcDbEntity
  8
9
  6
CONTINUOUS
 62
     7
100
AcDbLine
 10
209.5702918365059
 20
414.118543884575
 30
0.0
 11
202.6702918365063
 21
414.118543884575
 31
0.0
  0
ARC
  5
115
330
1F
100
AcDbEntity
  8
9
  6
CONTINUOUS
 62
     7
100
AcDbCircle
 10
206.120291836507
 20
411.1515263407146
 30
0.0
 40
4.550350877192983
100
AcDbArc
 50
40.6956985253941
 51
139.3043014746059
  0
LINE
  5
116
330
1F
100
AcDbEntity
  8
9
  6
CONTINUOUS
 62
     7
100
AcDbLine
 10
209.5702918365059
 20
413.8018772179075
 30
0.0
 11
209.5702918365059
 21
414.118543884575
 31
0.0
  0
LINE
  5
117
330
1F
100
AcDbEntity
  8
9
  6
CONTINUOUS
 62
     7
100
AcDbLine
 10
202.6702918365063
 20
413.8018772179075
 30
0.0
 11
202.6702918365063
 21
414.118543884575
 31
0.0
  0
LINE
  5
118
330
1F
100
AcDbEntity
  8
9
  6
CONTINUOUS
 62
     7
100
AcDbLine
 10
591.1702918365036
 20
414.1185438845732
 30
0.0
 11
598.0702918365032
 21
414.1185438845732
 31
0.0
  0
ARC
  5
119
330
1F
100
AcDbEntity
  8
9
  6
CONTINUOUS
 62
     7
100
AcDbCircle
 10
594.6202918365025
 20
411.1515263407146
 30
0.0
 40
4.550350877192955
100
AcDbArc
 50
40.6956985253941
 51
139.3043014746059
  0
LINE
  5
11A
330
1F
100
AcDbEntity
  8
9
  6
CONTINUOUS
 62
     7
100
AcDbLine
 10
591.1702918365036
 20
413.8018772179075
 30
0.0
 11
591.1702918365036
 21
414.1185438845732
 31
0.0
  0
LINE
  5
11B
330
1F
100
AcDbEntity
  8
9
  6
CONTINUOUS
 62
     7
100
AcDbLine
 10
598.0702918365032
 20
413.8018772179075
 30
0.0
 11
598.0702918365032
 21
414.1185438845732
 31
0.0
  0
LINE
  5
11C
330
1F
100
AcDbEntity
  8
9
  6
CONTINUOUS
 62
     7
100
AcDbLine
 10
569.6702918365045
 20
414.1185438845732
 30
0.0
 11
576.5702918365032
 21
414.1185438845732
 31
0.0
  0
ARC
  5
11D
330
1F
100
AcDbEntity
  8
9
  6
CONTINUOUS
 62
     7
100
AcDbCircle
 10
573.1202918365034
 20
411.1515263407146
 30
0.0
 40
4.550350877192955
100
AcDbArc
 50
40.6956985253941
 51
139.3043014746059
  0
LINE
  5
11E
330
1F
100
AcDbEntity
  8
9
  6
CONTINUOUS
 62
     7
100
AcDbLine
 10
569.6702918365045
 20
413.8018772179075
 30
0.0
 11
569.6702918365045
 21
414.1185438845732
 31
0.0
  0
LINE
  5
11F
330
1F
100
AcDbEntity
  8
9
  6
CONTINUOUS
 62
     7
100
AcDbLine
 10
576.5702918365032
 20
413.8018772179075
 30
0.0
 11
576.5702918365032
 21
414.1185438845732
 31
0.0
  0
LINE
  5
120
330
1F
100
AcDbEntity
  8
9
  6
CONTINUOUS
 62
     7
100
AcDbLine
 10
591.1702918365036
 20
183.4852105512418
 30
0.0
 11
598.0702918365032
 21
183.4852105512418
 31
0.0
  0
ARC
  5
121
330
1F
100
AcDbEntity
  8
9
  6
CONTINUOUS
 62
     7
100
AcDbCircle
 10
594.6202918365025
 20
186.4522280951005
 30
0.0
 40
4.550350877192955
100
AcDbArc
 50
220.695698525394
 51
319.3043014746053
  0
LINE
  5
122
330
1F
100
AcDbEntity
  8
9
  6
CONTINUOUS
 62
     7
100
AcDbLine
 10
591.1702918365036
 20
183.8018772179075
 30
0.0
 11
591.1702918365036
 21
183.4852105512418
 31
0.0
  0
LINE
  5
123
330
1F
100
AcDbEntity
  8
9
  6
CONTINUOUS
 62
     7
100
AcDbLine
 10
598.0702918365032
 20
183.8018772179075
 30
0.0
 11
598.0702918365032
 21
183.4852105512418
 31
0.0
  0
LINE
  5
124
330
1F
100
AcDbEntity
  8
9
  6
CONTINUOUS
 62
     7
100
AcDbLine
 10
569.6702918365045
 20
183.4852105512418
 30
0.0
 11
576.5702918365032
 21
183.4852105512418
 31
0.0
  0
ARC
  5
125
330
1F
100
AcDbEntity
  8
9
  6
CONTINUOUS
 62
     7
100
AcDbCircle
 10
573.1202918365034
 20
186.4522280951005
 30
0.0
 40
4.550350877192955
100
AcDbArc
 50
220.695698525394
 51
319.3043014746053
  0
LINE
  5
126
330
1F
100
AcDbEntity
  8
9
  6
CONTINUOUS
 62
     7
100
AcDbLine
 10
569.6702918365045
 20
183.8018772179075
 30
0.0
 11
569.6702918365045
 21
183.4852105512418
 31
0.0
  0
LINE
  5
127
330
1F
100
AcDbEntity
  8
9
  6
CONTINUOUS
 62
     7
100
AcDbLine
 10
576.5702918365032
 20
183.8018772179075
 30
0.0
 11
576.5702918365032
 21
183.4852105512418
 31
0.0
  0
LINE
  5
128
330
1F
100
AcDbEntity
  8
9
  6
CONTINUOUS
 62
     7
100
AcDbLine
 10
174.3036251698377
 20
302.2518772179064
 30
0.0
 11
174.3036251698377
 21
295.3518772179068
 31
0.0
  0
ARC
  5
129
330
1F
100
AcDbEntity
  8
9
  6
CONTINUOUS
 62
     7
100
AcDbCircle
 10
177.2706427136982
 20
298.8018772179075
 30
0.0
 40
4.550350877192983
100
AcDbArc
 50
130.6956985253535
 51
229.3043014746461
  0
LINE
  5
12A
330
1F
100
AcDbEntity
  8
9
  6
CONTINUOUS
 62
     7
100
AcDbLine
 10
174.6202918365052
 20
302.2518772179064
 30
0.0
 11
174.3036251698377
 21
302.2518772179064
 31
0.0
  0
LINE
  5
12B
330
1F
100
AcDbEntity
  8
9
  6
CONTINUOUS
 62
     7
100
AcDbLine
 10
174.6202918365052
 20
295.3518772179068
 30
0.0
 11
174.3036251698377
 21
295.3518772179068
 31
0.0
  0
LINE
  5
12C
330
1F
100
AcDbEntity
  8
4
  6
DASHDOT
 62
     1
100
AcDbLine
 10
614.6202918365043
 20
298.8018772179075
 30
0.0
 11
164.6202918365052
 21
298.8018772179075
 31
0.0
  0
LINE
  5
12D
330
1F
100
AcDbEntity
  8
9
  6
CONTINUOUS
 62
     7
100
AcDbLine
 10
393.0702918365068
 20
183.48521055124
 30
0.0
 11
386.1702918365063
 21
183.48521055124
 31
0.0
  0
ARC
  5
12E
330
1F
100
AcDbEntity
  8
9
  6
CONTINUOUS
 62
     7
100
AcDbCircle
 10
389.620291836507
 20
186.4522280951005
 30
0.0
 40
4.550350877192955
100
AcDbArc
 50
220.695698525394
 51
319.3043014746053
  0
LINE
  5
12F
330
1F
100
AcDbEntity
  8
9
  6
CONTINUOUS
 62
     7
100
AcDbLine
 10
393.0702918365068
 20
183.8018772179075
 30
0.0
 11
393.0702918365068
 21
183.48521055124
 31
0.0
  0
LINE
  5
130
330
1F
100
AcDbEntity
  8
9
  6
CONTINUOUS
 62
     7
100
AcDbLine
 10
386.1702918365063
 20
183.8018772179075
 30
0.0
 11
386.1702918365063
 21
183.48521055124
 31
0.0
  0
LINE
  5
131
330
1F
100
AcDbEntity
  8
4
  6
DASHDOT
 62
     1
100
AcDbLine
 10
294.0202918365048
 20
421.8018772179075
 30
0.0
 11
310.2202918365047
 21
421.8018772179075
 31
0.0
  0
LINE
  5
132
330
1F
100
AcDbEntity
  8
4
  6
DASHDOT
 62
     1
100
AcDbLine
 10
302.1202918365052
 20
413.7018772179072
 30
0.0
 11
302.1202918365052
 21
429.901877217907
 31
0.0
  0
LINE
  5
133
330
1F
100
AcDbEntity
  8
9
  6
CONTINUOUS
 62
     7
100
AcDbLine
 10
639.6202918365061
 20
275.8018772179075
 30
0.0
 11
639.6202918365061
 21
321.8018772179075
 31
0.0
  0
LINE
  5
134
330
1F
100
AcDbEntity
  8
9
  6
CONTINUOUS
 62
     7
100
AcDbLine
 10
639.6202918365061
 20
320.3018772179075
 30
0.0
 11
604.6202918365043
 21
320.3018772179075
 31
0.0
  0
LINE
  5
135
330
1F
100
AcDbEntity
  8
9
  6
CONTINUOUS
 62
     7
100
AcDbLine
 10
639.6202918365061
 20
321.8018772179075
 30
0.0
 11
604.6202918365061
 21
321.8018772179075
 31
0.0
  0
LINE
  5
136
330
1F
100
AcDbEntity
  8
9
  6
CONTINUOUS
 62
     7
100
AcDbLine
 10
639.6202918365061
 20
277.3018772179075
 30
0.0
 11
604.6202918365043
 21
277.3018772179075
 31
0.0
  0
LINE
  5
137
330
1F
100
AcDbEntity
  8
9
  6
CONTINUOUS
 62
     7
100
AcDbLine
 10
639.6202918365061
 20
275.8018772179075
 30
0.0
 11
604.6202918365061
 21
275.8018772179075
 31
0.0
  0
LINE
  5
138
330
1F
100
AcDbEntity
  8
9
  6
CONTINUOUS
 62
     7
100
AcDbLine
 10
632.4702918365056
 20
271.5358705784365
 30
0.0
 11
632.4702918365056
 21
264.3018772179057
 31
0.0
  0
LINE
  5
139
330
1F
100
AcDbEntity
  8
11
  6
CONTINUOUS
 62
     2
100
AcDbLine
 10
631.9318302980419
 20
269.0018772179046
 30
0.0
 11
632.4702918365028
 21
269.9345199604431
 31
0.0
  0
LINE
  5
13A
330
1F
100
AcDbEntity
  8
9
  6
CONTINUOUS
 62
     7
100
AcDbLine
 10
631.6702918365036
 20
263.5018772179046
 30
0.0
 11
632.4702918365056
 21
264.3018772179057
 31
0.0
  0
LINE
  5
13B
330
1F
100
AcDbEntity
  8
11
  6
CONTINUOUS
 62
     2
100
AcDbLine
 10
631.9318302980419
 20
269.0018772179046
 30
0.0
 11
631.9318302980419
 21
263.7634156794429
 31
0.0
  0
LINE
  5
13C
330
1F
100
AcDbEntity
  8
9
  6
CONTINUOUS
 62
     7
100
AcDbLine
 10
636.1202918365043
 20
273.5018772179046
 30
0.0
 11
636.1202918365043
 21
275.8018772179057
 31
0.0
  0
LINE
  5
13D
330
1F
100
AcDbEntity
  8
9
  6
CONTINUOUS
 62
     7
100
AcDbLine
 10
607.1202918365043
 20
273.5018772179046
 30
0.0
 11
607.1202918365043
 21
275.8018772179057
 31
0.0
  0
LINE
  5
13E
330
1F
100
AcDbEntity
  8
11
  6
CONTINUOUS
 62
     2
100
AcDbLine
 10
611.3087533749649
 20
269.0018772179046
 30
0.0
 11
610.7702918365039
 21
269.9345199604431
 31
0.0
  0
LINE
  5
13F
330
1F
100
AcDbEntity
  8
9
  6
CONTINUOUS
 62
     7
100
AcDbLine
 10
636.1202918365043
 20
273.5018772179046
 30
0.0
 11
607.1202918365043
 21
273.5018772179046
 31
0.0
  0
LINE
  5
140
330
1F
100
AcDbEntity
  8
9
  6
CONTINUOUS
 62
     7
100
AcDbLine
 10
610.7702918365039
 20
269.0018772179046
 30
0.0
 11
632.4702918365056
 21
269.0018772179046
 31
0.0
  0
LINE
  5
141
330
1F
100
AcDbEntity
  8
9
  6
CONTINUOUS
 62
     7
100
AcDbLine
 10
611.5702918365032
 20
263.5018772179046
 30
0.0
 11
610.7702918365039
 21
264.3018772179057
 31
0.0
  0
LINE
  5
142
330
1F
100
AcDbEntity
  8
9
  6
CONTINUOUS
 62
     7
100
AcDbLine
 10
610.7702918365039
 20
264.3018772179057
 30
0.0
 11
632.4702918365056
 21
264.3018772179057
 31
0.0
  0
LINE
  5
143
330
1F
100
AcDbEntity
  8
9
  6
CONTINUOUS
 62
     7
100
AcDbLine
 10
610.7702918365039
 20
271.5285920491169
 30
0.0
 11
610.7702918365039
 21
264.3018772179057
 31
0.0
  0
LINE
  5
144
330
1F
100
AcDbEntity
  8
11
  6
CONTINUOUS
 62
     2
100
AcDbLine
 10
611.3087533749649
 20
269.0018772179046
 30
0.0
 11
611.3087533749649
 21
263.7634156794429
 31
0.0
  0
LINE
  5
145
330
1F
100
AcDbEntity
  8
9
  6
CONTINUOUS
 62
     7
100
AcDbLine
 10
611.5702918365032
 20
263.5018772179046
 30
0.0
 11
631.6702918365036
 21
263.5018772179046
 31
0.0
  0
LINE
  5
146
330
1F
100
AcDbEntity
  8
9
  6
CONTINUOUS
 62
     7
100
AcDbLine
 10
635.9093139688557
 20
273.5018772179046
 30
0.0
 11
630.4093139688557
 21
273.5018772179046
 31
0.0
  0
ARC
  5
147
330
1F
100
AcDbEntity
  8
9
  6
CONTINUOUS
 62
     7
100
AcDbCircle
 10
633.1593139688557
 20
278.5018772179046
 30
0.0
 40
7.0
100
AcDbArc
 50
253.448644000064
 51
286.5513559999121
  0
LINE
  5
148
330
1F
100
AcDbEntity
  8
9
  6
CONTINUOUS
 62
     7
100
AcDbLine
 10
635.9093139688557
 20
273.5018772179046
 30
0.0
 11
635.8671919688541
 21
272.6981522179049
 31
0.0
  0
ARC
  5
149
330
1F
100
AcDbEntity
  8
9
  6
CONTINUOUS
 62
     7
100
AcDbCircle
 10
634.868561968854
 20
272.7504882179055
 30
0.0
 40
1.0
100
AcDbArc
 50
286.5513559999366
 51
356.9999999999939
  0
LINE
  5
14A
330
1F
100
AcDbEntity
  8
9
  6
CONTINUOUS
 62
     7
100
AcDbLine
 10
630.4093139688557
 20
273.5018772179046
 30
0.0
 11
630.4514359688546
 21
272.6981522179049
 31
0.0
  0
ARC
  5
14B
330
1F
100
AcDbEntity
  8
9
  6
CONTINUOUS
 62
     7
100
AcDbCircle
 10
631.4500659688538
 20
272.7504882179055
 30
0.0
 40
1.0
100
AcDbArc
 50
183.0000000000054
 51
253.4486440000627
  0
LINE
  5
14C
330
1F
100
AcDbEntity
  8
9
  6
CONTINUOUS
 62
     7
100
AcDbLine
 10
612.9093139688557
 20
273.5018772179046
 30
0.0
 11
607.4093139688557
 21
273.5018772179046
 31
0.0
  0
ARC
  5
14D
330
1F
100
AcDbEntity
  8
9
  6
CONTINUOUS
 62
     7
100
AcDbCircle
 10
610.1593139688557
 20
278.5018772179046
 30
0.0
 40
7.0
100
AcDbArc
 50
253.448644000064
 51
286.5513559999121
  0
LINE
  5
14E
330
1F
100
AcDbEntity
  8
9
  6
CONTINUOUS
 62
     7
100
AcDbLine
 10
612.9093139688557
 20
273.5018772179046
 30
0.0
 11
612.8671919688541
 21
272.6981522179049
 31
0.0
  0
ARC
  5
14F
330
1F
100
AcDbEntity
  8
9
  6
CONTINUOUS
 62
     7
100
AcDbCircle
 10
611.868561968854
 20
272.7504882179055
 30
0.0
 40
1.0
100
AcDbArc
 50
286.5513559999366
 51
356.9999999999939
  0
LINE
  5
150
330
1F
100
AcDbEntity
  8
9
  6
CONTINUOUS
 62
     7
100
AcDbLine
 10
607.4093139688557
 20
273.5018772179046
 30
0.0
 11
607.4514359688546
 21
272.6981522179049
 31
0.0
  0
ARC
  5
151
330
1F
100
AcDbEntity
  8
9
  6
CONTINUOUS
 62
     7
100
AcDbCircle
 10
608.4500659688538
 20
272.7504882179055
 30
0.0
 40
1.0
100
AcDbArc
 50
183.0000000000054
 51
253.4486440000627
  0
LINE
  5
152
330
1F
100
AcDbEntity
  8
9
  6
CONTINUOUS
 62
     7
100
AcDbLine
 10
604.9369585031727
 20
333.351877217905
 30
0.0
 11
604.9369585031727
 21
340.2518772179064
 31
0.0
  0
ARC
  5
153
330
1F
100
AcDbEntity
  8
9
  6
CONTINUOUS
 62
     7
100
AcDbCircle
 10
601.9699409593113
 20
336.8018772179057
 30
0.0
 40
4.550350877192955
100
AcDbArc
 50
310.6956985254262
 51
49.30430147457344
  0
LINE
  5
154
330
1F
100
AcDbEntity
  8
9
  6
CONTINUOUS
 62
     7
100
AcDbLine
 10
604.6202918365043
 20
333.351877217905
 30
0.0
 11
604.9369585031727
 21
333.351877217905
 31
0.0
  0
LINE
  5
155
330
1F
100
AcDbEntity
  8
9
  6
CONTINUOUS
 62
     7
100
AcDbLine
 10
604.6202918365043
 20
340.2518772179064
 30
0.0
 11
604.9369585031727
 21
340.2518772179064
 31
0.0
  0
LINE
  5
156
330
1F
100
AcDbEntity
  8
9
  6
CONTINUOUS
 62
     7
100
AcDbLine
 10
604.9369585031727
 20
264.2518772179046
 30
0.0
 11
604.9369585031727
 21
257.351877217905
 31
0.0
  0
ARC
  5
157
330
1F
100
AcDbEntity
  8
9
  6
CONTINUOUS
 62
     7
100
AcDbCircle
 10
601.9699409593113
 20
260.8018772179057
 30
0.0
 40
4.550350877192955
100
AcDbArc
 50
310.6956985254262
 51
49.30430147457344
  0
LINE
  5
158
330
1F
100
AcDbEntity
  8
9
  6
CONTINUOUS
 62
     7
100
AcDbLine
 10
604.6202918365043
 20
264.2518772179046
 30
0.0
 11
604.9369585031727
 21
264.2518772179046
 31
0.0
  0
LINE
  5
159
330
1F
100
AcDbEntity
  8
9
  6
CONTINUOUS
 62
     7
100
AcDbLine
 10
604.6202918365043
 20
257.351877217905
 30
0.0
 11
604.9369585031727
 21
257.351877217905
 31
0.0
  0
CIRCLE
  5
15A
330
1F
100
AcDbEntity
  8
9
  6
CONTINUOUS
 62
     7
100
AcDbCircle
 10
214.6202918365052
 20
421.8018772179075
 30
0.0
 40
3.099999999999994
  0
CIRCLE
  5
15B
330
1F
100
AcDbEntity
  8
9
  6
CONTINUOUS
 62
     7
100
AcDbCircle
 10
302.1202918365052
 20
421.8018772179075
 30
0.0
 40
3.100000000000023
  0
CIRCLE
  5
15C
330
1F
100
AcDbEntity
  8
9
  6
CONTINUOUS
 62
     7
100
AcDbCircle
 10
477.1202918365043
 20
421.8018772179075
 30
0.0
 40
3.100000000000023
  0
CIRCLE
  5
15D
330
1F
100
AcDbEntity
  8
9
  6
CONTINUOUS
 62
     7
100
AcDbCircle
 10
564.6202918365043
 20
421.8018772179075
 30
0.0
 40
3.100000000000023
  0
CIRCLE
  5
15E
330
1F
100
AcDbEntity
  8
9
  6
CONTINUOUS
 62
     7
100
AcDbCircle
 10
214.6202918365052
 20
175.8018772179075
 30
0.0
 40
3.099999999999994
  0
CIRCLE
  5
15F
330
1F
100
AcDbEntity
  8
9
  6
CONTINUOUS
 62
     7
100
AcDbCircle
 10
302.1202918365052
 20
175.8018772179075
 30
0.0
 40
3.100000000000023
  0
CIRCLE
  5
160
330
1F
100
AcDbEntity
  8
9
  6
CONTINUOUS
 62
     7
100
AcDbCircle
 10
477.1202918365043
 20
175.8018772179075
 30
0.0
 40
3.100000000000023
  0
CIRCLE
  5
161
330
1F
100
AcDbEntity
  8
9
  6
CONTINUOUS
 62
     7
100
AcDbCircle
 10
564.6202918365043
 20
175.8018772179075
 30
0.0
 40
3.100000000000023
  0
LINE
  5
162
330
1F
100
AcDbEntity
  8
4
  6
DASHDOT
 62
     1
100
AcDbLine
 10
206.5202918365048
 20
421.8018772179075
 30
0.0
 11
222.7202918365047
 21
421.8018772179075
 31
0.0
  0
LINE
  5
163
330
1F
100
AcDbEntity
  8
4
  6
DASHDOT
 62
     1
100
AcDbLine
 10
214.6202918365052
 20
413.7018772179072
 30
0.0
 11
214.6202918365052
 21
429.901877217907
 31
0.0
  0
LINE
  5
164
330
1F
100
AcDbEntity
  8
4
  6
DASHDOT
 62
     1
100
AcDbLine
 10
469.0202918365039
 20
421.8018772179075
 30
0.0
 11
485.2202918365047
 21
421.8018772179075
 31
0.0
  0
LINE
  5
165
330
1F
100
AcDbEntity
  8
4
  6
DASHDOT
 62
     1
100
AcDbLine
 10
477.1202918365043
 20
413.7018772179072
 30
0.0
 11
477.1202918365043
 21
429.901877217907
 31
0.0
  0
LINE
  5
166
330
1F
100
AcDbEntity
  8
4
  6
DASHDOT
 62
     1
100
AcDbLine
 10
556.5202918365039
 20
421.8018772179075
 30
0.0
 11
572.7202918365047
 21
421.8018772179075
 31
0.0
  0
LINE
  5
167
330
1F
100
AcDbEntity
  8
4
  6
DASHDOT
 62
     1
100
AcDbLine
 10
564.6202918365043
 20
413.7018772179072
 30
0.0
 11
564.6202918365043
 21
429.901877217907
 31
0.0
  0
LINE
  5
168
330
1F
100
AcDbEntity
  8
4
  6
DASHDOT
 62
     1
100
AcDbLine
 10
556.5202918365039
 20
175.8018772179075
 30
0.0
 11
572.7202918365047
 21
175.8018772179075
 31
0.0
  0
LINE
  5
169
330
1F
100
AcDbEntity
  8
4
  6
DASHDOT
 62
     1
100
AcDbLine
 10
564.6202918365043
 20
167.7018772179072
 30
0.0
 11
564.6202918365043
 21
183.901877217907
 31
0.0
  0
LINE
  5
16A
330
1F
100
AcDbEntity
  8
4
  6
DASHDOT
 62
     1
100
AcDbLine
 10
469.0202918365039
 20
175.8018772179075
 30
0.0
 11
485.2202918365047
 21
175.8018772179075
 31
0.0
  0
LINE
  5
16B
330
1F
100
AcDbEntity
  8
4
  6
DASHDOT
 62
     1
100
AcDbLine
 10
477.1202918365043
 20
167.7018772179072
 30
0.0
 11
477.1202918365043
 21
183.901877217907
 31
0.0
  0
LINE
  5
16C
330
1F
100
AcDbEntity
  8
4
  6
DASHDOT
 62
     1
100
AcDbLine
 10
294.0202918365048
 20
175.8018772179075
 30
0.0
 11
310.2202918365047
 21
175.8018772179075
 31
0.0
  0
LINE
  5
16D
330
1F
100
AcDbEntity
  8
4
  6
DASHDOT
 62
     1
100
AcDbLine
 10
302.1202918365052
 20
167.7018772179072
 30
0.0
 11
302.1202918365052
 21
183.901877217907
 31
0.0
  0
LINE
  5
16E
330
1F
100
AcDbEntity
  8
4
  6
DASHDOT
 62
     1
100
AcDbLine
 10
206.5202918365048
 20
175.8018772179075
 30
0.0
 11
222.7202918365047
 21
175.8018772179075
 31
0.0
  0
LINE
  5
16F
330
1F
100
AcDbEntity
  8
4
  6
DASHDOT
 62
     1
100
AcDbLine
 10
214.6202918365052
 20
167.7018772179072
 30
0.0
 11
214.6202918365052
 21
183.901877217907
 31
0.0
  0
CIRCLE
  5
170
330
1F
100
AcDbEntity
  8
9
  6
CONTINUOUS
 62
     7
100
AcDbCircle
 10
389.6202918365052
 20
298.8018772179075
 30
0.0
 40
27.5
  0
CIRCLE
  5
171
330
1F
100
AcDbEntity
  8
3
  6
HIDDEN
 62
     3
100
AcDbCircle
 10
389.6202918365052
 20
298.8018772179075
 30
0.0
 40
32.5
  0
HATCH
  5
172
330
1F
100
AcDbEntity
  8
10
  6
CONTINUOUS
 62
     2
100
AcDbHatch
 10
0.0
 20
0.0
 30
0.0
210
0.0
220
0.0
230
1.0
  2

 70
     0
 71
     0
 91
        4
 92
        0
 93
       40
 72
     1
 10
389.6202918365052
 20
398.8018772179075
 11
189.6202918365052
 21
398.8018772179075
 72
     1
 10
189.6202918365052
 20
398.8018772179075
 11
189.6202918365052
 21
298.8018772179075
 72
     1
 10
189.6202918365052
 20
298.8018772179075
 11
357.1202918365052
 21
298.8018772179075
 72
     1
 10
357.1202918365052
 20
298.8018772179076
 11
357.1512246350948
 21
300.219507307281
 72
     1
 10
357.1512246350948
 20
300.219507307281
 11
357.2439641485235
 21
301.6344388572065
 72
     1
 10
357.2439641485235
 20
301.6344388572065
 11
357.3983338418564
 21
303.0439784650592
 72
     1
 10
357.3983338418564
 20
303.0439784650592
 11
357.6140398636085
 21
304.4454429920828
 72
     1
 10
357.6140398636085
 20
304.4454429920828
 11
357.8906716051074
 21
305.8361646708959
 72
     1
 10
357.8906716051074
 20
305.8361646708959
 11
358.2277024821105
 21
307.2134961837394
 72
     1
 10
358.2277024821105
 20
307.2134961837394
 11
358.6244909371878
 21
308.5748157017964
 72
     1
 10
358.6244909371878
 20
308.5748157017964
 11
359.0802816609632
 21
309.9175318759918
 72
     1
 10
359.0802816609632
 20
309.9175318759918
 11
359.5942070298884
 21
311.2390887697729
 72
     1
 10
359.5942070298884
 20
311.2390887697729
 11
360.1652887578141
 21
312.5369707244802
 72
     1
 10
360.1652887578141
 20
312.5369707244802
 11
360.792439758213
 21
313.808707148046
 72
     1
 10
360.792439758213
 20
313.808707148046
 11
361.4744662135109
 21
315.0518772179074
 72
     1
 10
361.4744662135109
 20
315.0518772179074
 11
362.2100698475864
 21
316.2641144891792
 72
     1
 10
362.2100698475864
 20
316.2641144891792
 11
362.997850397113
 21
317.4431113993164
 72
     1
 10
362.997850397113
 20
317.4431113993164
 11
363.83630827704
 21
318.5866236606908
 72
     1
 10
363.83630827704
 20
318.5866236606908
 11
364.7238474351384
 21
319.6924745327199
 72
     1
 10
364.7238474351384
 20
319.6924745327199
 11
365.6587783901761
 21
320.7585589654163
 72
     1
 10
365.6587783901761
 20
320.7585589654163
 11
366.6393214479423
 21
321.7828476064701
 72
     1
 10
366.6393214479423
 20
321.7828476064701
 11
367.6636100889962
 21
322.7633906642363
 72
     1
 10
367.6636100889962
 20
322.7633906642363
 11
368.7296945216926
 21
323.6983216192741
 72
     1
 10
368.7296945216926
 20
323.6983216192741
 11
369.8355453937217
 21
324.5858607773724
 72
     1
 10
369.8355453937217
 20
324.5858607773724
 11
370.9790576550961
 21
325.4243186572995
 72
     1
 10
370.9790576550961
 20
325.4243186572995
 11
372.1580545652333
 21
326.2120992068261
 72
     1
 10
372.1580545652333
 20
326.2120992068261
 11
373.3702918365051
 21
326.9477028409015
 72
     1
 10
373.3702918365051
 20
326.9477028409015
 11
374.6134619063665
 21
327.6297292961995
 72
     1
 10
374.6134619063665
 20
327.6297292961995
 11
375.8851983299323
 21
328.2568802965984
 72
     1
 10
375.8851983299323
 20
328.2568802965984
 11
377.1830802846396
 21
328.8279620245241
 72
     1
 10
377.1830802846396
 20
328.8279620245241
 11
378.5046371784208
 21
329.3418873934493
 72
     1
 10
378.5046371784208
 20
329.3418873934493
 11
379.8473533526162
 21
329.7976781172246
 72
     1
 10
379.8473533526162
 20
329.7976781172246
 11
381.2086728706731
 21
330.194466572302
 72
     1
 10
381.2086728706731
 20
330.194466572302
 11
382.5860043835166
 21
330.531497449305
 72
     1
 10
382.5860043835166
 20
330.531497449305
 11
383.9767260623298
 21
330.808129190804
 72
     1
 10
383.9767260623298
 20
330.808129190804
 11
385.3781905893533
 21
331.023835212556
 72
     1
 10
385.3781905893533
 20
331.023835212556
 11
386.787730197206
 21
331.1782049058889
 72
     1
 10
386.787730197206
 20
331.1782049058889
 11
388.2026617471315
 21
331.2709444193176
 72
     1
 10
388.2026617471315
 20
331.2709444193176
 11
389.6202918365049
 21
331.3018772179072
 72
     1
 10
389.6202918365052
 20
331.3018772179075
 11
389.6202918365052
 21
398.8018772179075
 97
        0
 92
        0
 93
       40
 72
     1
 10
589.6202918365043
 20
398.8018772179075
 11
389.6202918365052
 21
398.8018772179075
 72
     1
 10
389.6202918365052
 20
398.8018772179075
 11
389.6202918365052
 21
331.3018772179075
 72
     1
 10
389.6202918365057
 20
331.3018772179075
 11
391.0379219258791
 21
331.2709444193179
 72
     1
 10
391.0379219258791
 20
331.2709444193179
 11
392.4528534758045
 21
331.1782049058892
 72
     1
 10
392.4528534758045
 20
331.1782049058892
 11
393.8623930836573
 21
331.0238352125563
 72
     1
 10
393.8623930836573
 20
331.0238352125563
 11
395.2638576106809
 21
330.8081291908042
 72
     1
 10
395.2638576106809
 20
330.8081291908042
 11
396.654579289494
 21
330.5314974493053
 72
     1
 10
396.654579289494
 20
330.5314974493053
 11
398.0319108023376
 21
330.1944665723022
 72
     1
 10
398.0319108023376
 20
330.1944665723022
 11
399.3932303203945
 21
329.7976781172248
 72
     1
 10
399.3932303203945
 20
329.7976781172248
 11
400.7359464945899
 21
329.3418873934495
 72
     1
 10
400.7359464945899
 20
329.3418873934495
 11
402.0575033883711
 21
328.8279620245243
 72
     1
 10
402.0575033883711
 20
328.8279620245243
 11
403.3553853430784
 21
328.2568802965986
 72
     1
 10
403.3553853430784
 20
328.2568802965986
 11
404.6271217666442
 21
327.6297292961997
 72
     1
 10
404.6271217666442
 20
327.6297292961997
 11
405.8702918365057
 21
326.9477028409017
 72
     1
 10
405.8702918365057
 20
326.9477028409017
 11
407.0825291077774
 21
326.2120992068262
 72
     1
 10
407.0825291077774
 20
326.2120992068262
 11
408.2615260179146
 21
325.4243186572997
 72
     1
 10
408.2615260179146
 20
325.4243186572997
 11
409.405038279289
 21
324.5858607773726
 72
     1
 10
409.405038279289
 20
324.5858607773726
 11
410.5108891513182
 21
323.6983216192742
 72
     1
 10
410.5108891513182
 20
323.6983216192742
 11
411.5769735840146
 21
322.7633906642365
 72
     1
 10
411.5769735840146
 20
322.7633906642365
 11
412.6012622250684
 21
321.7828476064702
 72
     1
 10
412.6012622250684
 20
321.7828476064702
 11
413.5818052828346
 21
320.7585589654164
 72
     1
 10
413.5818052828346
 20
320.7585589654164
 11
414.5167362378724
 21
319.69247453272
 72
     1
 10
414.5167362378724
 20
319.69247453272
 11
415.4042753959708
 21
318.5866236606909
 72
     1
 10
415.4042753959708
 20
318.5866236606909
 11
416.2427332758978
 21
317.4431113993165
 72
     1
 10
416.2427332758978
 20
317.4431113993165
 11
417.0305138254244
 21
316.2641144891792
 72
     1
 10
417.0305138254244
 20
316.2641144891792
 11
417.7661174594999
 21
315.0518772179075
 72
     1
 10
417.7661174594999
 20
315.0518772179075
 11
418.4481439147978
 21
313.808707148046
 72
     1
 10
418.4481439147978
 20
313.808707148046
 11
419.0752949151967
 21
312.5369707244802
 72
     1
 10
419.0752949151967
 20
312.5369707244802
 11
419.6463766431224
 21
311.2390887697729
 72
     1
 10
419.6463766431224
 20
311.2390887697729
 11
420.1603020120476
 21
309.9175318759917
 72
     1
 10
420.1603020120476
 20
309.9175318759917
 11
420.616092735823
 21
308.5748157017964
 72
     1
 10
420.616092735823
 20
308.5748157017964
 11
421.0128811909003
 21
307.2134961837394
 72
     1
 10
421.0128811909003
 20
307.2134961837394
 11
421.3499120679035
 21
305.8361646708958
 72
     1
 10
421.3499120679035
 20
305.8361646708958
 11
421.6265438094024
 21
304.4454429920827
 72
     1
 10
421.6265438094024
 20
304.4454429920827
 11
421.8422498311544
 21
303.0439784650591
 72
     1
 10
421.8422498311544
 20
303.0439784650591
 11
421.9966195244873
 21
301.6344388572064
 72
     1
 10
421.9966195244873
 20
301.6344388572064
 11
422.089359037916
 21
300.2195073072809
 72
     1
 10
422.089359037916
 20
300.2195073072809
 11
422.1202918365056
 21
298.8018772179075
 72
     1
 10
422.1202918365052
 20
298.8018772179075
 11
589.6202918365043
 21
298.8018772179075
 72
     1
 10
589.6202918365043
 20
298.8018772179075
 11
589.6202918365043
 21
398.8018772179075
 97
        0
 92
        0
 93
       40
 72
     1
 10
589.6202918365043
 20
298.8018772179075
 11
422.1202918365052
 21
298.8018772179075
 72
     1
 10
422.1202918365052
 20
298.8018772179065
 11
422.0893590379156
 21
297.3842471285331
 72
     1
 10
422.0893590379156
 20
297.3842471285331
 11
421.9966195244869
 21
295.9693155786077
 72
     1
 10
421.9966195244869
 20
295.9693155786077
 11
421.842249831154
 21
294.5597759707549
 72
     1
 10
421.842249831154
 20
294.5597759707549
 11
421.6265438094019
 21
293.1583114437314
 72
     1
 10
421.6265438094019
 20
293.1583114437314
 11
421.349912067903
 21
291.7675897649183
 72
     1
 10
421.349912067903
 20
291.7675897649183
 11
421.0128811908999
 21
290.3902582520748
 72
     1
 10
421.0128811908999
 20
290.3902582520748
 11
420.6160927358226
 21
289.0289387340179
 72
     1
 10
420.6160927358226
 20
289.0289387340179
 11
420.1603020120472
 21
287.6862225598226
 72
     1
 10
420.1603020120472
 20
287.6862225598226
 11
419.646376643122
 21
286.3646656660414
 72
     1
 10
419.646376643122
 20
286.3646656660414
 11
419.0752949151963
 21
285.0667837113342
 72
     1
 10
419.0752949151963
 20
285.0667837113342
 11
418.4481439147974
 21
283.7950472877683
 72
     1
 10
418.4481439147974
 20
283.7950472877683
 11
417.7661174594995
 21
282.551877217907
 72
     1
 10
417.7661174594995
 20
282.551877217907
 11
417.030513825424
 21
281.3396399466353
 72
     1
 10
417.030513825424
 20
281.3396399466353
 11
416.2427332758975
 21
280.1606430364981
 72
     1
 10
416.2427332758975
 20
280.1606430364981
 11
415.4042753959704
 21
279.0171307751237
 72
     1
 10
415.4042753959704
 20
279.0171307751237
 11
414.5167362378721
 21
277.9112799030946
 72
     1
 10
414.5167362378721
 20
277.9112799030946
 11
413.5818052828344
 21
276.8451954703983
 72
     1
 10
413.5818052828344
 20
276.8451954703983
 11
412.6012622250681
 21
275.8209068293444
 72
     1
 10
412.6012622250681
 20
275.8209068293444
 11
411.5769735840144
 21
274.8403637715783
 72
     1
 10
411.5769735840144
 20
274.8403637715783
 11
410.5108891513179
 21
273.9054328165405
 72
     1
 10
410.5108891513179
 20
273.9054328165405
 11
409.4050382792889
 21
273.0178936584422
 72
     1
 10
409.4050382792889
 20
273.0178936584422
 11
408.2615260179145
 21
272.1794357785151
 72
     1
 10
408.2615260179145
 20
272.1794357785151
 11
407.0825291077773
 21
271.3916552289886
 72
     1
 10
407.0825291077773
 20
271.3916552289886
 11
405.8702918365055
 21
270.6560515949132
 72
     1
 10
405.8702918365055
 20
270.6560515949132
 11
404.6271217666442
 21
269.9740251396153
 72
     1
 10
404.6271217666442
 20
269.9740251396153
 11
403.3553853430784
 21
269.3468741392164
 72
     1
 10
403.3553853430784
 20
269.3468741392164
 11
402.0575033883711
 21
268.7757924112907
 72
     1
 10
402.0575033883711
 20
268.7757924112907
 11
400.7359464945899
 21
268.2618670423655
 72
     1
 10
400.7359464945899
 20
268.2618670423655
 11
399.3932303203946
 21
267.8060763185902
 72
     1
 10
399.3932303203946
 20
267.8060763185902
 11
398.0319108023377
 21
267.4092878635129
 72
     1
 10
398.0319108023377
 20
267.4092878635129
 11
396.6545792894942
 21
267.0722569865097
 72
     1
 10
396.6545792894942
 20
267.0722569865097
 11
395.2638576106811
 21
266.7956252450109
 72
     1
 10
395.2638576106811
 20
266.7956252450109
 11
393.8623930836576
 21
266.5799192232588
 72
     1
 10
393.8623930836576
 20
266.5799192232588
 11
392.4528534758048
 21
266.4255495299259
 72
     1
 10
392.4528534758048
 20
266.4255495299259
 11
391.0379219258794
 21
266.3328100164973
 72
     1
 10
391.0379219258794
 20
266.3328100164973
 11
389.620291836506
 21
266.3018772179076
 72
     1
 10
389.6202918365052
 20
266.3018772179075
 11
389.6202918365052
 21
198.8018772179075
 72
     1
 10
389.6202918365052
 20
198.8018772179075
 11
589.6202918365043
 21
198.8018772179075
 72
     1
 10
589.6202918365043
 20
198.8018772179075
 11
589.6202918365043
 21
298.8018772179075
 97
        0
 92
        0
 93
       40
 72
     1
 10
357.1202918365049
 20
298.8018772179071
 11
357.1512246350945
 21
297.3842471285337
 72
     1
 10
357.1512246350945
 20
297.3842471285337
 11
357.2439641485232
 21
295.9693155786082
 72
     1
 10
357.2439641485232
 20
295.9693155786082
 11
357.3983338418561
 21
294.5597759707555
 72
     1
 10
357.3983338418561
 20
294.5597759707555
 11
357.6140398636081
 21
293.1583114437319
 72
     1
 10
357.6140398636081
 20
293.1583114437319
 11
357.8906716051071
 21
291.7675897649189
 72
     1
 10
357.8906716051071
 20
291.7675897649189
 11
358.2277024821101
 21
290.3902582520753
 72
     1
 10
358.2277024821101
 20
290.3902582520753
 11
358.6244909371875
 21
289.0289387340184
 72
     1
 10
358.6244909371875
 20
289.0289387340184
 11
359.0802816609628
 21
287.686222559823
 72
     1
 10
359.0802816609628
 20
287.686222559823
 11
359.594207029888
 21
286.3646656660418
 72
     1
 10
359.594207029888
 20
286.3646656660418
 11
360.1652887578137
 21
285.0667837113346
 72
     1
 10
360.1652887578137
 20
285.0667837113346
 11
360.7924397582126
 21
283.7950472877687
 72
     1
 10
360.7924397582126
 20
283.7950472877687
 11
361.4744662135105
 21
282.5518772179073
 72
     1
 10
361.4744662135105
 20
282.5518772179073
 11
362.210069847586
 21
281.3396399466355
 72
     1
 10
362.210069847586
 20
281.3396399466355
 11
362.9978503971125
 21
280.1606430364984
 72
     1
 10
362.9978503971125
 20
280.1606430364984
 11
363.8363082770396
 21
279.017130775124
 72
     1
 10
363.8363082770396
 20
279.017130775124
 11
364.7238474351379
 21
277.9112799030949
 72
     1
 10
364.7238474351379
 20
277.9112799030949
 11
365.6587783901757
 21
276.8451954703984
 72
     1
 10
365.6587783901757
 20
276.8451954703984
 11
366.6393214479419
 21
275.8209068293446
 72
     1
 10
366.6393214479419
 20
275.8209068293446
 11
367.6636100889957
 21
274.8403637715784
 72
     1
 10
367.6636100889957
 20
274.8403637715784
 11
368.7296945216921
 21
273.9054328165407
 72
     1
 10
368.7296945216921
 20
273.9054328165407
 11
369.8355453937212
 21
273.0178936584423
 72
     1
 10
369.8355453937212
 20
273.0178936584423
 11
370.9790576550956
 21
272.1794357785152
 72
     1
 10
370.9790576550956
 20
272.1794357785152
 11
372.1580545652328
 21
271.3916552289887
 72
     1
 10
372.1580545652328
 20
271.3916552289887
 11
373.3702918365046
 21
270.6560515949132
 72
     1
 10
373.3702918365046
 20
270.6560515949132
 11
374.6134619063659
 21
269.9740251396153
 72
     1
 10
374.6134619063659
 20
269.9740251396153
 11
375.8851983299318
 21
269.3468741392164
 72
     1
 10
375.8851983299318
 20
269.3468741392164
 11
377.1830802846391
 21
268.7757924112907
 72
     1
 10
377.1830802846391
 20
268.7757924112907
 11
378.5046371784202
 21
268.2618670423655
 72
     1
 10
378.5046371784202
 20
268.2618670423655
 11
379.8473533526155
 21
267.8060763185901
 72
     1
 10
379.8473533526155
 20
267.8060763185901
 11
381.2086728706725
 21
267.4092878635128
 72
     1
 10
381.2086728706725
 20
267.4092878635128
 11
382.586004383516
 21
267.0722569865097
 72
     1
 10
382.586004383516
 20
267.0722569865097
 11
383.9767260623291
 21
266.7956252450107
 72
     1
 10
383.9767260623291
 20
266.7956252450107
 11
385.3781905893526
 21
266.5799192232586
 72
     1
 10
385.3781905893526
 20
266.5799192232586
 11
386.7877301972054
 21
266.4255495299258
 72
     1
 10
386.7877301972054
 20
266.4255495299258
 11
388.2026617471308
 21
266.3328100164971
 72
     1
 10
388.2026617471308
 20
266.3328100164971
 11
389.6202918365042
 21
266.3018772179075
 72
     1
 10
389.6202918365052
 20
266.3018772179075
 11
389.6202918365052
 21
198.8018772179075
 72
     1
 10
389.6202918365052
 20
198.8018772179075
 11
189.6202918365052
 21
198.8018772179075
 72
     1
 10
189.6202918365052
 20
198.8018772179075
 11
189.6202918365052
 21
298.8018772179075
 72
     1
 10
189.6202918365052
 20
298.8018772179075
 11
357.1202918365052
 21
298.8018772179075
 97
        0
 75
     0
 76
     2
 52
0.0
 41
0.5
 77
     0
 78
     2
 53
45.0
 43
-5613.740510663876
 44
6315.235608566985
 45
-6.735192090802229
 46
6.735192090802229
 79
     0
 53
135.0
 43
-5613.740510663876
 44
6315.235608566985
 45
-6.735192090802229
 46
-6.735192090802229
 79
     0
 98
        0
  0
DIMENSION
  5
17D
330
1F
100
AcDbEntity
  8
8
  6
CONTINUOUS
 62
     4
100
AcDbDimension
  2
DIM1
 10
732.2281921041239
 20
98.66736800559192
 30
0.0
 11
709.728192104124
 21
98.66736800559192
 31
0.0
 70
   160
  1
<>
  3
STANDARD
100
AcDbAlignedDimension
 13
687.228192104124
 23
183.8018772179075
 33
0.0
 14
732.228192104124
 24
168.8018772179075
 34
0.0
100
AcDbRotatedDimension
1001
ACAD
1000
DSTYLE
1002
{
1070
   287
1070
     4
1070
     7
1000

1070
     6
1000

1070
   279
1070
     1
1070
   340
1005
173
1070
   140
1040
6.0
1070
    40
1040
1.0
1070
   147
1040
0.0
1070
    76
1070
     0
1070
    75
1070
     0
1070
   173
1070
     1
1070
   289
1070
     2
1070
   288
1070
     1
1070
    77
1070
     1
1070
   172
1070
     1
1070
   174
1070
     0
1070
    74
1070
     0
1070
    73
1070
     0
1070
   284
1070
     8
1070
    78
1070
     8
1070
    42
1040
2.0
1070
    44
1040
3.0
1070
    43
1040
30.0
1070
   271
1070
     2
1070
    41
1040
4.0
1002
}
  0
DIMENSION
  5
187
330
1F
100
AcDbEntity
  8
8
  6
CONTINUOUS
 62
     4
100
AcDbDimension
  2
DIM2
 10
731.2281921041222
 20
143.3670662418244
 30
0.0
 11
743.228192104124
 21
143.3670662418244
 31
0.0
 70
   160
  1
<>
  3
STANDARD
100
AcDbAlignedDimension
 13
732.228192104124
 23
168.8018772179075
 33
0.0
 14
731.2281921041222
 24
168.8018772179075
 34
0.0
 50
179.9999999999998
100
AcDbRotatedDimension
1001
ACAD
1000
DSTYLE
1002
{
1070
   287
1070
     4
1070
     7
1000

1070
     6
1000

1070
   279
1070
     1
1070
   340
1005
173
1070
   140
1040
6.0
1070
    40
1040
1.0
1070
   147
1040
0.0
1070
    76
1070
     0
1070
    75
1070
     0
1070
   173
1070
     1
1070
   289
1070
     2
1070
   288
1070
     1
1070
    77
1070
     1
1070
   172
1070
     1
1070
   174
1070
     0
1070
    74
1070
     0
1070
    73
1070
     0
1070
   284
1070
     8
1070
    78
1070
     8
1070
    42
1040
2.0
1070
    44
1040
3.0
1070
    43
1040
30.0
1070
   271
1070
     2
1070
    41
1040
4.0
1002
}
  0
DIMENSION
  5
191
330
1F
100
AcDbEntity
  8
8
  6
CONTINUOUS
 62
     4
100
AcDbDimension
  2
DIM3
 10
698.7281921041229
 20
119.9526574721767
 30
0.0
 11
715.4781921041235
 21
119.9526574721767
 31
0.0
 70
   160
  1
<>
  3
STANDARD
100
AcDbAlignedDimension
 13
732.228192104124
 23
168.8018772179075
 33
0.0
 14
698.7281921041231
 24
275.8018772179075
 34
0.0
 50
179.9999999999998
100
AcDbRotatedDimension
1001
ACAD
1000
DSTYLE
1002
{
1070
   287
1070
     4
1070
     7
1000

1070
     6
1000

1070
   279
1070
     1
1070
   340
1005
173
1070
   140
1040
6.0
1070
    40
1040
1.0
1070
   147
1040
0.0
1070
    76
1070
     0
1070
    75
1070
     0
1070
   173
1070
     1
1070
   289
1070
     2
1070
   288
1070
     1
1070
    77
1070
     1
1070
   172
1070
     1
1070
   174
1070
     0
1070
    74
1070
     0
1070
    73
1070
     0
1070
   284
1070
     8
1070
    78
1070
     8
1070
    42
1040
2.0
1070
    44
1040
3.0
1070
    43
1040
30.0
1070
   271
1070
     2
1070
    41
1040
4.0
1002
}
  0
DIMENSION
  5
19B
330
1F
100
AcDbEntity
  8
8
  6
CONTINUOUS
 62
     4
100
AcDbDimension
  2
DIM4
 10
564.6202918365043
 20
144.8018772179075
 30
0.0
 11
520.8702918365043
 21
144.8018772179075
 31
0.0
 70
   160
  1
<>
  3
STANDARD
100
AcDbAlignedDimension
 13
477.1202918365043
 23
167.7018772179072
 33
0.0
 14
564.6202918365043
 24
167.7018772179072
 34
0.0
100
AcDbRotatedDimension
1001
ACAD
1000
DSTYLE
1002
{
1070
   287
1070
     4
1070
     7
1000

1070
     6
1000

1070
   279
1070
     1
1070
   340
1005
173
1070
   140
1040
6.0
1070
    40
1040
1.0
1070
   147
1040
0.0
1070
    76
1070
     0
1070
    75
1070
     0
1070
   173
1070
     1
1070
   289
1070
     2
1070
   288
1070
     1
1070
    77
1070
     1
1070
   172
1070
     1
1070
   174
1070
     0
1070
    74
1070
     0
1070
    73
1070
     0
1070
   284
1070
     8
1070
    78
1070
     8
1070
    42
1040
2.0
1070
    44
1040
3.0
1070
    43
1040
30.0
1070
   271
1070
     2
1070
    41
1040
4.0
1002
}
  0
DIMENSION
  5
1A5
330
1F
100
AcDbEntity
  8
8
  6
CONTINUOUS
 62
     4
100
AcDbDimension
  2
DIM5
 10
589.6202918365042
 20
128.8018772179075
 30
0.0
 11
389.6202918365043
 21
128.8018772179075
 31
0.0
 70
   160
  1
<>
  3
STANDARD
100
AcDbAlignedDimension
 13
189.6202918365052
 23
198.8018772179075
 33
0.0
 14
589.6202918365043
 24
198.8018772179075
 34
0.0
100
AcDbRotatedDimension
1001
ACAD
1000
DSTYLE
1002
{
1070
   287
1070
     4
1070
     7
1000

1070
     6
1000

1070
   279
1070
     1
1070
   340
1005
173
1070
   140
1040
6.0
1070
    40
1040
1.0
1070
   147
1040
0.0
1070
    76
1070
     0
1070
    75
1070
     0
1070
   173
1070
     1
1070
   289
1070
     2
1070
   288
1070
     1
1070
    77
1070
     1
1070
   172
1070
     1
1070
   174
1070
     0
1070
    74
1070
     0
1070
    73
1070
     0
1070
   284
1070
     8
1070
    78
1070
     8
1070
    42
1040
2.0
1070
    44
1040
3.0
1070
    43
1040
30.0
1070
   271
1070
     2
1070
    41
1040
4.0
1002
}
  0
DIMENSION
  5
1AF
330
1F
100
AcDbEntity
  8
8
  6
CONTINUOUS
 62
     4
100
AcDbDimension
  2
DIM6
 10
604.6202918365042
 20
112.8018772179075
 30
0.0
 11
389.6202918365052
 21
112.8018772179075
 31
0.0
 70
   160
  1
<>
  3
STANDARD
100
AcDbAlignedDimension
 13
174.6202918365052
 23
183.8018772179057
 33
0.0
 14
604.6202918365043
 24
183.8018772179075
 34
0.0
100
AcDbRotatedDimension
1001
ACAD
1000
DSTYLE
1002
{
1070
   287
1070
     4
1070
     7
1000

1070
     6
1000

1070
   279
1070
     1
1070
   340
1005
173
1070
   140
1040
6.0
1070
    40
1040
1.0
1070
   147
1040
0.0
1070
    76
1070
     0
1070
    75
1070
     0
1070
   173
1070
     1
1070
   289
1070
     2
1070
   288
1070
     1
1070
    77
1070
     1
1070
   172
1070
     1
1070
   174
1070
     0
1070
    74
1070
     0
1070
    73
1070
     0
1070
   284
1070
     8
1070
    78
1070
     8
1070
    42
1040
2.0
1070
    44
1040
3.0
1070
    43
1040
30.0
1070
   271
1070
     2
1070
    41
1040
4.0
1002
}
  0
DIMENSION
  5
1B9
330
1F
100
AcDbEntity
  8
8
  6
CONTINUOUS
 62
     4
100
AcDbDimension
  2
DIM7
 10
158.6202918365052
 20
398.8018772179076
 30
0.0
 11
158.6202918365052
 21
298.8018772179075
 31
0.0
 70
   160
  1
<>
  3
STANDARD
100
AcDbAlignedDimension
 13
189.6202918365052
 23
198.8018772179075
 33
0.0
 14
189.6202918365052
 24
398.8018772179075
 34
0.0
 50
89.99999999999991
100
AcDbRotatedDimension
1001
ACAD
1000
DSTYLE
1002
{
1070
   287
1070
     4
1070
     7
1000

1070
     6
1000

1070
   279
1070
     1
1070
   340
1005
173
1070
   140
1040
6.0
1070
    40
1040
1.0
1070
   147
1040
0.0
1070
    76
1070
     0
1070
    75
1070
     0
1070
   173
1070
     1
1070
   289
1070
     2
1070
   288
1070
     1
1070
    77
1070
     1
1070
   172
1070
     1
1070
   174
1070
     0
1070
    74
1070
     0
1070
    73
1070
     0
1070
   284
1070
     8
1070
    78
1070
     8
1070
    42
1040
2.0
1070
    44
1040
3.0
1070
    43
1040
30.0
1070
   271
1070
     2
1070
    41
1040
4.0
1002
}
  0
DIMENSION
  5
1C3
330
1F
100
AcDbEntity
  8
8
  6
CONTINUOUS
 62
     4
100
AcDbDimension
  2
DIM8
 10
142.6202918365052
 20
413.8018772179076
 30
0.0
 11
142.6202918365052
 21
298.8018772179075
 31
0.0
 70
   160
  1
<>
  3
STANDARD
100
AcDbAlignedDimension
 13
174.6202918365052
 23
183.8018772179075
 33
0.0
 14
174.6202918365052
 24
413.8018772179075
 34
0.0
 50
89.99999999999991
100
AcDbRotatedDimension
1001
ACAD
1000
DSTYLE
1002
{
1070
   287
1070
     4
1070
     7
1000

1070
     6
1000

1070
   279
1070
     1
1070
   340
1005
173
1070
   140
1040
6.0
1070
    40
1040
1.0
1070
   147
1040
0.0
1070
    76
1070
     0
1070
    75
1070
     0
1070
   173
1070
     1
1070
   289
1070
     2
1070
   288
1070
     1
1070
    77
1070
     1
1070
   172
1070
     1
1070
   174
1070
     0
1070
    74
1070
     0
1070
    73
1070
     0
1070
   284
1070
     8
1070
    78
1070
     8
1070
    42
1040
2.0
1070
    44
1040
3.0
1070
    43
1040
30.0
1070
   271
1070
     2
1070
    41
1040
4.0
1002
}
  0
DIMENSION
  5
1CD
330
1F
100
AcDbEntity
  8
8
  6
CONTINUOUS
 62
     4
100
AcDbDimension
  2
DIM9
 10
126.6202918365052
 20
421.8018772179078
 30
0.0
 11
126.6202918365052
 21
298.8018772179075
 31
0.0
 70
   160
  1
<>
  3
STANDARD
100
AcDbAlignedDimension
 13
206.5202918365048
 23
175.8018772179075
 33
0.0
 14
206.5202918365048
 24
421.8018772179075
 34
0.0
 50
89.99999999999991
100
AcDbRotatedDimension
1001
ACAD
1000
DSTYLE
1002
{
1070
   287
1070
     4
1070
     7
1000

1070
     6
1000

1070
   279
1070
     1
1070
   340
1005
173
1070
   140
1040
6.0
1070
    40
1040
1.0
1070
   147
1040
0.0
1070
    76
1070
     0
1070
    75
1070
     0
1070
   173
1070
     1
1070
   289
1070
     2
1070
   288
1070
     1
1070
    77
1070
     1
1070
   172
1070
     1
1070
   174
1070
     0
1070
    74
1070
     0
1070
    73
1070
     0
1070
   284
1070
     8
1070
    78
1070
     8
1070
    42
1040
2.0
1070
    44
1040
3.0
1070
    43
1040
30.0
1070
   271
1070
     2
1070
    41
1040
4.0
1002
}
  0
DIMENSION
  5
1D7
330
1F
100
AcDbEntity
  8
8
  6
CONTINUOUS
 62
     4
100
AcDbDimension
  2
DIM10
 10
110.6202918365052
 20
168.8018772179078
 30
0.0
 11
110.6202918365052
 21
298.8018772179075
 31
0.0
 70
   160
  1
<>
 53
89.99999999999991
  3
STANDARD
100
AcDbAlignedDimension
 13
194.6202918365034
 23
428.8018772179075
 33
0.0
 14
194.6202918365034
 24
168.8018772179075
 34
0.0
 50
-89.99999999999991
100
AcDbRotatedDimension
1001
ACAD
1000
DSTYLE
1002
{
1070
   287
1070
     4
1070
     7
1000

1070
     6
1000

1070
   279
1070
     1
1070
   340
1005
173
1070
   140
1040
6.0
1070
    40
1040
1.0
1070
   147
1040
0.0
1070
    76
1070
     0
1070
    75
1070
     0
1070
   173
1070
     1
1070
   289
1070
     2
1070
   288
1070
     1
1070
    77
1070
     1
1070
   172
1070
     1
1070
   174
1070
     0
1070
    74
1070
     0
1070
    73
1070
     0
1070
   284
1070
     8
1070
    78
1070
     8
1070
    42
1040
2.0
1070
    44
1040
3.0
1070
    43
1040
30.0
1070
   271
1070
     2
1070
    41
1040
4.0
1002
}
  0
DIMENSION
  5
1E1
330
1F
100
AcDbEntity
  8
8
  6
CONTINUOUS
 62
     4
100
AcDbDimension
  2
DIM11
 10
302.1202918365051
 20
144.8018772179075
 30
0.0
 11
258.3702918365052
 21
144.8018772179075
 31
0.0
 70
   160
  1
<>
  3
STANDARD
100
AcDbAlignedDimension
 13
214.6202918365052
 23
167.7018772179072
 33
0.0
 14
302.1202918365052
 24
167.7018772179072
 34
0.0
100
AcDbRotatedDimension
1001
ACAD
1000
DSTYLE
1002
{
1070
   287
1070
     4
1070
     7
1000

1070
     6
1000

1070
   279
1070
     1
1070
   340
1005
173
1070
   140
1040
6.0
1070
    40
1040
1.0
1070
   147
1040
0.0
1070
    76
1070
     0
1070
    75
1070
     0
1070
   173
1070
     1
1070
   289
1070
     2
1070
   288
1070
     1
1070
    77
1070
     1
1070
   172
1070
     1
1070
   174
1070
     0
1070
    74
1070
     0
1070
    73
1070
     0
1070
   284
1070
     8
1070
    78
1070
     8
1070
    42
1040
2.0
1070
    44
1040
3.0
1070
    43
1040
30.0
1070
   271
1070
     2
1070
    41
1040
4.0
1002
}
  0
DIMENSION
  5
1EB
330
1F
100
AcDbEntity
  8
8
  6
CONTINUOUS
 62
     4
100
AcDbDimension
  2
DIM12
 10
477.1202918365042
 20
144.8018772179075
 30
0.0
 11
389.6202918365043
 21
144.8018772179075
 31
0.0
 70
   160
  1
<>
  3
STANDARD
100
AcDbAlignedDimension
 13
302.1202918365052
 23
167.7018772179072
 33
0.0
 14
477.1202918365043
 24
167.7018772179072
 34
0.0
100
AcDbRotatedDimension
1001
ACAD
1000
DSTYLE
1002
{
1070
   287
1070
     4
1070
     7
1000

1070
     6
1000

1070
   279
1070
     1
1070
   340
1005
173
1070
   140
1040
6.0
1070
    40
1040
1.0
1070
   147
1040
0.0
1070
    76
1070
     0
1070
    75
1070
     0
1070
   173
1070
     1
1070
   289
1070
     2
1070
   288
1070
     1
1070
    77
1070
     1
1070
   172
1070
     1
1070
   174
1070
     0
1070
    74
1070
     0
1070
    73
1070
     0
1070
   284
1070
     8
1070
    78
1070
     8
1070
    42
1040
2.0
1070
    44
1040
3.0
1070
    43
1040
30.0
1070
   271
1070
     2
1070
    41
1040
4.0
1002
}
  0
DIMENSION
  5
1F5
330
1F
100
AcDbEntity
  8
8
  6
CONTINUOUS
 62
     4
100
AcDbDimension
  2
DIM13
 10
639.6202918365059
 20
112.8018772179075
 30
0.0
 11
622.1202918365052
 21
112.8018772179075
 31
0.0
 70
   160
  1
<>
  3
STANDARD
100
AcDbAlignedDimension
 13
604.6202918365043
 23
183.8018772179075
 33
0.0
 14
639.6202918365061
 24
275.8018772179075
 34
0.0
100
AcDbRotatedDimension
1001
ACAD
1000
DSTYLE
1002
{
1070
   287
1070
     4
1070
     7
1000

1070
     6
1000

1070
   279
1070
     1
1070
   340
1005
173
1070
   140
1040
6.0
1070
    40
1040
1.0
1070
   147
1040
0.0
1070
    76
1070
     0
1070
    75
1070
     0
1070
   173
1070
     1
1070
   289
1070
     2
1070
   288
1070
     1
1070
    77
1070
     1
1070
   172
1070
     1
1070
   174
1070
     0
1070
    74
1070
     0
1070
    73
1070
     0
1070
   284
1070
     8
1070
    78
1070
     8
1070
    42
1040
2.0
1070
    44
1040
3.0
1070
    43
1040
30.0
1070
   271
1070
     2
1070
    41
1040
4.0
1002
}
  0
DIMENSION
  5
1FD
330
1F
100
AcDbEntity
  8
8
  6
CONTINUOUS
 62
     4
100
AcDbDimension
  2
DIM14
 10
367.0157359313429
 20
275.4505592180508
 30
0.0
 11
531.7076910358115
 21
449.8965528578753
 31
0.0
 70
   163
  1
\U+2205<>
  3
STANDARD
100
AcDbDiametricDimension
 15
412.2248477416628
 25
322.1531952177679
 35
0.0
 40
0.0
1001
ACAD
1000
DSTYLE
1002
{
1070
   287
1070
     2
1070
     7
1000

1070
     6
1000

1070
   340
1005
173
1070
   140
1040
6.0
1070
    40
1040
1.0
1070
   147
1040
0.0
1070
    76
1070
     0
1070
    75
1070
     0
1070
   173
1070
     1
1070
   289
1070
     2
1070
   288
1070
     1
1070
    77
1070
     1
1070
   172
1070
     1
1070
   174
1070
     0
1070
    74
1070
     0
1070
    73
1070
     0
1070
   284
1070
     8
1070
    78
1070
     8
1070
    42
1040
2.0
1070
    44
1040
3.0
1070
    43
1040
30.0
1070
   271
1070
     2
1070
    41
1040
4.0
1002
}
  0
DIMENSION
  5
205
330
1F
100
AcDbEntity
  8
8
  6
CONTINUOUS
 62
     4
100
AcDbDimension
  2
DIM15
 10
376.8424885750401
 20
274.4507428744873
 30
0.0
 11
466.9921449716867
 21
452.7088007988128
 31
0.0
 70
   163
  1
\U+2205<>
  3
STANDARD
100
AcDbDiametricDimension
 15
402.3980950979704
 25
323.1530115613276
 35
0.0
 40
0.0
1001
ACAD
1000
DSTYLE
1002
{
1070
   287
1070
     2
1070
     7
1000

1070
     6
1000

1070
   340
1005
173
1070
   140
1040
6.0
1070
    40
1040
1.0
1070
   147
1040
0.0
1070
    76
1070
     0
1070
    75
1070
     0
1070
   173
1070
     1
1070
   289
1070
     2
1070
   288
1070
     1
1070
    77
1070
     1
1070
   172
1070
     1
1070
   174
1070
     0
1070
    74
1070
     0
1070
    73
1070
     0
1070
   284
1070
     8
1070
    78
1070
     8
1070
    42
1040
2.0
1070
    44
1040
3.0
1070
    43
1040
30.0
1070
   271
1070
     2
1070
    41
1040
4.0
1002
}
  0
INSERT
  5
206
330
1F
100
AcDbEntity
  8
8
  6
CONTINUOUS
 62
     4
100
AcDbBlockReference
  2
_OPEN
 10
216.1702918365045
 20
424.4865559696391
 30
0.0
 41
8.0
 42
8.0
 43
8.0
 50
240.0000000000001
  0
POLYLINE
  5
207
330
1F
100
AcDbEntity
  8
8
  6
CONTINUOUS
 62
     4
100
AcDb2dPolyline
 66
     1
 10
0.0
 20
0.0
 30
0.0
  0
VERTEX
  5
208
330
207
100
AcDbEntity
  8
8
  6
CONTINUOUS
 62
     4
100
AcDbVertex
100
AcDb2dVertex
 10
216.1702918365045
 20
424.4865559696391
 30
0.0
  0
VERTEX
  5
209
330
207
100
AcDbEntity
  8
8
  6
CONTINUOUS
 62
     4
100
AcDbVertex
100
AcDb2dVertex
 10
229.6702918365045
 20
447.8692418718192
 30
0.0
  0
VERTEX
  5
20A
330
207
100
AcDbEntity
  8
8
  6
CONTINUOUS
 62
     4
100
AcDbVertex
100
AcDb2dVertex
 10
252.3902918365045
 20
447.8692418718192
 30
0.0
  0
SEQEND
  5
20B
330
207
100
AcDbEntity
  8
8
  6
CONTINUOUS
 62
     4
  0
MTEXT
  5
20C
330
1F
100
AcDbEntity
  8
8
  6
CONTINUOUS
 62
     4
100
AcDbMText
 10
234.3902918365045
 20
447.8692418718192
 30
0.0
 40
6.0
 41
25.4998018761
 71
     7
 72
     1
  1
{\fＭＳ ゴシック;\T0.760103;8-\U+00D86.2}
1001
ACAD
1000
ACAD_MTEXT_DEFINED_HEIGHT_BEGIN
1070
    46
1040
6.0
1000
ACAD_MTEXT_DEFINED_HEIGHT_END
  0
VIEWPORT
  5
3F
330
1B
100
AcDbEntity
 67
     1
  8
0
100
AcDbViewport
 10
420.0
 20
297.0
 30
0.0
 40
840.0
 41
594.0
 68
     1
 69
     1
1001
ACAD
1000
MVIEW
1002
{
1070
    16
1010
0.0
1020
0.0
1030
0.0
1010
0.0
1020
0.0
1030
1.0
1040
0.0
1040
9.0
1040
420.0
1040
297.0
1040
50.0
1040
0.0
1040
0.0
1070
     0
1070
   100
1070
     0
1070
     3
1070
     0
1070
     0
1070
     0
1070
     0
1040
0.0
1040
0.0
1040
0.0
1040
0.5
1040
0.5
1040
0.5
1040
0.5
1070
     0
1002
{
1002
}
1002
}
  0
ENDSEC
  0
SECTION
  2
OBJECTS
  0
DICTIONARY
  5
C
330
0
100
AcDbDictionary
  3
ACAD_GROUP
350
D
  3
ACAD_LAYOUT
350
1A
  3
ACAD_MATERIAL
350
3B
  3
ACAD_MLEADERSTYLE
350
22F
  3
ACAD_MLINESTYLE
350
17
  3
ACAD_PLOTSETTINGS
350
19
  3
ACAD_VISUALSTYLE
350
2A
  3
ACDBHEADERROUNDTRIPXREC
350
20D
  3
ACDBVARIABLEDICTIONARY
350
22D
  0
DICTIONARY
  5
D
102
{ACAD_REACTORS
330
C
102
}
330
C
100
AcDbDictionary
  0
DICTIONARY
  5
1A
102
{ACAD_REACTORS
330
C
102
}
330
C
100
AcDbDictionary
  0
DICTIONARY
  5
3B
102
{ACAD_REACTORS
330
C
102
}
330
C
100
AcDbDictionary
  3
BYBLOCK
350
3D
  3
BYLAYER
350
3C
  3
GLOBAL
350
3E
  0
DICTIONARY
  5
22F
102
{ACAD_REACTORS
330
C
102
}
330
C
100
AcDbDictionary
  0
DICTIONARY
  5
17
102
{ACAD_REACTORS
330
C
102
}
330
C
100
AcDbDictionary
  3
STANDARD
350
18
  0
DICTIONARY
  5
19
102
{ACAD_REACTORS
330
C
102
}
330
C
100
AcDbDictionary
  0
DICTIONARY
  5
2A
102
{ACAD_REACTORS
330
C
102
}
330
C
100
AcDbDictionary
  3
2DWIREFRAME
350
2F
  3
3D_HIDDEN
350
31
  3
3DWIREFRAME
350
30
  3
BASIC
350
32
  3
BRIGHTEN
350
36
  3
COLORCHANGE
350
3A
  3
CONCEPTUAL
350
34
  3
DIM
350
35
  3
FACEPATTERN
350
39
  3
FLAT
350
2B
  3
FLATWITHEDGES
350
2C
  3
GOURAUD
350
2D
  3
GOURAUDWITHEDGES
350
2E
  3
LINEPATTERN
350
38
  3
REALISTIC
350
33
  3
THICKEN
350
37
  0
DICTIONARY
  5
20D
102
{ACAD_REACTORS
330
C
102
}
330
C
100
AcDbDictionary
  3
CEPSNTYPE
350
216
  3
DIMSTYLEDATA
350
22C
  3
FINGERPRINTGUID
350
217
  3
HYPERLINKBASE
350
210
  3
INSUNITS
350
215
  3
LAYOUTDICT
350
212
  3
LWETCUNION
350
214
  3
PLOTSETDICT
350
213
  3
PSVPSCALE
350
219
  3
PUCSBASE
350
21C
  3
PUCSORGBACK
350
222
  3
PUCSORGBOTTOM
350
21E
  3
PUCSORGFRONT
350
221
  3
PUCSORGLEFT
350
21F
  3
PUCSORGRIGHT
350
220
  3
PUCSORGTOP
350
21D
  3
PUCSORTHOREF
350
21A
  3
PUCSORTHOVIEW
350
21B
  3
STYLESHEET
350
211
  3
TSTACKALIGN
350
20E
  3
TSTACKSIZE
350
20F
  3
UCSBASE
350
225
  3
UCSORGBACK
350
22B
  3
UCSORGBOTTOM
350
227
  3
UCSORGFRONT
350
22A
  3
UCSORGLEFT
350
228
  3
UCSORGRIGHT
350
229
  3
UCSORGTOP
350
226
  3
UCSORTHOREF
350
223
  3
UCSORTHOVIEW
350
224
  3
VERSIONGUID
350
218
  0
DICTIONARY
  5
22D
102
{ACAD_REACTORS
330
C
102
}
330
C
100
AcDbDictionary
  3
DIMASSOC
350
230
  3
HIDETEXT
350
231
  0
MATERIAL
  5
3D
102
{ACAD_REACTORS
330
3B
102
}
102
{ACAD_XDICTIONARY
360
234
102
}
330
3B
100
AcDbMaterial
  1
ByBlock
  0
MATERIAL
  5
3C
102
{ACAD_REACTORS
330
3B
102
}
102
{ACAD_XDICTIONARY
360
232
102
}
330
3B
100
AcDbMaterial
  1
ByLayer
  0
MATERIAL
  5
3E
102
{ACAD_REACTORS
330
3B
102
}
102
{ACAD_XDICTIONARY
360
236
102
}
330
3B
100
AcDbMaterial
  1
Global
  0
MLINESTYLE
  5
18
102
{ACAD_REACTORS
330
17
102
}
330
17
100
AcDbMlineStyle
  2
Standard
 70
     0
  3

 62
   256
 51
90.0
 52
90.0
 71
     2
 49
0.5
 62
   256
  6
BYLAYER
 49
-0.5
 62
   256
  6
BYLAYER
  0
ACAD_PROXY_OBJECT
  5
2F
102
{ACAD_REACTORS
330
2A
102
}
330
2A
100
AcDbProxyObject
 90
      499
 91
      501
 93
      436
310
42CC9915DA5C99599C985B595049028333333333333E3BF0000000000000FB0107901411070040501600405405064090741402480A0340
1001
ACAD
1000
AcDbSavedByObjectVersion
1070
     0
  0
ACAD_PROXY_OBJECT
  5
31
102
{ACAD_REACTORS
330
2A
102
}
330
2A
100
AcDbProxyObject
 90
      499
 91
      501
 93
      500
310
424CD108121A5919195B90640502408333333333333E3BF0000000000000FB01079024090700405020000000000001110200405405064090740C02480A0340
1001
ACAD
1000
AcDbSavedByObjectVersion
1070
     0
  0
ACAD_PROXY_OBJECT
  5
30
102
{ACAD_REACTORS
330
2A
102
}
330
2A
100
AcDbProxyObject
 90
      499
 91
      501
 93
      436
310
42CCD915DA5C99599C985B595059028333333333333E3BF0000000000000FB0107901411070040501600405405064090741402480A0340
1001
ACAD
1000
AcDbSavedByObjectVersion
1070
     0
  0
ACAD_PROXY_OBJECT
  5
32
102
{ACAD_REACTORS
330
2A
102
}
330
2A
100
AcDbProxyObject
 90
      499
 91
      501
 93
      388
310
4150985CDA58D07406404333333333333E3BF0000000000000FB0107A41107004050150841D405064090741402480A0350
1001
ACAD
1000
AcDbSavedByObjectVersion
1070
     0
  0
ACAD_PROXY_OBJECT
  5
36
102
{ACAD_REACTORS
330
2A
102
}
330
2A
100
AcDbProxyObject
 90
      499
 91
      501
 93
      428
310
42109C9A59DA1D195B90C409028333333333333E3BF0000000000000FB010790141107004050150841D405064090741402480A029950
1001
ACAD
1000
AcDbSavedByObjectVersion
1070
     0
  0
ACAD_PROXY_OBJECT
  5
3A
102
{ACAD_REACTORS
330
2A
102
}
330
2A
100
AcDbProxyObject
 90
      499
 91
      501
 93
      452
310
42D0DBDB1BDC90DA185B99D95104090240C333333333333E3BF0000000000000FB0108901411070040501508421405064090741402480A0350
1001
ACAD
1000
AcDbSavedByObjectVersion
1070
     0
  0
ACAD_PROXY_OBJECT
  5
34
102
{ACAD_REACTORS
330
2A
102
}
330
2A
100
AcDbProxyObject
 90
      499
 91
      501
 93
      500
310
4290DBDB98D95C1D1D585B10940D028333333333333E3BF0000000000000FB0107902409070040501000000000000111010841D405064090740C02480A0340
1001
ACAD
1000
AcDbSavedByObjectVersion
1070
     0
  0
ACAD_PROXY_OBJECT
  5
35
102
{ACAD_REACTORS
330
2A
102
}
330
2A
100
AcDbProxyObject
 90
      499
 91
      501
 93
      412
310
40D11A5B50B409028333333333333E3BF0000000000000FB010790141107004050150841D405064090741402480A02677FFFFFD0
1001
ACAD
1000
AcDbSavedByObjectVersion
1070
     0
  0
ACAD_PROXY_OBJECT
  5
39
102
{ACAD_REACTORS
330
2A
102
}
330
2A
100
AcDbProxyObject
 90
      499
 91
      501
 93
      444
310
42D19858D95C185D1D195C9B90F409028333333333333E3BF0000000000000FB010790141107004050150841D405064090741402480A0350
1001
ACAD
1000
AcDbSavedByObjectVersion
1070
     0
  0
ACAD_PROXY_OBJECT
  5
2B
102
{ACAD_REACTORS
330
2A
102
}
330
2A
100
AcDbProxyObject
 90
      499
 91
      501
 93
      388
310
41119B185D240901404333333333333E3BF0000000000000F9010740A41107004050150841D405064090741402480A1B50
1001
ACAD
1000
AcDbSavedByObjectVersion
1070
     0
  0
ACAD_PROXY_OBJECT
  5
2C
102
{ACAD_REACTORS
330
2A
102
}
330
2A
100
AcDbProxyObject
 90
      499
 91
      501
 93
      476
310
43519B185D15DA5D1A115919D95CD0140901404333333333333E3BF0000000000000F9010740901411070040501600405405064090741402480A1B50
1001
ACAD
1000
AcDbSavedByObjectVersion
1070
     0
  0
ACAD_PROXY_OBJECT
  5
2D
102
{ACAD_REACTORS
330
2A
102
}
330
2A
100
AcDbProxyObject
 90
      499
 91
      501
 93
      412
310
41D1DBDD5C985D5910240902404333333333333E3BF0000000000000F9010740A411070040501641D405064090741402480A1B50
1001
ACAD
1000
AcDbSavedByObjectVersion
1070
     0
  0
ACAD_PROXY_OBJECT
  5
2E
102
{ACAD_REACTORS
330
2A
102
}
330
2A
100
AcDbProxyObject
 90
      499
 91
      501
 93
      500
310
4411DBDD5C985D5915DA5D1A115919D95CD0340902404333333333333E3BF0000000000000F9010740901411070040501600405405064090741402480A1B50
1001
ACAD
1000
AcDbSavedByObjectVersion
1070
     0
  0
ACAD_PROXY_OBJECT
  5
38
102
{ACAD_REACTORS
330
2A
102
}
330
2A
100
AcDbProxyObject
 90
      499
 91
      501
 93
      444
310
42D31A5B995C185D1D195C9B90E409028333333333333E3BF0000000000000FB010790141107004050750841D405064090741402483A0350
1001
ACAD
1000
AcDbSavedByObjectVersion
1070
     0
  0
ACAD_PROXY_OBJECT
  5
33
102
{ACAD_REACTORS
330
2A
102
}
330
2A
100
AcDbProxyObject
 90
      499
 91
      501
 93
      420
310
425499585B1A5CDD1A58D08409028333333333333E3BF0000000000000FB01079019070040501508421405064090741402480A1B40
1001
ACAD
1000
AcDbSavedByObjectVersion
1070
     0
  0
ACAD_PROXY_OBJECT
  5
37
102
{ACAD_REACTORS
330
2A
102
}
330
2A
100
AcDbProxyObject
 90
      499
 91
      501
 93
      412
310
41D51A1A58DAD95B90D409028333333333333E3BF0000000000000FB010790141107004050150C41D405064090741402480A0350
1001
ACAD
1000
AcDbSavedByObjectVersion
1070
     0
  0
XRECORD
  5
216
102
{ACAD_REACTORS
330
20D
102
}
330
20D
100
AcDbXrecord
 90
        0
  0
XRECORD
  5
22C
102
{ACAD_REACTORS
330
20D
102
}
330
20D
100
AcDbXrecord
1000
DSTYLE
1002
{
1070
   171
 70
     2
1070
   143
 40
25.4
1070
   274
 70
     2
1070
    41
 40
1.55291427
1070
   289
 70
     2
1070
   141
 40
0.09
1070
    43
 40
30.0
1070
   278
 70
    46
1070
    44
 40
2.0
1070
    42
 40
2.0
1070
   147
 40
0.09
1070
    77
 70
     3
1070
   272
 70
     4
1070
   146
 40
0.5
1070
   279
 70
     2
1070
   283
 70
     1
1070
   145
 40
0.7
1070
   340
340
11
1070
   140
 40
2.8
1070
   288
 70
     1
1002
}
  0
XRECORD
  5
217
102
{ACAD_REACTORS
330
20D
102
}
330
20D
100
AcDbXrecord
  1
{87A3A17A-44CB-4118-B38A-CE65B94D0417}
  0
XRECORD
  5
210
102
{ACAD_REACTORS
330
20D
102
}
330
20D
100
AcDbXrecord
  1

  0
XRECORD
  5
215
102
{ACAD_REACTORS
330
20D
102
}
330
20D
100
AcDbXrecord
 90
        4
  0
XRECORD
  5
212
102
{ACAD_REACTORS
330
20D
102
}
330
20D
100
AcDbXrecord
340
1A
  0
XRECORD
  5
214
102
{ACAD_REACTORS
330
20D
102
}
330
20D
100
AcDbXrecord
 90
    10781
  0
XRECORD
  5
213
102
{ACAD_REACTORS
330
20D
102
}
330
20D
100
AcDbXrecord
340
19
  0
XRECORD
  5
219
102
{ACAD_REACTORS
330
20D
102
}
330
20D
100
AcDbXrecord
 40
0.0
  0
XRECORD
  5
21C
102
{ACAD_REACTORS
330
20D
102
}
330
20D
100
AcDbXrecord
340
0
  0
XRECORD
  5
222
102
{ACAD_REACTORS
330
20D
102
}
330
20D
100
AcDbXrecord
 10
0.0
 20
0.0
 30
0.0
  0
XRECORD
  5
21E
102
{ACAD_REACTORS
330
20D
102
}
330
20D
100
AcDbXrecord
 10
0.0
 20
0.0
 30
0.0
  0
XRECORD
  5
221
102
{ACAD_REACTORS
330
20D
102
}
330
20D
100
AcDbXrecord
 10
0.0
 20
0.0
 30
0.0
  0
XRECORD
  5
21F
102
{ACAD_REACTORS
330
20D
102
}
330
20D
100
AcDbXrecord
 10
0.0
 20
0.0
 30
0.0
  0
XRECORD
  5
220
102
{ACAD_REACTORS
330
20D
102
}
330
20D
100
AcDbXrecord
 10
0.0
 20
0.0
 30
0.0
  0
XRECORD
  5
21D
102
{ACAD_REACTORS
330
20D
102
}
330
20D
100
AcDbXrecord
 10
0.0
 20
0.0
 30
0.0
  0
XRECORD
  5
21A
102
{ACAD_REACTORS
330
20D
102
}
330
20D
100
AcDbXrecord
340
0
  0
XRECORD
  5
21B
102
{ACAD_REACTORS
330
20D
102
}
330
20D
100
AcDbXrecord
 70
     0
  0
XRECORD
  5
211
102
{ACAD_REACTORS
330
20D
102
}
330
20D
100
AcDbXrecord
  1

  0
XRECORD
  5
20E
102
{ACAD_REACTORS
330
20D
102
}
330
20D
100
AcDbXrecord
 90
        1
  0
XRECORD
  5
20F
102
{ACAD_REACTORS
330
20D
102
}
330
20D
100
AcDbXrecord
 90
       70
  0
XRECORD
  5
225
102
{ACAD_REACTORS
330
20D
102
}
330
20D
100
AcDbXrecord
340
0
  0
XRECORD
  5
22B
102
{ACAD_REACTORS
330
20D
102
}
330
20D
100
AcDbXrecord
 10
0.0
 20
0.0
 30
0.0
  0
XRECORD
  5
227
102
{ACAD_REACTORS
330
20D
102
}
330
20D
100
AcDbXrecord
 10
0.0
 20
0.0
 30
0.0
  0
XRECORD
  5
22A
102
{ACAD_REACTORS
330
20D
102
}
330
20D
100
AcDbXrecord
 10
0.0
 20
0.0
 30
0.0
  0
XRECORD
  5
228
102
{ACAD_REACTORS
330
20D
102
}
330
20D
100
AcDbXrecord
 10
0.0
 20
0.0
 30
0.0
  0
XRECORD
  5
229
102
{ACAD_REACTORS
330
20D
102
}
330
20D
100
AcDbXrecord
 10
0.0
 20
0.0
 30
0.0
  0
XRECORD
  5
226
102
{ACAD_REACTORS
330
20D
102
}
330
20D
100
AcDbXrecord
 10
0.0
 20
0.0
 30
0.0
  0
XRECORD
  5
223
102
{ACAD_REACTORS
330
20D
102
}
330
20D
100
AcDbXrecord
340
0
  0
XRECORD
  5
224
102
{ACAD_REACTORS
330
20D
102
}
330
20D
100
AcDbXrecord
 70
     0
  0
XRECORD
  5
218
102
{ACAD_REACTORS
330
20D
102
}
330
20D
100
AcDbXrecord
  1
{FAEB1C32-E019-11D5-929B-00C0DF256EC4}
  0
DICTIONARYVAR
  5
230
102
{ACAD_REACTORS
330
22D
102
}
330
22D
100
DictionaryVariables
280
     0
  1
1
  0
DICTIONARYVAR
  5
231
102
{ACAD_REACTORS
330
22D
102
}
330
22D
100
DictionaryVariables
280
     0
  1
1
  0
DICTIONARY
  5
234
330
3D
100
AcDbDictionary
280
     1
  3
ACAD_XREC_ROUNDTRIP
360
235
  0
DICTIONARY
  5
232
330
3C
100
AcDbDictionary
280
     1
  3
ACAD_XREC_ROUNDTRIP
360
233
  0
DICTIONARY
  5
236
330
3E
100
AcDbDictionary
280
     1
  3
ACAD_XREC_ROUNDTRIP
360
237
  0
XRECORD
  5
235
102
{ACAD_REACTORS
330
234
102
}
330
234
100
AcDbXrecord
102
MATERIAL
148
0.0
149
0.0
149
0.0
 93
        0
 94
      127
282
     0
 72
     1
 77
     1
171
     1
175
     1
179
     1
273
     0
  0
XRECORD
  5
233
102
{ACAD_REACTORS
330
232
102
}
330
232
100
AcDbXrecord
102
MATERIAL
148
0.0
149
0.0
149
0.0
 93
        0
 94
      127
282
     0
 72
     1
 77
     1
171
     1
175
     1
179
     1
273
     0
  0
XRECORD
  5
237
102
{ACAD_REACTORS
330
236
102
}
330
236
100
AcDbXrecord
102
MATERIAL
148
0.0
149
0.0
149
0.0
 93
        0
 94
      127
282
     0
 72
     1
 77
     1
171
     1
175
     1
179
     1
273
     0
  0
ENDSEC
  0
EOF
