  0
SECTION
  2
HEADER
  9
$ACADVER
  1
AC1014
  9
$ACADMAINTVER
 70
     9
  9
$DWGCODEPAGE
  3
ANSI_932
  9
$INSBASE
 10
0.0
 20
0.0
 30
0.0
  9
$EXTMIN
 10
237.0704768467527
 20
194.0326838501645
 30
0.0
  9
$EXTMAX
 10
1015.082155944684
 20
683.9541917829829
 30
0.0
  9
$LIMMIN
 10
0.0
 20
0.0
  9
$LIMMAX
 10
420.0
 20
297.0
  9
$ORTHOMODE
 70
     0
  9
$REGENMODE
 70
     1
  9
$FILLMODE
 70
     1
  9
$QTEXTMODE
 70
     0
  9
$MIRRTEXT
 70
     1
  9
$DRAGMODE
 70
     2
  9
$LTSCALE
 40
0.75
  9
$OSMODE
 70
    37
  9
$ATTMODE
 70
     1
  9
$TEXTSIZE
 40
8.4
  9
$TRACEWID
 40
0.05
  9
$TEXTSTYLE
  7
STANDARD
  9
$CLAYER
  8
0
  9
$CELTYPE
  6
BYLAYER
  9
$CECOLOR
 62
   256
  9
$CELTSCALE
 40
1.0
  9
$DELOBJ
 70
     1
  9
$DISPSILH
 70
     0
  9
$DIMSCALE
 40
1.0
  9
$DIMASZ
 40
1.55291427
  9
$DIMEXO
 40
2.0
  9
$DIMDLI
 40
30.0
  9
$DIMRND
 40
0.0
  9
$DIMDLE
 40
0.0
  9
$DIMEXE
 40
2.0
  9
$DIMTP
 40
0.0
  9
$DIMTM
 40
0.0
  9
$DIMTXT
 40
2.8
  9
$DIMCEN
 40
0.09
  9
$DIMTSZ
 40
0.0
  9
$DIMTOL
 70
     0
  9
$DIMLIM
 70
     0
  9
$DIMTIH
 70
     0
  9
$DIMTOH
 70
     0
  9
$DIMSE1
 70
     0
  9
$DIMSE2
 70
     0
  9
$DIMTAD
 70
     3
  9
$DIMZIN
 70
     8
  9
$DIMBLK
  1

  9
$DIMASO
 70
     1
  9
$DIMSHO
 70
     1
  9
$DIMPOST
  1

  9
$DIMAPOST
  1

  9
$DIMALT
 70
     0
  9
$DIMALTD
 70
     2
  9
$DIMALTF
 40
25.4
  9
$DIMLFAC
 40
1.0
  9
$DIMTOFL
 70
     1
  9
$DIMTVP
 40
0.7
  9
$DIMTIX
 70
     0
  9
$DIMSOXD
 70
     0
  9
$DIMSAH
 70
     0
  9
$DIMBLK1
  1

  9
$DIMBLK2
  1

  9
$DIMSTYLE
  2
STANDARD
  9
$DIMCLRD
 70
     0
  9
$DIMCLRE
 70
     0
  9
$DIMCLRT
 70
     0
  9
$DIMTFAC
 40
0.5
  9
$DIMGAP
 40
0.09
  9
$DIMJUST
 70
     0
  9
$DIMSD1
 70
     0
  9
$DIMSD2
 70
     0
  9
$DIMTOLJ
 70
     1
  9
$DIMTZIN
 70
     8
  9
$DIMALTZ
 70
     0
  9
$DIMALTTZ
 70
     0
  9
$DIMFIT
 70
     5
  9
$DIMUPT
 70
     1
  9
$DIMUNIT
 70
     2
  9
$DIMDEC
 70
     2
  9
$DIMTDEC
 70
     4
  9
$DIMALTU
 70
     2
  9
$DIMALTTD
 70
     2
  9
$DIMTXSTY
  7
STANDARD
  9
$DIMAUNIT
 70
     0
  9
$LUNITS
 70
     2
  9
$LUPREC
 70
     4
  9
$SKETCHINC
 40
0.1
  9
$FILLETRAD
 40
0.5
  9
$AUNITS
 70
     0
  9
$AUPREC
 70
     0
  9
$MENU
  1
.
  9
$ELEVATION
 40
0.0
  9
$PELEVATION
 40
0.0
  9
$THICKNESS
 40
0.0
  9
$LIMCHECK
 70
     0
  9
$CHAMFERA
 40
0.5
  9
$CHAMFERB
 40
0.5
  9
$CHAMFERC
 40
1.0
  9
$CHAMFERD
 40
0.0
  9
$SKPOLY
 70
     0
  9
$TDCREATE
 40
2460098.032418982
  9
$TDUPDATE
 40
2460097.657425614
  9
$TDINDWG
 40
0.0000000116
  9
$TDUSRTIMER
 40
0.0000000116
  9
$USRTIMER
 70
     1
  9
$ANGBASE
 50
0.0
  9
$ANGDIR
 70
     0
  9
$PDMODE
 70
     0
  9
$PDSIZE
 40
0.0
  9
$PLINEWID
 40
0.0
  9
$COORDS
 70
     1
  9
$SPLFRAME
 70
     0
  9
$SPLINETYPE
 70
     6
  9
$SPLINESEGS
 70
     8
  9
$ATTDIA
 70
     0
  9
$ATTREQ
 70
     1
  9
$HANDLING
 70
     1
  9
$HANDSEED
  5
230
  9
$SURFTAB1
 70
     6
  9
$SURFTAB2
 70
     6
  9
$SURFTYPE
 70
     6
  9
$SURFU
 70
     6
  9
$SURFV
 70
     6
  9
$UCSNAME
  2

  9
$UCSORG
 10
0.0
 20
0.0
 30
0.0
  9
$UCSXDIR
 10
1.0
 20
0.0
 30
0.0
  9
$UCSYDIR
 10
0.0
 20
1.0
 30
0.0
  9
$PUCSNAME
  2

  9
$PUCSORG
 10
0.0
 20
0.0
 30
0.0
  9
$PUCSXDIR
 10
1.0
 20
0.0
 30
0.0
  9
$PUCSYDIR
 10
0.0
 20
1.0
 30
0.0
  9
$USERI1
 70
     0
  9
$USERI2
 70
     0
  9
$USERI3
 70
     0
  9
$USERI4
 70
     0
  9
$USERI5
 70
     0
  9
$USERR1
 40
0.0
  9
$USERR2
 40
0.0
  9
$USERR3
 40
0.0
  9
$USERR4
 40
0.0
  9
$USERR5
 40
0.0
  9
$WORLDVIEW
 70
     1
  9
$SHADEDGE
 70
     3
  9
$SHADEDIF
 70
    70
  9
$TILEMODE
 70
     1
  9
$MAXACTVP
 70
    64
  9
$PINSBASE
 10
0.0
 20
0.0
 30
0.0
  9
$PLIMCHECK
 70
     0
  9
$PEXTMIN
 10
0.0
 20
0.0
 30
0.0
  9
$PEXTMAX
 10
420.0
 20
297.0
 30
0.0
  9
$PLIMMIN
 10
0.0
 20
0.0
  9
$PLIMMAX
 10
420.0
 20
297.0
  9
$UNITMODE
 70
     0
  9
$VISRETAIN
 70
     1
  9
$PLINEGEN
 70
     0
  9
$PSLTSCALE
 70
     1
  9
$TREEDEPTH
 70
  3020
  9
$PICKSTYLE
 70
     1
  9
$CMLSTYLE
  2
STANDARD
  9
$CMLJUST
 70
     0
  9
$CMLSCALE
 40
1.0
  9
$PROXYGRAPHICS
 70
     1
  9
$MEASUREMENT
 70
     1
  0
ENDSEC
  0
SECTION
  2
CLASSES
  0
CLASS
  1
ACDBDICTIONARYWDFLT
  2
AcDbDictionaryWithDefault
  3
ObjectDBX Classes
 90
        0
280
     0
281
     0
  0
CLASS
  1
VISUALSTYLE
  2
AcDbVisualStyle
  3
ObjectDBX Classes
 90
     4095
280
     0
281
     0
  0
CLASS
  1
MATERIAL
  2
AcDbMaterial
  3
ObjectDBX Classes
 90
     1153
280
     0
281
     0
  0
CLASS
  1
DICTIONARYVAR
  2
AcDbDictionaryVar
  3
ObjectDBX Classes
 90
        0
280
     0
281
     0
  0
CLASS
  1
XRECORD
  2
AcDbXrecord
  3
AutoCAD 2000
 90
        0
280
     0
281
     0
  0
CLASS
  1
LWPOLYLINE
  2
AcDbPolyline
  3
AutoCAD 2000
 90
        0
280
     0
281
     1
  0
CLASS
  1
HATCH
  2
AcDbHatch
  3
AutoCAD 2000
 90
        0
280
     0
281
     1
  0
CLASS
  1
ACDBPLACEHOLDER
  2
AcDbPlaceHolder
  3
ObjectDBX Classes
 90
        0
280
     0
281
     0
  0
CLASS
  1
LAYOUT
  2
AcDbLayout
  3
ObjectDBX Classes
 90
        0
280
     0
281
     0
  0
ENDSEC
  0
SECTION
  2
TABLES
  0
TABLE
  2
VPORT
  5
8
330
0
100
AcDbSymbolTable
 70
     1
  0
VPORT
  5
29
330
8
100
AcDbSymbolTableRecord
100
AcDbViewportTableRecord
  2
*ACTIVE
 70
     0
 10
0.0
 20
0.0
 11
1.0
 21
1.0
 12
10.42990654205607
 22
4.5
 13
0.0
 23
0.0
 14
0.5
 24
0.5
 15
0.5
 25
0.5
 16
0.0
 26
0.0
 36
1.0
 17
0.0
 27
0.0
 37
0.0
 40
9.0
 41
1.972972972850329
 42
50.0
 43
0.0
 44
0.0
 50
0.0
 51
0.0
 71
     0
 72
   100
 73
     1
 74
     3
 75
     0
 76
     0
 77
     0
 78
     0
  0
ENDTAB
  0
TABLE
  2
LTYPE
  5
5
330
0
100
AcDbSymbolTable
 70
     9
  0
LTYPE
  5
14
330
5
100
AcDbSymbolTableRecord
100
AcDbLinetypeTableRecord
  2
BYBLOCK
 70
     0
  3

 72
    65
 73
     0
 40
0.0
  0
LTYPE
  5
15
330
5
100
AcDbSymbolTableRecord
100
AcDbLinetypeTableRecord
  2
BYLAYER
 70
     0
  3

 72
    65
 73
     0
 40
0.0
  0
LTYPE
  5
16
330
5
100
AcDbSymbolTableRecord
100
AcDbLinetypeTableRecord
  2
CONTINUOUS
 70
     0
  3
Solid line
 72
    65
 73
     0
 40
0.0
  0
LTYPE
  5
8E
330
5
100
AcDbSymbolTableRecord
100
AcDbLinetypeTableRecord
  2
DOT
 70
     0
  3
DOT
 72
    65
 73
     2
 40
4.0
 49
6.0
 74
     0
 49
-2.0
 74
     0
  0
LTYPE
  5
8F
330
5
100
AcDbSymbolTableRecord
100
AcDbLinetypeTableRecord
  2
HIDDEN
 70
     0
  3
HIDDEN
 72
    65
 73
     2
 40
4.2
 49
8.4
 74
     0
 49
-4.2
 74
     0
  0
LTYPE
  5
90
330
5
100
AcDbSymbolTableRecord
100
AcDbLinetypeTableRecord
  2
DASHDOT
 70
     0
  3
DASHDOT
 72
    65
 73
     4
 40
14.5
 49
30.0
 74
     0
 49
-9.0
 74
     0
 49
2.5
 74
     0
 49
-9.0
 74
     0
  0
LTYPE
  5
91
330
5
100
AcDbSymbolTableRecord
100
AcDbLinetypeTableRecord
  2
PHANTOM
 70
     0
  3
PHANTOM
 72
    65
 73
     6
 40
12.0
 49
30.0
 74
     0
 49
-9.0
 74
     0
 49
2.5
 74
     0
 49
-5.0
 74
     0
 49
2.5
 74
     0
 49
-9.0
 74
     0
  0
LTYPE
  5
92
330
5
100
AcDbSymbolTableRecord
100
AcDbLinetypeTableRecord
  2
ACAD_ISO14W100
 70
     0
  3
ACAD_ISO14W100
 72
    65
 73
     8
 40
1.5
 49
12.0
 74
     0
 49
-3.0
 74
     0
 49
0.5
 74
     0
 49
-3.0
 74
     0
 49
0.5
 74
     0
 49
-3.0
 74
     0
 49
0.5
 74
     0
 49
-3.0
 74
     0
  0
LTYPE
  5
93
330
5
100
AcDbSymbolTableRecord
100
AcDbLinetypeTableRecord
  2
ACAD_ISO06W100
 70
     0
  3
ACAD_ISO06W100
 72
    65
 73
     8
 40
13.5
 49
24.0
 74
     0
 49
-3.0
 74
     0
 49
0.5
 74
     0
 49
-3.0
 74
     0
 49
0.5
 74
     0
 49
-3.0
 74
     0
 49
0.5
 74
     0
 49
-3.0
 74
     0
  0
LTYPE
  5
94
330
5
100
AcDbSymbolTableRecord
100
AcDbLinetypeTableRecord
  2
ACAD_ISO11W100
 70
     0
  3
ACAD_ISO11W100
 72
    65
 73
     6
 40
15.5
 49
12.0
 74
     0
 49
-3.0
 74
     0
 49
12.0
 74
     0
 49
-3.0
 74
     0
 49
0.5
 74
     0
 49
-3.0
 74
     0
  0
LTYPE
  5
95
330
5
100
AcDbSymbolTableRecord
100
AcDbLinetypeTableRecord
  2
ACAD_ISO13W100
 70
     0
  3
ACAD_ISO13W100
 72
    65
 73
     8
 40
13.0
 49
12.0
 74
     0
 49
-3.0
 74
     0
 49
12.0
 74
     0
 49
-3.0
 74
     0
 49
0.5
 74
     0
 49
-3.0
 74
     0
 49
0.5
 74
     0
 49
-3.0
 74
     0
  0
ENDTAB
  0
TABLE
  2
LAYER
  5
2
330
0
100
AcDbSymbolTable
 70
    11
  0
LAYER
  5
10
330
2
100
AcDbSymbolTableRecord
100
AcDbLayerTableRecord
  2
0
 70
     0
 62
     7
  6
CONTINUOUS
  0
LAYER
  5
96
330
2
100
AcDbSymbolTableRecord
100
AcDbLayerTableRecord
  2
1
 70
     0
 62
     7
  6
CONTINUOUS
  0
LAYER
  5
97
330
2
100
AcDbSymbolTableRecord
100
AcDbLayerTableRecord
  2
2
 70
     0
 62
     1
  6
DASHDOT
  0
LAYER
  5
98
330
2
100
AcDbSymbolTableRecord
100
AcDbLayerTableRecord
  2
3
 70
     0
 62
     7
  6
CONTINUOUS
  0
LAYER
  5
99
330
2
100
AcDbSymbolTableRecord
100
AcDbLayerTableRecord
  2
4
 70
     0
 62
   151
  6
CONTINUOUS
  0
LAYER
  5
9A
330
2
100
AcDbSymbolTableRecord
100
AcDbLayerTableRecord
  2
5
 70
     0
 62
     6
  6
CONTINUOUS
  0
LAYER
  5
9B
330
2
100
AcDbSymbolTableRecord
100
AcDbLayerTableRecord
  2
6
 70
     0
 62
     3
  6
CONTINUOUS
  0
LAYER
  5
9C
330
2
100
AcDbSymbolTableRecord
100
AcDbLayerTableRecord
  2
7
 70
     0
 62
     4
  6
CONTINUOUS
  0
LAYER
  5
9D
330
2
100
AcDbSymbolTableRecord
100
AcDbLayerTableRecord
  2
8
 70
     0
 62
     2
  6
CONTINUOUS
  0
LAYER
  5
9E
330
2
100
AcDbSymbolTableRecord
100
AcDbLayerTableRecord
  2
9
 70
     0
 62
     3
  6
HIDDEN
  0
LAYER
  5
9F
330
2
100
AcDbSymbolTableRecord
100
AcDbLayerTableRecord
  2
10
 70
     0
 62
     7
  6
CONTINUOUS
  0
ENDTAB
  0
TABLE
  2
STYLE
  5
3
330
0
100
AcDbSymbolTable
 70
     3
  0
STYLE
  5
11
330
3
100
AcDbSymbolTableRecord
100
AcDbTextStyleTableRecord
  2
STANDARD
 70
     0
 40
0.0
 41
1.0
 50
0.0
 71
     0
 42
8.4
  3
txt
  4
bigfont
  0
STYLE
  5
41
330
3
100
AcDbSymbolTableRecord
100
AcDbTextStyleTableRecord
  2
T_STANDARD
 70
     4
 40
10.0
 41
1.0
 50
0.0
 71
     0
 42
10.0
  3
txt
  4
bigfont
  0
STYLE
  5
169
330
3
100
AcDbSymbolTableRecord
100
AcDbTextStyleTableRecord
  2
ＭＳ_ゴシック
 70
     0
 40
0.0
 41
1.0
 50
0.0
 71
     0
 42
0.0
  3

  4

1001
ACAD
1000
ＭＳ ゴシック
1071
      256
  0
ENDTAB
  0
TABLE
  2
VIEW
  5
6
330
0
100
AcDbSymbolTable
 70
     0
  0
ENDTAB
  0
TABLE
  2
UCS
  5
7
330
0
100
AcDbSymbolTable
 70
     0
  0
ENDTAB
  0
TABLE
  2
APPID
  5
9
330
0
100
AcDbSymbolTable
 70
     2
  0
APPID
  5
12
330
9
100
AcDbSymbolTableRecord
100
AcDbRegAppTableRecord
  2
ACAD
 70
     0
  0
APPID
  5
40
330
9
100
AcDbSymbolTableRecord
100
AcDbRegAppTableRecord
  2
ODA
 70
     0
  0
ENDTAB
  0
TABLE
  2
DIMSTYLE
  5
A
330
0
100
AcDbSymbolTable
 70
     1
  0
DIMSTYLE
105
27
102
{ACAD_REACTORS
330
173
330
17D
330
187
330
193
330
19D
330
1A7
330
1B1
330
1BB
330
1C5
330
1CF
330
1D9
330
1E3
330
1ED
330
1F5
330
1FD
102
}
330
A
100
AcDbSymbolTableRecord
100
AcDbDimStyleTableRecord
  2
STANDARD
 70
     0
  3

  4

  5

  6

  7

 40
1.0
 41
0.18
 42
0.0625
 43
0.38
 44
0.18
 45
0.0
 46
0.0
 47
0.0
 48
0.0
140
0.18
141
0.09
142
0.0
143
25.4
144
1.0
145
0.0
146
1.0
147
0.09
 71
     0
 72
     0
 73
     1
 74
     1
 75
     0
 76
     0
 77
     0
 78
     0
170
     0
171
     2
172
     0
173
     0
174
     0
175
     0
176
     0
177
     0
178
     0
270
     2
271
     4
272
     4
273
     2
274
     2
340
11
275
     0
280
     0
281
     0
282
     0
283
     1
284
     0
285
     0
286
     0
287
     3
288
     0
  0
ENDTAB
  0
TABLE
  2
BLOCK_RECORD
  5
1
330
0
100
AcDbSymbolTable
 70
    31
  0
BLOCK_RECORD
  5
1F
330
1
100
AcDbSymbolTableRecord
100
AcDbBlockTableRecord
  2
*MODEL_SPACE
  0
BLOCK_RECORD
  5
1B
330
1
100
AcDbSymbolTableRecord
100
AcDbBlockTableRecord
  2
*PAPER_SPACE
  0
BLOCK_RECORD
  5
42
330
1
100
AcDbSymbolTableRecord
100
AcDbBlockTableRecord
  2
_ORIGIN
  0
BLOCK_RECORD
  5
47
330
1
100
AcDbSymbolTableRecord
100
AcDbBlockTableRecord
  2
_DOTBLANK
  0
BLOCK_RECORD
  5
4C
330
1
100
AcDbSymbolTableRecord
100
AcDbBlockTableRecord
  2
_DOT
  0
BLOCK_RECORD
  5
51
330
1
100
AcDbSymbolTableRecord
100
AcDbBlockTableRecord
  2
_OPEN
  0
BLOCK_RECORD
  5
57
330
1
100
AcDbSymbolTableRecord
100
AcDbBlockTableRecord
  2
_CLOSED
  0
BLOCK_RECORD
  5
5E
330
1
100
AcDbSymbolTableRecord
100
AcDbBlockTableRecord
  2
_CLOSEDBLANK
  0
BLOCK_RECORD
  5
64
330
1
100
AcDbSymbolTableRecord
100
AcDbBlockTableRecord
  2
_ARROWFILLED
  0
BLOCK_RECORD
  5
68
330
1
100
AcDbSymbolTableRecord
100
AcDbBlockTableRecord
  2
_BOXBLANK
  0
BLOCK_RECORD
  5
70
330
1
100
AcDbSymbolTableRecord
100
AcDbBlockTableRecord
  2
_BOXFILLED
  0
BLOCK_RECORD
  5
75
330
1
100
AcDbSymbolTableRecord
100
AcDbBlockTableRecord
  2
_INTEGRAL
  0
BLOCK_RECORD
  5
7A
330
1
100
AcDbSymbolTableRecord
100
AcDbBlockTableRecord
  2
_OBLIQUE
  0
BLOCK_RECORD
  5
7E
330
1
100
AcDbSymbolTableRecord
100
AcDbBlockTableRecord
  2
_NONE
  0
BLOCK_RECORD
  5
81
330
1
100
AcDbSymbolTableRecord
100
AcDbBlockTableRecord
  2
MARK_OPEN
  0
BLOCK_RECORD
  5
86
330
1
100
AcDbSymbolTableRecord
100
AcDbBlockTableRecord
  2
MARK_ORIGIN
  0
BLOCK_RECORD
  5
8A
330
1
100
AcDbSymbolTableRecord
100
AcDbBlockTableRecord
  2
MARK_DOT
  0
BLOCK_RECORD
  5
16A
330
1
100
AcDbSymbolTableRecord
100
AcDbBlockTableRecord
  2
DIM1
  0
BLOCK_RECORD
  5
174
330
1
100
AcDbSymbolTableRecord
100
AcDbBlockTableRecord
  2
DIM2
  0
BLOCK_RECORD
  5
17E
330
1
100
AcDbSymbolTableRecord
100
AcDbBlockTableRecord
  2
DIM3
  0
BLOCK_RECORD
  5
188
330
1
100
AcDbSymbolTableRecord
100
AcDbBlockTableRecord
  2
DIM4
  0
BLOCK_RECORD
  5
194
330
1
100
AcDbSymbolTableRecord
100
AcDbBlockTableRecord
  2
DIM5
  0
BLOCK_RECORD
  5
19E
330
1
100
AcDbSymbolTableRecord
100
AcDbBlockTableRecord
  2
DIM6
  0
BLOCK_RECORD
  5
1A8
330
1
100
AcDbSymbolTableRecord
100
AcDbBlockTableRecord
  2
DIM7
  0
BLOCK_RECORD
  5
1B2
330
1
100
AcDbSymbolTableRecord
100
AcDbBlockTableRecord
  2
DIM8
  0
BLOCK_RECORD
  5
1BC
330
1
100
AcDbSymbolTableRecord
100
AcDbBlockTableRecord
  2
DIM9
  0
BLOCK_RECORD
  5
1C6
330
1
100
AcDbSymbolTableRecord
100
AcDbBlockTableRecord
  2
DIM10
  0
BLOCK_RECORD
  5
1D0
330
1
100
AcDbSymbolTableRecord
100
AcDbBlockTableRecord
  2
DIM11
  0
BLOCK_RECORD
  5
1DA
330
1
100
AcDbSymbolTableRecord
100
AcDbBlockTableRecord
  2
DIM12
  0
BLOCK_RECORD
  5
1E4
330
1
100
AcDbSymbolTableRecord
100
AcDbBlockTableRecord
  2
DIM13
  0
BLOCK_RECORD
  5
1EE
330
1
100
AcDbSymbolTableRecord
100
AcDbBlockTableRecord
  2
DIM14
  0
BLOCK_RECORD
  5
1F6
330
1
100
AcDbSymbolTableRecord
100
AcDbBlockTableRecord
  2
DIM15
  0
ENDTAB
  0
ENDSEC
  0
SECTION
  2
BLOCKS
  0
BLOCK
  5
20
330
1F
100
AcDbEntity
  8
0
100
AcDbBlockBegin
  2
*MODEL_SPACE
 70
     0
 10
0.0
 20
0.0
 30
0.0
  3
*MODEL_SPACE
  1

  0
ENDBLK
  5
21
330
1F
100
AcDbEntity
  8
0
100
AcDbBlockEnd
  0
BLOCK
  5
1C
330
1B
100
AcDbEntity
 67
     1
  8
0
100
AcDbBlockBegin
  2
*PAPER_SPACE
 70
     0
 10
0.0
 20
0.0
 30
0.0
  3
*PAPER_SPACE
  1

  0
ENDBLK
  5
1D
330
1B
100
AcDbEntity
 67
     1
  8
0
100
AcDbBlockEnd
  0
BLOCK
  5
45
330
42
100
AcDbEntity
  8
0
100
AcDbBlockBegin
  2
_ORIGIN
 70
     0
 10
0.0
 20
0.0
 30
0.0
  3
_ORIGIN
  1

  0
CIRCLE
  5
43
330
42
100
AcDbEntity
  8
0
 62
     0
100
AcDbCircle
 10
0.0
 20
0.0
 30
0.0
 40
0.5
  0
LINE
  5
44
330
42
100
AcDbEntity
  8
0
 62
     0
100
AcDbLine
 10
0.0
 20
0.0
 30
0.0
 11
-1.0
 21
0.0
 31
0.0
  0
ENDBLK
  5
46
330
42
100
AcDbEntity
  8
0
100
AcDbBlockEnd
  0
BLOCK
  5
4A
330
47
100
AcDbEntity
  8
0
100
AcDbBlockBegin
  2
_DOTBLANK
 70
     0
 10
0.0
 20
0.0
 30
0.0
  3
_DOTBLANK
  1

  0
CIRCLE
  5
48
330
47
100
AcDbEntity
  8
0
 62
     0
100
AcDbCircle
 10
0.0
 20
0.0
 30
0.0
 40
0.5
  0
LINE
  5
49
330
47
100
AcDbEntity
  8
0
 62
     0
100
AcDbLine
 10
-0.5
 20
0.0
 30
0.0
 11
-1.0
 21
0.0
 31
0.0
  0
ENDBLK
  5
4B
330
47
100
AcDbEntity
  8
0
100
AcDbBlockEnd
  0
BLOCK
  5
4F
330
4C
100
AcDbEntity
  8
0
100
AcDbBlockBegin
  2
_DOT
 70
     0
 10
0.0
 20
0.0
 30
0.0
  3
_DOT
  1

  0
LWPOLYLINE
  5
4D
330
4C
100
AcDbEntity
  8
0
 62
     0
100
AcDbPolyline
 90
        2
 70
     1
 43
0.5
 10
-0.25
 20
0.0
 42
1.0
 10
0.25
 20
0.0
 42
1.0
  0
LINE
  5
4E
330
4C
100
AcDbEntity
  8
0
 62
     0
100
AcDbLine
 10
-0.5
 20
0.0
 30
0.0
 11
-1.0
 21
0.0
 31
0.0
  0
ENDBLK
  5
50
330
4C
100
AcDbEntity
  8
0
100
AcDbBlockEnd
  0
BLOCK
  5
55
330
51
100
AcDbEntity
  8
0
100
AcDbBlockBegin
  2
_OPEN
 70
     0
 10
0.0
 20
0.0
 30
0.0
  3
_OPEN
  1

  0
LINE
  5
52
330
51
100
AcDbEntity
  8
0
 62
     0
100
AcDbLine
 10
0.0
 20
0.0
 30
0.0
 11
-1.0
 21
0.1666666666666667
 31
0.0
  0
LINE
  5
53
330
51
100
AcDbEntity
  8
0
 62
     0
100
AcDbLine
 10
0.0
 20
0.0
 30
0.0
 11
-1.0
 21
-0.1666666666666667
 31
0.0
  0
LINE
  5
54
330
51
100
AcDbEntity
  8
0
 62
     0
100
AcDbLine
 10
0.0
 20
0.0
 30
0.0
 11
-1.0
 21
0.0
 31
0.0
  0
ENDBLK
  5
56
330
51
100
AcDbEntity
  8
0
100
AcDbBlockEnd
  0
BLOCK
  5
5C
330
57
100
AcDbEntity
  8
0
100
AcDbBlockBegin
  2
_CLOSED
 70
     0
 10
0.0
 20
0.0
 30
0.0
  3
_CLOSED
  1

  0
LINE
  5
58
330
57
100
AcDbEntity
  8
0
 62
     0
100
AcDbLine
 10
0.0
 20
0.0
 30
0.0
 11
-1.0
 21
0.1666666666666667
 31
0.0
  0
LINE
  5
59
330
57
100
AcDbEntity
  8
0
 62
     0
100
AcDbLine
 10
0.0
 20
0.0
 30
0.0
 11
-1.0
 21
-0.1666666666666667
 31
0.0
  0
LINE
  5
5A
330
57
100
AcDbEntity
  8
0
 62
     0
100
AcDbLine
 10
-1.0
 20
0.1666666666666667
 30
0.0
 11
-1.0
 21
-0.1666666666666667
 31
0.0
  0
LINE
  5
5B
330
57
100
AcDbEntity
  8
0
 62
     0
100
AcDbLine
 10
0.0
 20
0.0
 30
0.0
 11
-1.0
 21
0.0
 31
0.0
  0
ENDBLK
  5
5D
330
57
100
AcDbEntity
  8
0
100
AcDbBlockEnd
  0
BLOCK
  5
62
330
5E
100
AcDbEntity
  8
0
100
AcDbBlockBegin
  2
_CLOSEDBLANK
 70
     0
 10
0.0
 20
0.0
 30
0.0
  3
_CLOSEDBLANK
  1

  0
LINE
  5
5F
330
5E
100
AcDbEntity
  8
0
 62
     0
100
AcDbLine
 10
0.0
 20
0.0
 30
0.0
 11
-1.0
 21
0.1666666666666667
 31
0.0
  0
LINE
  5
60
330
5E
100
AcDbEntity
  8
0
 62
     0
100
AcDbLine
 10
0.0
 20
0.0
 30
0.0
 11
-1.0
 21
-0.1666666666666667
 31
0.0
  0
LINE
  5
61
330
5E
100
AcDbEntity
  8
0
 62
     0
100
AcDbLine
 10
-1.0
 20
0.1666666666666667
 30
0.0
 11
-1.0
 21
-0.1666666666666667
 31
0.0
  0
ENDBLK
  5
63
330
5E
100
AcDbEntity
  8
0
100
AcDbBlockEnd
  0
BLOCK
  5
66
330
64
100
AcDbEntity
  8
0
100
AcDbBlockBegin
  2
_ARROWFILLED
 70
     0
 10
0.0
 20
0.0
 30
0.0
  3
_ARROWFILLED
  1

  0
SOLID
  5
65
330
64
100
AcDbEntity
  8
0
 62
     0
100
AcDbTrace
 10
0.0
 20
0.0
 30
0.0
 11
-1.0
 21
-0.1666666666666667
 31
0.0
 12
-1.0
 22
0.1666666666666667
 32
0.0
 13
0.0
 23
0.0
 33
0.0
  0
ENDBLK
  5
67
330
64
100
AcDbEntity
  8
0
100
AcDbBlockEnd
  0
BLOCK
  5
6E
330
68
100
AcDbEntity
  8
0
100
AcDbBlockBegin
  2
_BOXBLANK
 70
     0
 10
0.0
 20
0.0
 30
0.0
  3
_BOXBLANK
  1

  0
LINE
  5
69
330
68
100
AcDbEntity
  8
0
 62
     0
100
AcDbLine
 10
-0.5
 20
-0.5
 30
0.0
 11
0.5
 21
-0.5
 31
0.0
  0
LINE
  5
6A
330
68
100
AcDbEntity
  8
0
 62
     0
100
AcDbLine
 10
0.5
 20
-0.5
 30
0.0
 11
0.5
 21
0.5
 31
0.0
  0
LINE
  5
6B
330
68
100
AcDbEntity
  8
0
 62
     0
100
AcDbLine
 10
0.5
 20
0.5
 30
0.0
 11
-0.5
 21
0.5
 31
0.0
  0
LINE
  5
6C
330
68
100
AcDbEntity
  8
0
 62
     0
100
AcDbLine
 10
-0.5
 20
0.5
 30
0.0
 11
-0.5
 21
-0.5
 31
0.0
  0
LINE
  5
6D
330
68
100
AcDbEntity
  8
0
 62
     0
100
AcDbLine
 10
-0.5
 20
0.0
 30
0.0
 11
-1.0
 21
0.0
 31
0.0
  0
ENDBLK
  5
6F
330
68
100
AcDbEntity
  8
0
100
AcDbBlockEnd
  0
BLOCK
  5
73
330
70
100
AcDbEntity
  8
0
100
AcDbBlockBegin
  2
_BOXFILLED
 70
     0
 10
0.0
 20
0.0
 30
0.0
  3
_BOXFILLED
  1

  0
SOLID
  5
71
330
70
100
AcDbEntity
  8
0
 62
     0
100
AcDbTrace
 10
-0.5
 20
0.5
 30
0.0
 11
0.5
 21
0.5
 31
0.0
 12
-0.5
 22
-0.5
 32
0.0
 13
0.5
 23
-0.5
 33
0.0
  0
LINE
  5
72
330
70
100
AcDbEntity
  8
0
 62
     0
100
AcDbLine
 10
-0.5
 20
0.0
 30
0.0
 11
-1.0
 21
0.0
 31
0.0
  0
ENDBLK
  5
74
330
70
100
AcDbEntity
  8
0
100
AcDbBlockEnd
  0
BLOCK
  5
78
330
75
100
AcDbEntity
  8
0
100
AcDbBlockBegin
  2
_INTEGRAL
 70
     0
 10
0.0
 20
0.0
 30
0.0
  3
_INTEGRAL
  1

  0
ARC
  5
76
330
75
100
AcDbEntity
  8
0
 62
     0
100
AcDbCircle
 10
0.444888
 20
-0.0913346
 30
0.0
 40
0.4541666
100
AcDbArc
 50
101.9999999999999
 51
167.9999999999998
  0
ARC
  5
77
330
75
100
AcDbEntity
  8
0
 62
     0
100
AcDbCircle
 10
-0.444888
 20
0.0913346
 30
0.0
 40
0.4541666
100
AcDbArc
 50
281.9999999999997
 51
347.9999999999997
  0
ENDBLK
  5
79
330
75
100
AcDbEntity
  8
0
100
AcDbBlockEnd
  0
BLOCK
  5
7C
330
7A
100
AcDbEntity
  8
0
100
AcDbBlockBegin
  2
_OBLIQUE
 70
     0
 10
0.0
 20
0.0
 30
0.0
  3
_OBLIQUE
  1

  0
LINE
  5
7B
330
7A
100
AcDbEntity
  8
0
 62
     0
100
AcDbLine
 10
-0.5
 20
-0.5
 30
0.0
 11
0.5
 21
0.5
 31
0.0
  0
ENDBLK
  5
7D
330
7A
100
AcDbEntity
  8
0
100
AcDbBlockEnd
  0
BLOCK
  5
7F
330
7E
100
AcDbEntity
  8
0
100
AcDbBlockBegin
  2
_NONE
 70
     0
 10
0.0
 20
0.0
 30
0.0
  3
_NONE
  1

  0
ENDBLK
  5
80
330
7E
100
AcDbEntity
  8
0
100
AcDbBlockEnd
  0
BLOCK
  5
84
330
81
100
AcDbEntity
  8
0
100
AcDbBlockBegin
  2
MARK_OPEN
 70
     0
 10
0.0
 20
0.0
 30
0.0
  3
MARK_OPEN
  1

  0
LINE
  5
82
330
81
100
AcDbEntity
  8
0
 62
     0
100
AcDbLine
 10
0.0
 20
0.0
 30
0.0
 11
-1.0
 21
0.1666666666666667
 31
0.0
  0
LINE
  5
83
330
81
100
AcDbEntity
  8
0
 62
     0
100
AcDbLine
 10
0.0
 20
0.0
 30
0.0
 11
-1.0
 21
-0.1666666666666667
 31
0.0
  0
ENDBLK
  5
85
330
81
100
AcDbEntity
  8
0
100
AcDbBlockEnd
  0
BLOCK
  5
88
330
86
100
AcDbEntity
  8
0
100
AcDbBlockBegin
  2
MARK_ORIGIN
 70
     0
 10
0.0
 20
0.0
 30
0.0
  3
MARK_ORIGIN
  1

  0
CIRCLE
  5
87
330
86
100
AcDbEntity
  8
0
 62
     0
100
AcDbCircle
 10
0.0
 20
0.0
 30
0.0
 40
0.5
  0
ENDBLK
  5
89
330
86
100
AcDbEntity
  8
0
100
AcDbBlockEnd
  0
BLOCK
  5
8C
330
8A
100
AcDbEntity
  8
0
100
AcDbBlockBegin
  2
MARK_DOT
 70
     0
 10
0.0
 20
0.0
 30
0.0
  3
MARK_DOT
  1

  0
LWPOLYLINE
  5
8B
330
8A
100
AcDbEntity
  8
0
 62
     0
100
AcDbPolyline
 90
        2
 70
     1
 43
0.5
 10
-0.25
 20
0.0
 42
1.0
 10
0.25
 20
0.0
 42
1.0
  0
ENDBLK
  5
8D
330
8A
100
AcDbEntity
  8
0
100
AcDbBlockEnd
  0
BLOCK
  5
16B
330
16A
100
AcDbEntity
  8
0
100
AcDbBlockBegin
  2
DIM1
 70
     0
 10
0.0
 20
0.0
 30
0.0
  3
DIM1
  1

  0
LINE
  5
16D
330
16A
100
AcDbEntity
  8
7
  6
CONTINUOUS
 62
     4
100
AcDbLine
 10
697.3102556202294
 20
316.6221878869768
 30
0.0
 11
697.3102556202293
 21
218.7187518202448
 31
0.0
  0
LINE
  5
16E
330
16A
100
AcDbEntity
  8
7
  6
CONTINUOUS
 62
     4
100
AcDbLine
 10
297.3102556202298
 20
316.6221878869768
 30
0.0
 11
297.3102556202296
 21
218.7187518202448
 31
0.0
  0
LINE
  5
16F
330
16A
100
AcDbEntity
  8
7
  6
CONTINUOUS
 62
     4
100
AcDbLine
 10
697.3102556202293
 20
223.2187518202448
 30
0.0
 11
297.3102556202296
 21
223.2187518202448
 31
0.0
  0
MTEXT
  5
170
330
16A
100
AcDbEntity
  8
7
  6
CONTINUOUS
 62
     4
100
AcDbMText
 10
497.3102556202296
 20
223.2187518202448
 30
0.0
 40
9.0
 41
115.7142857142857
 71
     8
 72
     1
  1
400
  7
ＭＳ_ゴシック
1001
ACAD
1000
ACAD_MTEXT_DEFINED_HEIGHT_BEGIN
1070
    46
1040
9.0
1000
ACAD_MTEXT_DEFINED_HEIGHT_END
  0
INSERT
  5
171
330
16A
100
AcDbEntity
  8
7
  6
CONTINUOUS
 62
     4
100
AcDbBlockReference
  2
_ARROWFILLED
 10
697.3102556202293
 20
223.2187518202448
 30
0.0
 41
6.0
 42
6.0
 43
6.0
 50
359.9999999999997
  0
INSERT
  5
172
330
16A
100
AcDbEntity
  8
7
  6
CONTINUOUS
 62
     4
100
AcDbBlockReference
  2
_ARROWFILLED
 10
297.3102556202296
 20
223.2187518202448
 30
0.0
 41
6.0
 42
6.0
 43
6.0
 50
179.9999999999998
  0
ENDBLK
  5
16C
330
16A
100
AcDbEntity
  8
0
100
AcDbBlockEnd
  0
BLOCK
  5
175
330
174
100
AcDbEntity
  8
0
100
AcDbBlockBegin
  2
DIM2
 70
     0
 10
0.0
 20
0.0
 30
0.0
  3
DIM2
  1

  0
LINE
  5
177
330
174
100
AcDbEntity
  8
7
  6
CONTINUOUS
 62
     4
100
AcDbLine
 10
712.3102556202296
 20
301.6221878869768
 30
0.0
 11
712.3102556202293
 21
194.0326838501645
 31
0.0
  0
LINE
  5
178
330
174
100
AcDbEntity
  8
7
  6
CONTINUOUS
 62
     4
100
AcDbLine
 10
282.3102556202289
 20
301.6221878869768
 30
0.0
 11
282.3102556202287
 21
194.0326838501645
 31
0.0
  0
LINE
  5
179
330
174
100
AcDbEntity
  8
7
  6
CONTINUOUS
 62
     4
100
AcDbLine
 10
712.3102556202293
 20
198.5326838501645
 30
0.0
 11
282.3102556202287
 21
198.5326838501645
 31
0.0
  0
MTEXT
  5
17A
330
174
100
AcDbEntity
  8
7
  6
CONTINUOUS
 62
     4
100
AcDbMText
 10
497.3102556202291
 20
198.5326838501645
 30
0.0
 40
9.0
 41
115.7142857142857
 71
     8
 72
     1
  1
430
  7
ＭＳ_ゴシック
1001
ACAD
1000
ACAD_MTEXT_DEFINED_HEIGHT_BEGIN
1070
    46
1040
9.0
1000
ACAD_MTEXT_DEFINED_HEIGHT_END
  0
INSERT
  5
17B
330
174
100
AcDbEntity
  8
7
  6
CONTINUOUS
 62
     4
100
AcDbBlockReference
  2
_ARROWFILLED
 10
712.3102556202293
 20
198.5326838501645
 30
0.0
 41
6.0
 42
6.0
 43
6.0
 50
359.9999999999997
  0
INSERT
  5
17C
330
174
100
AcDbEntity
  8
7
  6
CONTINUOUS
 62
     4
100
AcDbBlockReference
  2
_ARROWFILLED
 10
282.3102556202287
 20
198.5326838501645
 30
0.0
 41
6.0
 42
6.0
 43
6.0
 50
179.9999999999998
  0
ENDBLK
  5
176
330
174
100
AcDbEntity
  8
0
100
AcDbBlockEnd
  0
BLOCK
  5
17F
330
17E
100
AcDbEntity
  8
0
100
AcDbBlockBegin
  2
DIM3
 70
     0
 10
0.0
 20
0.0
 30
0.0
  3
DIM3
  1

  0
LINE
  5
181
330
17E
100
AcDbEntity
  8
7
  6
CONTINUOUS
 62
     4
100
AcDbLine
 10
747.31025562023
 20
443.6221878869786
 30
0.0
 11
747.3102556202296
 21
194.0326838501645
 31
0.0
  0
LINE
  5
182
330
17E
100
AcDbEntity
  8
7
  6
CONTINUOUS
 62
     4
100
AcDbLine
 10
712.3102556202298
 20
301.6221878869768
 30
0.0
 11
712.3102556202296
 21
194.0326838501645
 31
0.0
  0
LINE
  5
183
330
17E
100
AcDbEntity
  8
7
  6
CONTINUOUS
 62
     4
100
AcDbLine
 10
747.3102556202296
 20
198.5326838501645
 30
0.0
 11
712.3102556202296
 21
198.5326838501645
 31
0.0
  0
MTEXT
  5
184
330
17E
100
AcDbEntity
  8
7
  6
CONTINUOUS
 62
     4
100
AcDbMText
 10
729.8102556202299
 20
198.5326838501645
 30
0.0
 40
9.0
 41
72.85714285714286
 71
     8
 72
     1
  1
35
  7
ＭＳ_ゴシック
1001
ACAD
1000
ACAD_MTEXT_DEFINED_HEIGHT_BEGIN
1070
    46
1040
9.0
1000
ACAD_MTEXT_DEFINED_HEIGHT_END
  0
INSERT
  5
185
330
17E
100
AcDbEntity
  8
7
  6
CONTINUOUS
 62
     4
100
AcDbBlockReference
  2
_ARROWFILLED
 10
747.3102556202296
 20
198.5326838501645
 30
0.0
 41
6.0
 42
6.0
 43
6.0
 50
359.9999999999997
  0
INSERT
  5
186
330
17E
100
AcDbEntity
  8
7
  6
CONTINUOUS
 62
     4
100
AcDbBlockReference
  2
_ARROWFILLED
 10
712.3102556202296
 20
198.5326838501645
 30
0.0
 41
6.0
 42
6.0
 43
6.0
 50
179.9999999999998
  0
ENDBLK
  5
180
330
17E
100
AcDbEntity
  8
0
100
AcDbBlockEnd
  0
BLOCK
  5
189
330
188
100
AcDbEntity
  8
0
100
AcDbBlockBegin
  2
DIM4
 70
     0
 10
0.0
 20
0.0
 30
0.0
  3
DIM4
  1

  0
LINE
  5
18B
330
188
100
AcDbEntity
  8
7
  6
CONTINUOUS
 62
     4
100
AcDbLine
 10
584.8102556202294
 20
293.6221878869773
 30
0.0
 11
584.8102556202293
 21
247.0127186585941
 31
0.0
  0
LINE
  5
18C
330
188
100
AcDbEntity
  8
7
  6
CONTINUOUS
 62
     4
100
AcDbLine
 10
672.3102556202294
 20
293.6221878869773
 30
0.0
 11
672.3102556202293
 21
247.0127186585941
 31
0.0
  0
LINE
  5
18D
330
188
100
AcDbEntity
  8
7
  6
CONTINUOUS
 62
     4
100
AcDbLine
 10
584.8102556202293
 20
251.5127186585941
 30
0.0
 11
672.3102556202293
 21
251.5127186585941
 31
0.0
  0
LINE
  5
18E
330
188
100
AcDbEntity
  8
7
  6
CONTINUOUS
 62
     4
100
AcDbLine
 10
628.5602556202293
 20
251.5127186585941
 30
0.0
 11
619.5602556202294
 21
260.5127186585941
 31
0.0
  0
LINE
  5
18F
330
188
100
AcDbEntity
  8
7
  6
CONTINUOUS
 62
     4
100
AcDbLine
 10
619.5602556202294
 20
260.5127186585941
 30
0.0
 11
625.5602556202294
 21
260.5127186585941
 31
0.0
  0
MTEXT
  5
190
330
188
100
AcDbEntity
  8
7
  6
CONTINUOUS
 62
     4
100
AcDbMText
 10
628.5602556202293
 20
260.5127186585941
 30
0.0
 40
9.0
 41
137.1428571428571
 71
     7
 72
     1
  1
87.5
  7
ＭＳ_ゴシック
1001
ACAD
1000
ACAD_MTEXT_DEFINED_HEIGHT_BEGIN
1070
    46
1040
9.0
1000
ACAD_MTEXT_DEFINED_HEIGHT_END
  0
INSERT
  5
191
330
188
100
AcDbEntity
  8
7
  6
CONTINUOUS
 62
     4
100
AcDbBlockReference
  2
_ARROWFILLED
 10
584.8102556202293
 20
251.5127186585941
 30
0.0
 41
6.0
 42
6.0
 43
6.0
 50
179.9999999999998
  0
INSERT
  5
192
330
188
100
AcDbEntity
  8
7
  6
CONTINUOUS
 62
     4
100
AcDbBlockReference
  2
_ARROWFILLED
 10
672.3102556202293
 20
251.5127186585941
 30
0.0
 41
6.0
 42
6.0
 43
6.0
 50
359.9999999999997
  0
ENDBLK
  5
18A
330
188
100
AcDbEntity
  8
0
100
AcDbBlockEnd
  0
BLOCK
  5
195
330
194
100
AcDbEntity
  8
0
100
AcDbBlockBegin
  2
DIM5
 70
     0
 10
0.0
 20
0.0
 30
0.0
  3
DIM5
  1

  0
LINE
  5
197
330
194
100
AcDbEntity
  8
7
  6
CONTINUOUS
 62
     4
100
AcDbLine
 10
409.8102556202293
 20
293.6221878869773
 30
0.0
 11
409.8102556202293
 21
247.0127186585941
 31
0.0
  0
LINE
  5
198
330
194
100
AcDbEntity
  8
7
  6
CONTINUOUS
 62
     4
100
AcDbLine
 10
322.3102556202293
 20
293.6221878869773
 30
0.0
 11
322.3102556202293
 21
247.0127186585941
 31
0.0
  0
LINE
  5
199
330
194
100
AcDbEntity
  8
7
  6
CONTINUOUS
 62
     4
100
AcDbLine
 10
409.8102556202293
 20
251.5127186585941
 30
0.0
 11
322.3102556202293
 21
251.5127186585941
 31
0.0
  0
MTEXT
  5
19A
330
194
100
AcDbEntity
  8
7
  6
CONTINUOUS
 62
     4
100
AcDbMText
 10
366.0602556202294
 20
251.5127186585941
 30
0.0
 40
9.0
 41
137.1428571428571
 71
     8
 72
     1
  1
87.5
  7
ＭＳ_ゴシック
1001
ACAD
1000
ACAD_MTEXT_DEFINED_HEIGHT_BEGIN
1070
    46
1040
9.0
1000
ACAD_MTEXT_DEFINED_HEIGHT_END
  0
INSERT
  5
19B
330
194
100
AcDbEntity
  8
7
  6
CONTINUOUS
 62
     4
100
AcDbBlockReference
  2
_ARROWFILLED
 10
409.8102556202293
 20
251.5127186585941
 30
0.0
 41
6.0
 42
6.0
 43
6.0
 50
359.9999999999997
  0
INSERT
  5
19C
330
194
100
AcDbEntity
  8
7
  6
CONTINUOUS
 62
     4
100
AcDbBlockReference
  2
_ARROWFILLED
 10
322.3102556202293
 20
251.5127186585941
 30
0.0
 41
6.0
 42
6.0
 43
6.0
 50
179.9999999999998
  0
ENDBLK
  5
196
330
194
100
AcDbEntity
  8
0
100
AcDbBlockEnd
  0
BLOCK
  5
19F
330
19E
100
AcDbEntity
  8
0
100
AcDbBlockBegin
  2
DIM6
 70
     0
 10
0.0
 20
0.0
 30
0.0
  3
DIM6
  1

  0
LINE
  5
1A1
330
19E
100
AcDbEntity
  8
7
  6
CONTINUOUS
 62
     4
100
AcDbLine
 10
951.2487786230454
 20
301.6221878869786
 30
0.0
 11
951.2487786230453
 21
218.6205357573091
 31
0.0
  0
LINE
  5
1A2
330
19E
100
AcDbEntity
  8
7
  6
CONTINUOUS
 62
     4
100
AcDbLine
 10
996.2487786230454
 20
286.6221878869786
 30
0.0
 11
996.2487786230453
 21
218.6205357573091
 31
0.0
  0
LINE
  5
1A3
330
19E
100
AcDbEntity
  8
7
  6
CONTINUOUS
 62
     4
100
AcDbLine
 10
951.2487786230453
 20
223.1205357573091
 30
0.0
 11
996.2487786230453
 21
223.1205357573091
 31
0.0
  0
MTEXT
  5
1A4
330
19E
100
AcDbEntity
  8
7
  6
CONTINUOUS
 62
     4
100
AcDbMText
 10
973.7487786230455
 20
223.1205357573091
 30
0.0
 40
9.0
 41
72.85714285714286
 71
     8
 72
     1
  1
45
  7
ＭＳ_ゴシック
1001
ACAD
1000
ACAD_MTEXT_DEFINED_HEIGHT_BEGIN
1070
    46
1040
9.0
1000
ACAD_MTEXT_DEFINED_HEIGHT_END
  0
INSERT
  5
1A5
330
19E
100
AcDbEntity
  8
7
  6
CONTINUOUS
 62
     4
100
AcDbBlockReference
  2
_ARROWFILLED
 10
951.2487786230453
 20
223.1205357573091
 30
0.0
 41
6.0
 42
6.0
 43
6.0
 50
179.9999999999998
  0
INSERT
  5
1A6
330
19E
100
AcDbEntity
  8
7
  6
CONTINUOUS
 62
     4
100
AcDbBlockReference
  2
_ARROWFILLED
 10
996.2487786230453
 20
223.1205357573091
 30
0.0
 41
6.0
 42
6.0
 43
6.0
 50
359.9999999999997
  0
ENDBLK
  5
1A0
330
19E
100
AcDbEntity
  8
0
100
AcDbBlockEnd
  0
BLOCK
  5
1A9
330
1A8
100
AcDbEntity
  8
0
100
AcDbBlockBegin
  2
DIM7
 70
     0
 10
0.0
 20
0.0
 30
0.0
  3
DIM7
  1

  0
LINE
  5
1AB
330
1A8
100
AcDbEntity
  8
7
  6
CONTINUOUS
 62
     4
100
AcDbLine
 10
995.2487786230454
 20
286.6221878869786
 30
0.0
 11
995.2487786230454
 21
271.6964985022902
 31
0.0
  0
LINE
  5
1AC
330
1A8
100
AcDbEntity
  8
7
  6
CONTINUOUS
 62
     4
100
AcDbLine
 10
996.2487786230454
 20
286.6221878869786
 30
0.0
 11
996.2487786230454
 21
271.6964985022902
 31
0.0
  0
LINE
  5
1AD
330
1A8
100
AcDbEntity
  8
7
  6
CONTINUOUS
 62
     4
100
AcDbLine
 10
983.2487786230454
 20
276.1964985022902
 30
0.0
 11
1015.082155944684
 21
276.1964985022902
 31
0.0
  0
MTEXT
  5
1AE
330
1A8
100
AcDbEntity
  8
7
  6
CONTINUOUS
 62
     4
100
AcDbMText
 10
1010.582155944684
 20
276.1964985022902
 30
0.0
 40
9.0
 41
10.71428571428572
 71
     7
 72
     1
  1
1
  7
ＭＳ_ゴシック
1001
ACAD
1000
ACAD_MTEXT_DEFINED_HEIGHT_BEGIN
1070
    46
1040
9.0
1000
ACAD_MTEXT_DEFINED_HEIGHT_END
  0
INSERT
  5
1AF
330
1A8
100
AcDbEntity
  8
7
  6
CONTINUOUS
 62
     4
100
AcDbBlockReference
  2
_ARROWFILLED
 10
995.2487786230454
 20
276.1964985022902
 30
0.0
 41
6.0
 42
6.0
 43
6.0
 50
359.9999999999997
  0
INSERT
  5
1B0
330
1A8
100
AcDbEntity
  8
7
  6
CONTINUOUS
 62
     4
100
AcDbBlockReference
  2
_ARROWFILLED
 10
996.2487786230454
 20
276.1964985022902
 30
0.0
 41
6.0
 42
6.0
 43
6.0
 50
179.9999999999995
  0
ENDBLK
  5
1AA
330
1A8
100
AcDbEntity
  8
0
100
AcDbBlockEnd
  0
BLOCK
  5
1B3
330
1B2
100
AcDbEntity
  8
0
100
AcDbBlockBegin
  2
DIM8
 70
     0
 10
0.0
 20
0.0
 30
0.0
  3
DIM8
  1

  0
LINE
  5
1B5
330
1B2
100
AcDbEntity
  8
7
  6
CONTINUOUS
 62
     4
100
AcDbLine
 10
996.2487786230454
 20
286.6221878869786
 30
0.0
 11
996.2487786230453
 21
246.9537334457724
 31
0.0
  0
LINE
  5
1B6
330
1B2
100
AcDbEntity
  8
7
  6
CONTINUOUS
 62
     4
100
AcDbLine
 10
962.7487786230449
 20
443.6221878869786
 30
0.0
 11
962.7487786230446
 21
246.9537334457724
 31
0.0
  0
LINE
  5
1B7
330
1B2
100
AcDbEntity
  8
7
  6
CONTINUOUS
 62
     4
100
AcDbLine
 10
996.2487786230453
 20
251.4537334457724
 30
0.0
 11
962.7487786230446
 21
251.4537334457724
 31
0.0
  0
MTEXT
  5
1B8
330
1B2
100
AcDbEntity
  8
7
  6
CONTINUOUS
 62
     4
100
AcDbMText
 10
979.4987786230453
 20
251.4537334457724
 30
0.0
 40
9.0
 41
137.1428571428571
 71
     8
 72
     1
  1
33.5
  7
ＭＳ_ゴシック
1001
ACAD
1000
ACAD_MTEXT_DEFINED_HEIGHT_BEGIN
1070
    46
1040
9.0
1000
ACAD_MTEXT_DEFINED_HEIGHT_END
  0
INSERT
  5
1B9
330
1B2
100
AcDbEntity
  8
7
  6
CONTINUOUS
 62
     4
100
AcDbBlockReference
  2
_ARROWFILLED
 10
996.2487786230453
 20
251.4537334457724
 30
0.0
 41
6.0
 42
6.0
 43
6.0
 50
359.9999999999997
  0
INSERT
  5
1BA
330
1B2
100
AcDbEntity
  8
7
  6
CONTINUOUS
 62
     4
100
AcDbBlockReference
  2
_ARROWFILLED
 10
962.7487786230446
 20
251.4537334457724
 30
0.0
 41
6.0
 42
6.0
 43
6.0
 50
179.9999999999998
  0
ENDBLK
  5
1B4
330
1B2
100
AcDbEntity
  8
0
100
AcDbBlockEnd
  0
BLOCK
  5
1BD
330
1BC
100
AcDbEntity
  8
0
100
AcDbBlockBegin
  2
DIM9
 70
     0
 10
0.0
 20
0.0
 30
0.0
  3
DIM9
  1

  0
LINE
  5
1BF
330
1BC
100
AcDbEntity
  8
7
  6
CONTINUOUS
 62
     4
100
AcDbLine
 10
409.8102556202293
 20
293.6221878869773
 30
0.0
 11
409.8102556202293
 21
247.0127186585941
 31
0.0
  0
LINE
  5
1C0
330
1BC
100
AcDbEntity
  8
7
  6
CONTINUOUS
 62
     4
100
AcDbLine
 10
584.8102556202294
 20
293.6221878869773
 30
0.0
 11
584.8102556202293
 21
247.0127186585941
 31
0.0
  0
LINE
  5
1C1
330
1BC
100
AcDbEntity
  8
7
  6
CONTINUOUS
 62
     4
100
AcDbLine
 10
409.8102556202293
 20
251.5127186585941
 30
0.0
 11
584.8102556202293
 21
251.5127186585941
 31
0.0
  0
MTEXT
  5
1C2
330
1BC
100
AcDbEntity
  8
7
  6
CONTINUOUS
 62
     4
100
AcDbMText
 10
497.3102556202294
 20
251.5127186585941
 30
0.0
 40
9.0
 41
109.2857142857143
 71
     8
 72
     1
  1
175
  7
ＭＳ_ゴシック
1001
ACAD
1000
ACAD_MTEXT_DEFINED_HEIGHT_BEGIN
1070
    46
1040
9.0
1000
ACAD_MTEXT_DEFINED_HEIGHT_END
  0
INSERT
  5
1C3
330
1BC
100
AcDbEntity
  8
7
  6
CONTINUOUS
 62
     4
100
AcDbBlockReference
  2
_ARROWFILLED
 10
409.8102556202293
 20
251.5127186585941
 30
0.0
 41
6.0
 42
6.0
 43
6.0
 50
179.9999999999998
  0
INSERT
  5
1C4
330
1BC
100
AcDbEntity
  8
7
  6
CONTINUOUS
 62
     4
100
AcDbBlockReference
  2
_ARROWFILLED
 10
584.8102556202293
 20
251.5127186585941
 30
0.0
 41
6.0
 42
6.0
 43
6.0
 50
359.9999999999997
  0
ENDBLK
  5
1BE
330
1BC
100
AcDbEntity
  8
0
100
AcDbBlockEnd
  0
BLOCK
  5
1C7
330
1C6
100
AcDbEntity
  8
0
100
AcDbBlockBegin
  2
DIM10
 70
     0
 10
0.0
 20
0.0
 30
0.0
  3
DIM10
  1

  0
LINE
  5
1C9
330
1C6
100
AcDbEntity
  8
7
  6
CONTINUOUS
 62
     4
100
AcDbLine
 10
700.3102556202366
 20
619.6221878869724
 30
0.0
 11
781.1833720667346
 21
619.6221878869724
 31
0.0
  0
LINE
  5
1CA
330
1C6
100
AcDbEntity
  8
7
  6
CONTINUOUS
 62
     4
100
AcDbLine
 10
700.3102556202298
 20
319.6221878869723
 30
0.0
 11
781.183372066735
 21
319.6221878869723
 31
0.0
  0
LINE
  5
1CB
330
1C6
100
AcDbEntity
  8
7
  6
CONTINUOUS
 62
     4
100
AcDbLine
 10
776.6833720667346
 20
619.6221878869724
 30
0.0
 11
776.683372066735
 21
319.6221878869723
 31
0.0
  0
MTEXT
  5
1CC
330
1C6
100
AcDbEntity
  8
7
  6
CONTINUOUS
 62
     4
100
AcDbMText
 10
776.6833720667348
 20
469.6221878869724
 30
0.0
 40
9.0
 41
115.7142857142857
 71
     8
 72
     1
  1
300
  7
ＭＳ_ゴシック
 11
1.615544574432587E-15
 21
1.0
 31
0.0
1001
ACAD
1000
ACAD_MTEXT_DEFINED_HEIGHT_BEGIN
1070
    46
1040
9.0
1000
ACAD_MTEXT_DEFINED_HEIGHT_END
  0
INSERT
  5
1CD
330
1C6
100
AcDbEntity
  8
7
  6
CONTINUOUS
 62
     4
100
AcDbBlockReference
  2
_ARROWFILLED
 10
776.6833720667346
 20
619.6221878869724
 30
0.0
 41
6.0
 42
6.0
 43
6.0
 50
89.99999999999991
  0
INSERT
  5
1CE
330
1C6
100
AcDbEntity
  8
7
  6
CONTINUOUS
 62
     4
100
AcDbBlockReference
  2
_ARROWFILLED
 10
776.683372066735
 20
319.6221878869723
 30
0.0
 41
6.0
 42
6.0
 43
6.0
 50
269.9999999999999
  0
ENDBLK
  5
1C8
330
1C6
100
AcDbEntity
  8
0
100
AcDbBlockEnd
  0
BLOCK
  5
1D1
330
1D0
100
AcDbEntity
  8
0
100
AcDbBlockBegin
  2
DIM11
 70
     0
 10
0.0
 20
0.0
 30
0.0
  3
DIM11
  1

  0
LINE
  5
1D3
330
1D0
100
AcDbEntity
  8
7
  6
CONTINUOUS
 62
     4
100
AcDbLine
 10
715.3102556202379
 20
634.6221878869719
 30
0.0
 11
810.4947942158992
 21
634.6221878869719
 31
0.0
  0
LINE
  5
1D4
330
1D0
100
AcDbEntity
  8
7
  6
CONTINUOUS
 62
     4
100
AcDbLine
 10
715.3102556202304
 20
304.6221878869719
 30
0.0
 11
810.4947942158997
 21
304.6221878869719
 31
0.0
  0
LINE
  5
1D5
330
1D0
100
AcDbEntity
  8
7
  6
CONTINUOUS
 62
     4
100
AcDbLine
 10
805.9947942158992
 20
634.6221878869719
 30
0.0
 11
805.9947942158997
 21
304.6221878869719
 31
0.0
  0
MTEXT
  5
1D6
330
1D0
100
AcDbEntity
  8
7
  6
CONTINUOUS
 62
     4
100
AcDbMText
 10
805.9947942158994
 20
469.6221878869719
 30
0.0
 40
9.0
 41
115.7142857142857
 71
     8
 72
     1
  1
330
  7
ＭＳ_ゴシック
 11
1.837589179357618E-15
 21
1.0
 31
0.0
1001
ACAD
1000
ACAD_MTEXT_DEFINED_HEIGHT_BEGIN
1070
    46
1040
9.0
1000
ACAD_MTEXT_DEFINED_HEIGHT_END
  0
INSERT
  5
1D7
330
1D0
100
AcDbEntity
  8
7
  6
CONTINUOUS
 62
     4
100
AcDbBlockReference
  2
_ARROWFILLED
 10
805.9947942158992
 20
634.6221878869719
 30
0.0
 41
6.0
 42
6.0
 43
6.0
 50
89.9999999999999
  0
INSERT
  5
1D8
330
1D0
100
AcDbEntity
  8
7
  6
CONTINUOUS
 62
     4
100
AcDbBlockReference
  2
_ARROWFILLED
 10
805.9947942158997
 20
304.6221878869719
 30
0.0
 41
6.0
 42
6.0
 43
6.0
 50
269.9999999999999
  0
ENDBLK
  5
1D2
330
1D0
100
AcDbEntity
  8
0
100
AcDbBlockEnd
  0
BLOCK
  5
1DB
330
1DA
100
AcDbEntity
  8
0
100
AcDbBlockBegin
  2
DIM12
 70
     0
 10
0.0
 20
0.0
 30
0.0
  3
DIM12
  1

  0
LINE
  5
1DD
330
1DA
100
AcDbEntity
  8
7
  6
CONTINUOUS
 62
     4
100
AcDbLine
 10
675.3102556202375
 20
642.6221878869724
 30
0.0
 11
839.421434175154
 21
642.6221878869724
 31
0.0
  0
LINE
  5
1DE
330
1DA
100
AcDbEntity
  8
7
  6
CONTINUOUS
 62
     4
100
AcDbLine
 10
675.3102556202296
 20
296.6221878869733
 30
0.0
 11
839.4214341751544
 21
296.6221878869733
 31
0.0
  0
LINE
  5
1DF
330
1DA
100
AcDbEntity
  8
7
  6
CONTINUOUS
 62
     4
100
AcDbLine
 10
834.921434175154
 20
642.6221878869724
 30
0.0
 11
834.9214341751544
 21
296.6221878869733
 31
0.0
  0
MTEXT
  5
1E0
330
1DA
100
AcDbEntity
  8
7
  6
CONTINUOUS
 62
     4
100
AcDbMText
 10
834.9214341751542
 20
469.6221878869728
 30
0.0
 40
9.0
 41
115.7142857142857
 71
     8
 72
     1
  1
346
  7
ＭＳ_ゴシック
 11
1.837589179357618E-15
 21
1.0
 31
0.0
1001
ACAD
1000
ACAD_MTEXT_DEFINED_HEIGHT_BEGIN
1070
    46
1040
9.0
1000
ACAD_MTEXT_DEFINED_HEIGHT_END
  0
INSERT
  5
1E1
330
1DA
100
AcDbEntity
  8
7
  6
CONTINUOUS
 62
     4
100
AcDbBlockReference
  2
_ARROWFILLED
 10
834.921434175154
 20
642.6221878869724
 30
0.0
 41
6.0
 42
6.0
 43
6.0
 50
89.9999999999999
  0
INSERT
  5
1E2
330
1DA
100
AcDbEntity
  8
7
  6
CONTINUOUS
 62
     4
100
AcDbBlockReference
  2
_ARROWFILLED
 10
834.9214341751544
 20
296.6221878869733
 30
0.0
 41
6.0
 42
6.0
 43
6.0
 50
269.9999999999999
  0
ENDBLK
  5
1DC
330
1DA
100
AcDbEntity
  8
0
100
AcDbBlockEnd
  0
BLOCK
  5
1E5
330
1E4
100
AcDbEntity
  8
0
100
AcDbBlockBegin
  2
DIM13
 70
     0
 10
0.0
 20
0.0
 30
0.0
  3
DIM13
  1

  0
LINE
  5
1E7
330
1E4
100
AcDbEntity
  8
7
  6
CONTINUOUS
 62
     4
100
AcDbLine
 10
695.3102556202376
 20
649.6221878869719
 30
0.0
 11
864.985558908861
 21
649.6221878869719
 31
0.0
  0
LINE
  5
1E8
330
1E4
100
AcDbEntity
  8
7
  6
CONTINUOUS
 62
     4
100
AcDbLine
 10
695.3102556202294
 20
289.6221878869728
 30
0.0
 11
864.9855589088615
 21
289.6221878869728
 31
0.0
  0
LINE
  5
1E9
330
1E4
100
AcDbEntity
  8
7
  6
CONTINUOUS
 62
     4
100
AcDbLine
 10
860.485558908861
 20
649.6221878869719
 30
0.0
 11
860.4855589088615
 21
289.6221878869728
 31
0.0
  0
MTEXT
  5
1EA
330
1E4
100
AcDbEntity
  8
7
  6
CONTINUOUS
 62
     4
100
AcDbMText
 10
860.4855589088612
 20
469.6221878869724
 30
0.0
 40
9.0
 41
115.7142857142857
 71
     8
 72
     1
  1
360
  7
ＭＳ_ゴシック
 11
1.615544574432587E-15
 21
1.0
 31
0.0
1001
ACAD
1000
ACAD_MTEXT_DEFINED_HEIGHT_BEGIN
1070
    46
1040
9.0
1000
ACAD_MTEXT_DEFINED_HEIGHT_END
  0
INSERT
  5
1EB
330
1E4
100
AcDbEntity
  8
7
  6
CONTINUOUS
 62
     4
100
AcDbBlockReference
  2
_ARROWFILLED
 10
860.485558908861
 20
649.6221878869719
 30
0.0
 41
6.0
 42
6.0
 43
6.0
 50
89.99999999999991
  0
INSERT
  5
1EC
330
1E4
100
AcDbEntity
  8
7
  6
CONTINUOUS
 62
     4
100
AcDbBlockReference
  2
_ARROWFILLED
 10
860.4855589088615
 20
289.6221878869728
 30
0.0
 41
6.0
 42
6.0
 43
6.0
 50
269.9999999999999
  0
ENDBLK
  5
1E6
330
1E4
100
AcDbEntity
  8
0
100
AcDbBlockEnd
  0
BLOCK
  5
1EF
330
1EE
100
AcDbEntity
  8
0
100
AcDbBlockBegin
  2
DIM14
 70
     0
 10
0.0
 20
0.0
 30
0.0
  3
DIM14
  1

  0
LINE
  5
1F1
330
1EE
100
AcDbEntity
  8
7
  6
CONTINUOUS
 62
     4
100
AcDbLine
 10
521.6021886655992
 20
452.8844464348199
 30
0.0
 11
242.1080940861005
 21
645.4627761930763
 31
0.0
  0
MTEXT
  5
1F2
330
1EE
100
AcDbEntity
  8
7
  6
CONTINUOUS
 62
     4
100
AcDbMText
 10
253.2247414119453
 20
637.8031317997123
 30
0.0
 40
9.0
 41
113.5714285714286
 71
     9
 72
     1
  1
\U+220535
  7
ＭＳ_ゴシック
 11
0.8234553574701526
 21
-0.5673810661748444
 31
0.0
1001
ACAD
1000
ACAD_MTEXT_DEFINED_HEIGHT_BEGIN
1070
    46
1040
9.0
1000
ACAD_MTEXT_DEFINED_HEIGHT_END
  0
INSERT
  5
1F3
330
1EE
100
AcDbEntity
  8
7
  6
CONTINUOUS
 62
     4
100
AcDbBlockReference
  2
_ARROWFILLED
 10
511.7207243759574
 20
459.6930192289181
 30
0.0
 41
6.0
 42
6.0
 43
6.0
 50
145.4321992949158
  0
INSERT
  5
1F4
330
1EE
100
AcDbEntity
  8
7
  6
CONTINUOUS
 62
     4
100
AcDbBlockReference
  2
_ARROWFILLED
 10
482.8997868645024
 20
479.5513565450375
 30
0.0
 41
6.0
 42
6.0
 43
6.0
 50
325.4321992949159
  0
ENDBLK
  5
1F0
330
1EE
100
AcDbEntity
  8
0
100
AcDbBlockEnd
  0
BLOCK
  5
1F7
330
1F6
100
AcDbEntity
  8
0
100
AcDbBlockBegin
  2
DIM15
 70
     0
 10
0.0
 20
0.0
 30
0.0
  3
DIM15
  1

  0
LINE
  5
1F9
330
1F6
100
AcDbEntity
  8
7
  6
CONTINUOUS
 62
     4
100
AcDbLine
 10
529.2260695270138
 20
456.5213931527854
 30
0.0
 11
237.0704768467535
 21
576.4453424942994
 31
0.0
  0
MTEXT
  5
1FA
330
1F6
100
AcDbEntity
  8
7
  6
CONTINUOUS
 62
     4
100
AcDbMText
 10
249.5592735928861
 20
571.3189445548309
 30
0.0
 40
9.0
 41
113.5714285714286
 71
     9
 72
     1
  1
\U+220545
  7
ＭＳ_ゴシック
 11
0.9250960552691395
 21
-0.3797331807012354
 31
0.0
1001
ACAD
1000
ACAD_MTEXT_DEFINED_HEIGHT_BEGIN
1070
    46
1040
9.0
1000
ACAD_MTEXT_DEFINED_HEIGHT_END
  0
INSERT
  5
1FB
330
1F6
100
AcDbEntity
  8
7
  6
CONTINUOUS
 62
     4
100
AcDbBlockReference
  2
_ARROWFILLED
 10
518.1249168637842
 20
461.0781913212002
 30
0.0
 41
6.0
 42
6.0
 43
6.0
 50
157.6828437611638
  0
INSERT
  5
1FC
330
1F6
100
AcDbEntity
  8
7
  6
CONTINUOUS
 62
     4
100
AcDbBlockReference
  2
_ARROWFILLED
 10
476.4955943766736
 20
478.1661844527557
 30
0.0
 41
6.0
 42
6.0
 43
6.0
 50
337.6828437611638
  0
ENDBLK
  5
1F8
330
1F6
100
AcDbEntity
  8
0
100
AcDbBlockEnd
  0
ENDSEC
  0
SECTION
  2
ENTITIES
  0
POLYLINE
  5
A0
330
1F
100
AcDbEntity
  8
10
  6
CONTINUOUS
 62
     7
100
AcDb2dPolyline
 66
     1
 10
0.0
 20
0.0
 30
0.0
  0
VERTEX
  5
A1
330
A0
100
AcDbEntity
  8
10
  6
CONTINUOUS
 62
     7
100
AcDbVertex
100
AcDb2dVertex
 10
297.3102556202298
 20
319.6221878869768
 30
0.0
  0
VERTEX
  5
A2
330
A0
100
AcDbEntity
  8
10
  6
CONTINUOUS
 62
     7
100
AcDbVertex
100
AcDb2dVertex
 10
697.3102556202298
 20
319.6221878869768
 30
0.0
  0
VERTEX
  5
A3
330
A0
100
AcDbEntity
  8
10
  6
CONTINUOUS
 62
     7
100
AcDbVertex
100
AcDb2dVertex
 10
697.3102556202298
 20
619.6221878869768
 30
0.0
  0
VERTEX
  5
A4
330
A0
100
AcDbEntity
  8
10
  6
CONTINUOUS
 62
     7
100
AcDbVertex
100
AcDb2dVertex
 10
297.3102556202298
 20
619.6221878869769
 30
0.0
  0
VERTEX
  5
A5
330
A0
100
AcDbEntity
  8
10
  6
CONTINUOUS
 62
     7
100
AcDbVertex
100
AcDb2dVertex
 10
297.3102556202298
 20
319.6221878869768
 30
0.0
  0
SEQEND
  5
A6
330
A0
100
AcDbEntity
  8
10
  6
CONTINUOUS
 62
     7
  0
LINE
  5
A7
330
1F
100
AcDbEntity
  8
10
  6
CONTINUOUS
 62
     7
100
AcDbLine
 10
712.3102556202298
 20
304.6221878869768
 30
0.0
 11
282.3102556202289
 21
304.6221878869768
 31
0.0
  0
LINE
  5
A8
330
1F
100
AcDbEntity
  8
10
  6
CONTINUOUS
 62
     7
100
AcDbLine
 10
282.3102556202289
 20
304.6221878869768
 30
0.0
 11
282.3102556202289
 21
634.6221878869769
 31
0.0
  0
LINE
  5
A9
330
1F
100
AcDbEntity
  8
10
  6
CONTINUOUS
 62
     7
100
AcDbLine
 10
712.3102556202298
 20
304.6221878869768
 30
0.0
 11
712.3102556202298
 21
634.6221878869768
 31
0.0
  0
LINE
  5
AA
330
1F
100
AcDbEntity
  8
10
  6
CONTINUOUS
 62
     7
100
AcDbLine
 10
712.3102556202298
 20
634.6221878869768
 30
0.0
 11
282.3102556202289
 21
634.6221878869769
 31
0.0
  0
LINE
  5
AB
330
1F
100
AcDbEntity
  8
10
  6
CONTINUOUS
 62
     7
100
AcDbLine
 10
747.3102556202298
 20
446.6221878869786
 30
0.0
 11
747.3102556202298
 21
492.6221878869786
 31
0.0
  0
LINE
  5
AC
330
1F
100
AcDbEntity
  8
10
  6
CONTINUOUS
 62
     7
100
AcDbLine
 10
747.3102556202298
 20
491.1221878869786
 30
0.0
 11
712.3102556202289
 21
491.1221878869786
 31
0.0
  0
LINE
  5
AD
330
1F
100
AcDbEntity
  8
10
  6
CONTINUOUS
 62
     7
100
AcDbLine
 10
747.3102556202298
 20
492.6221878869786
 30
0.0
 11
712.3102556202298
 21
492.6221878869786
 31
0.0
  0
LINE
  5
AE
330
1F
100
AcDbEntity
  8
10
  6
CONTINUOUS
 62
     7
100
AcDbLine
 10
747.3102556202298
 20
448.1221878869786
 30
0.0
 11
712.3102556202289
 21
448.1221878869786
 31
0.0
  0
LINE
  5
AF
330
1F
100
AcDbEntity
  8
10
  6
CONTINUOUS
 62
     7
100
AcDbLine
 10
747.3102556202298
 20
446.6221878869786
 30
0.0
 11
712.3102556202298
 21
446.6221878869786
 31
0.0
  0
LINE
  5
B0
330
1F
100
AcDbEntity
  8
10
  6
CONTINUOUS
 62
     7
100
AcDbLine
 10
740.1602556202283
 20
442.3561812475075
 30
0.0
 11
740.1602556202283
 21
435.1221878869767
 31
0.0
  0
LINE
  5
B1
330
1F
100
AcDbEntity
  8
10
  6
CONTINUOUS
 62
     7
100
AcDbLine
 10
739.6217940817673
 20
439.8221878869766
 30
0.0
 11
740.1602556202283
 21
440.7548306295142
 31
0.0
  0
LINE
  5
B2
330
1F
100
AcDbEntity
  8
10
  6
CONTINUOUS
 62
     7
100
AcDbLine
 10
739.360255620229
 20
434.3221878869766
 30
0.0
 11
740.1602556202283
 21
435.1221878869767
 31
0.0
  0
LINE
  5
B3
330
1F
100
AcDbEntity
  8
10
  6
CONTINUOUS
 62
     7
100
AcDbLine
 10
739.6217940817673
 20
439.8221878869766
 30
0.0
 11
739.6217940817673
 21
434.5837263485149
 31
0.0
  0
LINE
  5
B4
330
1F
100
AcDbEntity
  8
10
  6
CONTINUOUS
 62
     7
100
AcDbLine
 10
743.8102556202298
 20
444.3221878869766
 30
0.0
 11
743.8102556202298
 21
446.6221878869767
 31
0.0
  0
LINE
  5
B5
330
1F
100
AcDbEntity
  8
10
  6
CONTINUOUS
 62
     7
100
AcDbLine
 10
714.8102556202298
 20
444.3221878869766
 30
0.0
 11
714.8102556202298
 21
446.6221878869767
 31
0.0
  0
LINE
  5
B6
330
1F
100
AcDbEntity
  8
10
  6
CONTINUOUS
 62
     7
100
AcDbLine
 10
718.9987171586904
 20
439.8221878869766
 30
0.0
 11
718.4602556202294
 21
440.7548306295142
 31
0.0
  0
LINE
  5
B7
330
1F
100
AcDbEntity
  8
10
  6
CONTINUOUS
 62
     7
100
AcDbLine
 10
743.8102556202298
 20
444.3221878869766
 30
0.0
 11
714.8102556202298
 21
444.3221878869766
 31
0.0
  0
LINE
  5
B8
330
1F
100
AcDbEntity
  8
10
  6
CONTINUOUS
 62
     7
100
AcDbLine
 10
718.4602556202294
 20
439.8221878869766
 30
0.0
 11
740.1602556202283
 21
439.8221878869766
 31
0.0
  0
LINE
  5
B9
330
1F
100
AcDbEntity
  8
10
  6
CONTINUOUS
 62
     7
100
AcDbLine
 10
719.2602556202287
 20
434.3221878869766
 30
0.0
 11
718.4602556202294
 21
435.1221878869767
 31
0.0
  0
LINE
  5
BA
330
1F
100
AcDbEntity
  8
10
  6
CONTINUOUS
 62
     7
100
AcDbLine
 10
718.4602556202294
 20
435.1221878869767
 30
0.0
 11
740.1602556202283
 21
435.1221878869767
 31
0.0
  0
LINE
  5
BB
330
1F
100
AcDbEntity
  8
10
  6
CONTINUOUS
 62
     7
100
AcDbLine
 10
718.4602556202294
 20
442.348902718188
 30
0.0
 11
718.4602556202294
 21
435.1221878869767
 31
0.0
  0
LINE
  5
BC
330
1F
100
AcDbEntity
  8
10
  6
CONTINUOUS
 62
     7
100
AcDbLine
 10
718.9987171586904
 20
439.8221878869766
 30
0.0
 11
718.9987171586904
 21
434.5837263485149
 31
0.0
  0
LINE
  5
BD
330
1F
100
AcDbEntity
  8
10
  6
CONTINUOUS
 62
     7
100
AcDbLine
 10
719.2602556202287
 20
434.3221878869766
 30
0.0
 11
739.360255620229
 21
434.3221878869766
 31
0.0
  0
LINE
  5
BE
330
1F
100
AcDbEntity
  8
10
  6
CONTINUOUS
 62
     7
100
AcDbLine
 10
743.5992777525785
 20
444.3221878869766
 30
0.0
 11
738.0992777525785
 21
444.3221878869766
 31
0.0
  0
ARC
  5
BF
330
1F
100
AcDbEntity
  8
10
  6
CONTINUOUS
 62
     7
100
AcDbCircle
 10
740.8492777525785
 20
449.3221878869766
 30
0.0
 40
7.0
100
AcDbArc
 50
253.4486440000086
 51
286.5513559999907
  0
LINE
  5
C0
330
1F
100
AcDbEntity
  8
10
  6
CONTINUOUS
 62
     7
100
AcDbLine
 10
743.5992777525785
 20
444.3221878869766
 30
0.0
 11
743.5571557525786
 21
443.5184628869768
 31
0.0
  0
ARC
  5
C1
330
1F
100
AcDbEntity
  8
10
  6
CONTINUOUS
 62
     7
100
AcDbCircle
 10
742.5585257525786
 20
443.5707988869765
 30
0.0
 40
1.0
100
AcDbArc
 50
286.5513559999903
 51
356.9999999999939
  0
LINE
  5
C2
330
1F
100
AcDbEntity
  8
10
  6
CONTINUOUS
 62
     7
100
AcDbLine
 10
738.0992777525785
 20
444.3221878869766
 30
0.0
 11
738.1413997525792
 21
443.5184628869768
 31
0.0
  0
ARC
  5
C3
330
1F
100
AcDbEntity
  8
10
  6
CONTINUOUS
 62
     7
100
AcDbCircle
 10
739.1400297525793
 20
443.5707988869765
 30
0.0
 40
1.0
100
AcDbArc
 50
183.0000000000054
 51
253.448644000009
  0
LINE
  5
C4
330
1F
100
AcDbEntity
  8
10
  6
CONTINUOUS
 62
     7
100
AcDbLine
 10
720.5992777525785
 20
444.3221878869766
 30
0.0
 11
715.0992777525785
 21
444.3221878869766
 31
0.0
  0
ARC
  5
C5
330
1F
100
AcDbEntity
  8
10
  6
CONTINUOUS
 62
     7
100
AcDbCircle
 10
717.8492777525785
 20
449.3221878869766
 30
0.0
 40
7.0
100
AcDbArc
 50
253.4486440000086
 51
286.5513559999907
  0
LINE
  5
C6
330
1F
100
AcDbEntity
  8
10
  6
CONTINUOUS
 62
     7
100
AcDbLine
 10
720.5992777525785
 20
444.3221878869766
 30
0.0
 11
720.5571557525786
 21
443.5184628869768
 31
0.0
  0
ARC
  5
C7
330
1F
100
AcDbEntity
  8
10
  6
CONTINUOUS
 62
     7
100
AcDbCircle
 10
719.5585257525786
 20
443.5707988869765
 30
0.0
 40
1.0
100
AcDbArc
 50
286.5513559999903
 51
356.9999999999939
  0
LINE
  5
C8
330
1F
100
AcDbEntity
  8
10
  6
CONTINUOUS
 62
     7
100
AcDbLine
 10
715.0992777525785
 20
444.3221878869766
 30
0.0
 11
715.1413997525792
 21
443.5184628869768
 31
0.0
  0
ARC
  5
C9
330
1F
100
AcDbEntity
  8
10
  6
CONTINUOUS
 62
     7
100
AcDbCircle
 10
716.1400297525793
 20
443.5707988869765
 30
0.0
 40
1.0
100
AcDbArc
 50
183.0000000000054
 51
253.448644000009
  0
LINE
  5
CA
330
1F
100
AcDbEntity
  8
10
  6
CONTINUOUS
 62
     7
100
AcDbLine
 10
281.9935889535623
 20
541.1721878869782
 30
0.0
 11
281.9935889535623
 21
548.0721878869779
 31
0.0
  0
ARC
  5
CB
330
1F
100
AcDbEntity
  8
10
  6
CONTINUOUS
 62
     7
100
AcDbCircle
 10
284.9606064974218
 20
544.6221878869771
 30
0.0
 40
4.550350877192955
100
AcDbArc
 50
130.6956985254007
 51
229.304301474599
  0
LINE
  5
CC
330
1F
100
AcDbEntity
  8
10
  6
CONTINUOUS
 62
     7
100
AcDbLine
 10
282.3102556202289
 20
541.1721878869782
 30
0.0
 11
281.9935889535623
 21
541.1721878869782
 31
0.0
  0
LINE
  5
CD
330
1F
100
AcDbEntity
  8
10
  6
CONTINUOUS
 62
     7
100
AcDbLine
 10
282.3102556202289
 20
548.0721878869779
 30
0.0
 11
281.9935889535623
 21
548.0721878869779
 31
0.0
  0
LINE
  5
CE
330
1F
100
AcDbEntity
  8
10
  6
CONTINUOUS
 62
     7
100
AcDbLine
 10
295.7602556202301
 20
634.9388545536439
 30
0.0
 11
288.8602556202304
 21
634.9388545536439
 31
0.0
  0
ARC
  5
CF
330
1F
100
AcDbEntity
  8
10
  6
CONTINUOUS
 62
     7
100
AcDbCircle
 10
292.3102556202311
 20
631.9718370097843
 30
0.0
 40
4.550350877192955
100
AcDbArc
 50
40.69569852540125
 51
139.3043014745987
  0
LINE
  5
D0
330
1F
100
AcDbEntity
  8
10
  6
CONTINUOUS
 62
     7
100
AcDbLine
 10
295.7602556202301
 20
634.6221878869773
 30
0.0
 11
295.7602556202301
 21
634.9388545536439
 31
0.0
  0
LINE
  5
D1
330
1F
100
AcDbEntity
  8
10
  6
CONTINUOUS
 62
     7
100
AcDbLine
 10
288.8602556202304
 20
634.6221878869773
 30
0.0
 11
288.8602556202304
 21
634.9388545536439
 31
0.0
  0
LINE
  5
D2
330
1F
100
AcDbEntity
  8
10
  6
CONTINUOUS
 62
     7
100
AcDbLine
 10
317.2602556202301
 20
634.9388545536439
 30
0.0
 11
310.3602556202304
 21
634.9388545536439
 31
0.0
  0
ARC
  5
D3
330
1F
100
AcDbEntity
  8
10
  6
CONTINUOUS
 62
     7
100
AcDbCircle
 10
313.8102556202311
 20
631.9718370097843
 30
0.0
 40
4.550350877192955
100
AcDbArc
 50
40.69569852540125
 51
139.3043014745987
  0
LINE
  5
D4
330
1F
100
AcDbEntity
  8
10
  6
CONTINUOUS
 62
     7
100
AcDbLine
 10
317.2602556202301
 20
634.6221878869773
 30
0.0
 11
317.2602556202301
 21
634.9388545536439
 31
0.0
  0
LINE
  5
D5
330
1F
100
AcDbEntity
  8
10
  6
CONTINUOUS
 62
     7
100
AcDbLine
 10
310.3602556202304
 20
634.6221878869773
 30
0.0
 11
310.3602556202304
 21
634.9388545536439
 31
0.0
  0
LINE
  5
D6
330
1F
100
AcDbEntity
  8
10
  6
CONTINUOUS
 62
     7
100
AcDbLine
 10
712.6269222868964
 20
504.172187886977
 30
0.0
 11
712.6269222868964
 21
511.0721878869775
 31
0.0
  0
ARC
  5
D7
330
1F
100
AcDbEntity
  8
10
  6
CONTINUOUS
 62
     7
100
AcDbCircle
 10
709.6599047430368
 20
507.6221878869768
 30
0.0
 40
4.550350877192955
100
AcDbArc
 50
310.6956985254009
 51
49.30430147459875
  0
LINE
  5
D8
330
1F
100
AcDbEntity
  8
10
  6
CONTINUOUS
 62
     7
100
AcDbLine
 10
712.3102556202298
 20
504.172187886977
 30
0.0
 11
712.6269222868964
 21
504.172187886977
 31
0.0
  0
LINE
  5
D9
330
1F
100
AcDbEntity
  8
10
  6
CONTINUOUS
 62
     7
100
AcDbLine
 10
712.3102556202298
 20
511.0721878869775
 30
0.0
 11
712.6269222868964
 21
511.0721878869775
 31
0.0
  0
LINE
  5
DA
330
1F
100
AcDbEntity
  8
10
  6
CONTINUOUS
 62
     7
100
AcDbLine
 10
712.6269222868964
 20
435.0721878869766
 30
0.0
 11
712.6269222868964
 21
428.172187886976
 31
0.0
  0
ARC
  5
DB
330
1F
100
AcDbEntity
  8
10
  6
CONTINUOUS
 62
     7
100
AcDbCircle
 10
709.6599047430368
 20
431.6221878869767
 30
0.0
 40
4.550350877192955
100
AcDbArc
 50
310.6956985254009
 51
49.30430147459875
  0
LINE
  5
DC
330
1F
100
AcDbEntity
  8
10
  6
CONTINUOUS
 62
     7
100
AcDbLine
 10
712.3102556202298
 20
435.0721878869766
 30
0.0
 11
712.6269222868964
 21
435.0721878869766
 31
0.0
  0
LINE
  5
DD
330
1F
100
AcDbEntity
  8
10
  6
CONTINUOUS
 62
     7
100
AcDbLine
 10
712.3102556202298
 20
428.172187886976
 30
0.0
 11
712.6269222868964
 21
428.172187886976
 31
0.0
  0
LINE
  5
DE
330
1F
100
AcDbEntity
  8
2
  6
DASHDOT
 62
     1
100
AcDbLine
 10
712.3102556202298
 20
469.6221878869767
 30
0.0
 11
282.3102556202289
 21
469.6221878869769
 31
0.0
  0
LINE
  5
DF
330
1F
100
AcDbEntity
  8
2
  6
DASHDOT
 62
     1
100
AcDbLine
 10
497.3102556202293
 20
634.6221878869769
 30
0.0
 11
497.3102556202293
 21
304.622187886977
 31
0.0
  0
LINE
  5
E0
330
1F
100
AcDbEntity
  8
10
  6
CONTINUOUS
 62
     7
100
AcDbLine
 10
697.3102556202294
 20
294.6221878869773
 30
0.0
 11
697.3102556202294
 21
304.6221878869773
 31
0.0
  0
ARC
  5
E1
330
1F
100
AcDbEntity
  8
10
  6
CONTINUOUS
 62
     7
100
AcDbCircle
 10
692.3102556202294
 20
294.6221878869773
 30
0.0
 40
5.0
100
AcDbArc
 50
269.9999999999998
 51
0.0
  0
LINE
  5
E2
330
1F
100
AcDbEntity
  8
10
  6
CONTINUOUS
 62
     7
100
AcDbLine
 10
302.3102556202293
 20
289.6221878869773
 30
0.0
 11
692.3102556202294
 21
289.6221878869786
 31
0.0
  0
LINE
  5
E3
330
1F
100
AcDbEntity
  8
10
  6
CONTINUOUS
 62
     7
100
AcDbLine
 10
297.3102556202293
 20
294.6221878869773
 30
0.0
 11
297.3102556202293
 21
304.6221878869773
 31
0.0
  0
ARC
  5
E4
330
1F
100
AcDbEntity
  8
10
  6
CONTINUOUS
 62
     7
100
AcDbCircle
 10
302.3102556202275
 20
294.6221878869773
 30
0.0
 40
5.0
100
AcDbArc
 50
179.9999999999998
 51
269.9999999999998
  0
CIRCLE
  5
E5
330
1F
100
AcDbEntity
  8
10
  6
CONTINUOUS
 62
     7
100
AcDbCircle
 10
672.3102556202294
 20
296.6221878869773
 30
0.0
 40
3.100000000000023
  0
CIRCLE
  5
E6
330
1F
100
AcDbEntity
  8
10
  6
CONTINUOUS
 62
     7
100
AcDbCircle
 10
584.8102556202294
 20
296.6221878869773
 30
0.0
 40
3.100000000000023
  0
CIRCLE
  5
E7
330
1F
100
AcDbEntity
  8
10
  6
CONTINUOUS
 62
     7
100
AcDbCircle
 10
409.8102556202293
 20
296.6221878869773
 30
0.0
 40
3.100000000000023
  0
CIRCLE
  5
E8
330
1F
100
AcDbEntity
  8
10
  6
CONTINUOUS
 62
     7
100
AcDbCircle
 10
322.3102556202293
 20
296.6221878869773
 30
0.0
 40
3.100000000000023
  0
LINE
  5
E9
330
1F
100
AcDbEntity
  8
10
  6
CONTINUOUS
 62
     7
100
AcDbLine
 10
697.3102556202296
 20
644.6221878869763
 30
0.0
 11
697.3102556202296
 21
634.6221878869763
 31
0.0
  0
ARC
  5
EA
330
1F
100
AcDbEntity
  8
10
  6
CONTINUOUS
 62
     7
100
AcDbCircle
 10
692.3102556202296
 20
644.6221878869763
 30
0.0
 40
5.0
100
AcDbArc
 50
0.0
 51
89.99999999999991
  0
LINE
  5
EB
330
1F
100
AcDbEntity
  8
10
  6
CONTINUOUS
 62
     7
100
AcDbLine
 10
302.3102556202293
 20
649.6221878869765
 30
0.0
 11
692.3102556202296
 21
649.622187886975
 31
0.0
  0
LINE
  5
EC
330
1F
100
AcDbEntity
  8
10
  6
CONTINUOUS
 62
     7
100
AcDbLine
 10
297.3102556202293
 20
644.6221878869765
 30
0.0
 11
297.3102556202293
 21
634.6221878869765
 31
0.0
  0
ARC
  5
ED
330
1F
100
AcDbEntity
  8
10
  6
CONTINUOUS
 62
     7
100
AcDbCircle
 10
302.3102556202275
 20
644.6221878869765
 30
0.0
 40
5.0
100
AcDbArc
 50
89.99999999999991
 51
179.9999999999998
  0
CIRCLE
  5
EE
330
1F
100
AcDbEntity
  8
10
  6
CONTINUOUS
 62
     7
100
AcDbCircle
 10
672.3102556202296
 20
642.6221878869763
 30
0.0
 40
3.100000000000023
  0
CIRCLE
  5
EF
330
1F
100
AcDbEntity
  8
10
  6
CONTINUOUS
 62
     7
100
AcDbCircle
 10
584.8102556202296
 20
642.6221878869763
 30
0.0
 40
3.100000000000023
  0
CIRCLE
  5
F0
330
1F
100
AcDbEntity
  8
10
  6
CONTINUOUS
 62
     7
100
AcDbCircle
 10
409.8102556202293
 20
642.6221878869765
 30
0.0
 40
3.100000000000023
  0
CIRCLE
  5
F1
330
1F
100
AcDbEntity
  8
10
  6
CONTINUOUS
 62
     7
100
AcDbCircle
 10
322.3102556202293
 20
642.6221878869765
 30
0.0
 40
3.100000000000023
  0
LINE
  5
F2
330
1F
100
AcDbEntity
  8
10
  6
CONTINUOUS
 62
     7
100
AcDbLine
 10
989.6987786230452
 20
304.3055212203129
 30
0.0
 11
982.7987786230447
 21
304.3055212203129
 31
0.0
  0
ARC
  5
F3
330
1F
100
AcDbEntity
  8
10
  6
CONTINUOUS
 62
     7
100
AcDbCircle
 10
986.2487786230454
 20
307.2725387641716
 30
0.0
 40
4.550350877192955
100
AcDbArc
 50
220.6956985253613
 51
319.304301474638
  0
LINE
  5
F4
330
1F
100
AcDbEntity
  8
10
  6
CONTINUOUS
 62
     7
100
AcDbLine
 10
989.6987786230452
 20
304.6221878869786
 30
0.0
 11
989.6987786230452
 21
304.3055212203129
 31
0.0
  0
LINE
  5
F5
330
1F
100
AcDbEntity
  8
10
  6
CONTINUOUS
 62
     7
100
AcDbLine
 10
982.7987786230447
 20
304.6221878869786
 30
0.0
 11
982.7987786230447
 21
304.3055212203129
 31
0.0
  0
LINE
  5
F6
330
1F
100
AcDbEntity
  8
10
  6
CONTINUOUS
 62
     7
100
AcDbLine
 10
951.2487786230454
 20
634.6221878869786
 30
0.0
 11
951.2487786230454
 21
304.6221878869786
 31
0.0
  0
LINE
  5
F7
330
1F
100
AcDbEntity
  8
10
  6
CONTINUOUS
 62
     7
100
AcDbLine
 10
996.2487786230454
 20
649.6221878869786
 30
0.0
 11
996.2487786230454
 21
289.6221878869786
 31
0.0
  0
LINE
  5
F8
330
1F
100
AcDbEntity
  8
10
  6
CONTINUOUS
 62
     7
100
AcDbLine
 10
995.2487786230454
 20
649.6221878869786
 30
0.0
 11
995.2487786230436
 21
289.6221878869786
 31
0.0
  0
LINE
  5
F9
330
1F
100
AcDbEntity
  8
10
  6
CONTINUOUS
 62
     7
100
AcDbLine
 10
951.2487786230454
 20
634.6221878869786
 30
0.0
 11
995.2487786230454
 21
634.6221878869768
 31
0.0
  0
LINE
  5
FA
330
1F
100
AcDbEntity
  8
10
  6
CONTINUOUS
 62
     7
100
AcDbLine
 10
995.2487786230454
 20
633.6221878869768
 30
0.0
 11
996.2487786230454
 21
633.6221878869768
 31
0.0
  0
LINE
  5
FB
330
1F
100
AcDbEntity
  8
10
  6
CONTINUOUS
 62
     7
100
AcDbLine
 10
995.2487786230454
 20
649.6221878869786
 30
0.0
 11
996.2487786230454
 21
649.6221878869786
 31
0.0
  0
LINE
  5
FC
330
1F
100
AcDbEntity
  8
10
  6
CONTINUOUS
 62
     7
100
AcDbLine
 10
951.2487786230454
 20
304.6221878869786
 30
0.0
 11
995.2487786230436
 21
304.6221878869786
 31
0.0
  0
LINE
  5
FD
330
1F
100
AcDbEntity
  8
10
  6
CONTINUOUS
 62
     7
100
AcDbLine
 10
995.2487786230436
 20
305.6221878869786
 30
0.0
 11
996.2487786230454
 21
305.6221878869786
 31
0.0
  0
LINE
  5
FE
330
1F
100
AcDbEntity
  8
10
  6
CONTINUOUS
 62
     7
100
AcDbLine
 10
995.2487786230454
 20
289.6221878869786
 30
0.0
 11
996.2487786230454
 21
289.6221878869786
 31
0.0
  0
LINE
  5
FF
330
1F
100
AcDbEntity
  8
10
  6
CONTINUOUS
 62
     7
100
AcDbLine
 10
962.7487786230449
 20
492.6221878869786
 30
0.0
 11
995.2487786230449
 21
492.6221878869786
 31
0.0
  0
LINE
  5
100
330
1F
100
AcDbEntity
  8
10
  6
CONTINUOUS
 62
     7
100
AcDbLine
 10
962.7487786230449
 20
492.6221878869786
 30
0.0
 11
962.7487786230449
 21
446.6221878869786
 31
0.0
  0
LINE
  5
101
330
1F
100
AcDbEntity
  8
10
  6
CONTINUOUS
 62
     7
100
AcDbLine
 10
962.7487786230449
 20
446.6221878869786
 30
0.0
 11
995.2487786230445
 21
446.6221878869786
 31
0.0
  0
LINE
  5
102
330
1F
100
AcDbEntity
  8
10
  6
CONTINUOUS
 62
     7
100
AcDbLine
 10
989.5987786230462
 20
442.3561812475076
 30
0.0
 11
989.5987786230462
 21
435.1221878869768
 31
0.0
  0
LINE
  5
103
330
1F
100
AcDbEntity
  8
10
  6
CONTINUOUS
 62
     7
100
AcDbLine
 10
989.0603170845834
 20
439.8221878869757
 30
0.0
 11
989.5987786230444
 21
440.7548306295142
 31
0.0
  0
LINE
  5
104
330
1F
100
AcDbEntity
  8
10
  6
CONTINUOUS
 62
     7
100
AcDbLine
 10
988.7987786230451
 20
434.3221878869757
 30
0.0
 11
989.5987786230462
 21
435.1221878869768
 31
0.0
  0
LINE
  5
105
330
1F
100
AcDbEntity
  8
10
  6
CONTINUOUS
 62
     7
100
AcDbLine
 10
989.0603170845834
 20
439.8221878869757
 30
0.0
 11
989.0603170845834
 21
434.583726348514
 31
0.0
  0
LINE
  5
106
330
1F
100
AcDbEntity
  8
10
  6
CONTINUOUS
 62
     7
100
AcDbLine
 10
993.2487786230458
 20
444.3221878869757
 30
0.0
 11
993.2487786230458
 21
446.6221878869768
 31
0.0
  0
LINE
  5
107
330
1F
100
AcDbEntity
  8
10
  6
CONTINUOUS
 62
     7
100
AcDbLine
 10
964.2487786230458
 20
444.3221878869757
 30
0.0
 11
964.2487786230458
 21
446.6221878869768
 31
0.0
  0
LINE
  5
108
330
1F
100
AcDbEntity
  8
10
  6
CONTINUOUS
 62
     7
100
AcDbLine
 10
968.4372401615065
 20
439.8221878869757
 30
0.0
 11
967.8987786230455
 21
440.7548306295142
 31
0.0
  0
LINE
  5
109
330
1F
100
AcDbEntity
  8
10
  6
CONTINUOUS
 62
     7
100
AcDbLine
 10
993.2487786230458
 20
444.3221878869757
 30
0.0
 11
964.2487786230458
 21
444.3221878869757
 31
0.0
  0
LINE
  5
10A
330
1F
100
AcDbEntity
  8
10
  6
CONTINUOUS
 62
     7
100
AcDbLine
 10
967.8987786230455
 20
439.8221878869757
 30
0.0
 11
989.5987786230462
 21
439.8221878869757
 31
0.0
  0
LINE
  5
10B
330
1F
100
AcDbEntity
  8
10
  6
CONTINUOUS
 62
     7
100
AcDbLine
 10
968.6987786230447
 20
434.3221878869757
 30
0.0
 11
967.8987786230455
 21
435.1221878869768
 31
0.0
  0
LINE
  5
10C
330
1F
100
AcDbEntity
  8
10
  6
CONTINUOUS
 62
     7
100
AcDbLine
 10
967.8987786230455
 20
435.1221878869768
 30
0.0
 11
989.5987786230462
 21
435.1221878869768
 31
0.0
  0
LINE
  5
10D
330
1F
100
AcDbEntity
  8
10
  6
CONTINUOUS
 62
     7
100
AcDbLine
 10
967.8987786230455
 20
442.348902718188
 30
0.0
 11
967.8987786230455
 21
435.1221878869768
 31
0.0
  0
LINE
  5
10E
330
1F
100
AcDbEntity
  8
10
  6
CONTINUOUS
 62
     7
100
AcDbLine
 10
968.4372401615065
 20
439.8221878869757
 30
0.0
 11
968.4372401615065
 21
434.583726348514
 31
0.0
  0
LINE
  5
10F
330
1F
100
AcDbEntity
  8
10
  6
CONTINUOUS
 62
     7
100
AcDbLine
 10
968.6987786230447
 20
434.3221878869757
 30
0.0
 11
988.7987786230451
 21
434.3221878869757
 31
0.0
  0
LINE
  5
110
330
1F
100
AcDbEntity
  8
10
  6
CONTINUOUS
 62
     7
100
AcDbLine
 10
993.0378007553963
 20
444.3221878869757
 30
0.0
 11
987.5378007553963
 21
444.3221878869757
 31
0.0
  0
ARC
  5
111
330
1F
100
AcDbEntity
  8
10
  6
CONTINUOUS
 62
     7
100
AcDbCircle
 10
990.2878007553963
 20
449.3221878869757
 30
0.0
 40
7.0
100
AcDbArc
 50
253.448644000063
 51
286.5513559999091
  0
LINE
  5
112
330
1F
100
AcDbEntity
  8
10
  6
CONTINUOUS
 62
     7
100
AcDbLine
 10
993.0378007553963
 20
444.3221878869757
 30
0.0
 11
992.9956787553956
 21
443.518462886976
 31
0.0
  0
ARC
  5
113
330
1F
100
AcDbEntity
  8
10
  6
CONTINUOUS
 62
     7
100
AcDbCircle
 10
991.9970487553956
 20
443.5707988869766
 30
0.0
 40
1.0
100
AcDbArc
 50
286.5513559999089
 51
356.9999999999939
  0
LINE
  5
114
330
1F
100
AcDbEntity
  8
10
  6
CONTINUOUS
 62
     7
100
AcDbLine
 10
987.5378007553963
 20
444.3221878869757
 30
0.0
 11
987.5799227553953
 21
443.518462886976
 31
0.0
  0
ARC
  5
115
330
1F
100
AcDbEntity
  8
10
  6
CONTINUOUS
 62
     7
100
AcDbCircle
 10
988.5785527553953
 20
443.5707988869766
 30
0.0
 40
1.0
100
AcDbArc
 50
183.0000000000054
 51
253.4486440000627
  0
LINE
  5
116
330
1F
100
AcDbEntity
  8
10
  6
CONTINUOUS
 62
     7
100
AcDbLine
 10
970.0378007553963
 20
444.3221878869757
 30
0.0
 11
964.5378007553963
 21
444.3221878869757
 31
0.0
  0
ARC
  5
117
330
1F
100
AcDbEntity
  8
10
  6
CONTINUOUS
 62
     7
100
AcDbCircle
 10
967.2878007553963
 20
449.3221878869757
 30
0.0
 40
7.0
100
AcDbArc
 50
253.448644000063
 51
286.5513559999091
  0
LINE
  5
118
330
1F
100
AcDbEntity
  8
10
  6
CONTINUOUS
 62
     7
100
AcDbLine
 10
970.0378007553963
 20
444.3221878869757
 30
0.0
 11
969.9956787553956
 21
443.518462886976
 31
0.0
  0
ARC
  5
119
330
1F
100
AcDbEntity
  8
10
  6
CONTINUOUS
 62
     7
100
AcDbCircle
 10
968.9970487553956
 20
443.5707988869766
 30
0.0
 40
1.0
100
AcDbArc
 50
286.5513559999089
 51
356.9999999999939
  0
LINE
  5
11A
330
1F
100
AcDbEntity
  8
10
  6
CONTINUOUS
 62
     7
100
AcDbLine
 10
964.5378007553963
 20
444.3221878869757
 30
0.0
 11
964.5799227553953
 21
443.518462886976
 31
0.0
  0
ARC
  5
11B
330
1F
100
AcDbEntity
  8
10
  6
CONTINUOUS
 62
     7
100
AcDbCircle
 10
965.5785527553953
 20
443.5707988869766
 30
0.0
 40
1.0
100
AcDbArc
 50
183.0000000000054
 51
253.4486440000627
  0
ARC
  5
11C
330
1F
100
AcDbEntity
  8
10
  6
CONTINUOUS
 62
     7
100
AcDbCircle
 10
985.4487786230452
 20
506.8221878869775
 30
0.0
 40
0.5
100
AcDbArc
 50
0.0
 51
89.99999999999991
  0
ARC
  5
11D
330
1F
100
AcDbEntity
  8
10
  6
CONTINUOUS
 62
     7
100
AcDbCircle
 10
987.0487786230456
 20
506.8221878869775
 30
0.0
 40
0.5
100
AcDbArc
 50
89.99999999999991
 51
179.9999999999998
  0
CIRCLE
  5
11E
330
1F
100
AcDbEntity
  8
10
  6
CONTINUOUS
 62
     7
100
AcDbCircle
 10
986.2487786230454
 20
507.6221878869768
 30
0.0
 40
3.450000000000045
  0
LINE
  5
11F
330
1F
100
AcDbEntity
  8
10
  6
CONTINUOUS
 62
     7
100
AcDbLine
 10
985.9487786230452
 20
506.8221878869775
 30
0.0
 11
985.9487786230452
 21
506.1721878869761
 31
0.0
  0
LINE
  5
120
330
1F
100
AcDbEntity
  8
10
  6
CONTINUOUS
 62
     7
100
AcDbLine
 10
986.5487786230456
 20
506.8221878869775
 30
0.0
 11
986.5487786230456
 21
506.1721878869761
 31
0.0
  0
LINE
  5
121
330
1F
100
AcDbEntity
  8
10
  6
CONTINUOUS
 62
     7
100
AcDbLine
 10
985.9487786230452
 20
506.1721878869761
 30
0.0
 11
986.5487786230456
 21
506.1721878869761
 31
0.0
  0
LINE
  5
122
330
1F
100
AcDbEntity
  8
10
  6
CONTINUOUS
 62
     7
100
AcDbLine
 10
985.4487786230452
 20
507.9221878869761
 30
0.0
 11
984.7987786230456
 21
507.9221878869761
 31
0.0
  0
LINE
  5
123
330
1F
100
AcDbEntity
  8
10
  6
CONTINUOUS
 62
     7
100
AcDbLine
 10
985.4487786230452
 20
507.3221878869775
 30
0.0
 11
984.7987786230456
 21
507.3221878869775
 31
0.0
  0
ARC
  5
124
330
1F
100
AcDbEntity
  8
10
  6
CONTINUOUS
 62
     7
100
AcDbCircle
 10
987.0487786230456
 20
508.4221878869761
 30
0.0
 40
0.5
100
AcDbArc
 50
179.9999999999998
 51
269.9999999999998
  0
ARC
  5
125
330
1F
100
AcDbEntity
  8
10
  6
CONTINUOUS
 62
     7
100
AcDbCircle
 10
985.4487786230452
 20
508.4221878869761
 30
0.0
 40
0.5
100
AcDbArc
 50
269.9999999999998
 51
0.0
  0
LINE
  5
126
330
1F
100
AcDbEntity
  8
10
  6
CONTINUOUS
 62
     7
100
AcDbLine
 10
986.5487786230456
 20
508.4221878869761
 30
0.0
 11
986.5487786230456
 21
509.0721878869775
 31
0.0
  0
LINE
  5
127
330
1F
100
AcDbEntity
  8
10
  6
CONTINUOUS
 62
     7
100
AcDbLine
 10
985.9487786230452
 20
508.4221878869761
 30
0.0
 11
985.9487786230452
 21
509.0721878869775
 31
0.0
  0
LINE
  5
128
330
1F
100
AcDbEntity
  8
10
  6
CONTINUOUS
 62
     7
100
AcDbLine
 10
987.0487786230456
 20
507.9221878869761
 30
0.0
 11
987.6987786230452
 21
507.9221878869761
 31
0.0
  0
LINE
  5
129
330
1F
100
AcDbEntity
  8
10
  6
CONTINUOUS
 62
     7
100
AcDbLine
 10
987.0487786230456
 20
507.3221878869775
 30
0.0
 11
987.6987786230452
 21
507.3221878869775
 31
0.0
  0
LINE
  5
12A
330
1F
100
AcDbEntity
  8
10
  6
CONTINUOUS
 62
     7
100
AcDbLine
 10
987.6987786230452
 20
507.3221878869775
 30
0.0
 11
987.6987786230452
 21
507.9221878869761
 31
0.0
  0
LINE
  5
12B
330
1F
100
AcDbEntity
  8
10
  6
CONTINUOUS
 62
     7
100
AcDbLine
 10
986.5487786230456
 20
509.0721878869775
 30
0.0
 11
985.9487786230452
 21
509.0721878869775
 31
0.0
  0
LINE
  5
12C
330
1F
100
AcDbEntity
  8
10
  6
CONTINUOUS
 62
     7
100
AcDbLine
 10
984.7987786230456
 20
507.9221878869761
 30
0.0
 11
984.7987786230456
 21
507.3221878869775
 31
0.0
  0
ARC
  5
12D
330
1F
100
AcDbEntity
  8
10
  6
CONTINUOUS
 62
     7
100
AcDbCircle
 10
985.4487786230452
 20
430.8221878869775
 30
0.0
 40
0.5
100
AcDbArc
 50
0.0
 51
89.99999999999991
  0
ARC
  5
12E
330
1F
100
AcDbEntity
  8
10
  6
CONTINUOUS
 62
     7
100
AcDbCircle
 10
987.0487786230456
 20
430.8221878869775
 30
0.0
 40
0.5
100
AcDbArc
 50
89.99999999999991
 51
179.9999999999998
  0
ARC
  5
12F
330
1F
100
AcDbEntity
  8
10
  6
CONTINUOUS
 62
     7
100
AcDbCircle
 10
986.2487786230454
 20
431.6221878869768
 30
0.0
 40
3.450000000000045
100
AcDbArc
 50
128.4999504092861
 51
51.50004959071395
  0
LINE
  5
130
330
1F
100
AcDbEntity
  8
10
  6
CONTINUOUS
 62
     7
100
AcDbLine
 10
985.9487786230452
 20
430.8221878869775
 30
0.0
 11
985.9487786230452
 21
430.1721878869761
 31
0.0
  0
LINE
  5
131
330
1F
100
AcDbEntity
  8
10
  6
CONTINUOUS
 62
     7
100
AcDbLine
 10
986.5487786230456
 20
430.8221878869775
 30
0.0
 11
986.5487786230456
 21
430.1721878869761
 31
0.0
  0
LINE
  5
132
330
1F
100
AcDbEntity
  8
10
  6
CONTINUOUS
 62
     7
100
AcDbLine
 10
985.9487786230452
 20
430.1721878869761
 30
0.0
 11
986.5487786230456
 21
430.1721878869761
 31
0.0
  0
LINE
  5
133
330
1F
100
AcDbEntity
  8
10
  6
CONTINUOUS
 62
     7
100
AcDbLine
 10
985.4487786230452
 20
431.9221878869761
 30
0.0
 11
984.7987786230456
 21
431.9221878869761
 31
0.0
  0
LINE
  5
134
330
1F
100
AcDbEntity
  8
10
  6
CONTINUOUS
 62
     7
100
AcDbLine
 10
985.4487786230452
 20
431.3221878869775
 30
0.0
 11
984.7987786230456
 21
431.3221878869775
 31
0.0
  0
ARC
  5
135
330
1F
100
AcDbEntity
  8
10
  6
CONTINUOUS
 62
     7
100
AcDbCircle
 10
987.0487786230456
 20
432.4221878869761
 30
0.0
 40
0.5
100
AcDbArc
 50
179.9999999999998
 51
269.9999999999998
  0
ARC
  5
136
330
1F
100
AcDbEntity
  8
10
  6
CONTINUOUS
 62
     7
100
AcDbCircle
 10
985.4487786230452
 20
432.4221878869761
 30
0.0
 40
0.5
100
AcDbArc
 50
269.9999999999998
 51
0.0
  0
LINE
  5
137
330
1F
100
AcDbEntity
  8
10
  6
CONTINUOUS
 62
     7
100
AcDbLine
 10
986.5487786230456
 20
432.4221878869761
 30
0.0
 11
986.5487786230456
 21
433.0721878869775
 31
0.0
  0
LINE
  5
138
330
1F
100
AcDbEntity
  8
10
  6
CONTINUOUS
 62
     7
100
AcDbLine
 10
985.9487786230452
 20
432.4221878869761
 30
0.0
 11
985.9487786230452
 21
433.0721878869775
 31
0.0
  0
LINE
  5
139
330
1F
100
AcDbEntity
  8
10
  6
CONTINUOUS
 62
     7
100
AcDbLine
 10
987.0487786230456
 20
431.9221878869761
 30
0.0
 11
987.6987786230452
 21
431.9221878869761
 31
0.0
  0
LINE
  5
13A
330
1F
100
AcDbEntity
  8
10
  6
CONTINUOUS
 62
     7
100
AcDbLine
 10
987.0487786230456
 20
431.3221878869775
 30
0.0
 11
987.6987786230452
 21
431.3221878869775
 31
0.0
  0
LINE
  5
13B
330
1F
100
AcDbEntity
  8
10
  6
CONTINUOUS
 62
     7
100
AcDbLine
 10
987.6987786230452
 20
431.3221878869775
 30
0.0
 11
987.6987786230452
 21
431.9221878869761
 31
0.0
  0
LINE
  5
13C
330
1F
100
AcDbEntity
  8
10
  6
CONTINUOUS
 62
     7
100
AcDbLine
 10
986.5487786230456
 20
433.0721878869775
 30
0.0
 11
985.9487786230452
 21
433.0721878869775
 31
0.0
  0
LINE
  5
13D
330
1F
100
AcDbEntity
  8
10
  6
CONTINUOUS
 62
     7
100
AcDbLine
 10
984.7987786230456
 20
431.9221878869761
 30
0.0
 11
984.7987786230456
 21
431.3221878869775
 31
0.0
  0
LINE
  5
13E
330
1F
100
AcDbEntity
  8
10
  6
CONTINUOUS
 62
     7
100
AcDbLine
 10
989.6987786230452
 20
634.9388545536443
 30
0.0
 11
982.7987786230447
 21
634.9388545536443
 31
0.0
  0
ARC
  5
13F
330
1F
100
AcDbEntity
  8
10
  6
CONTINUOUS
 62
     7
100
AcDbCircle
 10
986.2487786230454
 20
631.9718370097856
 30
0.0
 40
4.550350877192955
100
AcDbArc
 50
40.69569852534131
 51
139.3043014746587
  0
LINE
  5
140
330
1F
100
AcDbEntity
  8
10
  6
CONTINUOUS
 62
     7
100
AcDbLine
 10
989.6987786230452
 20
634.6221878869786
 30
0.0
 11
989.6987786230452
 21
634.9388545536443
 31
0.0
  0
LINE
  5
141
330
1F
100
AcDbEntity
  8
10
  6
CONTINUOUS
 62
     7
100
AcDbLine
 10
982.7987786230447
 20
634.6221878869786
 30
0.0
 11
982.7987786230447
 21
634.9388545536443
 31
0.0
  0
LINE
  5
142
330
1F
100
AcDbEntity
  8
10
  6
CONTINUOUS
 62
     7
100
AcDbLine
 10
698.8602556202286
 20
634.9388545536439
 30
0.0
 11
705.7602556202282
 21
634.9388545536439
 31
0.0
  0
ARC
  5
143
330
1F
100
AcDbEntity
  8
10
  6
CONTINUOUS
 62
     7
100
AcDbCircle
 10
702.3102556202275
 20
631.9718370097843
 30
0.0
 40
4.550350877192955
100
AcDbArc
 50
40.69569852540125
 51
139.3043014745987
  0
LINE
  5
144
330
1F
100
AcDbEntity
  8
10
  6
CONTINUOUS
 62
     7
100
AcDbLine
 10
698.8602556202286
 20
634.6221878869773
 30
0.0
 11
698.8602556202286
 21
634.9388545536439
 31
0.0
  0
LINE
  5
145
330
1F
100
AcDbEntity
  8
10
  6
CONTINUOUS
 62
     7
100
AcDbLine
 10
705.7602556202282
 20
634.6221878869773
 30
0.0
 11
705.7602556202282
 21
634.9388545536439
 31
0.0
  0
LINE
  5
146
330
1F
100
AcDbEntity
  8
10
  6
CONTINUOUS
 62
     7
100
AcDbLine
 10
677.3602556202286
 20
634.9388545536439
 30
0.0
 11
684.2602556202282
 21
634.9388545536439
 31
0.0
  0
ARC
  5
147
330
1F
100
AcDbEntity
  8
10
  6
CONTINUOUS
 62
     7
100
AcDbCircle
 10
680.8102556202275
 20
631.9718370097843
 30
0.0
 40
4.550350877192955
100
AcDbArc
 50
40.69569852540125
 51
139.3043014745987
  0
LINE
  5
148
330
1F
100
AcDbEntity
  8
10
  6
CONTINUOUS
 62
     7
100
AcDbLine
 10
677.3602556202286
 20
634.6221878869773
 30
0.0
 11
677.3602556202286
 21
634.9388545536439
 31
0.0
  0
LINE
  5
149
330
1F
100
AcDbEntity
  8
10
  6
CONTINUOUS
 62
     7
100
AcDbLine
 10
684.2602556202282
 20
634.6221878869773
 30
0.0
 11
684.2602556202282
 21
634.9388545536439
 31
0.0
  0
LINE
  5
14A
330
1F
100
AcDbEntity
  8
10
  6
CONTINUOUS
 62
     7
100
AcDbLine
 10
500.7602556202282
 20
634.9388545536444
 30
0.0
 11
493.8602556202286
 21
634.9388545536444
 31
0.0
  0
ARC
  5
14B
330
1F
100
AcDbEntity
  8
10
  6
CONTINUOUS
 62
     7
100
AcDbCircle
 10
497.3102556202293
 20
631.9718370097839
 30
0.0
 40
4.550350877192955
100
AcDbArc
 50
40.69569852534085
 51
139.3043014746592
  0
LINE
  5
14C
330
1F
100
AcDbEntity
  8
10
  6
CONTINUOUS
 62
     7
100
AcDbLine
 10
500.7602556202282
 20
634.6221878869769
 30
0.0
 11
500.7602556202282
 21
634.9388545536444
 31
0.0
  0
LINE
  5
14D
330
1F
100
AcDbEntity
  8
10
  6
CONTINUOUS
 62
     7
100
AcDbLine
 10
493.8602556202286
 20
634.6221878869769
 30
0.0
 11
493.8602556202286
 21
634.9388545536444
 31
0.0
  0
LINE
  5
14E
330
1F
100
AcDbEntity
  8
10
  6
CONTINUOUS
 62
     7
100
AcDbLine
 10
281.9935889535623
 20
398.0721878869753
 30
0.0
 11
281.9935889535623
 21
391.1721878869756
 31
0.0
  0
ARC
  5
14F
330
1F
100
AcDbEntity
  8
10
  6
CONTINUOUS
 62
     7
100
AcDbCircle
 10
284.9606064974218
 20
394.6221878869763
 30
0.0
 40
4.550350877192955
100
AcDbArc
 50
130.6956985254007
 51
229.304301474599
  0
LINE
  5
150
330
1F
100
AcDbEntity
  8
10
  6
CONTINUOUS
 62
     7
100
AcDbLine
 10
282.3102556202289
 20
398.0721878869753
 30
0.0
 11
281.9935889535623
 21
398.0721878869753
 31
0.0
  0
LINE
  5
151
330
1F
100
AcDbEntity
  8
10
  6
CONTINUOUS
 62
     7
100
AcDbLine
 10
282.3102556202289
 20
391.1721878869756
 30
0.0
 11
281.9935889535623
 21
391.1721878869756
 31
0.0
  0
LINE
  5
152
330
1F
100
AcDbEntity
  8
10
  6
CONTINUOUS
 62
     7
100
AcDbLine
 10
295.7602556202301
 20
304.3055212203096
 30
0.0
 11
288.8602556202304
 21
304.3055212203096
 31
0.0
  0
ARC
  5
153
330
1F
100
AcDbEntity
  8
10
  6
CONTINUOUS
 62
     7
100
AcDbCircle
 10
292.3102556202311
 20
307.2725387641692
 30
0.0
 40
4.550350877192955
100
AcDbArc
 50
220.6956985254003
 51
319.304301474599
  0
LINE
  5
154
330
1F
100
AcDbEntity
  8
10
  6
CONTINUOUS
 62
     7
100
AcDbLine
 10
295.7602556202301
 20
304.6221878869762
 30
0.0
 11
295.7602556202301
 21
304.3055212203096
 31
0.0
  0
LINE
  5
155
330
1F
100
AcDbEntity
  8
10
  6
CONTINUOUS
 62
     7
100
AcDbLine
 10
288.8602556202304
 20
304.6221878869762
 30
0.0
 11
288.8602556202304
 21
304.3055212203096
 31
0.0
  0
LINE
  5
156
330
1F
100
AcDbEntity
  8
10
  6
CONTINUOUS
 62
     7
100
AcDbLine
 10
317.2602556202301
 20
304.3055212203096
 30
0.0
 11
310.3602556202304
 21
304.3055212203096
 31
0.0
  0
ARC
  5
157
330
1F
100
AcDbEntity
  8
10
  6
CONTINUOUS
 62
     7
100
AcDbCircle
 10
313.8102556202311
 20
307.2725387641692
 30
0.0
 40
4.550350877192955
100
AcDbArc
 50
220.6956985254003
 51
319.304301474599
  0
LINE
  5
158
330
1F
100
AcDbEntity
  8
10
  6
CONTINUOUS
 62
     7
100
AcDbLine
 10
317.2602556202301
 20
304.6221878869762
 30
0.0
 11
317.2602556202301
 21
304.3055212203096
 31
0.0
  0
LINE
  5
159
330
1F
100
AcDbEntity
  8
10
  6
CONTINUOUS
 62
     7
100
AcDbLine
 10
310.3602556202304
 20
304.6221878869762
 30
0.0
 11
310.3602556202304
 21
304.3055212203096
 31
0.0
  0
LINE
  5
15A
330
1F
100
AcDbEntity
  8
10
  6
CONTINUOUS
 62
     7
100
AcDbLine
 10
698.8602556202286
 20
304.3055212203096
 30
0.0
 11
705.7602556202282
 21
304.3055212203096
 31
0.0
  0
ARC
  5
15B
330
1F
100
AcDbEntity
  8
10
  6
CONTINUOUS
 62
     7
100
AcDbCircle
 10
702.3102556202275
 20
307.2725387641692
 30
0.0
 40
4.550350877192955
100
AcDbArc
 50
220.6956985254003
 51
319.304301474599
  0
LINE
  5
15C
330
1F
100
AcDbEntity
  8
10
  6
CONTINUOUS
 62
     7
100
AcDbLine
 10
698.8602556202286
 20
304.6221878869762
 30
0.0
 11
698.8602556202286
 21
304.3055212203096
 31
0.0
  0
LINE
  5
15D
330
1F
100
AcDbEntity
  8
10
  6
CONTINUOUS
 62
     7
100
AcDbLine
 10
705.7602556202282
 20
304.6221878869762
 30
0.0
 11
705.7602556202282
 21
304.3055212203096
 31
0.0
  0
LINE
  5
15E
330
1F
100
AcDbEntity
  8
10
  6
CONTINUOUS
 62
     7
100
AcDbLine
 10
677.3602556202286
 20
304.3055212203096
 30
0.0
 11
684.2602556202282
 21
304.3055212203096
 31
0.0
  0
ARC
  5
15F
330
1F
100
AcDbEntity
  8
10
  6
CONTINUOUS
 62
     7
100
AcDbCircle
 10
680.8102556202275
 20
307.2725387641692
 30
0.0
 40
4.550350877192955
100
AcDbArc
 50
220.6956985254003
 51
319.304301474599
  0
LINE
  5
160
330
1F
100
AcDbEntity
  8
10
  6
CONTINUOUS
 62
     7
100
AcDbLine
 10
677.3602556202286
 20
304.6221878869762
 30
0.0
 11
677.3602556202286
 21
304.3055212203096
 31
0.0
  0
LINE
  5
161
330
1F
100
AcDbEntity
  8
10
  6
CONTINUOUS
 62
     7
100
AcDbLine
 10
684.2602556202282
 20
304.6221878869762
 30
0.0
 11
684.2602556202282
 21
304.3055212203096
 31
0.0
  0
LINE
  5
162
330
1F
100
AcDbEntity
  8
10
  6
CONTINUOUS
 62
     7
100
AcDbLine
 10
500.7602556202282
 20
304.3055212203091
 30
0.0
 11
493.8602556202286
 21
304.3055212203091
 31
0.0
  0
ARC
  5
163
330
1F
100
AcDbEntity
  8
10
  6
CONTINUOUS
 62
     7
100
AcDbCircle
 10
497.3102556202293
 20
307.2725387641696
 30
0.0
 40
4.550350877192955
100
AcDbArc
 50
220.6956985253399
 51
319.3043014746593
  0
LINE
  5
164
330
1F
100
AcDbEntity
  8
10
  6
CONTINUOUS
 62
     7
100
AcDbLine
 10
500.7602556202282
 20
304.6221878869766
 30
0.0
 11
500.7602556202282
 21
304.3055212203091
 31
0.0
  0
LINE
  5
165
330
1F
100
AcDbEntity
  8
10
  6
CONTINUOUS
 62
     7
100
AcDbLine
 10
493.8602556202286
 20
304.6221878869766
 30
0.0
 11
493.8602556202286
 21
304.3055212203091
 31
0.0
  0
CIRCLE
  5
166
330
1F
100
AcDbEntity
  8
10
  6
CONTINUOUS
 62
     7
100
AcDbCircle
 10
497.3102556202293
 20
469.622187886977
 30
0.0
 40
17.5
  0
CIRCLE
  5
167
330
1F
100
AcDbEntity
  8
9
  6
HIDDEN
 62
     3
100
AcDbCircle
 10
497.3102556202293
 20
469.622187886977
 30
0.0
 40
22.5
  0
HATCH
  5
168
330
1F
100
AcDbEntity
  8
8
  6
CONTINUOUS
 62
     2
100
AcDbHatch
 10
0.0
 20
0.0
 30
0.0
210
0.0
220
0.0
230
1.0
  2

 70
     0
 71
     0
 91
        4
 92
        0
 93
       40
 72
     1
 10
497.3102556202286
 20
492.122187886976
 11
496.3288194045085
 21
492.1007728725678
 72
     1
 10
496.3288194045085
 20
492.1007728725678
 11
495.3492514084063
 21
492.0365685940403
 72
     1
 10
495.3492514084063
 20
492.0365685940403
 11
494.3734162952775
 21
491.9296972678868
 72
     1
 10
494.3734162952775
 20
491.9296972678868
 11
493.4031716227228
 21
491.7803623297507
 72
     1
 10
493.4031716227228
 20
491.7803623297507
 11
492.4403643066214
 21
491.5888480471746
 72
     1
 10
492.4403643066214
 20
491.5888480471746
 11
491.486827105422
 21
491.3555189784801
 72
     1
 10
491.486827105422
 20
491.3555189784801
 11
490.5443751313827
 21
491.0808192788112
 72
     1
 10
490.5443751313827
 20
491.0808192788112
 11
489.6148023954013
 21
490.765271854659
 72
     1
 10
489.6148023954013
 20
490.765271854659
 11
488.6998783920143
 21
490.4094773684801
 72
     1
 10
488.6998783920143
 20
490.4094773684801
 11
487.8013447310632
 21
490.0141130953007
 72
     1
 10
487.8013447310632
 20
490.0141130953007
 11
486.9209118224407
 21
489.5799316334861
 72
     1
 10
486.9209118224407
 20
489.5799316334861
 11
486.060255620229
 21
489.107759472126
 72
     1
 10
486.060255620229
 20
489.107759472126
 11
485.2210144324255
 21
488.5984954177661
 72
     1
 10
485.2210144324255
 20
488.5984954177661
 11
484.4047858023305
 21
488.0531088834785
 72
     1
 10
484.4047858023305
 20
488.0531088834785
 11
483.6131234675328
 21
487.472638043529
 72
     1
 10
483.6131234675328
 20
487.472638043529
 11
482.847534402282
 21
486.8581878571532
 72
     1
 10
482.847534402282
 20
486.8581878571532
 11
482.1094759488768
 21
486.2109279652041
 72
     1
 10
482.1094759488768
 20
486.2109279652041
 11
481.4003530435318
 21
485.5320904636736
 72
     1
 10
481.4003530435318
 20
485.5320904636736
 11
480.7215155420014
 21
484.8229675583287
 72
     1
 10
480.7215155420014
 20
484.8229675583287
 11
480.0742556500522
 21
484.0849091049234
 72
     1
 10
480.0742556500522
 20
484.0849091049234
 11
479.4598054636764
 21
483.3193200396726
 72
     1
 10
479.4598054636764
 20
483.3193200396726
 11
478.8793346237269
 21
482.5276577048749
 72
     1
 10
478.8793346237269
 20
482.5276577048749
 11
478.3339480894393
 21
481.71142907478
 72
     1
 10
478.3339480894393
 20
481.71142907478
 11
477.8246840350794
 21
480.8721878869765
 72
     1
 10
477.8246840350794
 20
480.8721878869765
 11
477.3525118737193
 21
480.0115316847647
 72
     1
 10
477.3525118737193
 20
480.0115316847647
 11
476.9183304119047
 21
479.1310987761423
 72
     1
 10
476.9183304119047
 20
479.1310987761423
 11
476.5229661387253
 21
478.2325651151911
 72
     1
 10
476.5229661387253
 20
478.2325651151911
 11
476.1671716525464
 21
477.3176411118042
 72
     1
 10
476.1671716525464
 20
477.3176411118042
 11
475.8516242283942
 21
476.3880683758228
 72
     1
 10
475.8516242283942
 20
476.3880683758228
 11
475.5769245287253
 21
475.4456164017834
 72
     1
 10
475.5769245287253
 20
475.4456164017834
 11
475.3435954600308
 21
474.492079200584
 72
     1
 10
475.3435954600308
 20
474.492079200584
 11
475.1520811774546
 21
473.5292718844827
 72
     1
 10
475.1520811774546
 20
473.5292718844827
 11
475.0027462393186
 21
472.5590272119279
 72
     1
 10
475.0027462393186
 20
472.5590272119279
 11
474.8958749131651
 21
471.5831920987991
 72
     1
 10
474.8958749131651
 20
471.5831920987991
 11
474.8316706346375
 21
470.6036241026969
 72
     1
 10
474.8316706346375
 20
470.6036241026969
 11
474.8102556202293
 21
469.6221878869769
 72
     1
 10
474.8102556202293
 20
469.6221878869768
 11
297.3102556202298
 21
469.6221878869769
 72
     1
 10
297.3102556202298
 20
469.6221878869769
 11
297.3102556202298
 21
619.6221878869769
 72
     1
 10
297.3102556202298
 20
619.6221878869769
 11
497.3102556202293
 21
619.6221878869769
 72
     1
 10
497.3102556202293
 20
619.6221878869769
 11
497.3102556202293
 21
492.122187886977
 97
        0
 92
        0
 93
       40
 72
     1
 10
519.8102556202306
 20
469.6221878869785
 11
519.7888406058224
 21
470.6036241026985
 72
     1
 10
519.7888406058224
 20
470.6036241026985
 11
519.7246363272949
 21
471.5831920988006
 72
     1
 10
519.7246363272949
 20
471.5831920988006
 11
519.6177650011414
 21
472.5590272119294
 72
     1
 10
519.6177650011414
 20
472.5590272119294
 11
519.4684300630053
 21
473.5292718844841
 72
     1
 10
519.4684300630053
 20
473.5292718844841
 11
519.2769157804291
 21
474.4920792005855
 72
     1
 10
519.2769157804291
 20
474.4920792005855
 11
519.0435867117346
 21
475.4456164017848
 72
     1
 10
519.0435867117346
 20
475.4456164017848
 11
518.7688870120658
 21
476.3880683758242
 72
     1
 10
518.7688870120658
 20
476.3880683758242
 11
518.4533395879137
 21
477.3176411118055
 72
     1
 10
518.4533395879137
 20
477.3176411118055
 11
518.0975451017347
 21
478.2325651151924
 72
     1
 10
518.0975451017347
 20
478.2325651151924
 11
517.7021808285554
 21
479.1310987761436
 72
     1
 10
517.7021808285554
 20
479.1310987761436
 11
517.2679993667407
 21
480.011531684766
 72
     1
 10
517.2679993667407
 20
480.011531684766
 11
516.7958272053806
 21
480.8721878869777
 72
     1
 10
516.7958272053806
 20
480.8721878869777
 11
516.2865631510208
 21
481.7114290747812
 72
     1
 10
516.2865631510208
 20
481.7114290747812
 11
515.7411766167331
 21
482.5276577048761
 72
     1
 10
515.7411766167331
 20
482.5276577048761
 11
515.1607057767836
 21
483.3193200396738
 72
     1
 10
515.1607057767836
 20
483.3193200396738
 11
514.5462555904079
 21
484.0849091049246
 72
     1
 10
514.5462555904079
 20
484.0849091049246
 11
513.8989956984587
 21
484.8229675583298
 72
     1
 10
513.8989956984587
 20
484.8229675583298
 11
513.2201581969283
 21
485.5320904636747
 72
     1
 10
513.2201581969283
 20
485.5320904636747
 11
512.5110352915834
 21
486.2109279652051
 72
     1
 10
512.5110352915834
 20
486.2109279652051
 11
511.7729768381782
 21
486.8581878571543
 72
     1
 10
511.7729768381782
 20
486.8581878571543
 11
511.0073877729274
 21
487.4726380435301
 72
     1
 10
511.0073877729274
 20
487.4726380435301
 11
510.2157254381298
 21
488.0531088834795
 72
     1
 10
510.2157254381298
 20
488.0531088834795
 11
509.3994968080348
 21
488.5984954177671
 72
     1
 10
509.3994968080348
 20
488.5984954177671
 11
508.5602556202313
 21
489.107759472127
 72
     1
 10
508.5602556202313
 20
489.107759472127
 11
507.6995994180197
 21
489.5799316334871
 72
     1
 10
507.6995994180197
 20
489.5799316334871
 11
506.8191665093972
 21
490.0141130953018
 72
     1
 10
506.8191665093972
 20
490.0141130953018
 11
505.920632848446
 21
490.409477368481
 72
     1
 10
505.920632848446
 20
490.409477368481
 11
505.0057088450591
 21
490.76527185466
 72
     1
 10
505.0057088450591
 20
490.76527185466
 11
504.0761361090778
 21
491.0808192788122
 72
     1
 10
504.0761361090778
 20
491.0808192788122
 11
503.1336841350384
 21
491.355518978481
 72
     1
 10
503.1336841350384
 20
491.355518978481
 11
502.1801469338391
 21
491.5888480471755
 72
     1
 10
502.1801469338391
 20
491.5888480471755
 11
501.2173396177378
 21
491.7803623297517
 72
     1
 10
501.2173396177378
 20
491.7803623297517
 11
500.2470949451831
 21
491.9296972678877
 72
     1
 10
500.2470949451831
 20
491.9296972678877
 11
499.2712598320543
 21
492.0365685940412
 72
     1
 10
499.2712598320543
 20
492.0365685940412
 11
498.2916918359521
 21
492.1007728725688
 72
     1
 10
498.2916918359521
 20
492.1007728725688
 11
497.3102556202321
 21
492.122187886977
 72
     1
 10
497.3102556202293
 20
492.122187886977
 11
497.3102556202293
 21
619.6221878869769
 72
     1
 10
497.3102556202293
 20
619.6221878869769
 11
697.3102556202298
 21
619.6221878869768
 72
     1
 10
697.3102556202298
 20
619.6221878869768
 11
697.3102556202298
 21
469.6221878869767
 72
     1
 10
697.3102556202298
 20
469.6221878869767
 11
519.8102556202293
 21
469.6221878869768
 97
        0
 92
        0
 93
       40
 72
     1
 10
497.3102556202293
 20
319.6221878869768
 11
697.3102556202298
 21
319.6221878869768
 72
     1
 10
697.3102556202298
 20
319.6221878869768
 11
697.3102556202298
 21
469.6221878869767
 72
     1
 10
697.3102556202298
 20
469.6221878869767
 11
519.8102556202293
 21
469.622187886977
 72
     1
 10
519.8102556202293
 20
469.6221878869754
 11
519.7888406058212
 21
468.6407516712555
 72
     1
 10
519.7888406058212
 20
468.6407516712555
 11
519.7246363272936
 21
467.6611836751533
 72
     1
 10
519.7246363272936
 20
467.6611836751533
 11
519.61776500114
 21
466.6853485620246
 72
     1
 10
519.61776500114
 20
466.6853485620246
 11
519.468430063004
 21
465.7151038894698
 72
     1
 10
519.468430063004
 20
465.7151038894698
 11
519.2769157804279
 21
464.7522965733685
 72
     1
 10
519.2769157804279
 20
464.7522965733685
 11
519.0435867117334
 21
463.7987593721692
 72
     1
 10
519.0435867117334
 20
463.7987593721692
 11
518.7688870120645
 21
462.8563073981298
 72
     1
 10
518.7688870120645
 20
462.8563073981298
 11
518.4533395879123
 21
461.9267346621485
 72
     1
 10
518.4533395879123
 20
461.9267346621485
 11
518.0975451017333
 21
461.0118106587616
 72
     1
 10
518.0975451017333
 20
461.0118106587616
 11
517.7021808285541
 21
460.1132769978105
 72
     1
 10
517.7021808285541
 20
460.1132769978105
 11
517.2679993667394
 21
459.2328440891881
 72
     1
 10
517.2679993667394
 20
459.2328440891881
 11
516.7958272053794
 21
458.3721878869763
 72
     1
 10
516.7958272053794
 20
458.3721878869763
 11
516.2865631510194
 21
457.5329466991729
 72
     1
 10
516.2865631510194
 20
457.5329466991729
 11
515.7411766167319
 21
456.716718069078
 72
     1
 10
515.7411766167319
 20
456.716718069078
 11
515.1607057767824
 21
455.9250557342804
 72
     1
 10
515.1607057767824
 20
455.9250557342804
 11
514.5462555904066
 21
455.1594666690295
 72
     1
 10
514.5462555904066
 20
455.1594666690295
 11
513.8989956984575
 21
454.4214082156244
 72
     1
 10
513.8989956984575
 20
454.4214082156244
 11
513.2201581969271
 21
453.7122853102795
 72
     1
 10
513.2201581969271
 20
453.7122853102795
 11
512.5110352915822
 21
453.033447808749
 72
     1
 10
512.5110352915822
 20
453.033447808749
 11
511.772976838177
 21
452.3861879167999
 72
     1
 10
511.772976838177
 20
452.3861879167999
 11
511.0073877729261
 21
451.7717377304241
 72
     1
 10
511.0073877729261
 20
451.7717377304241
 11
510.2157254381285
 21
451.1912668904747
 72
     1
 10
510.2157254381285
 20
451.1912668904747
 11
509.3994968080336
 21
450.6458803561871
 72
     1
 10
509.3994968080336
 20
450.6458803561871
 11
508.5602556202301
 21
450.1366163018272
 72
     1
 10
508.5602556202301
 20
450.1366163018272
 11
507.6995994180185
 21
449.6644441404671
 72
     1
 10
507.6995994180185
 20
449.6644441404671
 11
506.819166509396
 21
449.2302626786525
 72
     1
 10
506.819166509396
 20
449.2302626786525
 11
505.9206328484448
 21
448.8348984054733
 72
     1
 10
505.9206328484448
 20
448.8348984054733
 11
505.0057088450579
 21
448.4791039192943
 72
     1
 10
505.0057088450579
 20
448.4791039192943
 11
504.0761361090766
 21
448.1635564951421
 72
     1
 10
504.0761361090766
 20
448.1635564951421
 11
503.1336841350372
 21
447.8888567954733
 72
     1
 10
503.1336841350372
 20
447.8888567954733
 11
502.1801469338379
 21
447.6555277267788
 72
     1
 10
502.1801469338379
 20
447.6555277267788
 11
501.2173396177366
 21
447.4640134442026
 72
     1
 10
501.2173396177366
 20
447.4640134442026
 11
500.2470949451819
 21
447.3146785060666
 72
     1
 10
500.2470949451819
 20
447.3146785060666
 11
499.2712598320531
 21
447.2078071799131
 72
     1
 10
499.2712598320531
 20
447.2078071799131
 11
498.291691835951
 21
447.1436029013856
 72
     1
 10
498.291691835951
 20
447.1436029013856
 11
497.310255620231
 21
447.1221878869774
 72
     1
 10
497.3102556202293
 20
447.122187886977
 11
497.3102556202293
 21
319.6221878869768
 97
        0
 92
        0
 93
       40
 72
     1
 10
297.3102556202298
 20
319.6221878869768
 11
497.3102556202293
 21
319.6221878869768
 72
     1
 10
497.3102556202293
 20
319.6221878869768
 11
497.3102556202293
 21
447.122187886977
 72
     1
 10
497.3102556202275
 20
447.122187886977
 11
496.3288194045075
 21
447.1436029013852
 72
     1
 10
496.3288194045075
 20
447.1436029013852
 11
495.3492514084052
 21
447.2078071799127
 72
     1
 10
495.3492514084052
 20
447.2078071799127
 11
494.3734162952764
 21
447.3146785060662
 72
     1
 10
494.3734162952764
 20
447.3146785060662
 11
493.4031716227216
 21
447.4640134442023
 72
     1
 10
493.4031716227216
 20
447.4640134442023
 11
492.4403643066203
 21
447.6555277267785
 72
     1
 10
492.4403643066203
 20
447.6555277267785
 11
491.4868271054209
 21
447.888856795473
 72
     1
 10
491.4868271054209
 20
447.888856795473
 11
490.5443751313815
 21
448.1635564951419
 72
     1
 10
490.5443751313815
 20
448.1635564951419
 11
489.6148023954001
 21
448.4791039192941
 72
     1
 10
489.6148023954001
 20
448.4791039192941
 11
488.6998783920131
 21
448.834898405473
 72
     1
 10
488.6998783920131
 20
448.834898405473
 11
487.8013447310619
 21
449.2302626786524
 72
     1
 10
487.8013447310619
 20
449.2302626786524
 11
486.9209118224395
 21
449.664444140467
 72
     1
 10
486.9209118224395
 20
449.664444140467
 11
486.0602556202277
 21
450.1366163018271
 72
     1
 10
486.0602556202277
 20
450.1366163018271
 11
485.2210144324242
 21
450.645880356187
 72
     1
 10
485.2210144324242
 20
450.645880356187
 11
484.4047858023292
 21
451.1912668904747
 72
     1
 10
484.4047858023292
 20
451.1912668904747
 11
483.6131234675315
 21
451.7717377304241
 72
     1
 10
483.6131234675315
 20
451.7717377304241
 11
482.8475344022806
 21
452.3861879167999
 72
     1
 10
482.8475344022806
 20
452.3861879167999
 11
482.1094759488754
 21
453.0334478087491
 72
     1
 10
482.1094759488754
 20
453.0334478087491
 11
481.4003530435305
 21
453.7122853102796
 72
     1
 10
481.4003530435305
 20
453.7122853102796
 11
480.721515542
 21
454.4214082156246
 72
     1
 10
480.721515542
 20
454.4214082156246
 11
480.0742556500508
 21
455.1594666690298
 72
     1
 10
480.0742556500508
 20
455.1594666690298
 11
479.459805463675
 21
455.9250557342807
 72
     1
 10
479.459805463675
 20
455.9250557342807
 11
478.8793346237255
 21
456.7167180690784
 72
     1
 10
478.8793346237255
 20
456.7167180690784
 11
478.3339480894379
 21
457.5329466991734
 72
     1
 10
478.3339480894379
 20
457.5329466991734
 11
477.824684035078
 21
458.3721878869769
 72
     1
 10
477.824684035078
 20
458.3721878869769
 11
477.3525118737179
 21
459.2328440891886
 72
     1
 10
477.3525118737179
 20
459.2328440891886
 11
476.9183304119033
 21
460.1132769978111
 72
     1
 10
476.9183304119033
 20
460.1132769978111
 11
476.522966138724
 21
461.0118106587623
 72
     1
 10
476.522966138724
 20
461.0118106587623
 11
476.167171652545
 21
461.9267346621493
 72
     1
 10
476.167171652545
 20
461.9267346621493
 11
475.8516242283928
 21
462.8563073981306
 72
     1
 10
475.8516242283928
 20
462.8563073981306
 11
475.5769245287239
 21
463.7987593721701
 72
     1
 10
475.5769245287239
 20
463.7987593721701
 11
475.3435954600295
 21
464.7522965733694
 72
     1
 10
475.3435954600295
 20
464.7522965733694
 11
475.1520811774533
 21
465.7151038894708
 72
     1
 10
475.1520811774533
 20
465.7151038894708
 11
475.0027462393172
 21
466.6853485620256
 72
     1
 10
475.0027462393172
 20
466.6853485620256
 11
474.8958749131637
 21
467.6611836751544
 72
     1
 10
474.8958749131637
 20
467.6611836751544
 11
474.8316706346362
 21
468.6407516712567
 72
     1
 10
474.8316706346362
 20
468.6407516712567
 11
474.810255620228
 21
469.6221878869767
 72
     1
 10
474.8102556202293
 20
469.6221878869768
 11
297.3102556202298
 21
469.6221878869769
 72
     1
 10
297.3102556202298
 20
469.6221878869769
 11
297.3102556202298
 21
319.6221878869768
 97
        0
 75
     0
 76
     2
 52
0.0
 41
0.3333333333333333
 77
     0
 78
     2
 53
315.0
 43
-726.579960839294
 44
1013.855512629167
 45
10.10278813620278
 46
10.10278813620278
 79
     0
 53
45.0
 43
-726.579960839294
 44
1013.855512629167
 45
-10.10278813620278
 46
10.10278813620278
 79
     0
 98
        0
  0
DIMENSION
  5
173
330
1F
100
AcDbEntity
  8
7
  6
CONTINUOUS
 62
     4
100
AcDbDimension
  2
DIM1
 10
297.3102556202296
 20
223.2187518202448
 30
0.0
 11
497.3102556202296
 21
223.2187518202448
 31
0.0
 70
   160
  1
<>
  3
STANDARD
100
AcDbAlignedDimension
 13
697.3102556202294
 23
319.6221878869768
 33
0.0
 14
297.3102556202298
 24
319.6221878869768
 34
0.0
 50
179.9999999999998
100
AcDbRotatedDimension
1001
ACAD
1000
DSTYLE
1002
{
1070
   287
1070
     4
1070
     7
1000

1070
     6
1000

1070
   279
1070
     1
1070
   340
1005
169
1070
   140
1040
9.0
1070
    40
1040
1.0
1070
   147
1040
0.0
1070
    76
1070
     0
1070
    75
1070
     0
1070
   173
1070
     1
1070
   289
1070
     2
1070
   288
1070
     1
1070
    77
1070
     1
1070
   172
1070
     1
1070
   174
1070
     0
1070
    74
1070
     0
1070
    73
1070
     0
1070
   284
1070
     8
1070
    78
1070
     8
1070
    42
1040
3.0
1070
    44
1040
4.5
1070
    43
1040
30.0
1070
   271
1070
     2
1070
    41
1040
6.0
1002
}
  0
DIMENSION
  5
17D
330
1F
100
AcDbEntity
  8
7
  6
CONTINUOUS
 62
     4
100
AcDbDimension
  2
DIM2
 10
282.3102556202287
 20
198.5326838501645
 30
0.0
 11
497.3102556202291
 21
198.5326838501645
 31
0.0
 70
   160
  1
<>
  3
STANDARD
100
AcDbAlignedDimension
 13
712.3102556202296
 23
304.6221878869768
 33
0.0
 14
282.3102556202289
 24
304.6221878869768
 34
0.0
 50
179.9999999999998
100
AcDbRotatedDimension
1001
ACAD
1000
DSTYLE
1002
{
1070
   287
1070
     4
1070
     7
1000

1070
     6
1000

1070
   279
1070
     1
1070
   340
1005
169
1070
   140
1040
9.0
1070
    40
1040
1.0
1070
   147
1040
0.0
1070
    76
1070
     0
1070
    75
1070
     0
1070
   173
1070
     1
1070
   289
1070
     2
1070
   288
1070
     1
1070
    77
1070
     1
1070
   172
1070
     1
1070
   174
1070
     0
1070
    74
1070
     0
1070
    73
1070
     0
1070
   284
1070
     8
1070
    78
1070
     8
1070
    42
1040
3.0
1070
    44
1040
4.5
1070
    43
1040
30.0
1070
   271
1070
     2
1070
    41
1040
6.0
1002
}
  0
DIMENSION
  5
187
330
1F
100
AcDbEntity
  8
7
  6
CONTINUOUS
 62
     4
100
AcDbDimension
  2
DIM3
 10
712.3102556202296
 20
198.5326838501645
 30
0.0
 11
729.8102556202299
 21
198.5326838501645
 31
0.0
 70
   160
  1
<>
  3
STANDARD
100
AcDbAlignedDimension
 13
747.31025562023
 23
446.6221878869786
 33
0.0
 14
712.3102556202298
 24
304.6221878869768
 34
0.0
 50
179.9999999999998
100
AcDbRotatedDimension
1001
ACAD
1000
DSTYLE
1002
{
1070
   287
1070
     4
1070
     7
1000

1070
     6
1000

1070
   279
1070
     1
1070
   340
1005
169
1070
   140
1040
9.0
1070
    40
1040
1.0
1070
   147
1040
0.0
1070
    76
1070
     0
1070
    75
1070
     0
1070
   173
1070
     1
1070
   289
1070
     2
1070
   288
1070
     1
1070
    77
1070
     1
1070
   172
1070
     1
1070
   174
1070
     0
1070
    74
1070
     0
1070
    73
1070
     0
1070
   284
1070
     8
1070
    78
1070
     8
1070
    42
1040
3.0
1070
    44
1040
4.5
1070
    43
1040
30.0
1070
   271
1070
     2
1070
    41
1040
6.0
1002
}
  0
DIMENSION
  5
193
330
1F
100
AcDbEntity
  8
7
  6
CONTINUOUS
 62
     4
100
AcDbDimension
  2
DIM4
 10
672.3102556202293
 20
251.5127186585941
 30
0.0
 11
637.5602556202293
 21
260.5127186585941
 31
0.0
 70
   160
  1
<>
  3
STANDARD
100
AcDbAlignedDimension
 13
584.8102556202294
 23
296.6221878869773
 33
0.0
 14
672.3102556202294
 24
296.6221878869773
 34
0.0
100
AcDbRotatedDimension
1001
ACAD
1000
DSTYLE
1002
{
1070
   287
1070
     4
1070
     7
1000

1070
     6
1000

1070
   279
1070
     1
1070
   340
1005
169
1070
   140
1040
9.0
1070
    40
1040
1.0
1070
   147
1040
0.0
1070
    76
1070
     0
1070
    75
1070
     0
1070
   173
1070
     1
1070
   289
1070
     2
1070
   288
1070
     1
1070
    77
1070
     1
1070
   172
1070
     1
1070
   174
1070
     0
1070
    74
1070
     0
1070
    73
1070
     0
1070
   284
1070
     8
1070
    78
1070
     8
1070
    42
1040
3.0
1070
    44
1040
4.5
1070
    43
1040
30.0
1070
   271
1070
     2
1070
    41
1040
6.0
1002
}
  0
DIMENSION
  5
19D
330
1F
100
AcDbEntity
  8
7
  6
CONTINUOUS
 62
     4
100
AcDbDimension
  2
DIM5
 10
322.3102556202293
 20
251.5127186585941
 30
0.0
 11
366.0602556202294
 21
251.5127186585941
 31
0.0
 70
   160
  1
<>
  3
STANDARD
100
AcDbAlignedDimension
 13
409.8102556202293
 23
296.6221878869773
 33
0.0
 14
322.3102556202293
 24
296.6221878869773
 34
0.0
 50
179.9999999999998
100
AcDbRotatedDimension
1001
ACAD
1000
DSTYLE
1002
{
1070
   287
1070
     4
1070
     7
1000

1070
     6
1000

1070
   279
1070
     1
1070
   340
1005
169
1070
   140
1040
9.0
1070
    40
1040
1.0
1070
   147
1040
0.0
1070
    76
1070
     0
1070
    75
1070
     0
1070
   173
1070
     1
1070
   289
1070
     2
1070
   288
1070
     1
1070
    77
1070
     1
1070
   172
1070
     1
1070
   174
1070
     0
1070
    74
1070
     0
1070
    73
1070
     0
1070
   284
1070
     8
1070
    78
1070
     8
1070
    42
1040
3.0
1070
    44
1040
4.5
1070
    43
1040
30.0
1070
   271
1070
     2
1070
    41
1040
6.0
1002
}
  0
DIMENSION
  5
1A7
330
1F
100
AcDbEntity
  8
7
  6
CONTINUOUS
 62
     4
100
AcDbDimension
  2
DIM6
 10
996.2487786230453
 20
223.1205357573091
 30
0.0
 11
973.7487786230455
 21
223.1205357573091
 31
0.0
 70
   160
  1
<>
  3
STANDARD
100
AcDbAlignedDimension
 13
951.2487786230454
 23
304.6221878869786
 33
0.0
 14
996.2487786230454
 24
289.6221878869786
 34
0.0
100
AcDbRotatedDimension
1001
ACAD
1000
DSTYLE
1002
{
1070
   287
1070
     4
1070
     7
1000

1070
     6
1000

1070
   279
1070
     1
1070
   340
1005
169
1070
   140
1040
9.0
1070
    40
1040
1.0
1070
   147
1040
0.0
1070
    76
1070
     0
1070
    75
1070
     0
1070
   173
1070
     1
1070
   289
1070
     2
1070
   288
1070
     1
1070
    77
1070
     1
1070
   172
1070
     1
1070
   174
1070
     0
1070
    74
1070
     0
1070
    73
1070
     0
1070
   284
1070
     8
1070
    78
1070
     8
1070
    42
1040
3.0
1070
    44
1040
4.5
1070
    43
1040
30.0
1070
   271
1070
     2
1070
    41
1040
6.0
1002
}
  0
DIMENSION
  5
1B1
330
1F
100
AcDbEntity
  8
7
  6
CONTINUOUS
 62
     4
100
AcDbDimension
  2
DIM7
 10
996.2487786230454
 20
276.1964985022902
 30
0.0
 11
1012.832155944684
 21
276.1964985022902
 31
0.0
 70
   160
  1
<>
  3
STANDARD
100
AcDbAlignedDimension
 13
995.2487786230454
 23
289.6221878869786
 33
0.0
 14
996.2487786230454
 24
289.6221878869786
 34
0.0
100
AcDbRotatedDimension
1001
ACAD
1000
DSTYLE
1002
{
1070
   287
1070
     4
1070
     7
1000

1070
     6
1000

1070
   279
1070
     1
1070
   340
1005
169
1070
   140
1040
9.0
1070
    40
1040
1.0
1070
   147
1040
0.0
1070
    76
1070
     0
1070
    75
1070
     0
1070
   173
1070
     1
1070
   289
1070
     2
1070
   288
1070
     1
1070
    77
1070
     1
1070
   172
1070
     1
1070
   174
1070
     0
1070
    74
1070
     0
1070
    73
1070
     0
1070
   284
1070
     8
1070
    78
1070
     8
1070
    42
1040
3.0
1070
    44
1040
4.5
1070
    43
1040
30.0
1070
   271
1070
     2
1070
    41
1040
6.0
1002
}
  0
DIMENSION
  5
1BB
330
1F
100
AcDbEntity
  8
7
  6
CONTINUOUS
 62
     4
100
AcDbDimension
  2
DIM8
 10
962.7487786230446
 20
251.4537334457724
 30
0.0
 11
979.4987786230453
 21
251.4537334457724
 31
0.0
 70
   160
  1
<>
  3
STANDARD
100
AcDbAlignedDimension
 13
996.2487786230454
 23
289.6221878869786
 33
0.0
 14
962.7487786230449
 24
446.6221878869786
 34
0.0
 50
179.9999999999998
100
AcDbRotatedDimension
1001
ACAD
1000
DSTYLE
1002
{
1070
   287
1070
     4
1070
     7
1000

1070
     6
1000

1070
   279
1070
     1
1070
   340
1005
169
1070
   140
1040
9.0
1070
    40
1040
1.0
1070
   147
1040
0.0
1070
    76
1070
     0
1070
    75
1070
     0
1070
   173
1070
     1
1070
   289
1070
     2
1070
   288
1070
     1
1070
    77
1070
     1
1070
   172
1070
     1
1070
   174
1070
     0
1070
    74
1070
     0
1070
    73
1070
     0
1070
   284
1070
     8
1070
    78
1070
     8
1070
    42
1040
3.0
1070
    44
1040
4.5
1070
    43
1040
30.0
1070
   271
1070
     2
1070
    41
1040
6.0
1002
}
  0
DIMENSION
  5
1C5
330
1F
100
AcDbEntity
  8
7
  6
CONTINUOUS
 62
     4
100
AcDbDimension
  2
DIM9
 10
584.8102556202293
 20
251.5127186585941
 30
0.0
 11
497.3102556202294
 21
251.5127186585941
 31
0.0
 70
   160
  1
<>
  3
STANDARD
100
AcDbAlignedDimension
 13
409.8102556202293
 23
296.6221878869773
 33
0.0
 14
584.8102556202294
 24
296.6221878869773
 34
0.0
100
AcDbRotatedDimension
1001
ACAD
1000
DSTYLE
1002
{
1070
   287
1070
     4
1070
     7
1000

1070
     6
1000

1070
   279
1070
     1
1070
   340
1005
169
1070
   140
1040
9.0
1070
    40
1040
1.0
1070
   147
1040
0.0
1070
    76
1070
     0
1070
    75
1070
     0
1070
   173
1070
     1
1070
   289
1070
     2
1070
   288
1070
     1
1070
    77
1070
     1
1070
   172
1070
     1
1070
   174
1070
     0
1070
    74
1070
     0
1070
    73
1070
     0
1070
   284
1070
     8
1070
    78
1070
     8
1070
    42
1040
3.0
1070
    44
1040
4.5
1070
    43
1040
30.0
1070
   271
1070
     2
1070
    41
1040
6.0
1002
}
  0
DIMENSION
  5
1CF
330
1F
100
AcDbEntity
  8
7
  6
CONTINUOUS
 62
     4
100
AcDbDimension
  2
DIM10
 10
776.683372066735
 20
319.6221878869723
 30
0.0
 11
776.6833720667348
 21
469.6221878869724
 31
0.0
 70
   160
  1
<>
 53
89.99999999999991
  3
STANDARD
100
AcDbAlignedDimension
 13
697.3102556202366
 23
619.6221878869724
 33
0.0
 14
697.3102556202298
 24
319.6221878869723
 34
0.0
 50
-89.99999999999991
100
AcDbRotatedDimension
1001
ACAD
1000
DSTYLE
1002
{
1070
   287
1070
     4
1070
     7
1000

1070
     6
1000

1070
   279
1070
     1
1070
   340
1005
169
1070
   140
1040
9.0
1070
    40
1040
1.0
1070
   147
1040
0.0
1070
    76
1070
     0
1070
    75
1070
     0
1070
   173
1070
     1
1070
   289
1070
     2
1070
   288
1070
     1
1070
    77
1070
     1
1070
   172
1070
     1
1070
   174
1070
     0
1070
    74
1070
     0
1070
    73
1070
     0
1070
   284
1070
     8
1070
    78
1070
     8
1070
    42
1040
3.0
1070
    44
1040
4.5
1070
    43
1040
30.0
1070
   271
1070
     2
1070
    41
1040
6.0
1002
}
  0
DIMENSION
  5
1D9
330
1F
100
AcDbEntity
  8
7
  6
CONTINUOUS
 62
     4
100
AcDbDimension
  2
DIM11
 10
805.9947942158997
 20
304.6221878869719
 30
0.0
 11
805.9947942158994
 21
469.6221878869719
 31
0.0
 70
   160
  1
<>
 53
89.9999999999999
  3
STANDARD
100
AcDbAlignedDimension
 13
712.3102556202379
 23
634.6221878869719
 33
0.0
 14
712.3102556202304
 24
304.6221878869719
 34
0.0
 50
-89.99999999999991
100
AcDbRotatedDimension
1001
ACAD
1000
DSTYLE
1002
{
1070
   287
1070
     4
1070
     7
1000

1070
     6
1000

1070
   279
1070
     1
1070
   340
1005
169
1070
   140
1040
9.0
1070
    40
1040
1.0
1070
   147
1040
0.0
1070
    76
1070
     0
1070
    75
1070
     0
1070
   173
1070
     1
1070
   289
1070
     2
1070
   288
1070
     1
1070
    77
1070
     1
1070
   172
1070
     1
1070
   174
1070
     0
1070
    74
1070
     0
1070
    73
1070
     0
1070
   284
1070
     8
1070
    78
1070
     8
1070
    42
1040
3.0
1070
    44
1040
4.5
1070
    43
1040
30.0
1070
   271
1070
     2
1070
    41
1040
6.0
1002
}
  0
DIMENSION
  5
1E3
330
1F
100
AcDbEntity
  8
7
  6
CONTINUOUS
 62
     4
100
AcDbDimension
  2
DIM12
 10
834.9214341751544
 20
296.6221878869733
 30
0.0
 11
834.9214341751542
 21
469.6221878869728
 31
0.0
 70
   160
  1
<>
 53
89.9999999999999
  3
STANDARD
100
AcDbAlignedDimension
 13
672.3102556202375
 23
642.6221878869724
 33
0.0
 14
672.3102556202296
 24
296.6221878869733
 34
0.0
 50
-89.99999999999991
100
AcDbRotatedDimension
1001
ACAD
1000
DSTYLE
1002
{
1070
   287
1070
     4
1070
     7
1000

1070
     6
1000

1070
   279
1070
     1
1070
   340
1005
169
1070
   140
1040
9.0
1070
    40
1040
1.0
1070
   147
1040
0.0
1070
    76
1070
     0
1070
    75
1070
     0
1070
   173
1070
     1
1070
   289
1070
     2
1070
   288
1070
     1
1070
    77
1070
     1
1070
   172
1070
     1
1070
   174
1070
     0
1070
    74
1070
     0
1070
    73
1070
     0
1070
   284
1070
     8
1070
    78
1070
     8
1070
    42
1040
3.0
1070
    44
1040
4.5
1070
    43
1040
30.0
1070
   271
1070
     2
1070
    41
1040
6.0
1002
}
  0
DIMENSION
  5
1ED
330
1F
100
AcDbEntity
  8
7
  6
CONTINUOUS
 62
     4
100
AcDbDimension
  2
DIM13
 10
860.4855589088615
 20
289.6221878869728
 30
0.0
 11
860.4855589088612
 21
469.6221878869724
 31
0.0
 70
   160
  1
<>
 53
89.99999999999991
  3
STANDARD
100
AcDbAlignedDimension
 13
692.3102556202376
 23
649.6221878869719
 33
0.0
 14
692.3102556202294
 24
289.6221878869728
 34
0.0
 50
-89.99999999999991
100
AcDbRotatedDimension
1001
ACAD
1000
DSTYLE
1002
{
1070
   287
1070
     4
1070
     7
1000

1070
     6
1000

1070
   279
1070
     1
1070
   340
1005
169
1070
   140
1040
9.0
1070
    40
1040
1.0
1070
   147
1040
0.0
1070
    76
1070
     0
1070
    75
1070
     0
1070
   173
1070
     1
1070
   289
1070
     2
1070
   288
1070
     1
1070
    77
1070
     1
1070
   172
1070
     1
1070
   174
1070
     0
1070
    74
1070
     0
1070
    73
1070
     0
1070
   284
1070
     8
1070
    78
1070
     8
1070
    42
1040
3.0
1070
    44
1040
4.5
1070
    43
1040
30.0
1070
   271
1070
     2
1070
    41
1040
6.0
1002
}
  0
DIMENSION
  5
1F5
330
1F
100
AcDbEntity
  8
7
  6
CONTINUOUS
 62
     4
100
AcDbDimension
  2
DIM14
 10
511.7207243759574
 20
459.6930192289181
 30
0.0
 11
250.2196325468086
 21
645.3385031050083
 31
0.0
 70
   163
  1
\U+2205<>
  3
STANDARD
100
AcDbDiametricDimension
 15
482.8997868645024
 25
479.5513565450375
 35
0.0
 40
0.0
1001
ACAD
1000
DSTYLE
1002
{
1070
   287
1070
     2
1070
     7
1000

1070
     6
1000

1070
   340
1005
169
1070
   140
1040
9.0
1070
    40
1040
1.0
1070
   147
1040
0.0
1070
    76
1070
     0
1070
    75
1070
     0
1070
   173
1070
     1
1070
   289
1070
     2
1070
   288
1070
     1
1070
    77
1070
     1
1070
   172
1070
     1
1070
   174
1070
     0
1070
    74
1070
     0
1070
    73
1070
     0
1070
   284
1070
     8
1070
    78
1070
     8
1070
    42
1040
3.0
1070
    44
1040
4.5
1070
    43
1040
30.0
1070
   271
1070
     2
1070
    41
1040
6.0
1002
}
  0
DIMENSION
  5
1FD
330
1F
100
AcDbEntity
  8
7
  6
CONTINUOUS
 62
     4
100
AcDbDimension
  2
DIM15
 10
518.1249168637842
 20
461.0781913212002
 30
0.0
 11
245.023674532975
 21
578.0450757732754
 31
0.0
 70
   163
  1
\U+2205<>
  3
STANDARD
100
AcDbDiametricDimension
 15
476.4955943766736
 25
478.1661844527557
 35
0.0
 40
0.0
1001
ACAD
1000
DSTYLE
1002
{
1070
   287
1070
     2
1070
     7
1000

1070
     6
1000

1070
   340
1005
169
1070
   140
1040
9.0
1070
    40
1040
1.0
1070
   147
1040
0.0
1070
    76
1070
     0
1070
    75
1070
     0
1070
   173
1070
     1
1070
   289
1070
     2
1070
   288
1070
     1
1070
    77
1070
     1
1070
   172
1070
     1
1070
   174
1070
     0
1070
    74
1070
     0
1070
    73
1070
     0
1070
   284
1070
     8
1070
    78
1070
     8
1070
    42
1040
3.0
1070
    44
1040
4.5
1070
    43
1040
30.0
1070
   271
1070
     2
1070
    41
1040
6.0
1002
}
  0
INSERT
  5
1FE
330
1F
100
AcDbEntity
  8
7
  6
CONTINUOUS
 62
     4
100
AcDbBlockReference
  2
_OPEN
 10
674.0946207712145
 20
645.1571515963715
 30
0.0
 41
2.0
 42
2.0
 43
2.0
 50
231.4862322722691
  0
POLYLINE
  5
1FF
330
1F
100
AcDbEntity
  8
7
  6
CONTINUOUS
 62
     4
100
AcDb2dPolyline
 66
     1
 10
0.0
 20
0.0
 30
0.0
  0
VERTEX
  5
200
330
1FF
100
AcDbEntity
  8
7
  6
CONTINUOUS
 62
     4
100
AcDbVertex
100
AcDb2dVertex
 10
674.0946207712145
 20
645.1571515963715
 30
0.0
  0
VERTEX
  5
201
330
1FF
100
AcDbEntity
  8
7
  6
CONTINUOUS
 62
     4
100
AcDbVertex
100
AcDb2dVertex
 10
697.8079492371661
 20
674.9541917829829
 30
0.0
  0
VERTEX
  5
202
330
1FF
100
AcDbEntity
  8
7
  6
CONTINUOUS
 62
     4
100
AcDbVertex
100
AcDb2dVertex
 10
727.1679492371661
 20
674.9541917829829
 30
0.0
  0
SEQEND
  5
203
330
1FF
100
AcDbEntity
  8
7
  6
CONTINUOUS
 62
     4
  0
MTEXT
  5
204
330
1F
100
AcDbEntity
  8
7
  6
CONTINUOUS
 62
     4
100
AcDbMText
 10
700.1679492371661
 20
674.9541917829829
 30
0.0
 40
9.0
 41
38.24970281414999
 71
     7
 72
     1
  1
{\fＭＳ ゴシック;\T0.760103;8-\U+00D86.2}
1001
ACAD
1000
ACAD_MTEXT_DEFINED_HEIGHT_BEGIN
1070
    46
1040
9.0
1000
ACAD_MTEXT_DEFINED_HEIGHT_END
  0
VIEWPORT
  5
3F
330
1B
100
AcDbEntity
 67
     1
  8
0
100
AcDbViewport
 10
630.0
 20
445.5
 30
0.0
 40
1260.0
 41
891.0
 68
     1
 69
     1
1001
ACAD
1000
MVIEW
1002
{
1070
    16
1010
0.0
1020
0.0
1030
0.0
1010
0.0
1020
0.0
1030
1.0
1040
0.0
1040
9.0
1040
630.0
1040
445.5
1040
50.0
1040
0.0
1040
0.0
1070
     0
1070
   100
1070
     0
1070
     3
1070
     0
1070
     0
1070
     0
1070
     0
1040
0.0
1040
0.0
1040
0.0
1040
0.5
1040
0.5
1040
0.5
1040
0.5
1070
     0
1002
{
1002
}
1002
}
  0
ENDSEC
  0
SECTION
  2
OBJECTS
  0
DICTIONARY
  5
C
330
0
100
AcDbDictionary
  3
ACAD_GROUP
350
D
  3
ACAD_LAYOUT
350
1A
  3
ACAD_MATERIAL
350
3B
  3
ACAD_MLEADERSTYLE
350
227
  3
ACAD_MLINESTYLE
350
17
  3
ACAD_PLOTSETTINGS
350
19
  3
ACAD_VISUALSTYLE
350
2A
  3
ACDBHEADERROUNDTRIPXREC
350
205
  3
ACDBVARIABLEDICTIONARY
350
225
  0
DICTIONARY
  5
D
102
{ACAD_REACTORS
330
C
102
}
330
C
100
AcDbDictionary
  0
DICTIONARY
  5
1A
102
{ACAD_REACTORS
330
C
102
}
330
C
100
AcDbDictionary
  0
DICTIONARY
  5
3B
102
{ACAD_REACTORS
330
C
102
}
330
C
100
AcDbDictionary
  3
BYBLOCK
350
3D
  3
BYLAYER
350
3C
  3
GLOBAL
350
3E
  0
DICTIONARY
  5
227
102
{ACAD_REACTORS
330
C
102
}
330
C
100
AcDbDictionary
  0
DICTIONARY
  5
17
102
{ACAD_REACTORS
330
C
102
}
330
C
100
AcDbDictionary
  3
STANDARD
350
18
  0
DICTIONARY
  5
19
102
{ACAD_REACTORS
330
C
102
}
330
C
100
AcDbDictionary
  0
DICTIONARY
  5
2A
102
{ACAD_REACTORS
330
C
102
}
330
C
100
AcDbDictionary
  3
2DWIREFRAME
350
2F
  3
3D_HIDDEN
350
31
  3
3DWIREFRAME
350
30
  3
BASIC
350
32
  3
BRIGHTEN
350
36
  3
COLORCHANGE
350
3A
  3
CONCEPTUAL
350
34
  3
DIM
350
35
  3
FACEPATTERN
350
39
  3
FLAT
350
2B
  3
FLATWITHEDGES
350
2C
  3
GOURAUD
350
2D
  3
GOURAUDWITHEDGES
350
2E
  3
LINEPATTERN
350
38
  3
REALISTIC
350
33
  3
THICKEN
350
37
  0
DICTIONARY
  5
205
102
{ACAD_REACTORS
330
C
102
}
330
C
100
AcDbDictionary
  3
CEPSNTYPE
350
20E
  3
DIMSTYLEDATA
350
224
  3
FINGERPRINTGUID
350
20F
  3
HYPERLINKBASE
350
208
  3
INSUNITS
350
20D
  3
LAYOUTDICT
350
20A
  3
LWETCUNION
350
20C
  3
PLOTSETDICT
350
20B
  3
PSVPSCALE
350
211
  3
PUCSBASE
350
214
  3
PUCSORGBACK
350
21A
  3
PUCSORGBOTTOM
350
216
  3
PUCSORGFRONT
350
219
  3
PUCSORGLEFT
350
217
  3
PUCSORGRIGHT
350
218
  3
PUCSORGTOP
350
215
  3
PUCSORTHOREF
350
212
  3
PUCSORTHOVIEW
350
213
  3
STYLESHEET
350
209
  3
TSTACKALIGN
350
206
  3
TSTACKSIZE
350
207
  3
UCSBASE
350
21D
  3
UCSORGBACK
350
223
  3
UCSORGBOTTOM
350
21F
  3
UCSORGFRONT
350
222
  3
UCSORGLEFT
350
220
  3
UCSORGRIGHT
350
221
  3
UCSORGTOP
350
21E
  3
UCSORTHOREF
350
21B
  3
UCSORTHOVIEW
350
21C
  3
VERSIONGUID
350
210
  0
DICTIONARY
  5
225
102
{ACAD_REACTORS
330
C
102
}
330
C
100
AcDbDictionary
  3
DIMASSOC
350
228
  3
HIDETEXT
350
229
  0
MATERIAL
  5
3D
102
{ACAD_REACTORS
330
3B
102
}
102
{ACAD_XDICTIONARY
360
22C
102
}
330
3B
100
AcDbMaterial
  1
ByBlock
  0
MATERIAL
  5
3C
102
{ACAD_REACTORS
330
3B
102
}
102
{ACAD_XDICTIONARY
360
22A
102
}
330
3B
100
AcDbMaterial
  1
ByLayer
  0
MATERIAL
  5
3E
102
{ACAD_REACTORS
330
3B
102
}
102
{ACAD_XDICTIONARY
360
22E
102
}
330
3B
100
AcDbMaterial
  1
Global
  0
MLINESTYLE
  5
18
102
{ACAD_REACTORS
330
17
102
}
330
17
100
AcDbMlineStyle
  2
Standard
 70
     0
  3

 62
   256
 51
90.0
 52
90.0
 71
     2
 49
0.5
 62
   256
  6
BYLAYER
 49
-0.5
 62
   256
  6
BYLAYER
  0
ACAD_PROXY_OBJECT
  5
2F
102
{ACAD_REACTORS
330
2A
102
}
330
2A
100
AcDbProxyObject
 90
      499
 91
      501
 93
      436
310
42CC9915DA5C99599C985B595049028333333333333E3BF0000000000000FB0107901411070040501600405405064090741402480A0340
1001
ACAD
1000
AcDbSavedByObjectVersion
1070
     0
  0
ACAD_PROXY_OBJECT
  5
31
102
{ACAD_REACTORS
330
2A
102
}
330
2A
100
AcDbProxyObject
 90
      499
 91
      501
 93
      500
310
424CD108121A5919195B90640502408333333333333E3BF0000000000000FB01079024090700405020000000000001110200405405064090740C02480A0340
1001
ACAD
1000
AcDbSavedByObjectVersion
1070
     0
  0
ACAD_PROXY_OBJECT
  5
30
102
{ACAD_REACTORS
330
2A
102
}
330
2A
100
AcDbProxyObject
 90
      499
 91
      501
 93
      436
310
42CCD915DA5C99599C985B595059028333333333333E3BF0000000000000FB0107901411070040501600405405064090741402480A0340
1001
ACAD
1000
AcDbSavedByObjectVersion
1070
     0
  0
ACAD_PROXY_OBJECT
  5
32
102
{ACAD_REACTORS
330
2A
102
}
330
2A
100
AcDbProxyObject
 90
      499
 91
      501
 93
      388
310
4150985CDA58D07406404333333333333E3BF0000000000000FB0107A41107004050150841D405064090741402480A0350
1001
ACAD
1000
AcDbSavedByObjectVersion
1070
     0
  0
ACAD_PROXY_OBJECT
  5
36
102
{ACAD_REACTORS
330
2A
102
}
330
2A
100
AcDbProxyObject
 90
      499
 91
      501
 93
      428
310
42109C9A59DA1D195B90C409028333333333333E3BF0000000000000FB010790141107004050150841D405064090741402480A029950
1001
ACAD
1000
AcDbSavedByObjectVersion
1070
     0
  0
ACAD_PROXY_OBJECT
  5
3A
102
{ACAD_REACTORS
330
2A
102
}
330
2A
100
AcDbProxyObject
 90
      499
 91
      501
 93
      452
310
42D0DBDB1BDC90DA185B99D95104090240C333333333333E3BF0000000000000FB0108901411070040501508421405064090741402480A0350
1001
ACAD
1000
AcDbSavedByObjectVersion
1070
     0
  0
ACAD_PROXY_OBJECT
  5
34
102
{ACAD_REACTORS
330
2A
102
}
330
2A
100
AcDbProxyObject
 90
      499
 91
      501
 93
      500
310
4290DBDB98D95C1D1D585B10940D028333333333333E3BF0000000000000FB0107902409070040501000000000000111010841D405064090740C02480A0340
1001
ACAD
1000
AcDbSavedByObjectVersion
1070
     0
  0
ACAD_PROXY_OBJECT
  5
35
102
{ACAD_REACTORS
330
2A
102
}
330
2A
100
AcDbProxyObject
 90
      499
 91
      501
 93
      412
310
40D11A5B50B409028333333333333E3BF0000000000000FB010790141107004050150841D405064090741402480A02677FFFFFD0
1001
ACAD
1000
AcDbSavedByObjectVersion
1070
     0
  0
ACAD_PROXY_OBJECT
  5
39
102
{ACAD_REACTORS
330
2A
102
}
330
2A
100
AcDbProxyObject
 90
      499
 91
      501
 93
      444
310
42D19858D95C185D1D195C9B90F409028333333333333E3BF0000000000000FB010790141107004050150841D405064090741402480A0350
1001
ACAD
1000
AcDbSavedByObjectVersion
1070
     0
  0
ACAD_PROXY_OBJECT
  5
2B
102
{ACAD_REACTORS
330
2A
102
}
330
2A
100
AcDbProxyObject
 90
      499
 91
      501
 93
      388
310
41119B185D240901404333333333333E3BF0000000000000F9010740A41107004050150841D405064090741402480A1B50
1001
ACAD
1000
AcDbSavedByObjectVersion
1070
     0
  0
ACAD_PROXY_OBJECT
  5
2C
102
{ACAD_REACTORS
330
2A
102
}
330
2A
100
AcDbProxyObject
 90
      499
 91
      501
 93
      476
310
43519B185D15DA5D1A115919D95CD0140901404333333333333E3BF0000000000000F9010740901411070040501600405405064090741402480A1B50
1001
ACAD
1000
AcDbSavedByObjectVersion
1070
     0
  0
ACAD_PROXY_OBJECT
  5
2D
102
{ACAD_REACTORS
330
2A
102
}
330
2A
100
AcDbProxyObject
 90
      499
 91
      501
 93
      412
310
41D1DBDD5C985D5910240902404333333333333E3BF0000000000000F9010740A411070040501641D405064090741402480A1B50
1001
ACAD
1000
AcDbSavedByObjectVersion
1070
     0
  0
ACAD_PROXY_OBJECT
  5
2E
102
{ACAD_REACTORS
330
2A
102
}
330
2A
100
AcDbProxyObject
 90
      499
 91
      501
 93
      500
310
4411DBDD5C985D5915DA5D1A115919D95CD0340902404333333333333E3BF0000000000000F9010740901411070040501600405405064090741402480A1B50
1001
ACAD
1000
AcDbSavedByObjectVersion
1070
     0
  0
ACAD_PROXY_OBJECT
  5
38
102
{ACAD_REACTORS
330
2A
102
}
330
2A
100
AcDbProxyObject
 90
      499
 91
      501
 93
      444
310
42D31A5B995C185D1D195C9B90E409028333333333333E3BF0000000000000FB010790141107004050750841D405064090741402483A0350
1001
ACAD
1000
AcDbSavedByObjectVersion
1070
     0
  0
ACAD_PROXY_OBJECT
  5
33
102
{ACAD_REACTORS
330
2A
102
}
330
2A
100
AcDbProxyObject
 90
      499
 91
      501
 93
      420
310
425499585B1A5CDD1A58D08409028333333333333E3BF0000000000000FB01079019070040501508421405064090741402480A1B40
1001
ACAD
1000
AcDbSavedByObjectVersion
1070
     0
  0
ACAD_PROXY_OBJECT
  5
37
102
{ACAD_REACTORS
330
2A
102
}
330
2A
100
AcDbProxyObject
 90
      499
 91
      501
 93
      412
310
41D51A1A58DAD95B90D409028333333333333E3BF0000000000000FB010790141107004050150C41D405064090741402480A0350
1001
ACAD
1000
AcDbSavedByObjectVersion
1070
     0
  0
XRECORD
  5
20E
102
{ACAD_REACTORS
330
205
102
}
330
205
100
AcDbXrecord
 90
        0
  0
XRECORD
  5
224
102
{ACAD_REACTORS
330
205
102
}
330
205
100
AcDbXrecord
1000
DSTYLE
1002
{
1070
   171
 70
     2
1070
   143
 40
25.4
1070
   274
 70
     2
1070
    41
 40
1.55291427
1070
   289
 70
     2
1070
   141
 40
0.09
1070
    43
 40
30.0
1070
   278
 70
    46
1070
    44
 40
2.0
1070
    42
 40
2.0
1070
   147
 40
0.09
1070
    77
 70
     3
1070
   272
 70
     4
1070
   146
 40
0.5
1070
   279
 70
     2
1070
   283
 70
     1
1070
   145
 40
0.7
1070
   340
340
11
1070
   140
 40
2.8
1070
   288
 70
     1
1002
}
  0
XRECORD
  5
20F
102
{ACAD_REACTORS
330
205
102
}
330
205
100
AcDbXrecord
  1
{25565D19-8739-4ADC-8968-E2E8E8A152A1}
  0
XRECORD
  5
208
102
{ACAD_REACTORS
330
205
102
}
330
205
100
AcDbXrecord
  1

  0
XRECORD
  5
20D
102
{ACAD_REACTORS
330
205
102
}
330
205
100
AcDbXrecord
 90
        4
  0
XRECORD
  5
20A
102
{ACAD_REACTORS
330
205
102
}
330
205
100
AcDbXrecord
340
1A
  0
XRECORD
  5
20C
102
{ACAD_REACTORS
330
205
102
}
330
205
100
AcDbXrecord
 90
    10781
  0
XRECORD
  5
20B
102
{ACAD_REACTORS
330
205
102
}
330
205
100
AcDbXrecord
340
19
  0
XRECORD
  5
211
102
{ACAD_REACTORS
330
205
102
}
330
205
100
AcDbXrecord
 40
0.0
  0
XRECORD
  5
214
102
{ACAD_REACTORS
330
205
102
}
330
205
100
AcDbXrecord
340
0
  0
XRECORD
  5
21A
102
{ACAD_REACTORS
330
205
102
}
330
205
100
AcDbXrecord
 10
0.0
 20
0.0
 30
0.0
  0
XRECORD
  5
216
102
{ACAD_REACTORS
330
205
102
}
330
205
100
AcDbXrecord
 10
0.0
 20
0.0
 30
0.0
  0
XRECORD
  5
219
102
{ACAD_REACTORS
330
205
102
}
330
205
100
AcDbXrecord
 10
0.0
 20
0.0
 30
0.0
  0
XRECORD
  5
217
102
{ACAD_REACTORS
330
205
102
}
330
205
100
AcDbXrecord
 10
0.0
 20
0.0
 30
0.0
  0
XRECORD
  5
218
102
{ACAD_REACTORS
330
205
102
}
330
205
100
AcDbXrecord
 10
0.0
 20
0.0
 30
0.0
  0
XRECORD
  5
215
102
{ACAD_REACTORS
330
205
102
}
330
205
100
AcDbXrecord
 10
0.0
 20
0.0
 30
0.0
  0
XRECORD
  5
212
102
{ACAD_REACTORS
330
205
102
}
330
205
100
AcDbXrecord
340
0
  0
XRECORD
  5
213
102
{ACAD_REACTORS
330
205
102
}
330
205
100
AcDbXrecord
 70
     0
  0
XRECORD
  5
209
102
{ACAD_REACTORS
330
205
102
}
330
205
100
AcDbXrecord
  1

  0
XRECORD
  5
206
102
{ACAD_REACTORS
330
205
102
}
330
205
100
AcDbXrecord
 90
        1
  0
XRECORD
  5
207
102
{ACAD_REACTORS
330
205
102
}
330
205
100
AcDbXrecord
 90
       70
  0
XRECORD
  5
21D
102
{ACAD_REACTORS
330
205
102
}
330
205
100
AcDbXrecord
340
0
  0
XRECORD
  5
223
102
{ACAD_REACTORS
330
205
102
}
330
205
100
AcDbXrecord
 10
0.0
 20
0.0
 30
0.0
  0
XRECORD
  5
21F
102
{ACAD_REACTORS
330
205
102
}
330
205
100
AcDbXrecord
 10
0.0
 20
0.0
 30
0.0
  0
XRECORD
  5
222
102
{ACAD_REACTORS
330
205
102
}
330
205
100
AcDbXrecord
 10
0.0
 20
0.0
 30
0.0
  0
XRECORD
  5
220
102
{ACAD_REACTORS
330
205
102
}
330
205
100
AcDbXrecord
 10
0.0
 20
0.0
 30
0.0
  0
XRECORD
  5
221
102
{ACAD_REACTORS
330
205
102
}
330
205
100
AcDbXrecord
 10
0.0
 20
0.0
 30
0.0
  0
XRECORD
  5
21E
102
{ACAD_REACTORS
330
205
102
}
330
205
100
AcDbXrecord
 10
0.0
 20
0.0
 30
0.0
  0
XRECORD
  5
21B
102
{ACAD_REACTORS
330
205
102
}
330
205
100
AcDbXrecord
340
0
  0
XRECORD
  5
21C
102
{ACAD_REACTORS
330
205
102
}
330
205
100
AcDbXrecord
 70
     0
  0
XRECORD
  5
210
102
{ACAD_REACTORS
330
205
102
}
330
205
100
AcDbXrecord
  1
{FAEB1C32-E019-11D5-929B-00C0DF256EC4}
  0
DICTIONARYVAR
  5
228
102
{ACAD_REACTORS
330
225
102
}
330
225
100
DictionaryVariables
280
     0
  1
1
  0
DICTIONARYVAR
  5
229
102
{ACAD_REACTORS
330
225
102
}
330
225
100
DictionaryVariables
280
     0
  1
1
  0
DICTIONARY
  5
22C
330
3D
100
AcDbDictionary
280
     1
  3
ACAD_XREC_ROUNDTRIP
360
22D
  0
DICTIONARY
  5
22A
330
3C
100
AcDbDictionary
280
     1
  3
ACAD_XREC_ROUNDTRIP
360
22B
  0
DICTIONARY
  5
22E
330
3E
100
AcDbDictionary
280
     1
  3
ACAD_XREC_ROUNDTRIP
360
22F
  0
XRECORD
  5
22D
102
{ACAD_REACTORS
330
22C
102
}
330
22C
100
AcDbXrecord
102
MATERIAL
148
0.0
149
0.0
149
0.0
 93
        0
 94
      127
282
     0
 72
     1
 77
     1
171
     1
175
     1
179
     1
273
     0
  0
XRECORD
  5
22B
102
{ACAD_REACTORS
330
22A
102
}
330
22A
100
AcDbXrecord
102
MATERIAL
148
0.0
149
0.0
149
0.0
 93
        0
 94
      127
282
     0
 72
     1
 77
     1
171
     1
175
     1
179
     1
273
     0
  0
XRECORD
  5
22F
102
{ACAD_REACTORS
330
22E
102
}
330
22E
100
AcDbXrecord
102
MATERIAL
148
0.0
149
0.0
149
0.0
 93
        0
 94
      127
282
     0
 72
     1
 77
     1
171
     1
175
     1
179
     1
273
     0
  0
ENDSEC
  0
EOF
