  0
SECTION
  2
HEADER
  9
$ACADVER
  1
AC1014
  9
$ACADMAINTVER
 70
     9
  9
$DWGCODEPAGE
  3
ANSI_932
  9
$INSBASE
 10
0.0
 20
0.0
 30
0.0
  9
$EXTMIN
 10
261.624694066327
 20
105.8842513769505
 30
0.0
  9
$EXTMAX
 10
990.4716908577566
 20
735.64073675285
 30
0.0
  9
$LIMMIN
 10
0.0
 20
0.0
  9
$LIMMAX
 10
420.0
 20
297.0
  9
$ORTHOMODE
 70
     0
  9
$REGENMODE
 70
     1
  9
$FILLMODE
 70
     1
  9
$QTEXTMODE
 70
     0
  9
$MIRRTEXT
 70
     1
  9
$DRAGMODE
 70
     2
  9
$LTSCALE
 40
0.75
  9
$OSMODE
 70
    37
  9
$ATTMODE
 70
     1
  9
$TEXTSIZE
 40
8.4
  9
$TRACEWID
 40
0.05
  9
$TEXTSTYLE
  7
STANDARD
  9
$CLAYER
  8
0
  9
$CELTYPE
  6
BYLAYER
  9
$CECOLOR
 62
   256
  9
$CELTSCALE
 40
1.0
  9
$DELOBJ
 70
     1
  9
$DISPSILH
 70
     0
  9
$DIMSCALE
 40
1.0
  9
$DIMASZ
 40
1.55291427
  9
$DIMEXO
 40
2.0
  9
$DIMDLI
 40
30.0
  9
$DIMRND
 40
0.0
  9
$DIMDLE
 40
0.0
  9
$DIMEXE
 40
2.0
  9
$DIMTP
 40
0.0
  9
$DIMTM
 40
0.0
  9
$DIMTXT
 40
2.8
  9
$DIMCEN
 40
0.09
  9
$DIMTSZ
 40
0.0
  9
$DIMTOL
 70
     0
  9
$DIMLIM
 70
     0
  9
$DIMTIH
 70
     0
  9
$DIMTOH
 70
     0
  9
$DIMSE1
 70
     0
  9
$DIMSE2
 70
     0
  9
$DIMTAD
 70
     3
  9
$DIMZIN
 70
     8
  9
$DIMBLK
  1

  9
$DIMASO
 70
     1
  9
$DIMSHO
 70
     1
  9
$DIMPOST
  1

  9
$DIMAPOST
  1

  9
$DIMALT
 70
     0
  9
$DIMALTD
 70
     2
  9
$DIMALTF
 40
25.4
  9
$DIMLFAC
 40
1.0
  9
$DIMTOFL
 70
     1
  9
$DIMTVP
 40
0.7
  9
$DIMTIX
 70
     0
  9
$DIMSOXD
 70
     0
  9
$DIMSAH
 70
     0
  9
$DIMBLK1
  1

  9
$DIMBLK2
  1

  9
$DIMSTYLE
  2
STANDARD
  9
$DIMCLRD
 70
     0
  9
$DIMCLRE
 70
     0
  9
$DIMCLRT
 70
     0
  9
$DIMTFAC
 40
0.5
  9
$DIMGAP
 40
0.09
  9
$DIMJUST
 70
     0
  9
$DIMSD1
 70
     0
  9
$DIMSD2
 70
     0
  9
$DIMTOLJ
 70
     1
  9
$DIMTZIN
 70
     8
  9
$DIMALTZ
 70
     0
  9
$DIMALTTZ
 70
     0
  9
$DIMFIT
 70
     5
  9
$DIMUPT
 70
     1
  9
$DIMUNIT
 70
     2
  9
$DIMDEC
 70
     2
  9
$DIMTDEC
 70
     4
  9
$DIMALTU
 70
     2
  9
$DIMALTTD
 70
     2
  9
$DIMTXSTY
  7
STANDARD
  9
$DIMAUNIT
 70
     0
  9
$LUNITS
 70
     2
  9
$LUPREC
 70
     4
  9
$SKETCHINC
 40
0.1
  9
$FILLETRAD
 40
0.5
  9
$AUNITS
 70
     0
  9
$AUPREC
 70
     0
  9
$MENU
  1
.
  9
$ELEVATION
 40
0.0
  9
$PELEVATION
 40
0.0
  9
$THICKNESS
 40
0.0
  9
$LIMCHECK
 70
     0
  9
$CHAMFERA
 40
0.5
  9
$CHAMFERB
 40
0.5
  9
$CHAMFERC
 40
1.0
  9
$CHAMFERD
 40
0.0
  9
$SKPOLY
 70
     0
  9
$TDCREATE
 40
2460098.045104166
  9
$TDUPDATE
 40
2460097.670115104
  9
$TDINDWG
 40
0.0000000116
  9
$TDUSRTIMER
 40
0.0000000116
  9
$USRTIMER
 70
     1
  9
$ANGBASE
 50
0.0
  9
$ANGDIR
 70
     0
  9
$PDMODE
 70
     0
  9
$PDSIZE
 40
0.0
  9
$PLINEWID
 40
0.0
  9
$COORDS
 70
     1
  9
$SPLFRAME
 70
     0
  9
$SPLINETYPE
 70
     6
  9
$SPLINESEGS
 70
     8
  9
$ATTDIA
 70
     0
  9
$ATTREQ
 70
     1
  9
$HANDLING
 70
     1
  9
$HANDSEED
  5
258
  9
$SURFTAB1
 70
     6
  9
$SURFTAB2
 70
     6
  9
$SURFTYPE
 70
     6
  9
$SURFU
 70
     6
  9
$SURFV
 70
     6
  9
$UCSNAME
  2

  9
$UCSORG
 10
0.0
 20
0.0
 30
0.0
  9
$UCSXDIR
 10
1.0
 20
0.0
 30
0.0
  9
$UCSYDIR
 10
0.0
 20
1.0
 30
0.0
  9
$PUCSNAME
  2

  9
$PUCSORG
 10
0.0
 20
0.0
 30
0.0
  9
$PUCSXDIR
 10
1.0
 20
0.0
 30
0.0
  9
$PUCSYDIR
 10
0.0
 20
1.0
 30
0.0
  9
$USERI1
 70
     0
  9
$USERI2
 70
     0
  9
$USERI3
 70
     0
  9
$USERI4
 70
     0
  9
$USERI5
 70
     0
  9
$USERR1
 40
0.0
  9
$USERR2
 40
0.0
  9
$USERR3
 40
0.0
  9
$USERR4
 40
0.0
  9
$USERR5
 40
0.0
  9
$WORLDVIEW
 70
     1
  9
$SHADEDGE
 70
     3
  9
$SHADEDIF
 70
    70
  9
$TILEMODE
 70
     1
  9
$MAXACTVP
 70
    64
  9
$PINSBASE
 10
0.0
 20
0.0
 30
0.0
  9
$PLIMCHECK
 70
     0
  9
$PEXTMIN
 10
0.0
 20
0.0
 30
0.0
  9
$PEXTMAX
 10
420.0
 20
297.0
 30
0.0
  9
$PLIMMIN
 10
0.0
 20
0.0
  9
$PLIMMAX
 10
420.0
 20
297.0
  9
$UNITMODE
 70
     0
  9
$VISRETAIN
 70
     1
  9
$PLINEGEN
 70
     0
  9
$PSLTSCALE
 70
     1
  9
$TREEDEPTH
 70
  3020
  9
$PICKSTYLE
 70
     1
  9
$CMLSTYLE
  2
STANDARD
  9
$CMLJUST
 70
     0
  9
$CMLSCALE
 40
1.0
  9
$PROXYGRAPHICS
 70
     1
  9
$MEASUREMENT
 70
     1
  0
ENDSEC
  0
SECTION
  2
CLASSES
  0
CLASS
  1
ACDBDICTIONARYWDFLT
  2
AcDbDictionaryWithDefault
  3
ObjectDBX Classes
 90
        0
280
     0
281
     0
  0
CLASS
  1
VISUALSTYLE
  2
AcDbVisualStyle
  3
ObjectDBX Classes
 90
     4095
280
     0
281
     0
  0
CLASS
  1
MATERIAL
  2
AcDbMaterial
  3
ObjectDBX Classes
 90
     1153
280
     0
281
     0
  0
CLASS
  1
DICTIONARYVAR
  2
AcDbDictionaryVar
  3
ObjectDBX Classes
 90
        0
280
     0
281
     0
  0
CLASS
  1
XRECORD
  2
AcDbXrecord
  3
AutoCAD 2000
 90
        0
280
     0
281
     0
  0
CLASS
  1
LWPOLYLINE
  2
AcDbPolyline
  3
AutoCAD 2000
 90
        0
280
     0
281
     1
  0
CLASS
  1
HATCH
  2
AcDbHatch
  3
AutoCAD 2000
 90
        0
280
     0
281
     1
  0
CLASS
  1
ACDBPLACEHOLDER
  2
AcDbPlaceHolder
  3
ObjectDBX Classes
 90
        0
280
     0
281
     0
  0
CLASS
  1
LAYOUT
  2
AcDbLayout
  3
ObjectDBX Classes
 90
        0
280
     0
281
     0
  0
ENDSEC
  0
SECTION
  2
TABLES
  0
TABLE
  2
VPORT
  5
8
330
0
100
AcDbSymbolTable
 70
     1
  0
VPORT
  5
29
330
8
100
AcDbSymbolTableRecord
100
AcDbViewportTableRecord
  2
*ACTIVE
 70
     0
 10
0.0
 20
0.0
 11
1.0
 21
1.0
 12
10.42990654205607
 22
4.5
 13
0.0
 23
0.0
 14
0.5
 24
0.5
 15
0.5
 25
0.5
 16
0.0
 26
0.0
 36
1.0
 17
0.0
 27
0.0
 37
0.0
 40
9.0
 41
1.972972972850329
 42
50.0
 43
0.0
 44
0.0
 50
0.0
 51
0.0
 71
     0
 72
   100
 73
     1
 74
     3
 75
     0
 76
     0
 77
     0
 78
     0
  0
ENDTAB
  0
TABLE
  2
LTYPE
  5
5
330
0
100
AcDbSymbolTable
 70
     9
  0
LTYPE
  5
14
330
5
100
AcDbSymbolTableRecord
100
AcDbLinetypeTableRecord
  2
BYBLOCK
 70
     0
  3

 72
    65
 73
     0
 40
0.0
  0
LTYPE
  5
15
330
5
100
AcDbSymbolTableRecord
100
AcDbLinetypeTableRecord
  2
BYLAYER
 70
     0
  3

 72
    65
 73
     0
 40
0.0
  0
LTYPE
  5
16
330
5
100
AcDbSymbolTableRecord
100
AcDbLinetypeTableRecord
  2
CONTINUOUS
 70
     0
  3
Solid line
 72
    65
 73
     0
 40
0.0
  0
LTYPE
  5
8E
330
5
100
AcDbSymbolTableRecord
100
AcDbLinetypeTableRecord
  2
DOT
 70
     0
  3
DOT
 72
    65
 73
     2
 40
4.0
 49
6.0
 74
     0
 49
-2.0
 74
     0
  0
LTYPE
  5
8F
330
5
100
AcDbSymbolTableRecord
100
AcDbLinetypeTableRecord
  2
HIDDEN
 70
     0
  3
HIDDEN
 72
    65
 73
     2
 40
4.2
 49
8.4
 74
     0
 49
-4.2
 74
     0
  0
LTYPE
  5
90
330
5
100
AcDbSymbolTableRecord
100
AcDbLinetypeTableRecord
  2
DASHDOT
 70
     0
  3
DASHDOT
 72
    65
 73
     4
 40
14.5
 49
30.0
 74
     0
 49
-9.0
 74
     0
 49
2.5
 74
     0
 49
-9.0
 74
     0
  0
LTYPE
  5
91
330
5
100
AcDbSymbolTableRecord
100
AcDbLinetypeTableRecord
  2
PHANTOM
 70
     0
  3
PHANTOM
 72
    65
 73
     6
 40
12.0
 49
30.0
 74
     0
 49
-9.0
 74
     0
 49
2.5
 74
     0
 49
-5.0
 74
     0
 49
2.5
 74
     0
 49
-9.0
 74
     0
  0
LTYPE
  5
92
330
5
100
AcDbSymbolTableRecord
100
AcDbLinetypeTableRecord
  2
ACAD_ISO14W100
 70
     0
  3
ACAD_ISO14W100
 72
    65
 73
     8
 40
1.5
 49
12.0
 74
     0
 49
-3.0
 74
     0
 49
0.5
 74
     0
 49
-3.0
 74
     0
 49
0.5
 74
     0
 49
-3.0
 74
     0
 49
0.5
 74
     0
 49
-3.0
 74
     0
  0
LTYPE
  5
93
330
5
100
AcDbSymbolTableRecord
100
AcDbLinetypeTableRecord
  2
ACAD_ISO06W100
 70
     0
  3
ACAD_ISO06W100
 72
    65
 73
     8
 40
13.5
 49
24.0
 74
     0
 49
-3.0
 74
     0
 49
0.5
 74
     0
 49
-3.0
 74
     0
 49
0.5
 74
     0
 49
-3.0
 74
     0
 49
0.5
 74
     0
 49
-3.0
 74
     0
  0
LTYPE
  5
94
330
5
100
AcDbSymbolTableRecord
100
AcDbLinetypeTableRecord
  2
ACAD_ISO11W100
 70
     0
  3
ACAD_ISO11W100
 72
    65
 73
     6
 40
15.5
 49
12.0
 74
     0
 49
-3.0
 74
     0
 49
12.0
 74
     0
 49
-3.0
 74
     0
 49
0.5
 74
     0
 49
-3.0
 74
     0
  0
LTYPE
  5
95
330
5
100
AcDbSymbolTableRecord
100
AcDbLinetypeTableRecord
  2
ACAD_ISO13W100
 70
     0
  3
ACAD_ISO13W100
 72
    65
 73
     8
 40
13.0
 49
12.0
 74
     0
 49
-3.0
 74
     0
 49
12.0
 74
     0
 49
-3.0
 74
     0
 49
0.5
 74
     0
 49
-3.0
 74
     0
 49
0.5
 74
     0
 49
-3.0
 74
     0
  0
ENDTAB
  0
TABLE
  2
LAYER
  5
2
330
0
100
AcDbSymbolTable
 70
    11
  0
LAYER
  5
10
330
2
100
AcDbSymbolTableRecord
100
AcDbLayerTableRecord
  2
0
 70
     0
 62
     7
  6
CONTINUOUS
  0
LAYER
  5
96
330
2
100
AcDbSymbolTableRecord
100
AcDbLayerTableRecord
  2
1
 70
     0
 62
     7
  6
CONTINUOUS
  0
LAYER
  5
97
330
2
100
AcDbSymbolTableRecord
100
AcDbLayerTableRecord
  2
2
 70
     0
 62
   151
  6
CONTINUOUS
  0
LAYER
  5
98
330
2
100
AcDbSymbolTableRecord
100
AcDbLayerTableRecord
  2
3
 70
     0
 62
     3
  6
HIDDEN
  0
LAYER
  5
99
330
2
100
AcDbSymbolTableRecord
100
AcDbLayerTableRecord
  2
4
 70
     0
 62
     1
  6
DASHDOT
  0
LAYER
  5
9A
330
2
100
AcDbSymbolTableRecord
100
AcDbLayerTableRecord
  2
5
 70
     0
 62
     7
  6
CONTINUOUS
  0
LAYER
  5
9B
330
2
100
AcDbSymbolTableRecord
100
AcDbLayerTableRecord
  2
6
 70
     0
 62
     6
  6
CONTINUOUS
  0
LAYER
  5
9C
330
2
100
AcDbSymbolTableRecord
100
AcDbLayerTableRecord
  2
7
 70
     0
 62
     3
  6
CONTINUOUS
  0
LAYER
  5
9D
330
2
100
AcDbSymbolTableRecord
100
AcDbLayerTableRecord
  2
8
 70
     0
 62
     4
  6
CONTINUOUS
  0
LAYER
  5
9E
330
2
100
AcDbSymbolTableRecord
100
AcDbLayerTableRecord
  2
9
 70
     0
 62
     7
  6
CONTINUOUS
  0
LAYER
  5
9F
330
2
100
AcDbSymbolTableRecord
100
AcDbLayerTableRecord
  2
10
 70
     0
 62
     2
  6
CONTINUOUS
  0
ENDTAB
  0
TABLE
  2
STYLE
  5
3
330
0
100
AcDbSymbolTable
 70
     3
  0
STYLE
  5
11
330
3
100
AcDbSymbolTableRecord
100
AcDbTextStyleTableRecord
  2
STANDARD
 70
     0
 40
0.0
 41
1.0
 50
0.0
 71
     0
 42
8.4
  3
txt
  4
bigfont
  0
STYLE
  5
41
330
3
100
AcDbSymbolTableRecord
100
AcDbTextStyleTableRecord
  2
T_STANDARD
 70
     4
 40
10.0
 41
1.0
 50
0.0
 71
     0
 42
10.0
  3
txt
  4
bigfont
  0
STYLE
  5
19D
330
3
100
AcDbSymbolTableRecord
100
AcDbTextStyleTableRecord
  2
ＭＳ_ゴシック
 70
     0
 40
0.0
 41
1.0
 50
0.0
 71
     0
 42
0.0
  3

  4

1001
ACAD
1000
ＭＳ ゴシック
1071
      256
  0
ENDTAB
  0
TABLE
  2
VIEW
  5
6
330
0
100
AcDbSymbolTable
 70
     0
  0
ENDTAB
  0
TABLE
  2
UCS
  5
7
330
0
100
AcDbSymbolTable
 70
     0
  0
ENDTAB
  0
TABLE
  2
APPID
  5
9
330
0
100
AcDbSymbolTable
 70
     2
  0
APPID
  5
12
330
9
100
AcDbSymbolTableRecord
100
AcDbRegAppTableRecord
  2
ACAD
 70
     0
  0
APPID
  5
40
330
9
100
AcDbSymbolTableRecord
100
AcDbRegAppTableRecord
  2
ODA
 70
     0
  0
ENDTAB
  0
TABLE
  2
DIMSTYLE
  5
A
330
0
100
AcDbSymbolTable
 70
     1
  0
DIMSTYLE
105
27
102
{ACAD_REACTORS
330
1A7
330
1B1
330
1BB
330
1C5
330
1CF
330
1D9
330
1E1
330
1E9
330
1FA
330
204
330
20E
330
218
330
222
330
22C
102
}
330
A
100
AcDbSymbolTableRecord
100
AcDbDimStyleTableRecord
  2
STANDARD
 70
     0
  3

  4

  5

  6

  7

 40
1.0
 41
0.18
 42
0.0625
 43
0.38
 44
0.18
 45
0.0
 46
0.0
 47
0.0
 48
0.0
140
0.18
141
0.09
142
0.0
143
25.4
144
1.0
145
0.0
146
1.0
147
0.09
 71
     0
 72
     0
 73
     1
 74
     1
 75
     0
 76
     0
 77
     0
 78
     0
170
     0
171
     2
172
     0
173
     0
174
     0
175
     0
176
     0
177
     0
178
     0
270
     2
271
     4
272
     4
273
     2
274
     2
340
11
275
     0
280
     0
281
     0
282
     0
283
     1
284
     0
285
     0
286
     0
287
     3
288
     0
  0
ENDTAB
  0
TABLE
  2
BLOCK_RECORD
  5
1
330
0
100
AcDbSymbolTable
 70
    30
  0
BLOCK_RECORD
  5
1F
330
1
100
AcDbSymbolTableRecord
100
AcDbBlockTableRecord
  2
*MODEL_SPACE
  0
BLOCK_RECORD
  5
1B
330
1
100
AcDbSymbolTableRecord
100
AcDbBlockTableRecord
  2
*PAPER_SPACE
  0
BLOCK_RECORD
  5
42
330
1
100
AcDbSymbolTableRecord
100
AcDbBlockTableRecord
  2
_ORIGIN
  0
BLOCK_RECORD
  5
47
330
1
100
AcDbSymbolTableRecord
100
AcDbBlockTableRecord
  2
_DOTBLANK
  0
BLOCK_RECORD
  5
4C
330
1
100
AcDbSymbolTableRecord
100
AcDbBlockTableRecord
  2
_DOT
  0
BLOCK_RECORD
  5
51
330
1
100
AcDbSymbolTableRecord
100
AcDbBlockTableRecord
  2
_OPEN
  0
BLOCK_RECORD
  5
57
330
1
100
AcDbSymbolTableRecord
100
AcDbBlockTableRecord
  2
_CLOSED
  0
BLOCK_RECORD
  5
5E
330
1
100
AcDbSymbolTableRecord
100
AcDbBlockTableRecord
  2
_CLOSEDBLANK
  0
BLOCK_RECORD
  5
64
330
1
100
AcDbSymbolTableRecord
100
AcDbBlockTableRecord
  2
_ARROWFILLED
  0
BLOCK_RECORD
  5
68
330
1
100
AcDbSymbolTableRecord
100
AcDbBlockTableRecord
  2
_BOXBLANK
  0
BLOCK_RECORD
  5
70
330
1
100
AcDbSymbolTableRecord
100
AcDbBlockTableRecord
  2
_BOXFILLED
  0
BLOCK_RECORD
  5
75
330
1
100
AcDbSymbolTableRecord
100
AcDbBlockTableRecord
  2
_INTEGRAL
  0
BLOCK_RECORD
  5
7A
330
1
100
AcDbSymbolTableRecord
100
AcDbBlockTableRecord
  2
_OBLIQUE
  0
BLOCK_RECORD
  5
7E
330
1
100
AcDbSymbolTableRecord
100
AcDbBlockTableRecord
  2
_NONE
  0
BLOCK_RECORD
  5
81
330
1
100
AcDbSymbolTableRecord
100
AcDbBlockTableRecord
  2
MARK_OPEN
  0
BLOCK_RECORD
  5
86
330
1
100
AcDbSymbolTableRecord
100
AcDbBlockTableRecord
  2
MARK_ORIGIN
  0
BLOCK_RECORD
  5
8A
330
1
100
AcDbSymbolTableRecord
100
AcDbBlockTableRecord
  2
MARK_DOT
  0
BLOCK_RECORD
  5
19E
330
1
100
AcDbSymbolTableRecord
100
AcDbBlockTableRecord
  2
DIM1
  0
BLOCK_RECORD
  5
1A8
330
1
100
AcDbSymbolTableRecord
100
AcDbBlockTableRecord
  2
DIM2
  0
BLOCK_RECORD
  5
1B2
330
1
100
AcDbSymbolTableRecord
100
AcDbBlockTableRecord
  2
DIM3
  0
BLOCK_RECORD
  5
1BC
330
1
100
AcDbSymbolTableRecord
100
AcDbBlockTableRecord
  2
DIM4
  0
BLOCK_RECORD
  5
1C6
330
1
100
AcDbSymbolTableRecord
100
AcDbBlockTableRecord
  2
DIM5
  0
BLOCK_RECORD
  5
1D0
330
1
100
AcDbSymbolTableRecord
100
AcDbBlockTableRecord
  2
DIM6
  0
BLOCK_RECORD
  5
1DA
330
1
100
AcDbSymbolTableRecord
100
AcDbBlockTableRecord
  2
DIM7
  0
BLOCK_RECORD
  5
1E2
330
1
100
AcDbSymbolTableRecord
100
AcDbBlockTableRecord
  2
DIM8
  0
BLOCK_RECORD
  5
1F1
330
1
100
AcDbSymbolTableRecord
100
AcDbBlockTableRecord
  2
DIM9
  0
BLOCK_RECORD
  5
1FB
330
1
100
AcDbSymbolTableRecord
100
AcDbBlockTableRecord
  2
DIM10
  0
BLOCK_RECORD
  5
205
330
1
100
AcDbSymbolTableRecord
100
AcDbBlockTableRecord
  2
DIM11
  0
BLOCK_RECORD
  5
20F
330
1
100
AcDbSymbolTableRecord
100
AcDbBlockTableRecord
  2
DIM12
  0
BLOCK_RECORD
  5
219
330
1
100
AcDbSymbolTableRecord
100
AcDbBlockTableRecord
  2
DIM13
  0
BLOCK_RECORD
  5
223
330
1
100
AcDbSymbolTableRecord
100
AcDbBlockTableRecord
  2
DIM14
  0
ENDTAB
  0
ENDSEC
  0
SECTION
  2
BLOCKS
  0
BLOCK
  5
20
330
1F
100
AcDbEntity
  8
0
100
AcDbBlockBegin
  2
*MODEL_SPACE
 70
     0
 10
0.0
 20
0.0
 30
0.0
  3
*MODEL_SPACE
  1

  0
ENDBLK
  5
21
330
1F
100
AcDbEntity
  8
0
100
AcDbBlockEnd
  0
BLOCK
  5
1C
330
1B
100
AcDbEntity
 67
     1
  8
0
100
AcDbBlockBegin
  2
*PAPER_SPACE
 70
     0
 10
0.0
 20
0.0
 30
0.0
  3
*PAPER_SPACE
  1

  0
ENDBLK
  5
1D
330
1B
100
AcDbEntity
 67
     1
  8
0
100
AcDbBlockEnd
  0
BLOCK
  5
45
330
42
100
AcDbEntity
  8
0
100
AcDbBlockBegin
  2
_ORIGIN
 70
     0
 10
0.0
 20
0.0
 30
0.0
  3
_ORIGIN
  1

  0
CIRCLE
  5
43
330
42
100
AcDbEntity
  8
0
 62
     0
100
AcDbCircle
 10
0.0
 20
0.0
 30
0.0
 40
0.5
  0
LINE
  5
44
330
42
100
AcDbEntity
  8
0
 62
     0
100
AcDbLine
 10
0.0
 20
0.0
 30
0.0
 11
-1.0
 21
0.0
 31
0.0
  0
ENDBLK
  5
46
330
42
100
AcDbEntity
  8
0
100
AcDbBlockEnd
  0
BLOCK
  5
4A
330
47
100
AcDbEntity
  8
0
100
AcDbBlockBegin
  2
_DOTBLANK
 70
     0
 10
0.0
 20
0.0
 30
0.0
  3
_DOTBLANK
  1

  0
CIRCLE
  5
48
330
47
100
AcDbEntity
  8
0
 62
     0
100
AcDbCircle
 10
0.0
 20
0.0
 30
0.0
 40
0.5
  0
LINE
  5
49
330
47
100
AcDbEntity
  8
0
 62
     0
100
AcDbLine
 10
-0.5
 20
0.0
 30
0.0
 11
-1.0
 21
0.0
 31
0.0
  0
ENDBLK
  5
4B
330
47
100
AcDbEntity
  8
0
100
AcDbBlockEnd
  0
BLOCK
  5
4F
330
4C
100
AcDbEntity
  8
0
100
AcDbBlockBegin
  2
_DOT
 70
     0
 10
0.0
 20
0.0
 30
0.0
  3
_DOT
  1

  0
LWPOLYLINE
  5
4D
330
4C
100
AcDbEntity
  8
0
 62
     0
100
AcDbPolyline
 90
        2
 70
     1
 43
0.5
 10
-0.25
 20
0.0
 42
1.0
 10
0.25
 20
0.0
 42
1.0
  0
LINE
  5
4E
330
4C
100
AcDbEntity
  8
0
 62
     0
100
AcDbLine
 10
-0.5
 20
0.0
 30
0.0
 11
-1.0
 21
0.0
 31
0.0
  0
ENDBLK
  5
50
330
4C
100
AcDbEntity
  8
0
100
AcDbBlockEnd
  0
BLOCK
  5
55
330
51
100
AcDbEntity
  8
0
100
AcDbBlockBegin
  2
_OPEN
 70
     0
 10
0.0
 20
0.0
 30
0.0
  3
_OPEN
  1

  0
LINE
  5
52
330
51
100
AcDbEntity
  8
0
 62
     0
100
AcDbLine
 10
0.0
 20
0.0
 30
0.0
 11
-1.0
 21
0.1666666666666667
 31
0.0
  0
LINE
  5
53
330
51
100
AcDbEntity
  8
0
 62
     0
100
AcDbLine
 10
0.0
 20
0.0
 30
0.0
 11
-1.0
 21
-0.1666666666666667
 31
0.0
  0
LINE
  5
54
330
51
100
AcDbEntity
  8
0
 62
     0
100
AcDbLine
 10
0.0
 20
0.0
 30
0.0
 11
-1.0
 21
0.0
 31
0.0
  0
ENDBLK
  5
56
330
51
100
AcDbEntity
  8
0
100
AcDbBlockEnd
  0
BLOCK
  5
5C
330
57
100
AcDbEntity
  8
0
100
AcDbBlockBegin
  2
_CLOSED
 70
     0
 10
0.0
 20
0.0
 30
0.0
  3
_CLOSED
  1

  0
LINE
  5
58
330
57
100
AcDbEntity
  8
0
 62
     0
100
AcDbLine
 10
0.0
 20
0.0
 30
0.0
 11
-1.0
 21
0.1666666666666667
 31
0.0
  0
LINE
  5
59
330
57
100
AcDbEntity
  8
0
 62
     0
100
AcDbLine
 10
0.0
 20
0.0
 30
0.0
 11
-1.0
 21
-0.1666666666666667
 31
0.0
  0
LINE
  5
5A
330
57
100
AcDbEntity
  8
0
 62
     0
100
AcDbLine
 10
-1.0
 20
0.1666666666666667
 30
0.0
 11
-1.0
 21
-0.1666666666666667
 31
0.0
  0
LINE
  5
5B
330
57
100
AcDbEntity
  8
0
 62
     0
100
AcDbLine
 10
0.0
 20
0.0
 30
0.0
 11
-1.0
 21
0.0
 31
0.0
  0
ENDBLK
  5
5D
330
57
100
AcDbEntity
  8
0
100
AcDbBlockEnd
  0
BLOCK
  5
62
330
5E
100
AcDbEntity
  8
0
100
AcDbBlockBegin
  2
_CLOSEDBLANK
 70
     0
 10
0.0
 20
0.0
 30
0.0
  3
_CLOSEDBLANK
  1

  0
LINE
  5
5F
330
5E
100
AcDbEntity
  8
0
 62
     0
100
AcDbLine
 10
0.0
 20
0.0
 30
0.0
 11
-1.0
 21
0.1666666666666667
 31
0.0
  0
LINE
  5
60
330
5E
100
AcDbEntity
  8
0
 62
     0
100
AcDbLine
 10
0.0
 20
0.0
 30
0.0
 11
-1.0
 21
-0.1666666666666667
 31
0.0
  0
LINE
  5
61
330
5E
100
AcDbEntity
  8
0
 62
     0
100
AcDbLine
 10
-1.0
 20
0.1666666666666667
 30
0.0
 11
-1.0
 21
-0.1666666666666667
 31
0.0
  0
ENDBLK
  5
63
330
5E
100
AcDbEntity
  8
0
100
AcDbBlockEnd
  0
BLOCK
  5
66
330
64
100
AcDbEntity
  8
0
100
AcDbBlockBegin
  2
_ARROWFILLED
 70
     0
 10
0.0
 20
0.0
 30
0.0
  3
_ARROWFILLED
  1

  0
SOLID
  5
65
330
64
100
AcDbEntity
  8
0
 62
     0
100
AcDbTrace
 10
0.0
 20
0.0
 30
0.0
 11
-1.0
 21
-0.1666666666666667
 31
0.0
 12
-1.0
 22
0.1666666666666667
 32
0.0
 13
0.0
 23
0.0
 33
0.0
  0
ENDBLK
  5
67
330
64
100
AcDbEntity
  8
0
100
AcDbBlockEnd
  0
BLOCK
  5
6E
330
68
100
AcDbEntity
  8
0
100
AcDbBlockBegin
  2
_BOXBLANK
 70
     0
 10
0.0
 20
0.0
 30
0.0
  3
_BOXBLANK
  1

  0
LINE
  5
69
330
68
100
AcDbEntity
  8
0
 62
     0
100
AcDbLine
 10
-0.5
 20
-0.5
 30
0.0
 11
0.5
 21
-0.5
 31
0.0
  0
LINE
  5
6A
330
68
100
AcDbEntity
  8
0
 62
     0
100
AcDbLine
 10
0.5
 20
-0.5
 30
0.0
 11
0.5
 21
0.5
 31
0.0
  0
LINE
  5
6B
330
68
100
AcDbEntity
  8
0
 62
     0
100
AcDbLine
 10
0.5
 20
0.5
 30
0.0
 11
-0.5
 21
0.5
 31
0.0
  0
LINE
  5
6C
330
68
100
AcDbEntity
  8
0
 62
     0
100
AcDbLine
 10
-0.5
 20
0.5
 30
0.0
 11
-0.5
 21
-0.5
 31
0.0
  0
LINE
  5
6D
330
68
100
AcDbEntity
  8
0
 62
     0
100
AcDbLine
 10
-0.5
 20
0.0
 30
0.0
 11
-1.0
 21
0.0
 31
0.0
  0
ENDBLK
  5
6F
330
68
100
AcDbEntity
  8
0
100
AcDbBlockEnd
  0
BLOCK
  5
73
330
70
100
AcDbEntity
  8
0
100
AcDbBlockBegin
  2
_BOXFILLED
 70
     0
 10
0.0
 20
0.0
 30
0.0
  3
_BOXFILLED
  1

  0
SOLID
  5
71
330
70
100
AcDbEntity
  8
0
 62
     0
100
AcDbTrace
 10
-0.5
 20
0.5
 30
0.0
 11
0.5
 21
0.5
 31
0.0
 12
-0.5
 22
-0.5
 32
0.0
 13
0.5
 23
-0.5
 33
0.0
  0
LINE
  5
72
330
70
100
AcDbEntity
  8
0
 62
     0
100
AcDbLine
 10
-0.5
 20
0.0
 30
0.0
 11
-1.0
 21
0.0
 31
0.0
  0
ENDBLK
  5
74
330
70
100
AcDbEntity
  8
0
100
AcDbBlockEnd
  0
BLOCK
  5
78
330
75
100
AcDbEntity
  8
0
100
AcDbBlockBegin
  2
_INTEGRAL
 70
     0
 10
0.0
 20
0.0
 30
0.0
  3
_INTEGRAL
  1

  0
ARC
  5
76
330
75
100
AcDbEntity
  8
0
 62
     0
100
AcDbCircle
 10
0.444888
 20
-0.0913346
 30
0.0
 40
0.4541666
100
AcDbArc
 50
101.9999999999999
 51
167.9999999999998
  0
ARC
  5
77
330
75
100
AcDbEntity
  8
0
 62
     0
100
AcDbCircle
 10
-0.444888
 20
0.0913346
 30
0.0
 40
0.4541666
100
AcDbArc
 50
281.9999999999997
 51
347.9999999999997
  0
ENDBLK
  5
79
330
75
100
AcDbEntity
  8
0
100
AcDbBlockEnd
  0
BLOCK
  5
7C
330
7A
100
AcDbEntity
  8
0
100
AcDbBlockBegin
  2
_OBLIQUE
 70
     0
 10
0.0
 20
0.0
 30
0.0
  3
_OBLIQUE
  1

  0
LINE
  5
7B
330
7A
100
AcDbEntity
  8
0
 62
     0
100
AcDbLine
 10
-0.5
 20
-0.5
 30
0.0
 11
0.5
 21
0.5
 31
0.0
  0
ENDBLK
  5
7D
330
7A
100
AcDbEntity
  8
0
100
AcDbBlockEnd
  0
BLOCK
  5
7F
330
7E
100
AcDbEntity
  8
0
100
AcDbBlockBegin
  2
_NONE
 70
     0
 10
0.0
 20
0.0
 30
0.0
  3
_NONE
  1

  0
ENDBLK
  5
80
330
7E
100
AcDbEntity
  8
0
100
AcDbBlockEnd
  0
BLOCK
  5
84
330
81
100
AcDbEntity
  8
0
100
AcDbBlockBegin
  2
MARK_OPEN
 70
     0
 10
0.0
 20
0.0
 30
0.0
  3
MARK_OPEN
  1

  0
LINE
  5
82
330
81
100
AcDbEntity
  8
0
 62
     0
100
AcDbLine
 10
0.0
 20
0.0
 30
0.0
 11
-1.0
 21
0.1666666666666667
 31
0.0
  0
LINE
  5
83
330
81
100
AcDbEntity
  8
0
 62
     0
100
AcDbLine
 10
0.0
 20
0.0
 30
0.0
 11
-1.0
 21
-0.1666666666666667
 31
0.0
  0
ENDBLK
  5
85
330
81
100
AcDbEntity
  8
0
100
AcDbBlockEnd
  0
BLOCK
  5
88
330
86
100
AcDbEntity
  8
0
100
AcDbBlockBegin
  2
MARK_ORIGIN
 70
     0
 10
0.0
 20
0.0
 30
0.0
  3
MARK_ORIGIN
  1

  0
CIRCLE
  5
87
330
86
100
AcDbEntity
  8
0
 62
     0
100
AcDbCircle
 10
0.0
 20
0.0
 30
0.0
 40
0.5
  0
ENDBLK
  5
89
330
86
100
AcDbEntity
  8
0
100
AcDbBlockEnd
  0
BLOCK
  5
8C
330
8A
100
AcDbEntity
  8
0
100
AcDbBlockBegin
  2
MARK_DOT
 70
     0
 10
0.0
 20
0.0
 30
0.0
  3
MARK_DOT
  1

  0
LWPOLYLINE
  5
8B
330
8A
100
AcDbEntity
  8
0
 62
     0
100
AcDbPolyline
 90
        2
 70
     1
 43
0.5
 10
-0.25
 20
0.0
 42
1.0
 10
0.25
 20
0.0
 42
1.0
  0
ENDBLK
  5
8D
330
8A
100
AcDbEntity
  8
0
100
AcDbBlockEnd
  0
BLOCK
  5
19F
330
19E
100
AcDbEntity
  8
0
100
AcDbBlockBegin
  2
DIM1
 70
     0
 10
0.0
 20
0.0
 30
0.0
  3
DIM1
  1

  0
LINE
  5
1A1
330
19E
100
AcDbEntity
  8
8
  6
CONTINUOUS
 62
     4
100
AcDbLine
 10
434.3644728398167
 20
216.4830705532004
 30
0.0
 11
434.3644728398166
 21
180.8842513769505
 31
0.0
  0
LINE
  5
1A2
330
19E
100
AcDbEntity
  8
8
  6
CONTINUOUS
 62
     4
100
AcDbLine
 10
609.3644728398167
 20
216.4830705532004
 30
0.0
 11
609.3644728398167
 21
180.8842513769505
 31
0.0
  0
LINE
  5
1A3
330
19E
100
AcDbEntity
  8
8
  6
CONTINUOUS
 62
     4
100
AcDbLine
 10
434.3644728398166
 20
185.3842513769505
 30
0.0
 11
609.3644728398167
 21
185.3842513769505
 31
0.0
  0
MTEXT
  5
1A4
330
19E
100
AcDbEntity
  8
8
  6
CONTINUOUS
 62
     4
100
AcDbMText
 10
521.8644728398167
 20
185.3842513769505
 30
0.0
 40
9.0
 41
109.2857142857143
 71
     8
 72
     1
  1
175
  7
ＭＳ_ゴシック
1001
ACAD
1000
ACAD_MTEXT_DEFINED_HEIGHT_BEGIN
1070
    46
1040
9.0
1000
ACAD_MTEXT_DEFINED_HEIGHT_END
  0
INSERT
  5
1A5
330
19E
100
AcDbEntity
  8
8
  6
CONTINUOUS
 62
     4
100
AcDbBlockReference
  2
_ARROWFILLED
 10
434.3644728398166
 20
185.3842513769505
 30
0.0
 41
6.0
 42
6.0
 43
6.0
 50
179.9999999999998
  0
INSERT
  5
1A6
330
19E
100
AcDbEntity
  8
8
  6
CONTINUOUS
 62
     4
100
AcDbBlockReference
  2
_ARROWFILLED
 10
609.3644728398167
 20
185.3842513769505
 30
0.0
 41
6.0
 42
6.0
 43
6.0
 50
359.9999999999997
  0
ENDBLK
  5
1A0
330
19E
100
AcDbEntity
  8
0
100
AcDbBlockEnd
  0
BLOCK
  5
1A9
330
1A8
100
AcDbEntity
  8
0
100
AcDbBlockBegin
  2
DIM2
 70
     0
 10
0.0
 20
0.0
 30
0.0
  3
DIM2
  1

  0
LINE
  5
1AB
330
1A8
100
AcDbEntity
  8
8
  6
CONTINUOUS
 62
     4
100
AcDbLine
 10
346.8644728398167
 20
216.4830705532004
 30
0.0
 11
346.8644728398166
 21
155.8842513769505
 31
0.0
  0
LINE
  5
1AC
330
1A8
100
AcDbEntity
  8
8
  6
CONTINUOUS
 62
     4
100
AcDbLine
 10
696.8644728398167
 20
216.4830705532004
 30
0.0
 11
696.8644728398166
 21
155.8842513769505
 31
0.0
  0
LINE
  5
1AD
330
1A8
100
AcDbEntity
  8
8
  6
CONTINUOUS
 62
     4
100
AcDbLine
 10
346.8644728398166
 20
160.3842513769505
 30
0.0
 11
696.8644728398166
 21
160.3842513769505
 31
0.0
  0
MTEXT
  5
1AE
330
1A8
100
AcDbEntity
  8
8
  6
CONTINUOUS
 62
     4
100
AcDbMText
 10
521.8644728398167
 20
160.3842513769505
 30
0.0
 40
9.0
 41
115.7142857142857
 71
     8
 72
     1
  1
350
  7
ＭＳ_ゴシック
1001
ACAD
1000
ACAD_MTEXT_DEFINED_HEIGHT_BEGIN
1070
    46
1040
9.0
1000
ACAD_MTEXT_DEFINED_HEIGHT_END
  0
INSERT
  5
1AF
330
1A8
100
AcDbEntity
  8
8
  6
CONTINUOUS
 62
     4
100
AcDbBlockReference
  2
_ARROWFILLED
 10
346.8644728398166
 20
160.3842513769505
 30
0.0
 41
6.0
 42
6.0
 43
6.0
 50
179.9999999999998
  0
INSERT
  5
1B0
330
1A8
100
AcDbEntity
  8
8
  6
CONTINUOUS
 62
     4
100
AcDbBlockReference
  2
_ARROWFILLED
 10
696.8644728398166
 20
160.3842513769505
 30
0.0
 41
6.0
 42
6.0
 43
6.0
 50
359.9999999999997
  0
ENDBLK
  5
1AA
330
1A8
100
AcDbEntity
  8
0
100
AcDbBlockEnd
  0
BLOCK
  5
1B3
330
1B2
100
AcDbEntity
  8
0
100
AcDbBlockBegin
  2
DIM3
 70
     0
 10
0.0
 20
0.0
 30
0.0
  3
DIM3
  1

  0
LINE
  5
1B5
330
1B2
100
AcDbEntity
  8
8
  6
CONTINUOUS
 62
     4
100
AcDbLine
 10
321.8644728398167
 20
247.5830705532007
 30
0.0
 11
321.8644728398165
 21
130.8842513769505
 31
0.0
  0
LINE
  5
1B6
330
1B2
100
AcDbEntity
  8
8
  6
CONTINUOUS
 62
     4
100
AcDbLine
 10
721.8644728398167
 20
247.5830705532007
 30
0.0
 11
721.8644728398165
 21
130.8842513769505
 31
0.0
  0
LINE
  5
1B7
330
1B2
100
AcDbEntity
  8
8
  6
CONTINUOUS
 62
     4
100
AcDbLine
 10
321.8644728398165
 20
135.3842513769505
 30
0.0
 11
721.8644728398165
 21
135.3842513769505
 31
0.0
  0
MTEXT
  5
1B8
330
1B2
100
AcDbEntity
  8
8
  6
CONTINUOUS
 62
     4
100
AcDbMText
 10
521.8644728398167
 20
135.3842513769505
 30
0.0
 40
9.0
 41
115.7142857142857
 71
     8
 72
     1
  1
400
  7
ＭＳ_ゴシック
1001
ACAD
1000
ACAD_MTEXT_DEFINED_HEIGHT_BEGIN
1070
    46
1040
9.0
1000
ACAD_MTEXT_DEFINED_HEIGHT_END
  0
INSERT
  5
1B9
330
1B2
100
AcDbEntity
  8
8
  6
CONTINUOUS
 62
     4
100
AcDbBlockReference
  2
_ARROWFILLED
 10
321.8644728398165
 20
135.3842513769505
 30
0.0
 41
6.0
 42
6.0
 43
6.0
 50
179.9999999999998
  0
INSERT
  5
1BA
330
1B2
100
AcDbEntity
  8
8
  6
CONTINUOUS
 62
     4
100
AcDbBlockReference
  2
_ARROWFILLED
 10
721.8644728398165
 20
135.3842513769505
 30
0.0
 41
6.0
 42
6.0
 43
6.0
 50
359.9999999999997
  0
ENDBLK
  5
1B4
330
1B2
100
AcDbEntity
  8
0
100
AcDbBlockEnd
  0
BLOCK
  5
1BD
330
1BC
100
AcDbEntity
  8
0
100
AcDbBlockBegin
  2
DIM4
 70
     0
 10
0.0
 20
0.0
 30
0.0
  3
DIM4
  1

  0
LINE
  5
1BF
330
1BC
100
AcDbEntity
  8
8
  6
CONTINUOUS
 62
     4
100
AcDbLine
 10
306.8644728398167
 20
232.5830705532007
 30
0.0
 11
306.8644728398165
 21
105.8842513769505
 31
0.0
  0
LINE
  5
1C0
330
1BC
100
AcDbEntity
  8
8
  6
CONTINUOUS
 62
     4
100
AcDbLine
 10
736.8644728398167
 20
232.5830705532007
 30
0.0
 11
736.8644728398165
 21
105.8842513769505
 31
0.0
  0
LINE
  5
1C1
330
1BC
100
AcDbEntity
  8
8
  6
CONTINUOUS
 62
     4
100
AcDbLine
 10
306.8644728398165
 20
110.3842513769505
 30
0.0
 11
736.8644728398165
 21
110.3842513769505
 31
0.0
  0
MTEXT
  5
1C2
330
1BC
100
AcDbEntity
  8
8
  6
CONTINUOUS
 62
     4
100
AcDbMText
 10
521.8644728398167
 20
110.3842513769505
 30
0.0
 40
9.0
 41
115.7142857142857
 71
     8
 72
     1
  1
430
  7
ＭＳ_ゴシック
1001
ACAD
1000
ACAD_MTEXT_DEFINED_HEIGHT_BEGIN
1070
    46
1040
9.0
1000
ACAD_MTEXT_DEFINED_HEIGHT_END
  0
INSERT
  5
1C3
330
1BC
100
AcDbEntity
  8
8
  6
CONTINUOUS
 62
     4
100
AcDbBlockReference
  2
_ARROWFILLED
 10
306.8644728398165
 20
110.3842513769505
 30
0.0
 41
6.0
 42
6.0
 43
6.0
 50
179.9999999999998
  0
INSERT
  5
1C4
330
1BC
100
AcDbEntity
  8
8
  6
CONTINUOUS
 62
     4
100
AcDbBlockReference
  2
_ARROWFILLED
 10
736.8644728398165
 20
110.3842513769505
 30
0.0
 41
6.0
 42
6.0
 43
6.0
 50
359.9999999999997
  0
ENDBLK
  5
1BE
330
1BC
100
AcDbEntity
  8
0
100
AcDbBlockEnd
  0
BLOCK
  5
1C7
330
1C6
100
AcDbEntity
  8
0
100
AcDbBlockBegin
  2
DIM5
 70
     0
 10
0.0
 20
0.0
 30
0.0
  3
DIM5
  1

  0
LINE
  5
1C9
330
1C6
100
AcDbEntity
  8
8
  6
CONTINUOUS
 62
     4
100
AcDbLine
 10
724.8644728398167
 20
650.5830705532007
 30
0.0
 11
777.5845367935644
 21
650.5830705532006
 31
0.0
  0
LINE
  5
1CA
330
1C6
100
AcDbEntity
  8
8
  6
CONTINUOUS
 62
     4
100
AcDbLine
 10
724.8644728398167
 20
250.5830705532007
 30
0.0
 11
777.5845367935644
 21
250.5830705532005
 31
0.0
  0
LINE
  5
1CB
330
1C6
100
AcDbEntity
  8
8
  6
CONTINUOUS
 62
     4
100
AcDbLine
 10
773.0845367935644
 20
650.5830705532006
 30
0.0
 11
773.0845367935644
 21
250.5830705532005
 31
0.0
  0
MTEXT
  5
1CC
330
1C6
100
AcDbEntity
  8
8
  6
CONTINUOUS
 62
     4
100
AcDbMText
 10
773.0845367935644
 20
450.5830705532017
 30
0.0
 40
9.0
 41
115.7142857142857
 71
     8
 72
     1
  1
400
  7
ＭＳ_ゴシック
 11
1.615544574432587E-15
 21
1.0
 31
0.0
1001
ACAD
1000
ACAD_MTEXT_DEFINED_HEIGHT_BEGIN
1070
    46
1040
9.0
1000
ACAD_MTEXT_DEFINED_HEIGHT_END
  0
INSERT
  5
1CD
330
1C6
100
AcDbEntity
  8
8
  6
CONTINUOUS
 62
     4
100
AcDbBlockReference
  2
_ARROWFILLED
 10
773.0845367935644
 20
650.5830705532006
 30
0.0
 41
6.0
 42
6.0
 43
6.0
 50
89.99999999999991
  0
INSERT
  5
1CE
330
1C6
100
AcDbEntity
  8
8
  6
CONTINUOUS
 62
     4
100
AcDbBlockReference
  2
_ARROWFILLED
 10
773.0845367935644
 20
250.5830705532005
 30
0.0
 41
6.0
 42
6.0
 43
6.0
 50
269.9999999999998
  0
ENDBLK
  5
1C8
330
1C6
100
AcDbEntity
  8
0
100
AcDbBlockEnd
  0
BLOCK
  5
1D1
330
1D0
100
AcDbEntity
  8
0
100
AcDbBlockBegin
  2
DIM6
 70
     0
 10
0.0
 20
0.0
 30
0.0
  3
DIM6
  1

  0
LINE
  5
1D3
330
1D0
100
AcDbEntity
  8
8
  6
CONTINUOUS
 62
     4
100
AcDbLine
 10
739.8644728398167
 20
665.5830705532007
 30
0.0
 11
802.5845367935635
 21
665.5830705532005
 31
0.0
  0
LINE
  5
1D4
330
1D0
100
AcDbEntity
  8
8
  6
CONTINUOUS
 62
     4
100
AcDbLine
 10
739.8644728398167
 20
235.5830705532007
 30
0.0
 11
802.5845367935635
 21
235.5830705532005
 31
0.0
  0
LINE
  5
1D5
330
1D0
100
AcDbEntity
  8
8
  6
CONTINUOUS
 62
     4
100
AcDbLine
 10
798.0845367935635
 20
665.5830705532005
 30
0.0
 11
798.0845367935635
 21
235.5830705532005
 31
0.0
  0
MTEXT
  5
1D6
330
1D0
100
AcDbEntity
  8
8
  6
CONTINUOUS
 62
     4
100
AcDbMText
 10
798.0845367935635
 20
450.5830705532007
 30
0.0
 40
9.0
 41
115.7142857142857
 71
     8
 72
     1
  1
430
  7
ＭＳ_ゴシック
 11
1.615544574432587E-15
 21
1.0
 31
0.0
1001
ACAD
1000
ACAD_MTEXT_DEFINED_HEIGHT_BEGIN
1070
    46
1040
9.0
1000
ACAD_MTEXT_DEFINED_HEIGHT_END
  0
INSERT
  5
1D7
330
1D0
100
AcDbEntity
  8
8
  6
CONTINUOUS
 62
     4
100
AcDbBlockReference
  2
_ARROWFILLED
 10
798.0845367935635
 20
665.5830705532005
 30
0.0
 41
6.0
 42
6.0
 43
6.0
 50
89.99999999999991
  0
INSERT
  5
1D8
330
1D0
100
AcDbEntity
  8
8
  6
CONTINUOUS
 62
     4
100
AcDbBlockReference
  2
_ARROWFILLED
 10
798.0845367935635
 20
235.5830705532005
 30
0.0
 41
6.0
 42
6.0
 43
6.0
 50
269.9999999999998
  0
ENDBLK
  5
1D2
330
1D0
100
AcDbEntity
  8
0
100
AcDbBlockEnd
  0
BLOCK
  5
1DB
330
1DA
100
AcDbEntity
  8
0
100
AcDbBlockBegin
  2
DIM7
 70
     0
 10
0.0
 20
0.0
 30
0.0
  3
DIM7
  1

  0
LINE
  5
1DD
330
1DA
100
AcDbEntity
  8
8
  6
CONTINUOUS
 62
     4
100
AcDbLine
 10
546.156405885172
 20
433.8453291010246
 30
0.0
 11
266.6623113056795
 21
626.4236588592898
 31
0.0
  0
MTEXT
  5
1DE
330
1DA
100
AcDbEntity
  8
8
  6
CONTINUOUS
 62
     4
100
AcDbMText
 10
277.7789586315245
 20
618.7640144659264
 30
0.0
 40
9.0
 41
113.5714285714286
 71
     9
 72
     1
  1
\U+220535
  7
ＭＳ_ゴシック
 11
0.8234553574701345
 21
-0.5673810661748707
 31
0.0
1001
ACAD
1000
ACAD_MTEXT_DEFINED_HEIGHT_BEGIN
1070
    46
1040
9.0
1000
ACAD_MTEXT_DEFINED_HEIGHT_END
  0
INSERT
  5
1DF
330
1DA
100
AcDbEntity
  8
8
  6
CONTINUOUS
 62
     4
100
AcDbBlockReference
  2
_ARROWFILLED
 10
536.2749415955304
 20
440.6539018951231
 30
0.0
 41
6.0
 42
6.0
 43
6.0
 50
145.432199294914
  0
INSERT
  5
1E0
330
1DA
100
AcDbEntity
  8
8
  6
CONTINUOUS
 62
     4
100
AcDbBlockReference
  2
_ARROWFILLED
 10
507.454004084076
 20
460.5122392112435
 30
0.0
 41
6.0
 42
6.0
 43
6.0
 50
325.432199294914
  0
ENDBLK
  5
1DC
330
1DA
100
AcDbEntity
  8
0
100
AcDbBlockEnd
  0
BLOCK
  5
1E3
330
1E2
100
AcDbEntity
  8
0
100
AcDbBlockBegin
  2
DIM8
 70
     0
 10
0.0
 20
0.0
 30
0.0
  3
DIM8
  1

  0
LINE
  5
1E5
330
1E2
100
AcDbEntity
  8
8
  6
CONTINUOUS
 62
     4
100
AcDbLine
 10
553.7802867465886
 20
437.4822758189927
 30
0.0
 11
261.6246940663278
 21
557.4062251605063
 31
0.0
  0
MTEXT
  5
1E6
330
1E2
100
AcDbEntity
  8
8
  6
CONTINUOUS
 62
     4
100
AcDbMText
 10
274.1134908124604
 20
552.2798272210376
 30
0.0
 40
9.0
 41
113.5714285714286
 71
     9
 72
     1
  1
\U+220545
  7
ＭＳ_ゴシック
 11
0.9250960552691404
 21
-0.3797331807012334
 31
0.0
1001
ACAD
1000
ACAD_MTEXT_DEFINED_HEIGHT_BEGIN
1070
    46
1040
9.0
1000
ACAD_MTEXT_DEFINED_HEIGHT_END
  0
INSERT
  5
1E7
330
1E2
100
AcDbEntity
  8
8
  6
CONTINUOUS
 62
     4
100
AcDbBlockReference
  2
_ARROWFILLED
 10
542.6791340833589
 20
442.0390739874076
 30
0.0
 41
6.0
 42
6.0
 43
6.0
 50
157.6828437611639
  0
INSERT
  5
1E8
330
1E2
100
AcDbEntity
  8
8
  6
CONTINUOUS
 62
     4
100
AcDbBlockReference
  2
_ARROWFILLED
 10
501.0498115962482
 20
459.127067118963
 30
0.0
 41
6.0
 42
6.0
 43
6.0
 50
337.6828437611638
  0
ENDBLK
  5
1E4
330
1E2
100
AcDbEntity
  8
0
100
AcDbBlockEnd
  0
BLOCK
  5
1F2
330
1F1
100
AcDbEntity
  8
0
100
AcDbBlockBegin
  2
DIM9
 70
     0
 10
0.0
 20
0.0
 30
0.0
  3
DIM9
  1

  0
LINE
  5
1F4
330
1F1
100
AcDbEntity
  8
8
  6
CONTINUOUS
 62
     4
100
AcDbLine
 10
926.7216908577566
 20
232.5830705532007
 30
0.0
 11
926.7216908577565
 21
155.8842513769505
 31
0.0
  0
LINE
  5
1F5
330
1F1
100
AcDbEntity
  8
8
  6
CONTINUOUS
 62
     4
100
AcDbLine
 10
971.7216908577566
 20
217.5830705532007
 30
0.0
 11
971.7216908577565
 21
155.8842513769505
 31
0.0
  0
LINE
  5
1F6
330
1F1
100
AcDbEntity
  8
8
  6
CONTINUOUS
 62
     4
100
AcDbLine
 10
926.7216908577565
 20
160.3842513769505
 30
0.0
 11
971.7216908577565
 21
160.3842513769505
 31
0.0
  0
MTEXT
  5
1F7
330
1F1
100
AcDbEntity
  8
8
  6
CONTINUOUS
 62
     4
100
AcDbMText
 10
949.2216908577566
 20
160.3842513769505
 30
0.0
 40
9.0
 41
72.85714285714286
 71
     8
 72
     1
  1
45
  7
ＭＳ_ゴシック
1001
ACAD
1000
ACAD_MTEXT_DEFINED_HEIGHT_BEGIN
1070
    46
1040
9.0
1000
ACAD_MTEXT_DEFINED_HEIGHT_END
  0
INSERT
  5
1F8
330
1F1
100
AcDbEntity
  8
8
  6
CONTINUOUS
 62
     4
100
AcDbBlockReference
  2
_ARROWFILLED
 10
926.7216908577565
 20
160.3842513769505
 30
0.0
 41
6.0
 42
6.0
 43
6.0
 50
179.9999999999998
  0
INSERT
  5
1F9
330
1F1
100
AcDbEntity
  8
8
  6
CONTINUOUS
 62
     4
100
AcDbBlockReference
  2
_ARROWFILLED
 10
971.7216908577565
 20
160.3842513769505
 30
0.0
 41
6.0
 42
6.0
 43
6.0
 50
359.9999999999997
  0
ENDBLK
  5
1F3
330
1F1
100
AcDbEntity
  8
0
100
AcDbBlockEnd
  0
BLOCK
  5
1FC
330
1FB
100
AcDbEntity
  8
0
100
AcDbBlockBegin
  2
DIM10
 70
     0
 10
0.0
 20
0.0
 30
0.0
  3
DIM10
  1

  0
LINE
  5
1FE
330
1FB
100
AcDbEntity
  8
8
  6
CONTINUOUS
 62
     4
100
AcDbLine
 10
970.7216908577566
 20
217.5830705532007
 30
0.0
 11
970.7216908577565
 21
180.8842513769505
 31
0.0
  0
LINE
  5
1FF
330
1FB
100
AcDbEntity
  8
8
  6
CONTINUOUS
 62
     4
100
AcDbLine
 10
971.7216908577566
 20
217.5830705532007
 30
0.0
 11
971.7216908577565
 21
180.8842513769505
 31
0.0
  0
LINE
  5
200
330
1FB
100
AcDbEntity
  8
8
  6
CONTINUOUS
 62
     4
100
AcDbLine
 10
958.7216908577565
 20
185.3842513769505
 30
0.0
 11
990.4716908577566
 21
185.3842513769505
 31
0.0
  0
MTEXT
  5
201
330
1FB
100
AcDbEntity
  8
8
  6
CONTINUOUS
 62
     4
100
AcDbMText
 10
985.9716908577566
 20
185.3842513769505
 30
0.0
 40
9.0
 41
10.71428571428572
 71
     7
 72
     1
  1
1
  7
ＭＳ_ゴシック
1001
ACAD
1000
ACAD_MTEXT_DEFINED_HEIGHT_BEGIN
1070
    46
1040
9.0
1000
ACAD_MTEXT_DEFINED_HEIGHT_END
  0
INSERT
  5
202
330
1FB
100
AcDbEntity
  8
8
  6
CONTINUOUS
 62
     4
100
AcDbBlockReference
  2
_ARROWFILLED
 10
970.7216908577565
 20
185.3842513769505
 30
0.0
 41
6.0
 42
6.0
 43
6.0
 50
359.9999999999997
  0
INSERT
  5
203
330
1FB
100
AcDbEntity
  8
8
  6
CONTINUOUS
 62
     4
100
AcDbBlockReference
  2
_ARROWFILLED
 10
971.7216908577565
 20
185.3842513769505
 30
0.0
 41
6.0
 42
6.0
 43
6.0
 50
179.9999999999995
  0
ENDBLK
  5
1FD
330
1FB
100
AcDbEntity
  8
0
100
AcDbBlockEnd
  0
BLOCK
  5
206
330
205
100
AcDbEntity
  8
0
100
AcDbBlockBegin
  2
DIM11
 70
     0
 10
0.0
 20
0.0
 30
0.0
  3
DIM11
  1

  0
LINE
  5
208
330
205
100
AcDbEntity
  8
8
  6
CONTINUOUS
 62
     4
100
AcDbLine
 10
971.7216908577566
 20
683.5830705532007
 30
0.0
 11
971.7216908577567
 21
723.1478616185395
 31
0.0
  0
LINE
  5
209
330
205
100
AcDbEntity
  8
8
  6
CONTINUOUS
 62
     4
100
AcDbLine
 10
938.2216908577557
 20
703.5830705532007
 30
0.0
 11
938.2216908577557
 21
723.1478616185395
 31
0.0
  0
LINE
  5
20A
330
205
100
AcDbEntity
  8
8
  6
CONTINUOUS
 62
     4
100
AcDbLine
 10
971.7216908577567
 20
718.6478616185395
 30
0.0
 11
938.2216908577557
 21
718.6478616185395
 31
0.0
  0
MTEXT
  5
20B
330
205
100
AcDbEntity
  8
8
  6
CONTINUOUS
 62
     4
100
AcDbMText
 10
954.9716908577561
 20
718.6478616185395
 30
0.0
 40
9.0
 41
137.1428571428571
 71
     8
 72
     1
  1
33.5
  7
ＭＳ_ゴシック
1001
ACAD
1000
ACAD_MTEXT_DEFINED_HEIGHT_BEGIN
1070
    46
1040
9.0
1000
ACAD_MTEXT_DEFINED_HEIGHT_END
  0
INSERT
  5
20C
330
205
100
AcDbEntity
  8
8
  6
CONTINUOUS
 62
     4
100
AcDbBlockReference
  2
_ARROWFILLED
 10
971.7216908577567
 20
718.6478616185395
 30
0.0
 41
6.0
 42
6.0
 43
6.0
 50
359.9999999999997
  0
INSERT
  5
20D
330
205
100
AcDbEntity
  8
8
  6
CONTINUOUS
 62
     4
100
AcDbBlockReference
  2
_ARROWFILLED
 10
938.2216908577557
 20
718.6478616185395
 30
0.0
 41
6.0
 42
6.0
 43
6.0
 50
179.9999999999998
  0
ENDBLK
  5
207
330
205
100
AcDbEntity
  8
0
100
AcDbBlockEnd
  0
BLOCK
  5
210
330
20F
100
AcDbEntity
  8
0
100
AcDbBlockBegin
  2
DIM12
 70
     0
 10
0.0
 20
0.0
 30
0.0
  3
DIM12
  1

  0
LINE
  5
212
330
20F
100
AcDbEntity
  8
8
  6
CONTINUOUS
 62
     4
100
AcDbLine
 10
547.8644728398149
 20
700.5830705532007
 30
0.0
 11
852.5845367935608
 21
700.5830705531997
 31
0.0
  0
LINE
  5
213
330
20F
100
AcDbEntity
  8
8
  6
CONTINUOUS
 62
     4
100
AcDbLine
 10
719.8644728398176
 20
680.5830705532007
 30
0.0
 11
852.5845367935608
 21
680.5830705532003
 31
0.0
  0
LINE
  5
214
330
20F
100
AcDbEntity
  8
8
  6
CONTINUOUS
 62
     4
100
AcDbLine
 10
848.0845367935608
 20
700.5830705531997
 30
0.0
 11
848.0845367935608
 21
680.5830705532003
 31
0.0
  0
MTEXT
  5
215
330
20F
100
AcDbEntity
  8
8
  6
CONTINUOUS
 62
     4
100
AcDbMText
 10
848.0845367935608
 20
690.5830705532007
 30
0.0
 40
9.0
 41
72.85714285714286
 71
     8
 72
     1
  1
20
  7
ＭＳ_ゴシック
 11
1.615544574432587E-15
 21
1.0
 31
0.0
1001
ACAD
1000
ACAD_MTEXT_DEFINED_HEIGHT_BEGIN
1070
    46
1040
9.0
1000
ACAD_MTEXT_DEFINED_HEIGHT_END
  0
INSERT
  5
216
330
20F
100
AcDbEntity
  8
8
  6
CONTINUOUS
 62
     4
100
AcDbBlockReference
  2
_ARROWFILLED
 10
848.0845367935608
 20
700.5830705531997
 30
0.0
 41
6.0
 42
6.0
 43
6.0
 50
89.99999999999991
  0
INSERT
  5
217
330
20F
100
AcDbEntity
  8
8
  6
CONTINUOUS
 62
     4
100
AcDbBlockReference
  2
_ARROWFILLED
 10
848.0845367935608
 20
680.5830705532003
 30
0.0
 41
6.0
 42
6.0
 43
6.0
 50
269.9999999999998
  0
ENDBLK
  5
211
330
20F
100
AcDbEntity
  8
0
100
AcDbBlockEnd
  0
BLOCK
  5
21A
330
219
100
AcDbEntity
  8
0
100
AcDbBlockBegin
  2
DIM13
 70
     0
 10
0.0
 20
0.0
 30
0.0
  3
DIM13
  1

  0
LINE
  5
21C
330
219
100
AcDbEntity
  8
8
  6
CONTINUOUS
 62
     4
100
AcDbLine
 10
707.9644728398171
 20
673.5830705532007
 30
0.0
 11
827.5845367935626
 21
673.5830705532004
 31
0.0
  0
LINE
  5
21D
330
219
100
AcDbEntity
  8
8
  6
CONTINUOUS
 62
     4
100
AcDbLine
 10
707.9644728398171
 20
227.5830705532007
 30
0.0
 11
827.5845367935626
 21
227.5830705532003
 31
0.0
  0
LINE
  5
21E
330
219
100
AcDbEntity
  8
8
  6
CONTINUOUS
 62
     4
100
AcDbLine
 10
823.0845367935626
 20
673.5830705532004
 30
0.0
 11
823.0845367935626
 21
227.5830705532003
 31
0.0
  0
MTEXT
  5
21F
330
219
100
AcDbEntity
  8
8
  6
CONTINUOUS
 62
     4
100
AcDbMText
 10
823.0845367935626
 20
450.5830705532007
 30
0.0
 40
9.0
 41
115.7142857142857
 71
     8
 72
     1
  1
446
  7
ＭＳ_ゴシック
 11
1.615544574432587E-15
 21
1.0
 31
0.0
1001
ACAD
1000
ACAD_MTEXT_DEFINED_HEIGHT_BEGIN
1070
    46
1040
9.0
1000
ACAD_MTEXT_DEFINED_HEIGHT_END
  0
INSERT
  5
220
330
219
100
AcDbEntity
  8
8
  6
CONTINUOUS
 62
     4
100
AcDbBlockReference
  2
_ARROWFILLED
 10
823.0845367935626
 20
673.5830705532004
 30
0.0
 41
6.0
 42
6.0
 43
6.0
 50
89.99999999999991
  0
INSERT
  5
221
330
219
100
AcDbEntity
  8
8
  6
CONTINUOUS
 62
     4
100
AcDbBlockReference
  2
_ARROWFILLED
 10
823.0845367935626
 20
227.5830705532003
 30
0.0
 41
6.0
 42
6.0
 43
6.0
 50
269.9999999999998
  0
ENDBLK
  5
21B
330
219
100
AcDbEntity
  8
0
100
AcDbBlockEnd
  0
BLOCK
  5
224
330
223
100
AcDbEntity
  8
0
100
AcDbBlockBegin
  2
DIM14
 70
     0
 10
0.0
 20
0.0
 30
0.0
  3
DIM14
  1

  0
LINE
  5
226
330
223
100
AcDbEntity
  8
8
  6
CONTINUOUS
 62
     4
100
AcDbLine
 10
719.8644728398167
 20
680.5830705532007
 30
0.0
 11
852.5845367935617
 21
680.5830705532003
 31
0.0
  0
LINE
  5
227
330
223
100
AcDbEntity
  8
8
  6
CONTINUOUS
 62
     4
100
AcDbLine
 10
719.8644728398167
 20
220.5830705532017
 30
0.0
 11
852.5845367935617
 21
220.5830705532013
 31
0.0
  0
LINE
  5
228
330
223
100
AcDbEntity
  8
8
  6
CONTINUOUS
 62
     4
100
AcDbLine
 10
848.0845367935617
 20
680.5830705532003
 30
0.0
 11
848.0845367935617
 21
220.5830705532013
 31
0.0
  0
MTEXT
  5
229
330
223
100
AcDbEntity
  8
8
  6
CONTINUOUS
 62
     4
100
AcDbMText
 10
848.0845367935617
 20
450.5830705532017
 30
0.0
 40
9.0
 41
115.7142857142857
 71
     8
 72
     1
  1
460
  7
ＭＳ_ゴシック
 11
1.615544574432587E-15
 21
1.0
 31
0.0
1001
ACAD
1000
ACAD_MTEXT_DEFINED_HEIGHT_BEGIN
1070
    46
1040
9.0
1000
ACAD_MTEXT_DEFINED_HEIGHT_END
  0
INSERT
  5
22A
330
223
100
AcDbEntity
  8
8
  6
CONTINUOUS
 62
     4
100
AcDbBlockReference
  2
_ARROWFILLED
 10
848.0845367935617
 20
680.5830705532003
 30
0.0
 41
6.0
 42
6.0
 43
6.0
 50
89.99999999999991
  0
INSERT
  5
22B
330
223
100
AcDbEntity
  8
8
  6
CONTINUOUS
 62
     4
100
AcDbBlockReference
  2
_ARROWFILLED
 10
848.0845367935617
 20
220.5830705532013
 30
0.0
 41
6.0
 42
6.0
 43
6.0
 50
269.9999999999998
  0
ENDBLK
  5
225
330
223
100
AcDbEntity
  8
0
100
AcDbBlockEnd
  0
ENDSEC
  0
SECTION
  2
ENTITIES
  0
POLYLINE
  5
A0
330
1F
100
AcDbEntity
  8
9
  6
CONTINUOUS
 62
     7
100
AcDb2dPolyline
 66
     1
 10
0.0
 20
0.0
 30
0.0
  0
VERTEX
  5
A1
330
A0
100
AcDbEntity
  8
9
  6
CONTINUOUS
 62
     7
100
AcDbVertex
100
AcDb2dVertex
 10
721.8644728398167
 20
250.5830705532007
 30
0.0
  0
VERTEX
  5
A2
330
A0
100
AcDbEntity
  8
9
  6
CONTINUOUS
 62
     7
100
AcDbVertex
100
AcDb2dVertex
 10
721.8644728398167
 20
650.5830705532007
 30
0.0
  0
VERTEX
  5
A3
330
A0
100
AcDbEntity
  8
9
  6
CONTINUOUS
 62
     7
100
AcDbVertex
100
AcDb2dVertex
 10
321.8644728398167
 20
650.5830705532007
 30
0.0
  0
VERTEX
  5
A4
330
A0
100
AcDbEntity
  8
9
  6
CONTINUOUS
 62
     7
100
AcDbVertex
100
AcDb2dVertex
 10
321.8644728398167
 20
250.5830705532007
 30
0.0
  0
VERTEX
  5
A5
330
A0
100
AcDbEntity
  8
9
  6
CONTINUOUS
 62
     7
100
AcDbVertex
100
AcDb2dVertex
 10
721.8644728398167
 20
250.5830705532007
 30
0.0
  0
SEQEND
  5
A6
330
A0
100
AcDbEntity
  8
9
  6
CONTINUOUS
 62
     7
  0
LINE
  5
A7
330
1F
100
AcDbEntity
  8
9
  6
CONTINUOUS
 62
     7
100
AcDbLine
 10
736.8644728398167
 20
665.5830705532007
 30
0.0
 11
736.8644728398167
 21
235.5830705532007
 31
0.0
  0
LINE
  5
A8
330
1F
100
AcDbEntity
  8
9
  6
CONTINUOUS
 62
     7
100
AcDbLine
 10
736.8644728398167
 20
235.5830705532007
 30
0.0
 11
306.8644728398167
 21
235.5830705532007
 31
0.0
  0
LINE
  5
A9
330
1F
100
AcDbEntity
  8
9
  6
CONTINUOUS
 62
     7
100
AcDbLine
 10
736.8644728398167
 20
665.5830705532007
 30
0.0
 11
306.8644728398167
 21
665.5830705532007
 31
0.0
  0
LINE
  5
AA
330
1F
100
AcDbEntity
  8
9
  6
CONTINUOUS
 62
     7
100
AcDbLine
 10
306.8644728398167
 20
665.5830705532007
 30
0.0
 11
306.8644728398167
 21
235.5830705532007
 31
0.0
  0
LINE
  5
AB
330
1F
100
AcDbEntity
  8
9
  6
CONTINUOUS
 62
     7
100
AcDbLine
 10
965.1716908577555
 20
235.266403886535
 30
0.0
 11
958.2716908577559
 21
235.266403886535
 31
0.0
  0
ARC
  5
AC
330
1F
100
AcDbEntity
  8
9
  6
CONTINUOUS
 62
     7
100
AcDbCircle
 10
961.7216908577566
 20
238.2334214303946
 30
0.0
 40
4.550350877192955
100
AcDbArc
 50
220.6956985254098
 51
319.3043014745895
  0
LINE
  5
AD
330
1F
100
AcDbEntity
  8
9
  6
CONTINUOUS
 62
     7
100
AcDbLine
 10
965.1716908577555
 20
235.5830705532017
 30
0.0
 11
965.1716908577555
 21
235.266403886535
 31
0.0
  0
LINE
  5
AE
330
1F
100
AcDbEntity
  8
9
  6
CONTINUOUS
 62
     7
100
AcDbLine
 10
958.2716908577559
 20
235.5830705532017
 30
0.0
 11
958.2716908577559
 21
235.266403886535
 31
0.0
  0
LINE
  5
AF
330
1F
100
AcDbEntity
  8
9
  6
CONTINUOUS
 62
     7
100
AcDbLine
 10
926.7216908577566
 20
665.5830705532007
 30
0.0
 11
926.7216908577566
 21
235.5830705532007
 31
0.0
  0
LINE
  5
B0
330
1F
100
AcDbEntity
  8
9
  6
CONTINUOUS
 62
     7
100
AcDbLine
 10
971.7216908577566
 20
680.5830705532007
 30
0.0
 11
971.7216908577566
 21
220.5830705532007
 31
0.0
  0
LINE
  5
B1
330
1F
100
AcDbEntity
  8
9
  6
CONTINUOUS
 62
     7
100
AcDbLine
 10
970.7216908577566
 20
680.5830705532007
 30
0.0
 11
970.7216908577566
 21
220.5830705532007
 31
0.0
  0
LINE
  5
B2
330
1F
100
AcDbEntity
  8
9
  6
CONTINUOUS
 62
     7
100
AcDbLine
 10
970.7216908577566
 20
664.5830705532007
 30
0.0
 11
971.7216908577566
 21
664.5830705532007
 31
0.0
  0
LINE
  5
B3
330
1F
100
AcDbEntity
  8
9
  6
CONTINUOUS
 62
     7
100
AcDbLine
 10
926.7216908577566
 20
665.5830705532007
 30
0.0
 11
970.7216908577566
 21
665.5830705532007
 31
0.0
  0
LINE
  5
B4
330
1F
100
AcDbEntity
  8
9
  6
CONTINUOUS
 62
     7
100
AcDbLine
 10
970.7216908577566
 20
680.5830705532007
 30
0.0
 11
971.7216908577566
 21
680.5830705532007
 31
0.0
  0
LINE
  5
B5
330
1F
100
AcDbEntity
  8
9
  6
CONTINUOUS
 62
     7
100
AcDbLine
 10
970.7216908577566
 20
236.5830705532007
 30
0.0
 11
971.7216908577566
 21
236.5830705532007
 31
0.0
  0
LINE
  5
B6
330
1F
100
AcDbEntity
  8
9
  6
CONTINUOUS
 62
     7
100
AcDbLine
 10
926.7216908577566
 20
235.5830705532007
 30
0.0
 11
970.7216908577566
 21
235.5830705532017
 31
0.0
  0
LINE
  5
B7
330
1F
100
AcDbEntity
  8
9
  6
CONTINUOUS
 62
     7
100
AcDbLine
 10
970.7216908577566
 20
220.5830705532007
 30
0.0
 11
971.7216908577566
 21
220.5830705532007
 31
0.0
  0
LINE
  5
B8
330
1F
100
AcDbEntity
  8
9
  6
CONTINUOUS
 62
     7
100
AcDbLine
 10
721.8644728398167
 20
225.5830705532007
 30
0.0
 11
721.8644728398167
 21
235.5830705532007
 31
0.0
  0
ARC
  5
B9
330
1F
100
AcDbEntity
  8
9
  6
CONTINUOUS
 62
     7
100
AcDbCircle
 10
716.8644728398167
 20
225.5830705532007
 30
0.0
 40
5.0
100
AcDbArc
 50
269.9999999999998
 51
0.0
  0
LINE
  5
BA
330
1F
100
AcDbEntity
  8
9
  6
CONTINUOUS
 62
     7
100
AcDbLine
 10
326.8644728398167
 20
220.5830705532007
 30
0.0
 11
716.8644728398167
 21
220.5830705532017
 31
0.0
  0
LINE
  5
BB
330
1F
100
AcDbEntity
  8
9
  6
CONTINUOUS
 62
     7
100
AcDbLine
 10
321.8644728398167
 20
225.5830705532007
 30
0.0
 11
321.8644728398167
 21
235.5830705532007
 31
0.0
  0
ARC
  5
BC
330
1F
100
AcDbEntity
  8
9
  6
CONTINUOUS
 62
     7
100
AcDbCircle
 10
326.8644728398149
 20
225.5830705532007
 30
0.0
 40
5.0
100
AcDbArc
 50
179.9999999999998
 51
269.9999999999998
  0
LINE
  5
BD
330
1F
100
AcDbEntity
  8
9
  6
CONTINUOUS
 62
     7
100
AcDbLine
 10
716.8644728398167
 20
680.5830705532007
 30
0.0
 11
589.3644728398167
 21
680.5830705532007
 31
0.0
  0
ARC
  5
BE
330
1F
100
AcDbEntity
  8
9
  6
CONTINUOUS
 62
     7
100
AcDbCircle
 10
589.3644728398167
 20
675.5830705532007
 30
0.0
 40
5.0
100
AcDbArc
 50
89.99999999999991
 51
179.9999999999998
  0
LINE
  5
BF
330
1F
100
AcDbEntity
  8
9
  6
CONTINUOUS
 62
     7
100
AcDbLine
 10
721.8644728398167
 20
675.5830705532007
 30
0.0
 11
721.8644728398167
 21
665.5830705532007
 31
0.0
  0
LINE
  5
C0
330
1F
100
AcDbEntity
  8
9
  6
CONTINUOUS
 62
     7
100
AcDbLine
 10
584.3644728398167
 20
675.5830705532007
 30
0.0
 11
584.3644728398167
 21
665.5830705532007
 31
0.0
  0
ARC
  5
C1
330
1F
100
AcDbEntity
  8
9
  6
CONTINUOUS
 62
     7
100
AcDbCircle
 10
716.8644728398176
 20
675.5830705532007
 30
0.0
 40
5.0
100
AcDbArc
 50
0.0
 51
89.99999999999991
  0
LINE
  5
C2
330
1F
100
AcDbEntity
  8
9
  6
CONTINUOUS
 62
     7
100
AcDbLine
 10
326.8644728398167
 20
680.5830705532007
 30
0.0
 11
454.3644728398167
 21
680.5830705532007
 31
0.0
  0
ARC
  5
C3
330
1F
100
AcDbEntity
  8
9
  6
CONTINUOUS
 62
     7
100
AcDbCircle
 10
454.3644728398167
 20
675.5830705532007
 30
0.0
 40
5.0
100
AcDbArc
 50
0.0
 51
89.99999999999991
  0
LINE
  5
C4
330
1F
100
AcDbEntity
  8
9
  6
CONTINUOUS
 62
     7
100
AcDbLine
 10
321.8644728398167
 20
675.5830705532007
 30
0.0
 11
321.8644728398167
 21
665.5830705532007
 31
0.0
  0
LINE
  5
C5
330
1F
100
AcDbEntity
  8
9
  6
CONTINUOUS
 62
     7
100
AcDbLine
 10
459.3644728398167
 20
675.5830705532007
 30
0.0
 11
459.3644728398167
 21
665.5830705532007
 31
0.0
  0
ARC
  5
C6
330
1F
100
AcDbEntity
  8
9
  6
CONTINUOUS
 62
     7
100
AcDbCircle
 10
326.8644728398158
 20
675.5830705532007
 30
0.0
 40
5.0
100
AcDbArc
 50
89.99999999999991
 51
179.9999999999998
  0
LINE
  5
C7
330
1F
100
AcDbEntity
  8
9
  6
CONTINUOUS
 62
     7
100
AcDbLine
 10
970.2216908577557
 20
700.5830705532007
 30
0.0
 11
938.2216908577557
 21
700.5830705532007
 31
0.0
  0
LINE
  5
C8
330
1F
100
AcDbEntity
  8
9
  6
CONTINUOUS
 62
     7
100
AcDbLine
 10
938.2216908577557
 20
665.5830705532007
 30
0.0
 11
938.2216908577557
 21
700.5830705532007
 31
0.0
  0
LINE
  5
C9
330
1F
100
AcDbEntity
  8
9
  6
CONTINUOUS
 62
     7
100
AcDbLine
 10
939.7216908577557
 20
700.5830705532007
 30
0.0
 11
939.7216908577557
 21
665.5830705532007
 31
0.0
  0
LINE
  5
CA
330
1F
100
AcDbEntity
  8
9
  6
CONTINUOUS
 62
     7
100
AcDbLine
 10
970.2216908577557
 20
700.5830705532007
 30
0.0
 11
970.2216908577557
 21
665.5830705532007
 31
0.0
  0
LINE
  5
CB
330
1F
100
AcDbEntity
  8
9
  6
CONTINUOUS
 62
     7
100
AcDbLine
 10
968.7216908577557
 20
700.5830705532007
 30
0.0
 11
968.7216908577557
 21
665.5830705532007
 31
0.0
  0
LINE
  5
CC
330
1F
100
AcDbEntity
  8
9
  6
CONTINUOUS
 62
     7
100
AcDbLine
 10
544.8644728398149
 20
700.5830705532007
 30
0.0
 11
498.8644728398149
 21
700.5830705532017
 31
0.0
  0
LINE
  5
CD
330
1F
100
AcDbEntity
  8
9
  6
CONTINUOUS
 62
     7
100
AcDbLine
 10
500.3644728398149
 20
700.5830705532007
 30
0.0
 11
500.3644728398149
 21
665.5830705532007
 31
0.0
  0
LINE
  5
CE
330
1F
100
AcDbEntity
  8
9
  6
CONTINUOUS
 62
     7
100
AcDbLine
 10
498.8644728398149
 20
700.5830705532017
 30
0.0
 11
498.8644728398149
 21
665.5830705532007
 31
0.0
  0
LINE
  5
CF
330
1F
100
AcDbEntity
  8
9
  6
CONTINUOUS
 62
     7
100
AcDbLine
 10
543.3644728398149
 20
700.5830705532007
 30
0.0
 11
543.3644728398149
 21
665.5830705532007
 31
0.0
  0
LINE
  5
D0
330
1F
100
AcDbEntity
  8
9
  6
CONTINUOUS
 62
     7
100
AcDbLine
 10
544.8644728398149
 20
700.5830705532007
 30
0.0
 11
544.8644728398149
 21
665.5830705532007
 31
0.0
  0
LINE
  5
D1
330
1F
100
AcDbEntity
  8
9
  6
CONTINUOUS
 62
     7
100
AcDbLine
 10
549.1304794792859
 20
693.4330705532002
 30
0.0
 11
556.3644728398167
 21
693.4330705532002
 31
0.0
  0
LINE
  5
D2
330
1F
100
AcDbEntity
  8
9
  6
CONTINUOUS
 62
     7
100
AcDbLine
 10
551.6644728398169
 20
692.8946090147383
 30
0.0
 11
550.7318300972793
 21
693.4330705531993
 31
0.0
  0
LINE
  5
D3
330
1F
100
AcDbEntity
  8
9
  6
CONTINUOUS
 62
     7
100
AcDbLine
 10
557.1644728398169
 20
692.6330705532
 30
0.0
 11
556.3644728398167
 21
693.4330705532002
 31
0.0
  0
LINE
  5
D4
330
1F
100
AcDbEntity
  8
9
  6
CONTINUOUS
 62
     7
100
AcDbLine
 10
551.6644728398169
 20
692.8946090147383
 30
0.0
 11
556.9029343782786
 21
692.8946090147383
 31
0.0
  0
LINE
  5
D5
330
1F
100
AcDbEntity
  8
9
  6
CONTINUOUS
 62
     7
100
AcDbLine
 10
547.1644728398169
 20
697.0830705532007
 30
0.0
 11
544.8644728398167
 21
697.0830705532007
 31
0.0
  0
LINE
  5
D6
330
1F
100
AcDbEntity
  8
9
  6
CONTINUOUS
 62
     7
100
AcDbLine
 10
547.1644728398169
 20
668.0830705532007
 30
0.0
 11
544.8644728398167
 21
668.0830705532007
 31
0.0
  0
LINE
  5
D7
330
1F
100
AcDbEntity
  8
9
  6
CONTINUOUS
 62
     7
100
AcDbLine
 10
551.6644728398169
 20
672.2715320916614
 30
0.0
 11
550.7318300972793
 21
671.7330705532004
 31
0.0
  0
LINE
  5
D8
330
1F
100
AcDbEntity
  8
9
  6
CONTINUOUS
 62
     7
100
AcDbLine
 10
547.1644728398169
 20
697.0830705532007
 30
0.0
 11
547.1644728398169
 21
668.0830705532007
 31
0.0
  0
LINE
  5
D9
330
1F
100
AcDbEntity
  8
9
  6
CONTINUOUS
 62
     7
100
AcDbLine
 10
551.6644728398169
 20
671.7330705532004
 30
0.0
 11
551.6644728398169
 21
693.4330705532002
 31
0.0
  0
LINE
  5
DA
330
1F
100
AcDbEntity
  8
9
  6
CONTINUOUS
 62
     7
100
AcDbLine
 10
557.1644728398169
 20
672.5330705531997
 30
0.0
 11
556.3644728398167
 21
671.7330705532004
 31
0.0
  0
LINE
  5
DB
330
1F
100
AcDbEntity
  8
9
  6
CONTINUOUS
 62
     7
100
AcDbLine
 10
556.3644728398167
 20
671.7330705532004
 30
0.0
 11
556.3644728398167
 21
693.4330705532002
 31
0.0
  0
LINE
  5
DC
330
1F
100
AcDbEntity
  8
9
  6
CONTINUOUS
 62
     7
100
AcDbLine
 10
549.1377580086055
 20
671.7330705532004
 30
0.0
 11
556.3644728398167
 21
671.7330705532004
 31
0.0
  0
LINE
  5
DD
330
1F
100
AcDbEntity
  8
9
  6
CONTINUOUS
 62
     7
100
AcDbLine
 10
551.6644728398169
 20
672.2715320916614
 30
0.0
 11
556.9029343782786
 21
672.2715320916614
 31
0.0
  0
LINE
  5
DE
330
1F
100
AcDbEntity
  8
9
  6
CONTINUOUS
 62
     7
100
AcDbLine
 10
557.1644728398169
 20
672.5330705531997
 30
0.0
 11
557.1644728398169
 21
692.6330705532
 31
0.0
  0
ARC
  5
DF
330
1F
100
AcDbEntity
  8
9
  6
CONTINUOUS
 62
     7
100
AcDbCircle
 10
942.7216908577557
 20
694.0830705532007
 30
0.0
 40
3.0
100
AcDbArc
 50
89.99999999999991
 51
180.0000017075469
  0
LINE
  5
E0
330
1F
100
AcDbEntity
  8
9
  6
CONTINUOUS
 62
     7
100
AcDbLine
 10
953.9939445005739
 20
690.8799453622341
 30
0.0
 11
954.0816142844133
 21
691.8820155768899
 31
0.0
  0
ARC
  5
E1
330
1F
100
AcDbEntity
  8
9
  6
CONTINUOUS
 62
     7
100
AcDbCircle
 10
954.2216908577557
 20
682.5830705532007
 30
0.0
 40
9.299999999999955
100
AcDbArc
 50
170.093376055658
 51
189.9066270148142
  0
LINE
  5
E2
330
1F
100
AcDbEntity
  8
9
  6
CONTINUOUS
 62
     7
100
AcDbLine
 10
946.077367681457
 20
684.1830705531993
 30
0.0
 11
945.0603590768405
 21
684.1830705531993
 31
0.0
  0
LINE
  5
E3
330
1F
100
AcDbEntity
  8
9
  6
CONTINUOUS
 62
     7
100
AcDbLine
 10
946.077367681457
 20
680.9830705532004
 30
0.0
 11
945.0603590768405
 21
680.9830705532004
 31
0.0
  0
ARC
  5
E4
330
1F
100
AcDbEntity
  8
9
  6
CONTINUOUS
 62
     7
100
AcDbCircle
 10
942.7216908577557
 20
671.0830705532007
 30
0.0
 40
3.0
100
AcDbArc
 50
180.0000017075469
 51
270.0000030704373
  0
LINE
  5
E5
330
1F
100
AcDbEntity
  8
9
  6
CONTINUOUS
 62
     7
100
AcDbLine
 10
939.7216908577557
 20
694.0830705532007
 30
0.0
 11
939.7216908577557
 21
671.0830705532007
 31
0.0
  0
LINE
  5
E6
330
1F
100
AcDbEntity
  8
9
  6
CONTINUOUS
 62
     7
100
AcDbLine
 10
955.886714426948
 20
690.7143494510146
 30
0.0
 11
955.9743842107873
 21
691.7164196656686
 31
0.0
  0
ARC
  5
E7
330
1F
100
AcDbEntity
  8
9
  6
CONTINUOUS
 62
     7
100
AcDbCircle
 10
965.7216908577557
 20
694.0830705532007
 30
0.0
 40
3.0
100
AcDbArc
 50
359.9999982924523
 51
89.99999999999991
  0
ARC
  5
E8
330
1F
100
AcDbEntity
  8
9
  6
CONTINUOUS
 62
     7
100
AcDbCircle
 10
954.2216908577557
 20
682.5830705532007
 30
0.0
 40
9.299999999999955
100
AcDbArc
 50
29.13697746152358
 51
40.8630206620884
  0
LINE
  5
E9
330
1F
100
AcDbEntity
  8
9
  6
CONTINUOUS
 62
     7
100
AcDbLine
 10
960.4310731639225
 20
688.0906627109271
 30
0.0
 11
961.2550565342699
 21
688.6676220782047
 31
0.0
  0
LINE
  5
EA
330
1F
100
AcDbEntity
  8
9
  6
CONTINUOUS
 62
     7
100
AcDbLine
 10
961.5208683929895
 20
686.5342738267791
 30
0.0
 11
962.3448517633369
 21
687.1112331940549
 31
0.0
  0
ARC
  5
EB
330
1F
100
AcDbEntity
  8
9
  6
CONTINUOUS
 62
     7
100
AcDbCircle
 10
954.2216908577557
 20
682.5830705532007
 30
0.0
 40
9.299999999999955
100
AcDbArc
 50
279.1369755850747
 51
290.8630187856839
  0
LINE
  5
EC
330
1F
100
AcDbEntity
  8
9
  6
CONTINUOUS
 62
     7
100
AcDbLine
 10
955.4381416704018
 20
674.3726961755965
 30
0.0
 11
955.6984872199009
 21
673.4010733573414
 31
0.0
  0
LINE
  5
ED
330
1F
100
AcDbEntity
  8
9
  6
CONTINUOUS
 62
     7
100
AcDbLine
 10
957.2734007403515
 20
674.8644523612911
 30
0.0
 11
957.5337462898506
 21
673.892829543036
 31
0.0
  0
ARC
  5
EE
330
1F
100
AcDbEntity
  8
9
  6
CONTINUOUS
 62
     7
100
AcDbCircle
 10
954.2216908577557
 20
682.5830705532007
 30
0.0
 40
9.299999999999955
100
AcDbArc
 50
314.1369761821848
 51
325.8630193826858
  0
LINE
  5
EF
330
1F
100
AcDbEntity
  8
9
  6
CONTINUOUS
 62
     7
100
AcDbLine
 10
959.9274263043262
 20
676.5552531195226
 30
0.0
 11
960.6979888469914
 21
675.9086743741718
 31
0.0
  0
ARC
  5
F0
330
1F
100
AcDbEntity
  8
9
  6
CONTINUOUS
 62
     7
100
AcDbCircle
 10
965.7216908577557
 20
671.0830705532007
 30
0.0
 40
3.0
100
AcDbArc
 50
270.0000030704373
 51
359.9999982924523
  0
LINE
  5
F1
330
1F
100
AcDbEntity
  8
9
  6
CONTINUOUS
 62
     7
100
AcDbLine
 10
961.1487227627304
 20
678.010737561448
 30
0.0
 11
961.9192853053955
 21
677.364158816099
 31
0.0
  0
LINE
  5
F2
330
1F
100
AcDbEntity
  8
9
  6
CONTINUOUS
 62
     7
100
AcDbLine
 10
968.7216908577557
 20
671.0830705532007
 30
0.0
 11
968.7216908577557
 21
694.0830705532007
 31
0.0
  0
LINE
  5
F3
330
1F
100
AcDbEntity
  8
9
  6
CONTINUOUS
 62
     7
100
AcDbLine
 10
965.7216908577557
 20
697.0830705532007
 30
0.0
 11
942.7216908577557
 21
697.0830705532007
 31
0.0
  0
LINE
  5
F4
330
1F
100
AcDbEntity
  8
9
  6
CONTINUOUS
 62
     7
100
AcDbLine
 10
942.7216908577557
 20
668.0830705532007
 30
0.0
 11
965.7216908577557
 21
668.0830705532007
 31
0.0
  0
CIRCLE
  5
F5
330
1F
100
AcDbEntity
  8
9
  6
CONTINUOUS
 62
     7
100
AcDbCircle
 10
954.2216908577557
 20
682.5830705532007
 30
0.0
 40
10.85000000000002
  0
CIRCLE
  5
F6
330
1F
100
AcDbEntity
  8
9
  6
CONTINUOUS
 62
     7
100
AcDbCircle
 10
954.2216908577557
 20
682.5830705532007
 30
0.0
 40
8.299999999999955
  0
ARC
  5
F7
330
1F
100
AcDbEntity
  8
9
  6
CONTINUOUS
 62
     7
100
AcDbCircle
 10
954.2216908577557
 20
682.5830705532007
 30
0.0
 40
9.299999999999955
100
AcDbArc
 50
79.13697831440027
 51
90.86302151497314
  0
CIRCLE
  5
F8
330
1F
100
AcDbEntity
  8
9
  6
CONTINUOUS
 62
     7
100
AcDbCircle
 10
954.2216908577557
 20
682.5830705532007
 30
0.0
 40
7.149999999999977
  0
CIRCLE
  5
F9
330
1F
100
AcDbEntity
  8
9
  6
CONTINUOUS
 62
     7
100
AcDbCircle
 10
954.2216908577557
 20
682.5830705532007
 30
0.0
 40
10.04999999999995
  0
ARC
  5
FA
330
1F
100
AcDbEntity
  8
9
  6
CONTINUOUS
 62
     7
100
AcDbCircle
 10
954.2216908577557
 20
682.5830705532007
 30
0.0
 40
10.31153846153859
100
AcDbArc
 50
269.9999999999998
 51
179.9999999999998
  0
ARC
  5
FB
330
1F
100
AcDbEntity
  8
9
  6
CONTINUOUS
 62
     7
100
AcDbCircle
 10
960.9216908577564
 20
549.7830705532015
 30
0.0
 40
0.5
100
AcDbArc
 50
0.0
 51
89.99999999999991
  0
ARC
  5
FC
330
1F
100
AcDbEntity
  8
9
  6
CONTINUOUS
 62
     7
100
AcDbCircle
 10
962.5216908577559
 20
549.7830705532015
 30
0.0
 40
0.5
100
AcDbArc
 50
89.99999999999991
 51
179.9999999999998
  0
CIRCLE
  5
FD
330
1F
100
AcDbEntity
  8
9
  6
CONTINUOUS
 62
     7
100
AcDbCircle
 10
961.7216908577566
 20
550.5830705532007
 30
0.0
 40
3.450000000000045
  0
LINE
  5
FE
330
1F
100
AcDbEntity
  8
9
  6
CONTINUOUS
 62
     7
100
AcDbLine
 10
961.4216908577564
 20
549.7830705532015
 30
0.0
 11
961.4216908577564
 21
549.1330705532009
 31
0.0
  0
LINE
  5
FF
330
1F
100
AcDbEntity
  8
9
  6
CONTINUOUS
 62
     7
100
AcDbLine
 10
962.0216908577559
 20
549.7830705532015
 30
0.0
 11
962.0216908577559
 21
549.1330705532009
 31
0.0
  0
LINE
  5
100
330
1F
100
AcDbEntity
  8
9
  6
CONTINUOUS
 62
     7
100
AcDbLine
 10
961.4216908577564
 20
549.1330705532009
 30
0.0
 11
962.0216908577559
 21
549.1330705532009
 31
0.0
  0
LINE
  5
101
330
1F
100
AcDbEntity
  8
9
  6
CONTINUOUS
 62
     7
100
AcDbLine
 10
960.9216908577564
 20
550.8830705532009
 30
0.0
 11
960.2716908577559
 21
550.8830705532009
 31
0.0
  0
LINE
  5
102
330
1F
100
AcDbEntity
  8
9
  6
CONTINUOUS
 62
     7
100
AcDbLine
 10
960.9216908577564
 20
550.2830705532015
 30
0.0
 11
960.2716908577559
 21
550.2830705532015
 31
0.0
  0
ARC
  5
103
330
1F
100
AcDbEntity
  8
9
  6
CONTINUOUS
 62
     7
100
AcDbCircle
 10
962.5216908577559
 20
551.3830705532009
 30
0.0
 40
0.5
100
AcDbArc
 50
179.9999999999998
 51
269.9999999999998
  0
ARC
  5
104
330
1F
100
AcDbEntity
  8
9
  6
CONTINUOUS
 62
     7
100
AcDbCircle
 10
960.9216908577564
 20
551.3830705532009
 30
0.0
 40
0.5
100
AcDbArc
 50
269.9999999999998
 51
0.0
  0
LINE
  5
105
330
1F
100
AcDbEntity
  8
9
  6
CONTINUOUS
 62
     7
100
AcDbLine
 10
962.0216908577559
 20
551.3830705532009
 30
0.0
 11
962.0216908577559
 21
552.0330705532015
 31
0.0
  0
LINE
  5
106
330
1F
100
AcDbEntity
  8
9
  6
CONTINUOUS
 62
     7
100
AcDbLine
 10
961.4216908577564
 20
551.3830705532009
 30
0.0
 11
961.4216908577564
 21
552.0330705532015
 31
0.0
  0
LINE
  5
107
330
1F
100
AcDbEntity
  8
9
  6
CONTINUOUS
 62
     7
100
AcDbLine
 10
962.5216908577559
 20
550.8830705532009
 30
0.0
 11
963.1716908577564
 21
550.8830705532009
 31
0.0
  0
LINE
  5
108
330
1F
100
AcDbEntity
  8
9
  6
CONTINUOUS
 62
     7
100
AcDbLine
 10
962.5216908577559
 20
550.2830705532015
 30
0.0
 11
963.1716908577564
 21
550.2830705532015
 31
0.0
  0
LINE
  5
109
330
1F
100
AcDbEntity
  8
9
  6
CONTINUOUS
 62
     7
100
AcDbLine
 10
963.1716908577564
 20
550.2830705532015
 30
0.0
 11
963.1716908577564
 21
550.8830705532009
 31
0.0
  0
LINE
  5
10A
330
1F
100
AcDbEntity
  8
9
  6
CONTINUOUS
 62
     7
100
AcDbLine
 10
962.0216908577559
 20
552.0330705532015
 30
0.0
 11
961.4216908577564
 21
552.0330705532015
 31
0.0
  0
LINE
  5
10B
330
1F
100
AcDbEntity
  8
9
  6
CONTINUOUS
 62
     7
100
AcDbLine
 10
960.2716908577559
 20
550.8830705532009
 30
0.0
 11
960.2716908577559
 21
550.2830705532015
 31
0.0
  0
ARC
  5
10C
330
1F
100
AcDbEntity
  8
9
  6
CONTINUOUS
 62
     7
100
AcDbCircle
 10
960.9216908577555
 20
349.7830705532015
 30
0.0
 40
0.5
100
AcDbArc
 50
0.0
 51
89.99999999999991
  0
ARC
  5
10D
330
1F
100
AcDbEntity
  8
9
  6
CONTINUOUS
 62
     7
100
AcDbCircle
 10
962.5216908577559
 20
349.7830705532015
 30
0.0
 40
0.5
100
AcDbArc
 50
89.99999999999991
 51
179.9999999999998
  0
CIRCLE
  5
10E
330
1F
100
AcDbEntity
  8
9
  6
CONTINUOUS
 62
     7
100
AcDbCircle
 10
961.7216908577566
 20
350.5830705532007
 30
0.0
 40
3.450000000000045
  0
LINE
  5
10F
330
1F
100
AcDbEntity
  8
9
  6
CONTINUOUS
 62
     7
100
AcDbLine
 10
961.4216908577555
 20
349.7830705532015
 30
0.0
 11
961.4216908577555
 21
349.1330705532009
 31
0.0
  0
LINE
  5
110
330
1F
100
AcDbEntity
  8
9
  6
CONTINUOUS
 62
     7
100
AcDbLine
 10
962.0216908577559
 20
349.7830705532015
 30
0.0
 11
962.0216908577559
 21
349.1330705532009
 31
0.0
  0
LINE
  5
111
330
1F
100
AcDbEntity
  8
9
  6
CONTINUOUS
 62
     7
100
AcDbLine
 10
961.4216908577555
 20
349.1330705532009
 30
0.0
 11
962.0216908577559
 21
349.1330705532009
 31
0.0
  0
LINE
  5
112
330
1F
100
AcDbEntity
  8
9
  6
CONTINUOUS
 62
     7
100
AcDbLine
 10
960.9216908577555
 20
350.8830705532009
 30
0.0
 11
960.2716908577559
 21
350.8830705532009
 31
0.0
  0
LINE
  5
113
330
1F
100
AcDbEntity
  8
9
  6
CONTINUOUS
 62
     7
100
AcDbLine
 10
960.9216908577555
 20
350.2830705532015
 30
0.0
 11
960.2716908577559
 21
350.2830705532015
 31
0.0
  0
ARC
  5
114
330
1F
100
AcDbEntity
  8
9
  6
CONTINUOUS
 62
     7
100
AcDbCircle
 10
962.5216908577559
 20
351.3830705532009
 30
0.0
 40
0.5
100
AcDbArc
 50
179.9999999999998
 51
269.9999999999998
  0
ARC
  5
115
330
1F
100
AcDbEntity
  8
9
  6
CONTINUOUS
 62
     7
100
AcDbCircle
 10
960.9216908577555
 20
351.3830705532009
 30
0.0
 40
0.5
100
AcDbArc
 50
269.9999999999998
 51
0.0
  0
LINE
  5
116
330
1F
100
AcDbEntity
  8
9
  6
CONTINUOUS
 62
     7
100
AcDbLine
 10
962.0216908577559
 20
351.3830705532009
 30
0.0
 11
962.0216908577559
 21
352.0330705532015
 31
0.0
  0
LINE
  5
117
330
1F
100
AcDbEntity
  8
9
  6
CONTINUOUS
 62
     7
100
AcDbLine
 10
961.4216908577555
 20
351.3830705532009
 30
0.0
 11
961.4216908577555
 21
352.0330705532015
 31
0.0
  0
LINE
  5
118
330
1F
100
AcDbEntity
  8
9
  6
CONTINUOUS
 62
     7
100
AcDbLine
 10
962.5216908577559
 20
350.8830705532009
 30
0.0
 11
963.1716908577555
 21
350.8830705532009
 31
0.0
  0
LINE
  5
119
330
1F
100
AcDbEntity
  8
9
  6
CONTINUOUS
 62
     7
100
AcDbLine
 10
962.5216908577559
 20
350.2830705532015
 30
0.0
 11
963.1716908577555
 21
350.2830705532015
 31
0.0
  0
LINE
  5
11A
330
1F
100
AcDbEntity
  8
9
  6
CONTINUOUS
 62
     7
100
AcDbLine
 10
963.1716908577555
 20
350.2830705532015
 30
0.0
 11
963.1716908577555
 21
350.8830705532009
 31
0.0
  0
LINE
  5
11B
330
1F
100
AcDbEntity
  8
9
  6
CONTINUOUS
 62
     7
100
AcDbLine
 10
962.0216908577559
 20
352.0330705532015
 30
0.0
 11
961.4216908577555
 21
352.0330705532015
 31
0.0
  0
LINE
  5
11C
330
1F
100
AcDbEntity
  8
9
  6
CONTINUOUS
 62
     7
100
AcDbLine
 10
960.2716908577559
 20
350.8830705532009
 30
0.0
 11
960.2716908577559
 21
350.2830705532015
 31
0.0
  0
CIRCLE
  5
11D
330
1F
100
AcDbEntity
  8
9
  6
CONTINUOUS
 62
     7
100
AcDbCircle
 10
942.7216908577557
 20
694.0830705532007
 30
0.0
 40
2.75
  0
LINE
  5
11E
330
1F
100
AcDbEntity
  8
9
  6
CONTINUOUS
 62
     7
100
AcDbLine
 10
941.1307006000852
 20
695.6740608108703
 30
0.0
 11
944.3126811154252
 21
692.4920802955312
 31
0.0
  0
LINE
  5
11F
330
1F
100
AcDbEntity
  8
9
  6
CONTINUOUS
 62
     7
100
AcDbLine
 10
941.1307006000852
 20
692.4920802955312
 30
0.0
 11
944.3126811154252
 21
695.6740608108703
 31
0.0
  0
CIRCLE
  5
120
330
1F
100
AcDbEntity
  8
9
  6
CONTINUOUS
 62
     7
100
AcDbCircle
 10
942.7216908577557
 20
671.0830705532007
 30
0.0
 40
2.75
  0
LINE
  5
121
330
1F
100
AcDbEntity
  8
9
  6
CONTINUOUS
 62
     7
100
AcDbLine
 10
941.1307006000852
 20
672.6740608108703
 30
0.0
 11
944.3126811154252
 21
669.4920802955312
 31
0.0
  0
LINE
  5
122
330
1F
100
AcDbEntity
  8
9
  6
CONTINUOUS
 62
     7
100
AcDbLine
 10
941.1307006000852
 20
669.4920802955312
 30
0.0
 11
944.3126811154252
 21
672.6740608108703
 31
0.0
  0
CIRCLE
  5
123
330
1F
100
AcDbEntity
  8
9
  6
CONTINUOUS
 62
     7
100
AcDbCircle
 10
965.7216908577557
 20
671.0830705532007
 30
0.0
 40
2.75
  0
LINE
  5
124
330
1F
100
AcDbEntity
  8
9
  6
CONTINUOUS
 62
     7
100
AcDbLine
 10
964.1307006000852
 20
672.6740608108703
 30
0.0
 11
967.3126811154252
 21
669.4920802955312
 31
0.0
  0
LINE
  5
125
330
1F
100
AcDbEntity
  8
9
  6
CONTINUOUS
 62
     7
100
AcDbLine
 10
964.1307006000852
 20
669.4920802955312
 30
0.0
 11
967.3126811154252
 21
672.6740608108703
 31
0.0
  0
CIRCLE
  5
126
330
1F
100
AcDbEntity
  8
9
  6
CONTINUOUS
 62
     7
100
AcDbCircle
 10
965.7216908577557
 20
694.0830705532007
 30
0.0
 40
2.75
  0
LINE
  5
127
330
1F
100
AcDbEntity
  8
9
  6
CONTINUOUS
 62
     7
100
AcDbLine
 10
964.1307006000852
 20
695.6740608108703
 30
0.0
 11
967.3126811154252
 21
692.4920802955312
 31
0.0
  0
LINE
  5
128
330
1F
100
AcDbEntity
  8
9
  6
CONTINUOUS
 62
     7
100
AcDbLine
 10
964.1307006000852
 20
692.4920802955312
 30
0.0
 11
967.3126811154252
 21
695.6740608108703
 31
0.0
  0
LINE
  5
129
330
1F
100
AcDbEntity
  8
9
  6
CONTINUOUS
 62
     7
100
AcDbLine
 10
547.1644728398169
 20
696.8720926855503
 30
0.0
 11
547.1644728398169
 21
691.3720926855503
 31
0.0
  0
ARC
  5
12A
330
1F
100
AcDbEntity
  8
9
  6
CONTINUOUS
 62
     7
100
AcDbCircle
 10
542.1644728398169
 20
694.1220926855503
 30
0.0
 40
7.0
100
AcDbArc
 50
343.4486440000165
 51
16.55135599998311
  0
LINE
  5
12B
330
1F
100
AcDbEntity
  8
9
  6
CONTINUOUS
 62
     7
100
AcDbLine
 10
547.1644728398169
 20
696.8720926855503
 30
0.0
 11
547.9681978398166
 21
696.8299706855496
 31
0.0
  0
ARC
  5
12C
330
1F
100
AcDbEntity
  8
9
  6
CONTINUOUS
 62
     7
100
AcDbCircle
 10
547.9158618398169
 20
695.8313406855495
 30
0.0
 40
1.0
100
AcDbArc
 50
16.55135599999157
 51
86.99999999999423
  0
LINE
  5
12D
330
1F
100
AcDbEntity
  8
9
  6
CONTINUOUS
 62
     7
100
AcDbLine
 10
547.1644728398169
 20
691.3720926855503
 30
0.0
 11
547.9681978398166
 21
691.4142146855502
 31
0.0
  0
ARC
  5
12E
330
1F
100
AcDbEntity
  8
9
  6
CONTINUOUS
 62
     7
100
AcDbCircle
 10
547.9158618398169
 20
692.4128446855502
 30
0.0
 40
1.0
100
AcDbArc
 50
273.0000000000054
 51
343.4486440000081
  0
LINE
  5
12F
330
1F
100
AcDbEntity
  8
9
  6
CONTINUOUS
 62
     7
100
AcDbLine
 10
547.1644728398169
 20
673.8720926855503
 30
0.0
 11
547.1644728398169
 21
668.3720926855503
 31
0.0
  0
ARC
  5
130
330
1F
100
AcDbEntity
  8
9
  6
CONTINUOUS
 62
     7
100
AcDbCircle
 10
542.1644728398169
 20
671.1220926855503
 30
0.0
 40
7.0
100
AcDbArc
 50
343.4486440000165
 51
16.55135599998311
  0
LINE
  5
131
330
1F
100
AcDbEntity
  8
9
  6
CONTINUOUS
 62
     7
100
AcDbLine
 10
547.1644728398169
 20
673.8720926855503
 30
0.0
 11
547.9681978398166
 21
673.8299706855496
 31
0.0
  0
ARC
  5
132
330
1F
100
AcDbEntity
  8
9
  6
CONTINUOUS
 62
     7
100
AcDbCircle
 10
547.9158618398169
 20
672.8313406855495
 30
0.0
 40
1.0
100
AcDbArc
 50
16.55135599999157
 51
86.99999999999423
  0
LINE
  5
133
330
1F
100
AcDbEntity
  8
9
  6
CONTINUOUS
 62
     7
100
AcDbLine
 10
547.1644728398169
 20
668.3720926855503
 30
0.0
 11
547.9681978398166
 21
668.4142146855502
 31
0.0
  0
ARC
  5
134
330
1F
100
AcDbEntity
  8
9
  6
CONTINUOUS
 62
     7
100
AcDbCircle
 10
547.9158618398169
 20
669.4128446855502
 30
0.0
 40
1.0
100
AcDbArc
 50
273.0000000000054
 51
343.4486440000081
  0
LINE
  5
135
330
1F
100
AcDbEntity
  8
9
  6
CONTINUOUS
 62
     7
100
AcDbLine
 10
525.3144728398156
 20
235.2664038865332
 30
0.0
 11
518.414472839816
 21
235.2664038865332
 31
0.0
  0
ARC
  5
136
330
1F
100
AcDbEntity
  8
9
  6
CONTINUOUS
 62
     7
100
AcDbCircle
 10
521.8644728398167
 20
238.2334214303937
 30
0.0
 40
4.550350877192955
100
AcDbArc
 50
220.6956985254098
 51
319.3043014745895
  0
LINE
  5
137
330
1F
100
AcDbEntity
  8
9
  6
CONTINUOUS
 62
     7
100
AcDbLine
 10
525.3144728398156
 20
235.5830705532007
 30
0.0
 11
525.3144728398156
 21
235.2664038865332
 31
0.0
  0
LINE
  5
138
330
1F
100
AcDbEntity
  8
9
  6
CONTINUOUS
 62
     7
100
AcDbLine
 10
518.414472839816
 20
235.5830705532007
 30
0.0
 11
518.414472839816
 21
235.2664038865332
 31
0.0
  0
LINE
  5
139
330
1F
100
AcDbEntity
  8
9
  6
CONTINUOUS
 62
     7
100
AcDbLine
 10
320.3144728398174
 20
235.2664038865332
 30
0.0
 11
313.4144728398178
 21
235.2664038865332
 31
0.0
  0
ARC
  5
13A
330
1F
100
AcDbEntity
  8
9
  6
CONTINUOUS
 62
     7
100
AcDbCircle
 10
316.8644728398176
 20
238.2334214303937
 30
0.0
 40
4.550350877192955
100
AcDbArc
 50
220.6956985254103
 51
319.3043014745891
  0
LINE
  5
13B
330
1F
100
AcDbEntity
  8
9
  6
CONTINUOUS
 62
     7
100
AcDbLine
 10
320.3144728398174
 20
235.5830705532007
 30
0.0
 11
320.3144728398174
 21
235.2664038865332
 31
0.0
  0
LINE
  5
13C
330
1F
100
AcDbEntity
  8
9
  6
CONTINUOUS
 62
     7
100
AcDbLine
 10
313.4144728398178
 20
235.5830705532007
 30
0.0
 11
313.4144728398178
 21
235.2664038865332
 31
0.0
  0
LINE
  5
13D
330
1F
100
AcDbEntity
  8
9
  6
CONTINUOUS
 62
     7
100
AcDbLine
 10
341.8144728398174
 20
235.2664038865332
 30
0.0
 11
334.9144728398178
 21
235.2664038865332
 31
0.0
  0
ARC
  5
13E
330
1F
100
AcDbEntity
  8
9
  6
CONTINUOUS
 62
     7
100
AcDbCircle
 10
338.3644728398176
 20
238.2334214303937
 30
0.0
 40
4.550350877192955
100
AcDbArc
 50
220.6956985254103
 51
319.3043014745891
  0
LINE
  5
13F
330
1F
100
AcDbEntity
  8
9
  6
CONTINUOUS
 62
     7
100
AcDbLine
 10
341.8144728398174
 20
235.5830705532007
 30
0.0
 11
341.8144728398174
 21
235.2664038865332
 31
0.0
  0
LINE
  5
140
330
1F
100
AcDbEntity
  8
9
  6
CONTINUOUS
 62
     7
100
AcDbLine
 10
334.9144728398178
 20
235.5830705532007
 30
0.0
 11
334.9144728398178
 21
235.2664038865332
 31
0.0
  0
LINE
  5
141
330
1F
100
AcDbEntity
  8
9
  6
CONTINUOUS
 62
     7
100
AcDbLine
 10
320.3144728398174
 20
665.8997372198683
 30
0.0
 11
313.4144728398178
 21
665.8997372198683
 31
0.0
  0
ARC
  5
142
330
1F
100
AcDbEntity
  8
9
  6
CONTINUOUS
 62
     7
100
AcDbCircle
 10
316.8644728398185
 20
662.9327196760078
 30
0.0
 40
4.550350877192955
100
AcDbArc
 50
40.69569852541088
 51
139.3043014745891
  0
LINE
  5
143
330
1F
100
AcDbEntity
  8
9
  6
CONTINUOUS
 62
     7
100
AcDbLine
 10
320.3144728398174
 20
665.5830705532007
 30
0.0
 11
320.3144728398174
 21
665.8997372198683
 31
0.0
  0
LINE
  5
144
330
1F
100
AcDbEntity
  8
9
  6
CONTINUOUS
 62
     7
100
AcDbLine
 10
313.4144728398178
 20
665.5830705532007
 30
0.0
 11
313.4144728398178
 21
665.8997372198683
 31
0.0
  0
LINE
  5
145
330
1F
100
AcDbEntity
  8
9
  6
CONTINUOUS
 62
     7
100
AcDbLine
 10
341.8144728398174
 20
665.8997372198683
 30
0.0
 11
334.9144728398178
 21
665.8997372198683
 31
0.0
  0
ARC
  5
146
330
1F
100
AcDbEntity
  8
9
  6
CONTINUOUS
 62
     7
100
AcDbCircle
 10
338.3644728398185
 20
662.9327196760078
 30
0.0
 40
4.550350877192955
100
AcDbArc
 50
40.69569852541088
 51
139.3043014745891
  0
LINE
  5
147
330
1F
100
AcDbEntity
  8
9
  6
CONTINUOUS
 62
     7
100
AcDbLine
 10
341.8144728398174
 20
665.5830705532007
 30
0.0
 11
341.8144728398174
 21
665.8997372198683
 31
0.0
  0
LINE
  5
148
330
1F
100
AcDbEntity
  8
9
  6
CONTINUOUS
 62
     7
100
AcDbLine
 10
334.9144728398178
 20
665.5830705532007
 30
0.0
 11
334.9144728398178
 21
665.8997372198683
 31
0.0
  0
LINE
  5
149
330
1F
100
AcDbEntity
  8
9
  6
CONTINUOUS
 62
     7
100
AcDbLine
 10
487.3144728398165
 20
665.8997372198683
 30
0.0
 11
480.414472839816
 21
665.8997372198683
 31
0.0
  0
ARC
  5
14A
330
1F
100
AcDbEntity
  8
9
  6
CONTINUOUS
 62
     7
100
AcDbCircle
 10
483.8644728398167
 20
662.9327196760078
 30
0.0
 40
4.550350877192955
100
AcDbArc
 50
40.69569852541088
 51
139.3043014745891
  0
LINE
  5
14B
330
1F
100
AcDbEntity
  8
9
  6
CONTINUOUS
 62
     7
100
AcDbLine
 10
487.3144728398165
 20
665.5830705532007
 30
0.0
 11
487.3144728398165
 21
665.8997372198683
 31
0.0
  0
LINE
  5
14C
330
1F
100
AcDbEntity
  8
9
  6
CONTINUOUS
 62
     7
100
AcDbLine
 10
480.414472839816
 20
665.5830705532007
 30
0.0
 11
480.414472839816
 21
665.8997372198683
 31
0.0
  0
LINE
  5
14D
330
1F
100
AcDbEntity
  8
9
  6
CONTINUOUS
 62
     7
100
AcDbLine
 10
723.4144728398151
 20
235.2664038865332
 30
0.0
 11
730.3144728398156
 21
235.2664038865332
 31
0.0
  0
ARC
  5
14E
330
1F
100
AcDbEntity
  8
9
  6
CONTINUOUS
 62
     7
100
AcDbCircle
 10
726.8644728398149
 20
238.2334214303937
 30
0.0
 40
4.550350877192955
100
AcDbArc
 50
220.6956985254098
 51
319.3043014745895
  0
LINE
  5
14F
330
1F
100
AcDbEntity
  8
9
  6
CONTINUOUS
 62
     7
100
AcDbLine
 10
723.4144728398151
 20
235.5830705532007
 30
0.0
 11
723.4144728398151
 21
235.2664038865332
 31
0.0
  0
LINE
  5
150
330
1F
100
AcDbEntity
  8
9
  6
CONTINUOUS
 62
     7
100
AcDbLine
 10
730.3144728398156
 20
235.5830705532007
 30
0.0
 11
730.3144728398156
 21
235.2664038865332
 31
0.0
  0
LINE
  5
151
330
1F
100
AcDbEntity
  8
9
  6
CONTINUOUS
 62
     7
100
AcDbLine
 10
701.9144728398151
 20
235.2664038865332
 30
0.0
 11
708.8144728398156
 21
235.2664038865332
 31
0.0
  0
ARC
  5
152
330
1F
100
AcDbEntity
  8
9
  6
CONTINUOUS
 62
     7
100
AcDbCircle
 10
705.3644728398149
 20
238.2334214303937
 30
0.0
 40
4.550350877192955
100
AcDbArc
 50
220.6956985254098
 51
319.3043014745895
  0
LINE
  5
153
330
1F
100
AcDbEntity
  8
9
  6
CONTINUOUS
 62
     7
100
AcDbLine
 10
701.9144728398151
 20
235.5830705532007
 30
0.0
 11
701.9144728398151
 21
235.2664038865332
 31
0.0
  0
LINE
  5
154
330
1F
100
AcDbEntity
  8
9
  6
CONTINUOUS
 62
     7
100
AcDbLine
 10
708.8144728398156
 20
235.5830705532007
 30
0.0
 11
708.8144728398156
 21
235.2664038865332
 31
0.0
  0
LINE
  5
155
330
1F
100
AcDbEntity
  8
9
  6
CONTINUOUS
 62
     7
100
AcDbLine
 10
723.414472839816
 20
665.8997372198683
 30
0.0
 11
730.3144728398156
 21
665.8997372198683
 31
0.0
  0
ARC
  5
156
330
1F
100
AcDbEntity
  8
9
  6
CONTINUOUS
 62
     7
100
AcDbCircle
 10
726.8644728398149
 20
662.9327196760078
 30
0.0
 40
4.550350877192955
100
AcDbArc
 50
40.69569852541041
 51
139.3043014745896
  0
LINE
  5
157
330
1F
100
AcDbEntity
  8
9
  6
CONTINUOUS
 62
     7
100
AcDbLine
 10
723.414472839816
 20
665.5830705532007
 30
0.0
 11
723.414472839816
 21
665.8997372198683
 31
0.0
  0
LINE
  5
158
330
1F
100
AcDbEntity
  8
9
  6
CONTINUOUS
 62
     7
100
AcDbLine
 10
730.3144728398156
 20
665.5830705532007
 30
0.0
 11
730.3144728398156
 21
665.8997372198683
 31
0.0
  0
LINE
  5
159
330
1F
100
AcDbEntity
  8
9
  6
CONTINUOUS
 62
     7
100
AcDbLine
 10
701.914472839816
 20
665.8997372198683
 30
0.0
 11
708.8144728398156
 21
665.8997372198683
 31
0.0
  0
ARC
  5
15A
330
1F
100
AcDbEntity
  8
9
  6
CONTINUOUS
 62
     7
100
AcDbCircle
 10
705.3644728398149
 20
662.9327196760078
 30
0.0
 40
4.550350877192955
100
AcDbArc
 50
40.69569852541041
 51
139.3043014745896
  0
LINE
  5
15B
330
1F
100
AcDbEntity
  8
9
  6
CONTINUOUS
 62
     7
100
AcDbLine
 10
701.914472839816
 20
665.5830705532007
 30
0.0
 11
701.914472839816
 21
665.8997372198683
 31
0.0
  0
LINE
  5
15C
330
1F
100
AcDbEntity
  8
9
  6
CONTINUOUS
 62
     7
100
AcDbLine
 10
708.8144728398156
 20
665.5830705532007
 30
0.0
 11
708.8144728398156
 21
665.8997372198683
 31
0.0
  0
LINE
  5
15D
330
1F
100
AcDbEntity
  8
9
  6
CONTINUOUS
 62
     7
100
AcDbLine
 10
556.4144728398169
 20
665.8997372198683
 30
0.0
 11
563.3144728398174
 21
665.8997372198683
 31
0.0
  0
ARC
  5
15E
330
1F
100
AcDbEntity
  8
9
  6
CONTINUOUS
 62
     7
100
AcDbCircle
 10
559.8644728398167
 20
662.9327196760078
 30
0.0
 40
4.550350877192955
100
AcDbArc
 50
40.69569852541041
 51
139.3043014745896
  0
LINE
  5
15F
330
1F
100
AcDbEntity
  8
9
  6
CONTINUOUS
 62
     7
100
AcDbLine
 10
556.4144728398169
 20
665.5830705532007
 30
0.0
 11
556.4144728398169
 21
665.8997372198683
 31
0.0
  0
LINE
  5
160
330
1F
100
AcDbEntity
  8
9
  6
CONTINUOUS
 62
     7
100
AcDbLine
 10
563.3144728398174
 20
665.5830705532007
 30
0.0
 11
563.3144728398174
 21
665.8997372198683
 31
0.0
  0
LINE
  5
161
330
1F
100
AcDbEntity
  8
9
  6
CONTINUOUS
 62
     7
100
AcDbLine
 10
736.8644728398167
 20
354.0330705532006
 30
0.0
 11
736.8644728398167
 21
347.1330705532
 31
0.0
  0
LINE
  5
162
330
1F
100
AcDbEntity
  8
9
  6
CONTINUOUS
 62
     7
100
AcDbLine
 10
737.1811395064842
 20
354.0330705532006
 30
0.0
 11
737.1811395064842
 21
347.1330705532
 31
0.0
  0
ARC
  5
163
330
1F
100
AcDbEntity
  8
9
  6
CONTINUOUS
 62
     7
100
AcDbCircle
 10
734.2141219626237
 20
350.5830705532007
 30
0.0
 40
4.550350877192955
100
AcDbArc
 50
310.6956985253369
 51
49.30430147466272
  0
LINE
  5
164
330
1F
100
AcDbEntity
  8
9
  6
CONTINUOUS
 62
     7
100
AcDbLine
 10
736.8644728398167
 20
354.0330705532006
 30
0.0
 11
737.1811395064842
 21
354.0330705532006
 31
0.0
  0
LINE
  5
165
330
1F
100
AcDbEntity
  8
9
  6
CONTINUOUS
 62
     7
100
AcDbLine
 10
736.8644728398167
 20
347.1330705532
 30
0.0
 11
737.1811395064842
 21
347.1330705532
 31
0.0
  0
LINE
  5
166
330
1F
100
AcDbEntity
  8
9
  6
CONTINUOUS
 62
     7
100
AcDbLine
 10
737.1811395064842
 20
554.0330705532006
 30
0.0
 11
737.1811395064842
 21
547.1330705532
 31
0.0
  0
ARC
  5
167
330
1F
100
AcDbEntity
  8
9
  6
CONTINUOUS
 62
     7
100
AcDbCircle
 10
734.2141219626237
 20
550.5830705532007
 30
0.0
 40
4.550350877192955
100
AcDbArc
 50
310.6956985253369
 51
49.30430147466272
  0
LINE
  5
168
330
1F
100
AcDbEntity
  8
9
  6
CONTINUOUS
 62
     7
100
AcDbLine
 10
736.8644728398167
 20
554.0330705532006
 30
0.0
 11
737.1811395064842
 21
554.0330705532006
 31
0.0
  0
LINE
  5
169
330
1F
100
AcDbEntity
  8
9
  6
CONTINUOUS
 62
     7
100
AcDbLine
 10
736.8644728398167
 20
547.1330705532
 30
0.0
 11
737.1811395064842
 21
547.1330705532
 31
0.0
  0
LINE
  5
16A
330
1F
100
AcDbEntity
  8
4
  6
DASHDOT
 62
     1
100
AcDbLine
 10
291.8644728398167
 20
450.5830705532007
 30
0.0
 11
751.8644728398167
 21
450.5830705532007
 31
0.0
  0
LINE
  5
16B
330
1F
100
AcDbEntity
  8
4
  6
DASHDOT
 62
     1
100
AcDbLine
 10
521.8644728398167
 20
205.5830705532017
 30
0.0
 11
521.8644728398167
 21
695.5830705532007
 31
0.0
  0
LINE
  5
16C
330
1F
100
AcDbEntity
  8
9
  6
CONTINUOUS
 62
     7
100
AcDbLine
 10
965.1716908577555
 20
665.8997372198683
 30
0.0
 11
958.2716908577559
 21
665.8997372198683
 31
0.0
  0
ARC
  5
16D
330
1F
100
AcDbEntity
  8
9
  6
CONTINUOUS
 62
     7
100
AcDbCircle
 10
961.7216908577566
 20
662.9327196760078
 30
0.0
 40
4.550350877192955
100
AcDbArc
 50
40.69569852541041
 51
139.3043014745896
  0
LINE
  5
16E
330
1F
100
AcDbEntity
  8
9
  6
CONTINUOUS
 62
     7
100
AcDbLine
 10
965.1716908577555
 20
665.5830705532007
 30
0.0
 11
965.1716908577555
 21
665.8997372198683
 31
0.0
  0
LINE
  5
16F
330
1F
100
AcDbEntity
  8
9
  6
CONTINUOUS
 62
     7
100
AcDbLine
 10
958.2716908577559
 20
665.5830705532007
 30
0.0
 11
958.2716908577559
 21
665.8997372198683
 31
0.0
  0
LINE
  5
170
330
1F
100
AcDbEntity
  8
9
  6
CONTINUOUS
 62
     7
100
AcDbLine
 10
306.8644728398167
 20
354.0330705532006
 30
0.0
 11
306.8644728398167
 21
347.1330705532
 31
0.0
  0
LINE
  5
171
330
1F
100
AcDbEntity
  8
9
  6
CONTINUOUS
 62
     7
100
AcDbLine
 10
306.5478061731492
 20
354.0330705532006
 30
0.0
 11
306.5478061731492
 21
347.1330705532
 31
0.0
  0
ARC
  5
172
330
1F
100
AcDbEntity
  8
9
  6
CONTINUOUS
 62
     7
100
AcDbCircle
 10
309.5148237170097
 20
350.5830705532007
 30
0.0
 40
4.550350877192955
100
AcDbArc
 50
130.6956985253373
 51
229.3043014746624
  0
LINE
  5
173
330
1F
100
AcDbEntity
  8
9
  6
CONTINUOUS
 62
     7
100
AcDbLine
 10
306.8644728398167
 20
354.0330705532006
 30
0.0
 11
306.5478061731492
 21
354.0330705532006
 31
0.0
  0
LINE
  5
174
330
1F
100
AcDbEntity
  8
9
  6
CONTINUOUS
 62
     7
100
AcDbLine
 10
306.8644728398167
 20
347.1330705532
 30
0.0
 11
306.5478061731492
 21
347.1330705532
 31
0.0
  0
LINE
  5
175
330
1F
100
AcDbEntity
  8
9
  6
CONTINUOUS
 62
     7
100
AcDbLine
 10
306.5478061731492
 20
554.0330705532006
 30
0.0
 11
306.5478061731492
 21
547.1330705532
 31
0.0
  0
ARC
  5
176
330
1F
100
AcDbEntity
  8
9
  6
CONTINUOUS
 62
     7
100
AcDbCircle
 10
309.5148237170097
 20
550.5830705532007
 30
0.0
 40
4.550350877192955
100
AcDbArc
 50
130.6956985253373
 51
229.3043014746624
  0
LINE
  5
177
330
1F
100
AcDbEntity
  8
9
  6
CONTINUOUS
 62
     7
100
AcDbLine
 10
306.8644728398167
 20
554.0330705532006
 30
0.0
 11
306.5478061731492
 21
554.0330705532006
 31
0.0
  0
LINE
  5
178
330
1F
100
AcDbEntity
  8
9
  6
CONTINUOUS
 62
     7
100
AcDbLine
 10
306.8644728398167
 20
547.1330705532
 30
0.0
 11
306.5478061731492
 21
547.1330705532
 31
0.0
  0
CIRCLE
  5
179
330
1F
100
AcDbEntity
  8
9
  6
CONTINUOUS
 62
     7
100
AcDbCircle
 10
346.8644728398167
 20
673.5830705532007
 30
0.0
 40
3.100000000000023
  0
CIRCLE
  5
17A
330
1F
100
AcDbEntity
  8
9
  6
CONTINUOUS
 62
     7
100
AcDbCircle
 10
434.3644728398167
 20
673.5830705532007
 30
0.0
 40
3.100000000000023
  0
CIRCLE
  5
17B
330
1F
100
AcDbEntity
  8
9
  6
CONTINUOUS
 62
     7
100
AcDbCircle
 10
609.3644728398167
 20
673.5830705532007
 30
0.0
 40
3.100000000000023
  0
CIRCLE
  5
17C
330
1F
100
AcDbEntity
  8
9
  6
CONTINUOUS
 62
     7
100
AcDbCircle
 10
696.8644728398167
 20
673.5830705532007
 30
0.0
 40
3.100000000000023
  0
CIRCLE
  5
17D
330
1F
100
AcDbEntity
  8
9
  6
CONTINUOUS
 62
     7
100
AcDbCircle
 10
696.8644728398167
 20
227.5830705532007
 30
0.0
 40
3.100000000000023
  0
CIRCLE
  5
17E
330
1F
100
AcDbEntity
  8
9
  6
CONTINUOUS
 62
     7
100
AcDbCircle
 10
609.3644728398167
 20
227.5830705532007
 30
0.0
 40
3.100000000000023
  0
CIRCLE
  5
17F
330
1F
100
AcDbEntity
  8
9
  6
CONTINUOUS
 62
     7
100
AcDbCircle
 10
434.3644728398167
 20
227.5830705532007
 30
0.0
 40
3.100000000000023
  0
CIRCLE
  5
180
330
1F
100
AcDbEntity
  8
9
  6
CONTINUOUS
 62
     7
100
AcDbCircle
 10
346.8644728398167
 20
227.5830705532007
 30
0.0
 40
3.100000000000023
  0
LINE
  5
181
330
1F
100
AcDbEntity
  8
4
  6
DASHDOT
 62
     1
100
AcDbLine
 10
338.7644728398163
 20
227.5830705532007
 30
0.0
 11
354.9644728398171
 21
227.5830705532007
 31
0.0
  0
LINE
  5
182
330
1F
100
AcDbEntity
  8
4
  6
DASHDOT
 62
     1
100
AcDbLine
 10
346.8644728398167
 20
235.6830705532011
 30
0.0
 11
346.8644728398167
 21
219.4830705532004
 31
0.0
  0
LINE
  5
183
330
1F
100
AcDbEntity
  8
4
  6
DASHDOT
 62
     1
100
AcDbLine
 10
426.2644728398163
 20
227.5830705532007
 30
0.0
 11
442.4644728398171
 21
227.5830705532007
 31
0.0
  0
LINE
  5
184
330
1F
100
AcDbEntity
  8
4
  6
DASHDOT
 62
     1
100
AcDbLine
 10
434.3644728398167
 20
235.6830705532011
 30
0.0
 11
434.3644728398167
 21
219.4830705532004
 31
0.0
  0
LINE
  5
185
330
1F
100
AcDbEntity
  8
4
  6
DASHDOT
 62
     1
100
AcDbLine
 10
601.2644728398163
 20
227.5830705532007
 30
0.0
 11
617.4644728398171
 21
227.5830705532007
 31
0.0
  0
LINE
  5
186
330
1F
100
AcDbEntity
  8
4
  6
DASHDOT
 62
     1
100
AcDbLine
 10
609.3644728398167
 20
235.6830705532011
 30
0.0
 11
609.3644728398167
 21
219.4830705532004
 31
0.0
  0
LINE
  5
187
330
1F
100
AcDbEntity
  8
4
  6
DASHDOT
 62
     1
100
AcDbLine
 10
688.7644728398163
 20
227.5830705532007
 30
0.0
 11
704.9644728398171
 21
227.5830705532007
 31
0.0
  0
LINE
  5
188
330
1F
100
AcDbEntity
  8
4
  6
DASHDOT
 62
     1
100
AcDbLine
 10
696.8644728398167
 20
235.6830705532011
 30
0.0
 11
696.8644728398167
 21
219.4830705532004
 31
0.0
  0
LINE
  5
189
330
1F
100
AcDbEntity
  8
4
  6
DASHDOT
 62
     1
100
AcDbLine
 10
338.7644728398163
 20
673.5830705532007
 30
0.0
 11
354.9644728398171
 21
673.5830705532007
 31
0.0
  0
LINE
  5
18A
330
1F
100
AcDbEntity
  8
4
  6
DASHDOT
 62
     1
100
AcDbLine
 10
346.8644728398167
 20
681.6830705532011
 30
0.0
 11
346.8644728398167
 21
665.4830705532004
 31
0.0
  0
LINE
  5
18B
330
1F
100
AcDbEntity
  8
4
  6
DASHDOT
 62
     1
100
AcDbLine
 10
426.2644728398163
 20
673.5830705532007
 30
0.0
 11
442.4644728398171
 21
673.5830705532007
 31
0.0
  0
LINE
  5
18C
330
1F
100
AcDbEntity
  8
4
  6
DASHDOT
 62
     1
100
AcDbLine
 10
434.3644728398167
 20
681.6830705532011
 30
0.0
 11
434.3644728398167
 21
665.4830705532004
 31
0.0
  0
LINE
  5
18D
330
1F
100
AcDbEntity
  8
4
  6
DASHDOT
 62
     1
100
AcDbLine
 10
601.2644728398163
 20
673.5830705532007
 30
0.0
 11
617.4644728398171
 21
673.5830705532007
 31
0.0
  0
LINE
  5
18E
330
1F
100
AcDbEntity
  8
4
  6
DASHDOT
 62
     1
100
AcDbLine
 10
609.3644728398167
 20
681.6830705532011
 30
0.0
 11
609.3644728398167
 21
665.4830705532004
 31
0.0
  0
LINE
  5
18F
330
1F
100
AcDbEntity
  8
4
  6
DASHDOT
 62
     1
100
AcDbLine
 10
688.7644728398163
 20
673.5830705532007
 30
0.0
 11
704.9644728398171
 21
673.5830705532007
 31
0.0
  0
LINE
  5
190
330
1F
100
AcDbEntity
  8
4
  6
DASHDOT
 62
     1
100
AcDbLine
 10
696.8644728398167
 20
681.6830705532011
 30
0.0
 11
696.8644728398167
 21
665.4830705532004
 31
0.0
  0
CIRCLE
  5
191
330
1F
100
AcDbEntity
  8
9
  6
CONTINUOUS
 62
     7
100
AcDbCircle
 10
521.864472839804
 20
450.5830705531844
 30
0.0
 40
17.5
  0
CIRCLE
  5
192
330
1F
100
AcDbEntity
  8
3
  6
HIDDEN
 62
     3
100
AcDbCircle
 10
521.864472839804
 20
450.5830705531844
 30
0.0
 40
22.5
  0
LINE
  5
193
330
1F
100
AcDbEntity
  8
3
  6
HIDDEN
 62
     3
100
AcDbLine
 10
927.7216908577566
 20
662.5830705532017
 30
0.0
 11
927.7216908577566
 21
238.5830705532017
 31
0.0
  0
LINE
  5
194
330
1F
100
AcDbEntity
  8
3
  6
HIDDEN
 62
     3
100
AcDbLine
 10
932.7216908577566
 20
662.5830705532017
 30
0.0
 11
932.7216908577566
 21
238.5830705532017
 31
0.0
  0
LINE
  5
195
330
1F
100
AcDbEntity
  8
3
  6
HIDDEN
 62
     3
100
AcDbLine
 10
927.7216908577566
 20
662.5830705532007
 30
0.0
 11
932.7216908577566
 21
662.5830705532007
 31
0.0
  0
LINE
  5
196
330
1F
100
AcDbEntity
  8
3
  6
HIDDEN
 62
     3
100
AcDbLine
 10
927.7216908577566
 20
238.5830705532007
 30
0.0
 11
932.7216908577566
 21
238.5830705532007
 31
0.0
  0
LINE
  5
197
330
1F
100
AcDbEntity
  8
4
  6
DASHDOT
 62
     1
100
AcDbLine
 10
911.7216908577566
 20
450.5830705531998
 30
0.0
 11
986.7216908577566
 21
450.5830705531998
 31
0.0
  0
LINE
  5
198
330
1F
100
AcDbEntity
  8
3
  6
HIDDEN
 62
     3
100
AcDbLine
 10
971.7216908577566
 20
433.0830705531989
 30
0.0
 11
926.7216908577566
 21
433.0830705531989
 31
0.0
  0
LINE
  5
199
330
1F
100
AcDbEntity
  8
3
  6
HIDDEN
 62
     3
100
AcDbLine
 10
970.7216908577557
 20
428.0830705531989
 30
0.0
 11
932.7216908577566
 21
428.0830705531989
 31
0.0
  0
LINE
  5
19A
330
1F
100
AcDbEntity
  8
3
  6
HIDDEN
 62
     3
100
AcDbLine
 10
971.7216908577566
 20
468.0830705532007
 30
0.0
 11
926.7216908577566
 21
468.0830705532007
 31
0.0
  0
LINE
  5
19B
330
1F
100
AcDbEntity
  8
3
  6
HIDDEN
 62
     3
100
AcDbLine
 10
970.7216908577557
 20
473.0830705532007
 30
0.0
 11
932.7216908577566
 21
473.0830705532007
 31
0.0
  0
HATCH
  5
19C
330
1F
100
AcDbEntity
  8
10
  6
CONTINUOUS
 62
     2
100
AcDbHatch
 10
0.0
 20
0.0
 30
0.0
210
0.0
220
0.0
230
1.0
  2

 70
     0
 71
     0
 91
        4
 92
        0
 93
       40
 72
     1
 10
721.8644728398167
 20
650.5830705532007
 11
521.8644728398167
 21
650.5830705532007
 72
     1
 10
521.8644728398167
 20
650.5830705532007
 11
521.8644728398167
 21
473.0830705531844
 72
     1
 10
521.8644728398043
 20
473.0830705531844
 11
522.8459090555244
 21
473.0616555387762
 72
     1
 10
522.8459090555244
 20
473.0616555387762
 11
523.8254770516268
 21
472.9974512602487
 72
     1
 10
523.8254770516268
 20
472.9974512602487
 11
524.8013121647556
 21
472.8905799340952
 72
     1
 10
524.8013121647556
 20
472.8905799340952
 11
525.7715568373104
 21
472.7412449959591
 72
     1
 10
525.7715568373104
 20
472.7412449959591
 11
526.7343641534119
 21
472.5497307133829
 72
     1
 10
526.7343641534119
 20
472.5497307133829
 11
527.6879013546113
 21
472.3164016446884
 72
     1
 10
527.6879013546113
 20
472.3164016446884
 11
528.6303533286508
 21
472.0417019450195
 72
     1
 10
528.6303533286508
 20
472.0417019450195
 11
529.5599260646322
 21
471.7261545208673
 72
     1
 10
529.5599260646322
 20
471.7261545208673
 11
530.4748500680192
 21
471.3703600346883
 72
     1
 10
530.4748500680192
 20
471.3703600346883
 11
531.3733837289705
 21
470.9749957615089
 72
     1
 10
531.3733837289705
 20
470.9749957615089
 11
532.253816637593
 21
470.5408142996943
 72
     1
 10
532.253816637593
 20
470.5408142996943
 11
533.1144728398048
 21
470.0686421383342
 72
     1
 10
533.1144728398048
 20
470.0686421383342
 11
533.9537140276084
 21
469.5593780839742
 72
     1
 10
533.9537140276084
 20
469.5593780839742
 11
534.7699426577034
 21
469.0139915496866
 72
     1
 10
534.7699426577034
 20
469.0139915496866
 11
535.5616049925011
 21
468.433520709737
 72
     1
 10
535.5616049925011
 20
468.433520709737
 11
536.3271940577521
 21
467.8190705233612
 72
     1
 10
536.3271940577521
 20
467.8190705233612
 11
537.0652525111574
 21
467.171810631412
 72
     1
 10
537.0652525111574
 20
467.171810631412
 11
537.7743754165024
 21
466.4929731298815
 72
     1
 10
537.7743754165024
 20
466.4929731298815
 11
538.4532129180328
 21
465.7838502245365
 72
     1
 10
538.4532129180328
 20
465.7838502245365
 11
539.1004728099821
 21
465.0457917711312
 72
     1
 10
539.1004728099821
 20
465.0457917711312
 11
539.7149229963579
 21
464.2802027058802
 72
     1
 10
539.7149229963579
 20
464.2802027058802
 11
540.2953938363074
 21
463.4885403710825
 72
     1
 10
540.2953938363074
 20
463.4885403710825
 11
540.8407803705951
 21
462.6723117409875
 72
     1
 10
540.8407803705951
 20
462.6723117409875
 11
541.3500444249551
 21
461.8330705531839
 72
     1
 10
541.3500444249551
 20
461.8330705531839
 11
541.8222165863151
 21
460.9724143509721
 72
     1
 10
541.8222165863151
 20
460.9724143509721
 11
542.2563980481298
 21
460.0919814423496
 72
     1
 10
542.2563980481298
 20
460.0919814423496
 11
542.6517623213092
 21
459.1934477813983
 72
     1
 10
542.6517623213092
 20
459.1934477813983
 11
543.0075568074882
 21
458.2785237780113
 72
     1
 10
543.0075568074882
 20
458.2785237780113
 11
543.3231042316403
 21
457.3489510420299
 72
     1
 10
543.3231042316403
 20
457.3489510420299
 11
543.5978039313093
 21
456.4064990679904
 72
     1
 10
543.5978039313093
 20
456.4064990679904
 11
543.8311330000038
 21
455.452961866791
 72
     1
 10
543.8311330000038
 20
455.452961866791
 11
544.0226472825799
 21
454.4901545506896
 72
     1
 10
544.0226472825799
 20
454.4901545506896
 11
544.171982220716
 21
453.5199098781347
 72
     1
 10
544.171982220716
 20
453.5199098781347
 11
544.2788535468695
 21
452.5440747650059
 72
     1
 10
544.2788535468695
 20
452.5440747650059
 11
544.3430578253971
 21
451.5645067689036
 72
     1
 10
544.3430578253971
 20
451.5645067689036
 11
544.3644728398053
 21
450.5830705531835
 72
     1
 10
544.364472839804
 20
450.5830705532007
 11
721.8644728398167
 21
450.5830705532007
 72
     1
 10
721.8644728398167
 20
450.5830705532007
 11
721.8644728398167
 21
650.5830705532007
 97
        0
 92
        0
 93
       40
 72
     1
 10
521.8644728398167
 20
650.5830705532007
 11
321.8644728398167
 21
650.5830705532007
 72
     1
 10
321.8644728398167
 20
650.5830705532007
 11
321.8644728398167
 21
450.5830705532007
 72
     1
 10
321.8644728398167
 20
450.5830705532007
 11
499.364472839804
 21
450.5830705532007
 72
     1
 10
499.364472839804
 20
450.5830705531849
 11
499.3858878542122
 21
451.5645067689049
 72
     1
 10
499.3858878542122
 20
451.5645067689049
 11
499.4500921327398
 21
452.5440747650072
 72
     1
 10
499.4500921327398
 20
452.5440747650072
 11
499.5569634588933
 21
453.519909878136
 72
     1
 10
499.5569634588933
 20
453.519909878136
 11
499.7062983970293
 21
454.4901545506908
 72
     1
 10
499.7062983970293
 20
454.4901545506908
 11
499.8978126796055
 21
455.4529618667922
 72
     1
 10
499.8978126796055
 20
455.4529618667922
 11
500.1311417483
 21
456.4064990679916
 72
     1
 10
500.1311417483
 20
456.4064990679916
 11
500.405841447969
 21
457.348951042031
 72
     1
 10
500.405841447969
 20
457.348951042031
 11
500.7213888721211
 21
458.2785237780124
 72
     1
 10
500.7213888721211
 20
458.2785237780124
 11
501.0771833583001
 21
459.1934477813994
 72
     1
 10
501.0771833583001
 20
459.1934477813994
 11
501.4725476314794
 21
460.0919814423506
 72
     1
 10
501.4725476314794
 20
460.0919814423506
 11
501.9067290932941
 21
460.9724143509731
 72
     1
 10
501.9067290932941
 20
460.9724143509731
 11
502.3789012546542
 21
461.8330705531848
 72
     1
 10
502.3789012546542
 20
461.8330705531848
 11
502.8881653090141
 21
462.6723117409884
 72
     1
 10
502.8881653090141
 20
462.6723117409884
 11
503.4335518433018
 21
463.4885403710834
 72
     1
 10
503.4335518433018
 20
463.4885403710834
 11
504.0140226832513
 21
464.280202705881
 72
     1
 10
504.0140226832513
 20
464.280202705881
 11
504.628472869627
 21
465.045791771132
 72
     1
 10
504.628472869627
 20
465.045791771132
 11
505.2757327615763
 21
465.7838502245372
 72
     1
 10
505.2757327615763
 20
465.7838502245372
 11
505.9545702631067
 21
466.4929731298822
 72
     1
 10
505.9545702631067
 20
466.4929731298822
 11
506.6636931684517
 21
467.1718106314126
 72
     1
 10
506.6636931684517
 20
467.1718106314126
 11
507.4017516218569
 21
467.8190705233618
 72
     1
 10
507.4017516218569
 20
467.8190705233618
 11
508.1673406871078
 21
468.4335207097376
 72
     1
 10
508.1673406871078
 20
468.4335207097376
 11
508.9590030219055
 21
469.0139915496871
 72
     1
 10
508.9590030219055
 20
469.0139915496871
 11
509.7752316520005
 21
469.5593780839747
 72
     1
 10
509.7752316520005
 20
469.5593780839747
 11
510.614472839804
 21
470.0686421383347
 72
     1
 10
510.614472839804
 20
470.0686421383347
 11
511.4751290420158
 21
470.5408142996948
 72
     1
 10
511.4751290420158
 20
470.5408142996948
 11
512.3555619506383
 21
470.9749957615094
 72
     1
 10
512.3555619506383
 20
470.9749957615094
 11
513.2540956115895
 21
471.3703600346888
 72
     1
 10
513.2540956115895
 20
471.3703600346888
 11
514.1690196149765
 21
471.7261545208677
 72
     1
 10
514.1690196149765
 20
471.7261545208677
 11
515.0985923509579
 21
472.0417019450199
 72
     1
 10
515.0985923509579
 20
472.0417019450199
 11
516.0410443249973
 21
472.3164016446888
 72
     1
 10
516.0410443249973
 20
472.3164016446888
 11
516.9945815261967
 21
472.5497307133833
 72
     1
 10
516.9945815261967
 20
472.5497307133833
 11
517.9573888422981
 21
472.7412449959594
 72
     1
 10
517.9573888422981
 20
472.7412449959594
 11
518.9276335148528
 21
472.8905799340955
 72
     1
 10
518.9276335148528
 20
472.8905799340955
 11
519.9034686279817
 21
472.997451260249
 72
     1
 10
519.9034686279817
 20
472.997451260249
 11
520.883036624084
 21
473.0616555387766
 72
     1
 10
520.883036624084
 20
473.0616555387766
 11
521.864472839804
 21
473.0830705531848
 72
     1
 10
521.8644728398167
 20
473.0830705531844
 11
521.8644728398167
 21
650.5830705532007
 97
        0
 92
        0
 93
       40
 72
     1
 10
499.3644728398037
 20
450.5830705531841
 11
499.3858878542119
 21
449.6016343374641
 72
     1
 10
499.3858878542119
 20
449.6016343374641
 11
499.4500921327394
 21
448.6220663413619
 72
     1
 10
499.4500921327394
 20
448.6220663413619
 11
499.5569634588929
 21
447.646231228233
 72
     1
 10
499.5569634588929
 20
447.646231228233
 11
499.706298397029
 21
446.6759865556783
 72
     1
 10
499.706298397029
 20
446.6759865556783
 11
499.8978126796052
 21
445.7131792395769
 72
     1
 10
499.8978126796052
 20
445.7131792395769
 11
500.1311417482996
 21
444.7596420383775
 72
     1
 10
500.1311417482996
 20
444.7596420383775
 11
500.4058414479686
 21
443.8171900643381
 72
     1
 10
500.4058414479686
 20
443.8171900643381
 11
500.7213888721207
 21
442.8876173283567
 72
     1
 10
500.7213888721207
 20
442.8876173283567
 11
501.0771833582997
 21
441.9726933249697
 72
     1
 10
501.0771833582997
 20
441.9726933249697
 11
501.472547631479
 21
441.0741596640185
 72
     1
 10
501.472547631479
 20
441.0741596640185
 11
501.9067290932936
 21
440.193726755396
 72
     1
 10
501.9067290932936
 20
440.193726755396
 11
502.3789012546537
 21
439.3330705531843
 72
     1
 10
502.3789012546537
 20
439.3330705531843
 11
502.8881653090136
 21
438.4938293653808
 72
     1
 10
502.8881653090136
 20
438.4938293653808
 11
503.4335518433012
 21
437.6776007352858
 72
     1
 10
503.4335518433012
 20
437.6776007352858
 11
504.0140226832507
 21
436.8859384004882
 72
     1
 10
504.0140226832507
 20
436.8859384004882
 11
504.6284728696265
 21
436.1203493352372
 72
     1
 10
504.6284728696265
 20
436.1203493352372
 11
505.2757327615757
 21
435.382290881832
 72
     1
 10
505.2757327615757
 20
435.382290881832
 11
505.9545702631062
 21
434.673167976487
 72
     1
 10
505.9545702631062
 20
434.673167976487
 11
506.6636931684511
 21
433.9943304749566
 72
     1
 10
506.6636931684511
 20
433.9943304749566
 11
507.4017516218564
 21
433.3470705830074
 72
     1
 10
507.4017516218564
 20
433.3470705830074
 11
508.1673406871072
 21
432.7326203966316
 72
     1
 10
508.1673406871072
 20
432.7326203966316
 11
508.9590030219049
 21
432.1521495566821
 72
     1
 10
508.9590030219049
 20
432.1521495566821
 11
509.7752316519999
 21
431.6067630223945
 72
     1
 10
509.7752316519999
 20
431.6067630223945
 11
510.6144728398034
 21
431.0974989680345
 72
     1
 10
510.6144728398034
 20
431.0974989680345
 11
511.4751290420151
 21
430.6253268066744
 72
     1
 10
511.4751290420151
 20
430.6253268066744
 11
512.3555619506376
 21
430.1911453448598
 72
     1
 10
512.3555619506376
 20
430.1911453448598
 11
513.2540956115888
 21
429.7957810716805
 72
     1
 10
513.2540956115888
 20
429.7957810716805
 11
514.1690196149758
 21
429.4399865855015
 72
     1
 10
514.1690196149758
 20
429.4399865855015
 11
515.0985923509571
 21
429.1244391613494
 72
     1
 10
515.0985923509571
 20
429.1244391613494
 11
516.0410443249966
 21
428.8497394616804
 72
     1
 10
516.0410443249966
 20
428.8497394616804
 11
516.9945815261959
 21
428.6164103929859
 72
     1
 10
516.9945815261959
 20
428.6164103929859
 11
517.9573888422973
 21
428.4248961104097
 72
     1
 10
517.9573888422973
 20
428.4248961104097
 11
518.9276335148521
 21
428.2755611722737
 72
     1
 10
518.9276335148521
 20
428.2755611722737
 11
519.9034686279809
 21
428.1686898461202
 72
     1
 10
519.9034686279809
 20
428.1686898461202
 11
520.8830366240832
 21
428.1044855675926
 72
     1
 10
520.8830366240832
 20
428.1044855675926
 11
521.8644728398032
 21
428.0830705531844
 72
     1
 10
521.8644728398167
 20
428.0830705531844
 11
521.8644728398167
 21
250.5830705532007
 72
     1
 10
521.8644728398167
 20
250.5830705532007
 11
321.8644728398167
 21
250.5830705532007
 72
     1
 10
321.8644728398167
 20
250.5830705532007
 11
321.8644728398167
 21
450.5830705532007
 72
     1
 10
321.8644728398167
 20
450.5830705532007
 11
499.364472839804
 21
450.5830705532007
 97
        0
 92
        0
 93
       40
 72
     1
 10
721.8644728398167
 20
450.5830705532007
 11
544.364472839804
 21
450.5830705532007
 72
     1
 10
544.364472839804
 20
450.5830705531866
 11
544.3430578253957
 21
449.6016343374666
 72
     1
 10
544.3430578253957
 20
449.6016343374666
 11
544.2788535468683
 21
448.6220663413642
 72
     1
 10
544.2788535468683
 20
448.6220663413642
 11
544.1719822207147
 21
447.6462312282354
 72
     1
 10
544.1719822207147
 20
447.6462312282354
 11
544.0226472825786
 21
446.6759865556805
 72
     1
 10
544.0226472825786
 20
446.6759865556805
 11
543.8311330000024
 21
445.7131792395791
 72
     1
 10
543.8311330000024
 20
445.7131792395791
 11
543.5978039313079
 21
444.7596420383797
 72
     1
 10
543.5978039313079
 20
444.7596420383797
 11
543.3231042316389
 21
443.8171900643402
 72
     1
 10
543.3231042316389
 20
443.8171900643402
 11
543.0075568074868
 21
442.8876173283588
 72
     1
 10
543.0075568074868
 20
442.8876173283588
 11
542.6517623213077
 21
441.9726933249717
 72
     1
 10
542.6517623213077
 20
441.9726933249717
 11
542.2563980481284
 21
441.0741596640205
 72
     1
 10
542.2563980481284
 20
441.0741596640205
 11
541.8222165863137
 21
440.1937267553979
 72
     1
 10
541.8222165863137
 20
440.1937267553979
 11
541.3500444249536
 21
439.3330705531861
 72
     1
 10
541.3500444249536
 20
439.3330705531861
 11
540.8407803705936
 21
438.4938293653826
 72
     1
 10
540.8407803705936
 20
438.4938293653826
 11
540.295393836306
 21
437.6776007352875
 72
     1
 10
540.295393836306
 20
437.6776007352875
 11
539.7149229963564
 21
436.8859384004898
 72
     1
 10
539.7149229963564
 20
436.8859384004898
 11
539.1004728099806
 21
436.1203493352389
 72
     1
 10
539.1004728099806
 20
436.1203493352389
 11
538.4532129180313
 21
435.3822908818336
 72
     1
 10
538.4532129180313
 20
435.3822908818336
 11
537.7743754165009
 21
434.6731679764886
 72
     1
 10
537.7743754165009
 20
434.6731679764886
 11
537.0652525111559
 21
433.9943304749581
 72
     1
 10
537.0652525111559
 20
433.9943304749581
 11
536.3271940577506
 21
433.3470705830089
 72
     1
 10
536.3271940577506
 20
433.3470705830089
 11
535.5616049924996
 21
432.732620396633
 72
     1
 10
535.5616049924996
 20
432.732620396633
 11
534.7699426577019
 21
432.1521495566835
 72
     1
 10
534.7699426577019
 20
432.1521495566835
 11
533.9537140276069
 21
431.6067630223959
 72
     1
 10
533.9537140276069
 20
431.6067630223959
 11
533.1144728398033
 21
431.0974989680359
 72
     1
 10
533.1144728398033
 20
431.0974989680359
 11
532.2538166375915
 21
430.6253268066758
 72
     1
 10
532.2538166375915
 20
430.6253268066758
 11
531.373383728969
 21
430.1911453448611
 72
     1
 10
531.373383728969
 20
430.1911453448611
 11
530.4748500680176
 21
429.7957810716817
 72
     1
 10
530.4748500680176
 20
429.7957810716817
 11
529.5599260646306
 21
429.4399865855028
 72
     1
 10
529.5599260646306
 20
429.4399865855028
 11
528.6303533286492
 21
429.1244391613506
 72
     1
 10
528.6303533286492
 20
429.1244391613506
 11
527.6879013546097
 21
428.8497394616817
 72
     1
 10
527.6879013546097
 20
428.8497394616817
 11
526.7343641534103
 21
428.6164103929872
 72
     1
 10
526.7343641534103
 20
428.6164103929872
 11
525.7715568373088
 21
428.424896110411
 72
     1
 10
525.7715568373088
 20
428.424896110411
 11
524.801312164754
 21
428.2755611722749
 72
     1
 10
524.801312164754
 20
428.2755611722749
 11
523.8254770516252
 21
428.1686898461214
 72
     1
 10
523.8254770516252
 20
428.1686898461214
 11
522.8459090555228
 21
428.1044855675939
 72
     1
 10
522.8459090555228
 20
428.1044855675939
 11
521.8644728398027
 21
428.0830705531857
 72
     1
 10
521.8644728398167
 20
428.0830705531844
 11
521.8644728398167
 21
250.5830705532007
 72
     1
 10
521.8644728398167
 20
250.5830705532007
 11
721.8644728398167
 21
250.5830705532007
 72
     1
 10
721.8644728398167
 20
250.5830705532007
 11
721.8644728398167
 21
450.5830705532007
 97
        0
 75
     0
 76
     2
 52
0.0
 41
0.3333333333333333
 77
     0
 78
     2
 53
45.0
 43
-3699.559753911371
 44
8335.263575368725
 45
-10.10278813620243
 46
10.10278813620243
 79
     0
 53
135.0
 43
-3699.559753911371
 44
8335.263575368725
 45
-10.10278813620289
 46
-10.10278813620243
 79
     0
 98
        0
  0
DIMENSION
  5
1A7
330
1F
100
AcDbEntity
  8
8
  6
CONTINUOUS
 62
     4
100
AcDbDimension
  2
DIM1
 10
609.3644728398167
 20
185.3842513769505
 30
0.0
 11
521.8644728398167
 21
185.3842513769505
 31
0.0
 70
   160
  1
<>
  3
STANDARD
100
AcDbAlignedDimension
 13
434.3644728398167
 23
219.4830705532004
 33
0.0
 14
609.3644728398167
 24
219.4830705532004
 34
0.0
100
AcDbRotatedDimension
1001
ACAD
1000
DSTYLE
1002
{
1070
   287
1070
     4
1070
     7
1000

1070
     6
1000

1070
   279
1070
     1
1070
   340
1005
19D
1070
   140
1040
9.0
1070
    40
1040
1.0
1070
   147
1040
0.0
1070
    76
1070
     0
1070
    75
1070
     0
1070
   173
1070
     1
1070
   289
1070
     2
1070
   288
1070
     1
1070
    77
1070
     1
1070
   172
1070
     1
1070
   174
1070
     0
1070
    74
1070
     0
1070
    73
1070
     0
1070
   284
1070
     8
1070
    78
1070
     8
1070
    42
1040
3.0
1070
    44
1040
4.5
1070
    43
1040
30.0
1070
   271
1070
     2
1070
    41
1040
6.0
1002
}
  0
DIMENSION
  5
1B1
330
1F
100
AcDbEntity
  8
8
  6
CONTINUOUS
 62
     4
100
AcDbDimension
  2
DIM2
 10
696.8644728398166
 20
160.3842513769505
 30
0.0
 11
521.8644728398167
 21
160.3842513769505
 31
0.0
 70
   160
  1
<>
  3
STANDARD
100
AcDbAlignedDimension
 13
346.8644728398167
 23
219.4830705532004
 33
0.0
 14
696.8644728398167
 24
219.4830705532004
 34
0.0
100
AcDbRotatedDimension
1001
ACAD
1000
DSTYLE
1002
{
1070
   287
1070
     4
1070
     7
1000

1070
     6
1000

1070
   279
1070
     1
1070
   340
1005
19D
1070
   140
1040
9.0
1070
    40
1040
1.0
1070
   147
1040
0.0
1070
    76
1070
     0
1070
    75
1070
     0
1070
   173
1070
     1
1070
   289
1070
     2
1070
   288
1070
     1
1070
    77
1070
     1
1070
   172
1070
     1
1070
   174
1070
     0
1070
    74
1070
     0
1070
    73
1070
     0
1070
   284
1070
     8
1070
    78
1070
     8
1070
    42
1040
3.0
1070
    44
1040
4.5
1070
    43
1040
30.0
1070
   271
1070
     2
1070
    41
1040
6.0
1002
}
  0
DIMENSION
  5
1BB
330
1F
100
AcDbEntity
  8
8
  6
CONTINUOUS
 62
     4
100
AcDbDimension
  2
DIM3
 10
721.8644728398165
 20
135.3842513769505
 30
0.0
 11
521.8644728398167
 21
135.3842513769505
 31
0.0
 70
   160
  1
<>
  3
STANDARD
100
AcDbAlignedDimension
 13
321.8644728398167
 23
250.5830705532007
 33
0.0
 14
721.8644728398167
 24
250.5830705532007
 34
0.0
100
AcDbRotatedDimension
1001
ACAD
1000
DSTYLE
1002
{
1070
   287
1070
     4
1070
     7
1000

1070
     6
1000

1070
   279
1070
     1
1070
   340
1005
19D
1070
   140
1040
9.0
1070
    40
1040
1.0
1070
   147
1040
0.0
1070
    76
1070
     0
1070
    75
1070
     0
1070
   173
1070
     1
1070
   289
1070
     2
1070
   288
1070
     1
1070
    77
1070
     1
1070
   172
1070
     1
1070
   174
1070
     0
1070
    74
1070
     0
1070
    73
1070
     0
1070
   284
1070
     8
1070
    78
1070
     8
1070
    42
1040
3.0
1070
    44
1040
4.5
1070
    43
1040
30.0
1070
   271
1070
     2
1070
    41
1040
6.0
1002
}
  0
DIMENSION
  5
1C5
330
1F
100
AcDbEntity
  8
8
  6
CONTINUOUS
 62
     4
100
AcDbDimension
  2
DIM4
 10
736.8644728398165
 20
110.3842513769505
 30
0.0
 11
521.8644728398167
 21
110.3842513769505
 31
0.0
 70
   160
  1
<>
  3
STANDARD
100
AcDbAlignedDimension
 13
306.8644728398167
 23
235.5830705532007
 33
0.0
 14
736.8644728398167
 24
235.5830705532007
 34
0.0
100
AcDbRotatedDimension
1001
ACAD
1000
DSTYLE
1002
{
1070
   287
1070
     4
1070
     7
1000

1070
     6
1000

1070
   279
1070
     1
1070
   340
1005
19D
1070
   140
1040
9.0
1070
    40
1040
1.0
1070
   147
1040
0.0
1070
    76
1070
     0
1070
    75
1070
     0
1070
   173
1070
     1
1070
   289
1070
     2
1070
   288
1070
     1
1070
    77
1070
     1
1070
   172
1070
     1
1070
   174
1070
     0
1070
    74
1070
     0
1070
    73
1070
     0
1070
   284
1070
     8
1070
    78
1070
     8
1070
    42
1040
3.0
1070
    44
1040
4.5
1070
    43
1040
30.0
1070
   271
1070
     2
1070
    41
1040
6.0
1002
}
  0
DIMENSION
  5
1CF
330
1F
100
AcDbEntity
  8
8
  6
CONTINUOUS
 62
     4
100
AcDbDimension
  2
DIM5
 10
773.0845367935644
 20
250.5830705532005
 30
0.0
 11
773.0845367935644
 21
450.5830705532017
 31
0.0
 70
   160
  1
<>
 53
89.99999999999991
  3
STANDARD
100
AcDbAlignedDimension
 13
721.8644728398167
 23
650.5830705532007
 33
0.0
 14
721.8644728398167
 24
250.5830705532007
 34
0.0
 50
-89.99999999999991
100
AcDbRotatedDimension
1001
ACAD
1000
DSTYLE
1002
{
1070
   287
1070
     4
1070
     7
1000

1070
     6
1000

1070
   279
1070
     1
1070
   340
1005
19D
1070
   140
1040
9.0
1070
    40
1040
1.0
1070
   147
1040
0.0
1070
    76
1070
     0
1070
    75
1070
     0
1070
   173
1070
     1
1070
   289
1070
     2
1070
   288
1070
     1
1070
    77
1070
     1
1070
   172
1070
     1
1070
   174
1070
     0
1070
    74
1070
     0
1070
    73
1070
     0
1070
   284
1070
     8
1070
    78
1070
     8
1070
    42
1040
3.0
1070
    44
1040
4.5
1070
    43
1040
30.0
1070
   271
1070
     2
1070
    41
1040
6.0
1002
}
  0
DIMENSION
  5
1D9
330
1F
100
AcDbEntity
  8
8
  6
CONTINUOUS
 62
     4
100
AcDbDimension
  2
DIM6
 10
798.0845367935635
 20
235.5830705532005
 30
0.0
 11
798.0845367935635
 21
450.5830705532007
 31
0.0
 70
   160
  1
<>
 53
89.99999999999991
  3
STANDARD
100
AcDbAlignedDimension
 13
736.8644728398167
 23
665.5830705532007
 33
0.0
 14
736.8644728398167
 24
235.5830705532007
 34
0.0
 50
-89.99999999999991
100
AcDbRotatedDimension
1001
ACAD
1000
DSTYLE
1002
{
1070
   287
1070
     4
1070
     7
1000

1070
     6
1000

1070
   279
1070
     1
1070
   340
1005
19D
1070
   140
1040
9.0
1070
    40
1040
1.0
1070
   147
1040
0.0
1070
    76
1070
     0
1070
    75
1070
     0
1070
   173
1070
     1
1070
   289
1070
     2
1070
   288
1070
     1
1070
    77
1070
     1
1070
   172
1070
     1
1070
   174
1070
     0
1070
    74
1070
     0
1070
    73
1070
     0
1070
   284
1070
     8
1070
    78
1070
     8
1070
    42
1040
3.0
1070
    44
1040
4.5
1070
    43
1040
30.0
1070
   271
1070
     2
1070
    41
1040
6.0
1002
}
  0
DIMENSION
  5
1E1
330
1F
100
AcDbEntity
  8
8
  6
CONTINUOUS
 62
     4
100
AcDbDimension
  2
DIM7
 10
536.2749415955304
 20
440.6539018951231
 30
0.0
 11
274.773849766388
 21
626.2993857712223
 31
0.0
 70
   163
  1
\U+2205<>
  3
STANDARD
100
AcDbDiametricDimension
 15
507.454004084076
 25
460.5122392112435
 35
0.0
 40
0.0
1001
ACAD
1000
DSTYLE
1002
{
1070
   287
1070
     2
1070
     7
1000

1070
     6
1000

1070
   340
1005
19D
1070
   140
1040
9.0
1070
    40
1040
1.0
1070
   147
1040
0.0
1070
    76
1070
     0
1070
    75
1070
     0
1070
   173
1070
     1
1070
   289
1070
     2
1070
   288
1070
     1
1070
    77
1070
     1
1070
   172
1070
     1
1070
   174
1070
     0
1070
    74
1070
     0
1070
    73
1070
     0
1070
   284
1070
     8
1070
    78
1070
     8
1070
    42
1040
3.0
1070
    44
1040
4.5
1070
    43
1040
30.0
1070
   271
1070
     2
1070
    41
1040
6.0
1002
}
  0
DIMENSION
  5
1E9
330
1F
100
AcDbEntity
  8
8
  6
CONTINUOUS
 62
     4
100
AcDbDimension
  2
DIM8
 10
542.6791340833589
 20
442.0390739874076
 30
0.0
 11
269.5778917525492
 21
559.0059584394821
 31
0.0
 70
   163
  1
\U+2205<>
  3
STANDARD
100
AcDbDiametricDimension
 15
501.0498115962482
 25
459.127067118963
 35
0.0
 40
0.0
1001
ACAD
1000
DSTYLE
1002
{
1070
   287
1070
     2
1070
     7
1000

1070
     6
1000

1070
   340
1005
19D
1070
   140
1040
9.0
1070
    40
1040
1.0
1070
   147
1040
0.0
1070
    76
1070
     0
1070
    75
1070
     0
1070
   173
1070
     1
1070
   289
1070
     2
1070
   288
1070
     1
1070
    77
1070
     1
1070
   172
1070
     1
1070
   174
1070
     0
1070
    74
1070
     0
1070
    73
1070
     0
1070
   284
1070
     8
1070
    78
1070
     8
1070
    42
1040
3.0
1070
    44
1040
4.5
1070
    43
1040
30.0
1070
   271
1070
     2
1070
    41
1040
6.0
1002
}
  0
INSERT
  5
1EA
330
1F
100
AcDbEntity
  8
8
  6
CONTINUOUS
 62
     4
100
AcDbBlockReference
  2
_OPEN
 10
698.3218501576093
 20
676.3191354927776
 30
0.0
 41
12.0
 42
12.0
 43
12.0
 50
241.9578023649545
  0
POLYLINE
  5
1EB
330
1F
100
AcDbEntity
  8
8
  6
CONTINUOUS
 62
     4
100
AcDb2dPolyline
 66
     1
 10
0.0
 20
0.0
 30
0.0
  0
VERTEX
  5
1EC
330
1EB
100
AcDbEntity
  8
8
  6
CONTINUOUS
 62
     4
100
AcDbVertex
100
AcDb2dVertex
 10
698.3218501576093
 20
676.3191354927776
 30
0.0
  0
VERTEX
  5
1ED
330
1EB
100
AcDbEntity
  8
8
  6
CONTINUOUS
 62
     4
100
AcDbVertex
100
AcDb2dVertex
 10
725.1258777998546
 20
726.64073675285
 30
0.0
  0
VERTEX
  5
1EE
330
1EB
100
AcDbEntity
  8
8
  6
CONTINUOUS
 62
     4
100
AcDbVertex
100
AcDb2dVertex
 10
756.8458777998546
 20
726.64073675285
 30
0.0
  0
SEQEND
  5
1EF
330
1EB
100
AcDbEntity
  8
8
  6
CONTINUOUS
 62
     4
  0
MTEXT
  5
1F0
330
1F
100
AcDbEntity
  8
8
  6
CONTINUOUS
 62
     4
100
AcDbMText
 10
729.8458777998546
 20
726.64073675285
 30
0.0
 40
9.0
 41
38.24970281414999
 71
     7
 72
     1
  1
{\fＭＳ ゴシック;\T0.760103;8-\U+00D86.2}
1001
ACAD
1000
ACAD_MTEXT_DEFINED_HEIGHT_BEGIN
1070
    46
1040
9.0
1000
ACAD_MTEXT_DEFINED_HEIGHT_END
  0
DIMENSION
  5
1FA
330
1F
100
AcDbEntity
  8
8
  6
CONTINUOUS
 62
     4
100
AcDbDimension
  2
DIM9
 10
971.7216908577565
 20
160.3842513769505
 30
0.0
 11
949.2216908577566
 21
160.3842513769505
 31
0.0
 70
   160
  1
<>
  3
STANDARD
100
AcDbAlignedDimension
 13
926.7216908577566
 23
235.5830705532007
 33
0.0
 14
971.7216908577566
 24
220.5830705532007
 34
0.0
100
AcDbRotatedDimension
1001
ACAD
1000
DSTYLE
1002
{
1070
   287
1070
     4
1070
     7
1000

1070
     6
1000

1070
   279
1070
     1
1070
   340
1005
19D
1070
   140
1040
9.0
1070
    40
1040
1.0
1070
   147
1040
0.0
1070
    76
1070
     0
1070
    75
1070
     0
1070
   173
1070
     1
1070
   289
1070
     2
1070
   288
1070
     1
1070
    77
1070
     1
1070
   172
1070
     1
1070
   174
1070
     0
1070
    74
1070
     0
1070
    73
1070
     0
1070
   284
1070
     8
1070
    78
1070
     8
1070
    42
1040
3.0
1070
    44
1040
4.5
1070
    43
1040
30.0
1070
   271
1070
     2
1070
    41
1040
6.0
1002
}
  0
DIMENSION
  5
204
330
1F
100
AcDbEntity
  8
8
  6
CONTINUOUS
 62
     4
100
AcDbDimension
  2
DIM10
 10
971.7216908577565
 20
185.3842513769505
 30
0.0
 11
988.2216908577566
 21
185.3842513769505
 31
0.0
 70
   160
  1
<>
  3
STANDARD
100
AcDbAlignedDimension
 13
970.7216908577566
 23
220.5830705532007
 33
0.0
 14
971.7216908577566
 24
220.5830705532007
 34
0.0
100
AcDbRotatedDimension
1001
ACAD
1000
DSTYLE
1002
{
1070
   287
1070
     4
1070
     7
1000

1070
     6
1000

1070
   279
1070
     1
1070
   340
1005
19D
1070
   140
1040
9.0
1070
    40
1040
1.0
1070
   147
1040
0.0
1070
    76
1070
     0
1070
    75
1070
     0
1070
   173
1070
     1
1070
   289
1070
     2
1070
   288
1070
     1
1070
    77
1070
     1
1070
   172
1070
     1
1070
   174
1070
     0
1070
    74
1070
     0
1070
    73
1070
     0
1070
   284
1070
     8
1070
    78
1070
     8
1070
    42
1040
3.0
1070
    44
1040
4.5
1070
    43
1040
30.0
1070
   271
1070
     2
1070
    41
1040
6.0
1002
}
  0
DIMENSION
  5
20E
330
1F
100
AcDbEntity
  8
8
  6
CONTINUOUS
 62
     4
100
AcDbDimension
  2
DIM11
 10
938.2216908577557
 20
718.6478616185395
 30
0.0
 11
954.9716908577561
 21
718.6478616185395
 31
0.0
 70
   160
  1
<>
  3
STANDARD
100
AcDbAlignedDimension
 13
971.7216908577566
 23
680.5830705532007
 33
0.0
 14
938.2216908577557
 24
700.5830705532007
 34
0.0
 50
179.9999999999998
100
AcDbRotatedDimension
1001
ACAD
1000
DSTYLE
1002
{
1070
   287
1070
     4
1070
     7
1000

1070
     6
1000

1070
   279
1070
     1
1070
   340
1005
19D
1070
   140
1040
9.0
1070
    40
1040
1.0
1070
   147
1040
0.0
1070
    76
1070
     0
1070
    75
1070
     0
1070
   173
1070
     1
1070
   289
1070
     2
1070
   288
1070
     1
1070
    77
1070
     1
1070
   172
1070
     1
1070
   174
1070
     0
1070
    74
1070
     0
1070
    73
1070
     0
1070
   284
1070
     8
1070
    78
1070
     8
1070
    42
1040
3.0
1070
    44
1040
4.5
1070
    43
1040
30.0
1070
   271
1070
     2
1070
    41
1040
6.0
1002
}
  0
DIMENSION
  5
218
330
1F
100
AcDbEntity
  8
8
  6
CONTINUOUS
 62
     4
100
AcDbDimension
  2
DIM12
 10
848.0845367935608
 20
680.5830705532003
 30
0.0
 11
848.0845367935608
 21
690.5830705532007
 31
0.0
 70
   160
  1
<>
 53
89.99999999999991
  3
STANDARD
100
AcDbAlignedDimension
 13
544.8644728398149
 23
700.5830705532007
 33
0.0
 14
716.8644728398176
 24
680.5830705532007
 34
0.0
 50
-89.99999999999991
100
AcDbRotatedDimension
1001
ACAD
1000
DSTYLE
1002
{
1070
   287
1070
     4
1070
     7
1000

1070
     6
1000

1070
   279
1070
     1
1070
   340
1005
19D
1070
   140
1040
9.0
1070
    40
1040
1.0
1070
   147
1040
0.0
1070
    76
1070
     0
1070
    75
1070
     0
1070
   173
1070
     1
1070
   289
1070
     2
1070
   288
1070
     1
1070
    77
1070
     1
1070
   172
1070
     1
1070
   174
1070
     0
1070
    74
1070
     0
1070
    73
1070
     0
1070
   284
1070
     8
1070
    78
1070
     8
1070
    42
1040
3.0
1070
    44
1040
4.5
1070
    43
1040
30.0
1070
   271
1070
     2
1070
    41
1040
6.0
1002
}
  0
DIMENSION
  5
222
330
1F
100
AcDbEntity
  8
8
  6
CONTINUOUS
 62
     4
100
AcDbDimension
  2
DIM13
 10
823.0845367935626
 20
227.5830705532003
 30
0.0
 11
823.0845367935626
 21
450.5830705532007
 31
0.0
 70
   160
  1
<>
 53
89.99999999999991
  3
STANDARD
100
AcDbAlignedDimension
 13
704.9644728398171
 23
673.5830705532007
 33
0.0
 14
704.9644728398171
 24
227.5830705532007
 34
0.0
 50
-89.99999999999991
100
AcDbRotatedDimension
1001
ACAD
1000
DSTYLE
1002
{
1070
   287
1070
     4
1070
     7
1000

1070
     6
1000

1070
   279
1070
     1
1070
   340
1005
19D
1070
   140
1040
9.0
1070
    40
1040
1.0
1070
   147
1040
0.0
1070
    76
1070
     0
1070
    75
1070
     0
1070
   173
1070
     1
1070
   289
1070
     2
1070
   288
1070
     1
1070
    77
1070
     1
1070
   172
1070
     1
1070
   174
1070
     0
1070
    74
1070
     0
1070
    73
1070
     0
1070
   284
1070
     8
1070
    78
1070
     8
1070
    42
1040
3.0
1070
    44
1040
4.5
1070
    43
1040
30.0
1070
   271
1070
     2
1070
    41
1040
6.0
1002
}
  0
DIMENSION
  5
22C
330
1F
100
AcDbEntity
  8
8
  6
CONTINUOUS
 62
     4
100
AcDbDimension
  2
DIM14
 10
848.0845367935617
 20
220.5830705532013
 30
0.0
 11
848.0845367935617
 21
450.5830705532017
 31
0.0
 70
   160
  1
<>
 53
89.99999999999991
  3
STANDARD
100
AcDbAlignedDimension
 13
716.8644728398167
 23
680.5830705532007
 33
0.0
 14
716.8644728398167
 24
220.5830705532017
 34
0.0
 50
-89.99999999999991
100
AcDbRotatedDimension
1001
ACAD
1000
DSTYLE
1002
{
1070
   287
1070
     4
1070
     7
1000

1070
     6
1000

1070
   279
1070
     1
1070
   340
1005
19D
1070
   140
1040
9.0
1070
    40
1040
1.0
1070
   147
1040
0.0
1070
    76
1070
     0
1070
    75
1070
     0
1070
   173
1070
     1
1070
   289
1070
     2
1070
   288
1070
     1
1070
    77
1070
     1
1070
   172
1070
     1
1070
   174
1070
     0
1070
    74
1070
     0
1070
    73
1070
     0
1070
   284
1070
     8
1070
    78
1070
     8
1070
    42
1040
3.0
1070
    44
1040
4.5
1070
    43
1040
30.0
1070
   271
1070
     2
1070
    41
1040
6.0
1002
}
  0
VIEWPORT
  5
3F
330
1B
100
AcDbEntity
 67
     1
  8
0
100
AcDbViewport
 10
630.0
 20
445.5
 30
0.0
 40
1260.0
 41
891.0
 68
     1
 69
     1
1001
ACAD
1000
MVIEW
1002
{
1070
    16
1010
0.0
1020
0.0
1030
0.0
1010
0.0
1020
0.0
1030
1.0
1040
0.0
1040
9.0
1040
630.0
1040
445.5
1040
50.0
1040
0.0
1040
0.0
1070
     0
1070
   100
1070
     0
1070
     3
1070
     0
1070
     0
1070
     0
1070
     0
1040
0.0
1040
0.0
1040
0.0
1040
0.5
1040
0.5
1040
0.5
1040
0.5
1070
     0
1002
{
1002
}
1002
}
  0
ENDSEC
  0
SECTION
  2
OBJECTS
  0
DICTIONARY
  5
C
330
0
100
AcDbDictionary
  3
ACAD_GROUP
350
D
  3
ACAD_LAYOUT
350
1A
  3
ACAD_MATERIAL
350
3B
  3
ACAD_MLEADERSTYLE
350
24F
  3
ACAD_MLINESTYLE
350
17
  3
ACAD_PLOTSETTINGS
350
19
  3
ACAD_VISUALSTYLE
350
2A
  3
ACDBHEADERROUNDTRIPXREC
350
22D
  3
ACDBVARIABLEDICTIONARY
350
24D
  0
DICTIONARY
  5
D
102
{ACAD_REACTORS
330
C
102
}
330
C
100
AcDbDictionary
  0
DICTIONARY
  5
1A
102
{ACAD_REACTORS
330
C
102
}
330
C
100
AcDbDictionary
  0
DICTIONARY
  5
3B
102
{ACAD_REACTORS
330
C
102
}
330
C
100
AcDbDictionary
  3
BYBLOCK
350
3D
  3
BYLAYER
350
3C
  3
GLOBAL
350
3E
  0
DICTIONARY
  5
24F
102
{ACAD_REACTORS
330
C
102
}
330
C
100
AcDbDictionary
  0
DICTIONARY
  5
17
102
{ACAD_REACTORS
330
C
102
}
330
C
100
AcDbDictionary
  3
STANDARD
350
18
  0
DICTIONARY
  5
19
102
{ACAD_REACTORS
330
C
102
}
330
C
100
AcDbDictionary
  0
DICTIONARY
  5
2A
102
{ACAD_REACTORS
330
C
102
}
330
C
100
AcDbDictionary
  3
2DWIREFRAME
350
2F
  3
3D_HIDDEN
350
31
  3
3DWIREFRAME
350
30
  3
BASIC
350
32
  3
BRIGHTEN
350
36
  3
COLORCHANGE
350
3A
  3
CONCEPTUAL
350
34
  3
DIM
350
35
  3
FACEPATTERN
350
39
  3
FLAT
350
2B
  3
FLATWITHEDGES
350
2C
  3
GOURAUD
350
2D
  3
GOURAUDWITHEDGES
350
2E
  3
LINEPATTERN
350
38
  3
REALISTIC
350
33
  3
THICKEN
350
37
  0
DICTIONARY
  5
22D
102
{ACAD_REACTORS
330
C
102
}
330
C
100
AcDbDictionary
  3
CEPSNTYPE
350
236
  3
DIMSTYLEDATA
350
24C
  3
FINGERPRINTGUID
350
237
  3
HYPERLINKBASE
350
230
  3
INSUNITS
350
235
  3
LAYOUTDICT
350
232
  3
LWETCUNION
350
234
  3
PLOTSETDICT
350
233
  3
PSVPSCALE
350
239
  3
PUCSBASE
350
23C
  3
PUCSORGBACK
350
242
  3
PUCSORGBOTTOM
350
23E
  3
PUCSORGFRONT
350
241
  3
PUCSORGLEFT
350
23F
  3
PUCSORGRIGHT
350
240
  3
PUCSORGTOP
350
23D
  3
PUCSORTHOREF
350
23A
  3
PUCSORTHOVIEW
350
23B
  3
STYLESHEET
350
231
  3
TSTACKALIGN
350
22E
  3
TSTACKSIZE
350
22F
  3
UCSBASE
350
245
  3
UCSORGBACK
350
24B
  3
UCSORGBOTTOM
350
247
  3
UCSORGFRONT
350
24A
  3
UCSORGLEFT
350
248
  3
UCSORGRIGHT
350
249
  3
UCSORGTOP
350
246
  3
UCSORTHOREF
350
243
  3
UCSORTHOVIEW
350
244
  3
VERSIONGUID
350
238
  0
DICTIONARY
  5
24D
102
{ACAD_REACTORS
330
C
102
}
330
C
100
AcDbDictionary
  3
DIMASSOC
350
250
  3
HIDETEXT
350
251
  0
MATERIAL
  5
3D
102
{ACAD_REACTORS
330
3B
102
}
102
{ACAD_XDICTIONARY
360
254
102
}
330
3B
100
AcDbMaterial
  1
ByBlock
  0
MATERIAL
  5
3C
102
{ACAD_REACTORS
330
3B
102
}
102
{ACAD_XDICTIONARY
360
252
102
}
330
3B
100
AcDbMaterial
  1
ByLayer
  0
MATERIAL
  5
3E
102
{ACAD_REACTORS
330
3B
102
}
102
{ACAD_XDICTIONARY
360
256
102
}
330
3B
100
AcDbMaterial
  1
Global
  0
MLINESTYLE
  5
18
102
{ACAD_REACTORS
330
17
102
}
330
17
100
AcDbMlineStyle
  2
Standard
 70
     0
  3

 62
   256
 51
90.0
 52
90.0
 71
     2
 49
0.5
 62
   256
  6
BYLAYER
 49
-0.5
 62
   256
  6
BYLAYER
  0
ACAD_PROXY_OBJECT
  5
2F
102
{ACAD_REACTORS
330
2A
102
}
330
2A
100
AcDbProxyObject
 90
      499
 91
      501
 93
      436
310
42CC9915DA5C99599C985B595049028333333333333E3BF0000000000000FB0107901411070040501600405405064090741402480A0340
1001
ACAD
1000
AcDbSavedByObjectVersion
1070
     0
  0
ACAD_PROXY_OBJECT
  5
31
102
{ACAD_REACTORS
330
2A
102
}
330
2A
100
AcDbProxyObject
 90
      499
 91
      501
 93
      500
310
424CD108121A5919195B90640502408333333333333E3BF0000000000000FB01079024090700405020000000000001110200405405064090740C02480A0340
1001
ACAD
1000
AcDbSavedByObjectVersion
1070
     0
  0
ACAD_PROXY_OBJECT
  5
30
102
{ACAD_REACTORS
330
2A
102
}
330
2A
100
AcDbProxyObject
 90
      499
 91
      501
 93
      436
310
42CCD915DA5C99599C985B595059028333333333333E3BF0000000000000FB0107901411070040501600405405064090741402480A0340
1001
ACAD
1000
AcDbSavedByObjectVersion
1070
     0
  0
ACAD_PROXY_OBJECT
  5
32
102
{ACAD_REACTORS
330
2A
102
}
330
2A
100
AcDbProxyObject
 90
      499
 91
      501
 93
      388
310
4150985CDA58D07406404333333333333E3BF0000000000000FB0107A41107004050150841D405064090741402480A0350
1001
ACAD
1000
AcDbSavedByObjectVersion
1070
     0
  0
ACAD_PROXY_OBJECT
  5
36
102
{ACAD_REACTORS
330
2A
102
}
330
2A
100
AcDbProxyObject
 90
      499
 91
      501
 93
      428
310
42109C9A59DA1D195B90C409028333333333333E3BF0000000000000FB010790141107004050150841D405064090741402480A029950
1001
ACAD
1000
AcDbSavedByObjectVersion
1070
     0
  0
ACAD_PROXY_OBJECT
  5
3A
102
{ACAD_REACTORS
330
2A
102
}
330
2A
100
AcDbProxyObject
 90
      499
 91
      501
 93
      452
310
42D0DBDB1BDC90DA185B99D95104090240C333333333333E3BF0000000000000FB0108901411070040501508421405064090741402480A0350
1001
ACAD
1000
AcDbSavedByObjectVersion
1070
     0
  0
ACAD_PROXY_OBJECT
  5
34
102
{ACAD_REACTORS
330
2A
102
}
330
2A
100
AcDbProxyObject
 90
      499
 91
      501
 93
      500
310
4290DBDB98D95C1D1D585B10940D028333333333333E3BF0000000000000FB0107902409070040501000000000000111010841D405064090740C02480A0340
1001
ACAD
1000
AcDbSavedByObjectVersion
1070
     0
  0
ACAD_PROXY_OBJECT
  5
35
102
{ACAD_REACTORS
330
2A
102
}
330
2A
100
AcDbProxyObject
 90
      499
 91
      501
 93
      412
310
40D11A5B50B409028333333333333E3BF0000000000000FB010790141107004050150841D405064090741402480A02677FFFFFD0
1001
ACAD
1000
AcDbSavedByObjectVersion
1070
     0
  0
ACAD_PROXY_OBJECT
  5
39
102
{ACAD_REACTORS
330
2A
102
}
330
2A
100
AcDbProxyObject
 90
      499
 91
      501
 93
      444
310
42D19858D95C185D1D195C9B90F409028333333333333E3BF0000000000000FB010790141107004050150841D405064090741402480A0350
1001
ACAD
1000
AcDbSavedByObjectVersion
1070
     0
  0
ACAD_PROXY_OBJECT
  5
2B
102
{ACAD_REACTORS
330
2A
102
}
330
2A
100
AcDbProxyObject
 90
      499
 91
      501
 93
      388
310
41119B185D240901404333333333333E3BF0000000000000F9010740A41107004050150841D405064090741402480A1B50
1001
ACAD
1000
AcDbSavedByObjectVersion
1070
     0
  0
ACAD_PROXY_OBJECT
  5
2C
102
{ACAD_REACTORS
330
2A
102
}
330
2A
100
AcDbProxyObject
 90
      499
 91
      501
 93
      476
310
43519B185D15DA5D1A115919D95CD0140901404333333333333E3BF0000000000000F9010740901411070040501600405405064090741402480A1B50
1001
ACAD
1000
AcDbSavedByObjectVersion
1070
     0
  0
ACAD_PROXY_OBJECT
  5
2D
102
{ACAD_REACTORS
330
2A
102
}
330
2A
100
AcDbProxyObject
 90
      499
 91
      501
 93
      412
310
41D1DBDD5C985D5910240902404333333333333E3BF0000000000000F9010740A411070040501641D405064090741402480A1B50
1001
ACAD
1000
AcDbSavedByObjectVersion
1070
     0
  0
ACAD_PROXY_OBJECT
  5
2E
102
{ACAD_REACTORS
330
2A
102
}
330
2A
100
AcDbProxyObject
 90
      499
 91
      501
 93
      500
310
4411DBDD5C985D5915DA5D1A115919D95CD0340902404333333333333E3BF0000000000000F9010740901411070040501600405405064090741402480A1B50
1001
ACAD
1000
AcDbSavedByObjectVersion
1070
     0
  0
ACAD_PROXY_OBJECT
  5
38
102
{ACAD_REACTORS
330
2A
102
}
330
2A
100
AcDbProxyObject
 90
      499
 91
      501
 93
      444
310
42D31A5B995C185D1D195C9B90E409028333333333333E3BF0000000000000FB010790141107004050750841D405064090741402483A0350
1001
ACAD
1000
AcDbSavedByObjectVersion
1070
     0
  0
ACAD_PROXY_OBJECT
  5
33
102
{ACAD_REACTORS
330
2A
102
}
330
2A
100
AcDbProxyObject
 90
      499
 91
      501
 93
      420
310
425499585B1A5CDD1A58D08409028333333333333E3BF0000000000000FB01079019070040501508421405064090741402480A1B40
1001
ACAD
1000
AcDbSavedByObjectVersion
1070
     0
  0
ACAD_PROXY_OBJECT
  5
37
102
{ACAD_REACTORS
330
2A
102
}
330
2A
100
AcDbProxyObject
 90
      499
 91
      501
 93
      412
310
41D51A1A58DAD95B90D409028333333333333E3BF0000000000000FB010790141107004050150C41D405064090741402480A0350
1001
ACAD
1000
AcDbSavedByObjectVersion
1070
     0
  0
XRECORD
  5
236
102
{ACAD_REACTORS
330
22D
102
}
330
22D
100
AcDbXrecord
 90
        0
  0
XRECORD
  5
24C
102
{ACAD_REACTORS
330
22D
102
}
330
22D
100
AcDbXrecord
1000
DSTYLE
1002
{
1070
   171
 70
     2
1070
   143
 40
25.4
1070
   274
 70
     2
1070
    41
 40
1.55291427
1070
   289
 70
     2
1070
   141
 40
0.09
1070
    43
 40
30.0
1070
   278
 70
    46
1070
    44
 40
2.0
1070
    42
 40
2.0
1070
   147
 40
0.09
1070
    77
 70
     3
1070
   272
 70
     4
1070
   146
 40
0.5
1070
   279
 70
     2
1070
   283
 70
     1
1070
   145
 40
0.7
1070
   340
340
11
1070
   140
 40
2.8
1070
   288
 70
     1
1002
}
  0
XRECORD
  5
237
102
{ACAD_REACTORS
330
22D
102
}
330
22D
100
AcDbXrecord
  1
{4448884A-B53E-4A89-99B7-F65D108FA995}
  0
XRECORD
  5
230
102
{ACAD_REACTORS
330
22D
102
}
330
22D
100
AcDbXrecord
  1

  0
XRECORD
  5
235
102
{ACAD_REACTORS
330
22D
102
}
330
22D
100
AcDbXrecord
 90
        4
  0
XRECORD
  5
232
102
{ACAD_REACTORS
330
22D
102
}
330
22D
100
AcDbXrecord
340
1A
  0
XRECORD
  5
234
102
{ACAD_REACTORS
330
22D
102
}
330
22D
100
AcDbXrecord
 90
    10781
  0
XRECORD
  5
233
102
{ACAD_REACTORS
330
22D
102
}
330
22D
100
AcDbXrecord
340
19
  0
XRECORD
  5
239
102
{ACAD_REACTORS
330
22D
102
}
330
22D
100
AcDbXrecord
 40
0.0
  0
XRECORD
  5
23C
102
{ACAD_REACTORS
330
22D
102
}
330
22D
100
AcDbXrecord
340
0
  0
XRECORD
  5
242
102
{ACAD_REACTORS
330
22D
102
}
330
22D
100
AcDbXrecord
 10
0.0
 20
0.0
 30
0.0
  0
XRECORD
  5
23E
102
{ACAD_REACTORS
330
22D
102
}
330
22D
100
AcDbXrecord
 10
0.0
 20
0.0
 30
0.0
  0
XRECORD
  5
241
102
{ACAD_REACTORS
330
22D
102
}
330
22D
100
AcDbXrecord
 10
0.0
 20
0.0
 30
0.0
  0
XRECORD
  5
23F
102
{ACAD_REACTORS
330
22D
102
}
330
22D
100
AcDbXrecord
 10
0.0
 20
0.0
 30
0.0
  0
XRECORD
  5
240
102
{ACAD_REACTORS
330
22D
102
}
330
22D
100
AcDbXrecord
 10
0.0
 20
0.0
 30
0.0
  0
XRECORD
  5
23D
102
{ACAD_REACTORS
330
22D
102
}
330
22D
100
AcDbXrecord
 10
0.0
 20
0.0
 30
0.0
  0
XRECORD
  5
23A
102
{ACAD_REACTORS
330
22D
102
}
330
22D
100
AcDbXrecord
340
0
  0
XRECORD
  5
23B
102
{ACAD_REACTORS
330
22D
102
}
330
22D
100
AcDbXrecord
 70
     0
  0
XRECORD
  5
231
102
{ACAD_REACTORS
330
22D
102
}
330
22D
100
AcDbXrecord
  1

  0
XRECORD
  5
22E
102
{ACAD_REACTORS
330
22D
102
}
330
22D
100
AcDbXrecord
 90
        1
  0
XRECORD
  5
22F
102
{ACAD_REACTORS
330
22D
102
}
330
22D
100
AcDbXrecord
 90
       70
  0
XRECORD
  5
245
102
{ACAD_REACTORS
330
22D
102
}
330
22D
100
AcDbXrecord
340
0
  0
XRECORD
  5
24B
102
{ACAD_REACTORS
330
22D
102
}
330
22D
100
AcDbXrecord
 10
0.0
 20
0.0
 30
0.0
  0
XRECORD
  5
247
102
{ACAD_REACTORS
330
22D
102
}
330
22D
100
AcDbXrecord
 10
0.0
 20
0.0
 30
0.0
  0
XRECORD
  5
24A
102
{ACAD_REACTORS
330
22D
102
}
330
22D
100
AcDbXrecord
 10
0.0
 20
0.0
 30
0.0
  0
XRECORD
  5
248
102
{ACAD_REACTORS
330
22D
102
}
330
22D
100
AcDbXrecord
 10
0.0
 20
0.0
 30
0.0
  0
XRECORD
  5
249
102
{ACAD_REACTORS
330
22D
102
}
330
22D
100
AcDbXrecord
 10
0.0
 20
0.0
 30
0.0
  0
XRECORD
  5
246
102
{ACAD_REACTORS
330
22D
102
}
330
22D
100
AcDbXrecord
 10
0.0
 20
0.0
 30
0.0
  0
XRECORD
  5
243
102
{ACAD_REACTORS
330
22D
102
}
330
22D
100
AcDbXrecord
340
0
  0
XRECORD
  5
244
102
{ACAD_REACTORS
330
22D
102
}
330
22D
100
AcDbXrecord
 70
     0
  0
XRECORD
  5
238
102
{ACAD_REACTORS
330
22D
102
}
330
22D
100
AcDbXrecord
  1
{FAEB1C32-E019-11D5-929B-00C0DF256EC4}
  0
DICTIONARYVAR
  5
250
102
{ACAD_REACTORS
330
24D
102
}
330
24D
100
DictionaryVariables
280
     0
  1
1
  0
DICTIONARYVAR
  5
251
102
{ACAD_REACTORS
330
24D
102
}
330
24D
100
DictionaryVariables
280
     0
  1
1
  0
DICTIONARY
  5
254
330
3D
100
AcDbDictionary
280
     1
  3
ACAD_XREC_ROUNDTRIP
360
255
  0
DICTIONARY
  5
252
330
3C
100
AcDbDictionary
280
     1
  3
ACAD_XREC_ROUNDTRIP
360
253
  0
DICTIONARY
  5
256
330
3E
100
AcDbDictionary
280
     1
  3
ACAD_XREC_ROUNDTRIP
360
257
  0
XRECORD
  5
255
102
{ACAD_REACTORS
330
254
102
}
330
254
100
AcDbXrecord
102
MATERIAL
148
0.0
149
0.0
149
0.0
 93
        0
 94
      127
282
     0
 72
     1
 77
     1
171
     1
175
     1
179
     1
273
     0
  0
XRECORD
  5
253
102
{ACAD_REACTORS
330
252
102
}
330
252
100
AcDbXrecord
102
MATERIAL
148
0.0
149
0.0
149
0.0
 93
        0
 94
      127
282
     0
 72
     1
 77
     1
171
     1
175
     1
179
     1
273
     0
  0
XRECORD
  5
257
102
{ACAD_REACTORS
330
256
102
}
330
256
100
AcDbXrecord
102
MATERIAL
148
0.0
149
0.0
149
0.0
 93
        0
 94
      127
282
     0
 72
     1
 77
     1
171
     1
175
     1
179
     1
273
     0
  0
ENDSEC
  0
EOF
