  0
SECTION
  2
HEADER
  9
$ACADVER
  1
AC1014
  9
$ACADMAINTVER
 70
     9
  9
$DWGCODEPAGE
  3
ANSI_932
  9
$INSBASE
 10
0.0
 20
0.0
 30
0.0
  9
$EXTMIN
 10
40.00001799999791
 20
41.26310844198633
 30
0.0
  9
$EXTMAX
 10
813.2406123690434
 20
407.3047922535935
 30
0.0
  9
$LIMMIN
 10
0.0
 20
0.0
  9
$LIMMAX
 10
420.0
 20
297.0
  9
$ORTHOMODE
 70
     0
  9
$REGENMODE
 70
     1
  9
$FILLMODE
 70
     1
  9
$QTEXTMODE
 70
     0
  9
$MIRRTEXT
 70
     1
  9
$DRAGMODE
 70
     2
  9
$LTSCALE
 40
0.5
  9
$OSMODE
 70
    37
  9
$ATTMODE
 70
     1
  9
$TEXTSIZE
 40
5.6
  9
$TRACEWID
 40
0.05
  9
$TEXTSTYLE
  7
STANDARD
  9
$CLAYER
  8
0
  9
$CELTYPE
  6
BYLAYER
  9
$CECOLOR
 62
   256
  9
$CELTSCALE
 40
1.0
  9
$DELOBJ
 70
     1
  9
$DISPSILH
 70
     0
  9
$DIMSCALE
 40
1.0
  9
$DIMASZ
 40
1.55291427
  9
$DIMEXO
 40
2.0
  9
$DIMDLI
 40
30.0
  9
$DIMRND
 40
0.0
  9
$DIMDLE
 40
0.0
  9
$DIMEXE
 40
2.0
  9
$DIMTP
 40
0.0
  9
$DIMTM
 40
0.0
  9
$DIMTXT
 40
2.8
  9
$DIMCEN
 40
0.09
  9
$DIMTSZ
 40
0.0
  9
$DIMTOL
 70
     0
  9
$DIMLIM
 70
     0
  9
$DIMTIH
 70
     0
  9
$DIMTOH
 70
     0
  9
$DIMSE1
 70
     0
  9
$DIMSE2
 70
     0
  9
$DIMTAD
 70
     3
  9
$DIMZIN
 70
     8
  9
$DIMBLK
  1

  9
$DIMASO
 70
     1
  9
$DIMSHO
 70
     1
  9
$DIMPOST
  1

  9
$DIMAPOST
  1

  9
$DIMALT
 70
     0
  9
$DIMALTD
 70
     2
  9
$DIMALTF
 40
25.4
  9
$DIMLFAC
 40
1.0
  9
$DIMTOFL
 70
     1
  9
$DIMTVP
 40
0.7
  9
$DIMTIX
 70
     0
  9
$DIMSOXD
 70
     0
  9
$DIMSAH
 70
     0
  9
$DIMBLK1
  1

  9
$DIMBLK2
  1

  9
$DIMSTYLE
  2
STANDARD
  9
$DIMCLRD
 70
     0
  9
$DIMCLRE
 70
     0
  9
$DIMCLRT
 70
     0
  9
$DIMTFAC
 40
0.5
  9
$DIMGAP
 40
0.09
  9
$DIMJUST
 70
     0
  9
$DIMSD1
 70
     0
  9
$DIMSD2
 70
     0
  9
$DIMTOLJ
 70
     1
  9
$DIMTZIN
 70
     8
  9
$DIMALTZ
 70
     0
  9
$DIMALTTZ
 70
     0
  9
$DIMFIT
 70
     5
  9
$DIMUPT
 70
     1
  9
$DIMUNIT
 70
     2
  9
$DIMDEC
 70
     2
  9
$DIMTDEC
 70
     4
  9
$DIMALTU
 70
     2
  9
$DIMALTTD
 70
     2
  9
$DIMTXSTY
  7
STANDARD
  9
$DIMAUNIT
 70
     0
  9
$LUNITS
 70
     2
  9
$LUPREC
 70
     4
  9
$SKETCHINC
 40
0.1
  9
$FILLETRAD
 40
0.5
  9
$AUNITS
 70
     0
  9
$AUPREC
 70
     0
  9
$MENU
  1
.
  9
$ELEVATION
 40
0.0
  9
$PELEVATION
 40
0.0
  9
$THICKNESS
 40
0.0
  9
$LIMCHECK
 70
     0
  9
$CHAMFERA
 40
0.5
  9
$CHAMFERB
 40
0.5
  9
$CHAMFERC
 40
1.0
  9
$CHAMFERD
 40
0.0
  9
$SKPOLY
 70
     0
  9
$TDCREATE
 40
2460098.054918982
  9
$TDUPDATE
 40
2460097.679927928
  9
$TDINDWG
 40
0.0000000116
  9
$TDUSRTIMER
 40
0.0000000116
  9
$USRTIMER
 70
     1
  9
$ANGBASE
 50
0.0
  9
$ANGDIR
 70
     0
  9
$PDMODE
 70
     0
  9
$PDSIZE
 40
0.0
  9
$PLINEWID
 40
0.0
  9
$COORDS
 70
     1
  9
$SPLFRAME
 70
     0
  9
$SPLINETYPE
 70
     6
  9
$SPLINESEGS
 70
     8
  9
$ATTDIA
 70
     0
  9
$ATTREQ
 70
     1
  9
$HANDLING
 70
     1
  9
$HANDSEED
  5
2C6
  9
$SURFTAB1
 70
     6
  9
$SURFTAB2
 70
     6
  9
$SURFTYPE
 70
     6
  9
$SURFU
 70
     6
  9
$SURFV
 70
     6
  9
$UCSNAME
  2

  9
$UCSORG
 10
0.0
 20
0.0
 30
0.0
  9
$UCSXDIR
 10
1.0
 20
0.0
 30
0.0
  9
$UCSYDIR
 10
0.0
 20
1.0
 30
0.0
  9
$PUCSNAME
  2

  9
$PUCSORG
 10
0.0
 20
0.0
 30
0.0
  9
$PUCSXDIR
 10
1.0
 20
0.0
 30
0.0
  9
$PUCSYDIR
 10
0.0
 20
1.0
 30
0.0
  9
$USERI1
 70
     0
  9
$USERI2
 70
     0
  9
$USERI3
 70
     0
  9
$USERI4
 70
     0
  9
$USERI5
 70
     0
  9
$USERR1
 40
0.0
  9
$USERR2
 40
0.0
  9
$USERR3
 40
0.0
  9
$USERR4
 40
0.0
  9
$USERR5
 40
0.0
  9
$WORLDVIEW
 70
     1
  9
$SHADEDGE
 70
     3
  9
$SHADEDIF
 70
    70
  9
$TILEMODE
 70
     1
  9
$MAXACTVP
 70
    64
  9
$PINSBASE
 10
0.0
 20
0.0
 30
0.0
  9
$PLIMCHECK
 70
     0
  9
$PEXTMIN
 10
0.0
 20
0.0
 30
0.0
  9
$PEXTMAX
 10
420.0
 20
297.0
 30
0.0
  9
$PLIMMIN
 10
0.0
 20
0.0
  9
$PLIMMAX
 10
420.0
 20
297.0
  9
$UNITMODE
 70
     0
  9
$VISRETAIN
 70
     1
  9
$PLINEGEN
 70
     0
  9
$PSLTSCALE
 70
     1
  9
$TREEDEPTH
 70
  3020
  9
$PICKSTYLE
 70
     1
  9
$CMLSTYLE
  2
STANDARD
  9
$CMLJUST
 70
     0
  9
$CMLSCALE
 40
1.0
  9
$PROXYGRAPHICS
 70
     1
  9
$MEASUREMENT
 70
     1
  0
ENDSEC
  0
SECTION
  2
CLASSES
  0
CLASS
  1
ACDBDICTIONARYWDFLT
  2
AcDbDictionaryWithDefault
  3
ObjectDBX Classes
 90
        0
280
     0
281
     0
  0
CLASS
  1
VISUALSTYLE
  2
AcDbVisualStyle
  3
ObjectDBX Classes
 90
     4095
280
     0
281
     0
  0
CLASS
  1
MATERIAL
  2
AcDbMaterial
  3
ObjectDBX Classes
 90
     1153
280
     0
281
     0
  0
CLASS
  1
DICTIONARYVAR
  2
AcDbDictionaryVar
  3
ObjectDBX Classes
 90
        0
280
     0
281
     0
  0
CLASS
  1
XRECORD
  2
AcDbXrecord
  3
AutoCAD 2000
 90
        0
280
     0
281
     0
  0
CLASS
  1
LWPOLYLINE
  2
AcDbPolyline
  3
AutoCAD 2000
 90
        0
280
     0
281
     1
  0
CLASS
  1
HATCH
  2
AcDbHatch
  3
AutoCAD 2000
 90
        0
280
     0
281
     1
  0
CLASS
  1
ACDBPLACEHOLDER
  2
AcDbPlaceHolder
  3
ObjectDBX Classes
 90
        0
280
     0
281
     0
  0
CLASS
  1
LAYOUT
  2
AcDbLayout
  3
ObjectDBX Classes
 90
        0
280
     0
281
     0
  0
ENDSEC
  0
SECTION
  2
TABLES
  0
TABLE
  2
VPORT
  5
8
330
0
100
AcDbSymbolTable
 70
     1
  0
VPORT
  5
29
330
8
100
AcDbSymbolTableRecord
100
AcDbViewportTableRecord
  2
*ACTIVE
 70
     0
 10
0.0
 20
0.0
 11
1.0
 21
1.0
 12
10.42990654205607
 22
4.5
 13
0.0
 23
0.0
 14
0.5
 24
0.5
 15
0.5
 25
0.5
 16
0.0
 26
0.0
 36
1.0
 17
0.0
 27
0.0
 37
0.0
 40
9.0
 41
1.972972972850329
 42
50.0
 43
0.0
 44
0.0
 50
0.0
 51
0.0
 71
     0
 72
   100
 73
     1
 74
     3
 75
     0
 76
     0
 77
     0
 78
     0
  0
ENDTAB
  0
TABLE
  2
LTYPE
  5
5
330
0
100
AcDbSymbolTable
 70
     9
  0
LTYPE
  5
14
330
5
100
AcDbSymbolTableRecord
100
AcDbLinetypeTableRecord
  2
BYBLOCK
 70
     0
  3

 72
    65
 73
     0
 40
0.0
  0
LTYPE
  5
15
330
5
100
AcDbSymbolTableRecord
100
AcDbLinetypeTableRecord
  2
BYLAYER
 70
     0
  3

 72
    65
 73
     0
 40
0.0
  0
LTYPE
  5
16
330
5
100
AcDbSymbolTableRecord
100
AcDbLinetypeTableRecord
  2
CONTINUOUS
 70
     0
  3
Solid line
 72
    65
 73
     0
 40
0.0
  0
LTYPE
  5
8E
330
5
100
AcDbSymbolTableRecord
100
AcDbLinetypeTableRecord
  2
DOT
 70
     0
  3
DOT
 72
    65
 73
     2
 40
4.0
 49
6.0
 74
     0
 49
-2.0
 74
     0
  0
LTYPE
  5
8F
330
5
100
AcDbSymbolTableRecord
100
AcDbLinetypeTableRecord
  2
HIDDEN
 70
     0
  3
HIDDEN
 72
    65
 73
     2
 40
4.2
 49
8.4
 74
     0
 49
-4.2
 74
     0
  0
LTYPE
  5
90
330
5
100
AcDbSymbolTableRecord
100
AcDbLinetypeTableRecord
  2
DASHDOT
 70
     0
  3
DASHDOT
 72
    65
 73
     4
 40
14.5
 49
30.0
 74
     0
 49
-9.0
 74
     0
 49
2.5
 74
     0
 49
-9.0
 74
     0
  0
LTYPE
  5
91
330
5
100
AcDbSymbolTableRecord
100
AcDbLinetypeTableRecord
  2
PHANTOM
 70
     0
  3
PHANTOM
 72
    65
 73
     6
 40
12.0
 49
30.0
 74
     0
 49
-9.0
 74
     0
 49
2.5
 74
     0
 49
-5.0
 74
     0
 49
2.5
 74
     0
 49
-9.0
 74
     0
  0
LTYPE
  5
92
330
5
100
AcDbSymbolTableRecord
100
AcDbLinetypeTableRecord
  2
ACAD_ISO14W100
 70
     0
  3
ACAD_ISO14W100
 72
    65
 73
     8
 40
1.5
 49
12.0
 74
     0
 49
-3.0
 74
     0
 49
0.5
 74
     0
 49
-3.0
 74
     0
 49
0.5
 74
     0
 49
-3.0
 74
     0
 49
0.5
 74
     0
 49
-3.0
 74
     0
  0
LTYPE
  5
93
330
5
100
AcDbSymbolTableRecord
100
AcDbLinetypeTableRecord
  2
ACAD_ISO06W100
 70
     0
  3
ACAD_ISO06W100
 72
    65
 73
     8
 40
13.5
 49
24.0
 74
     0
 49
-3.0
 74
     0
 49
0.5
 74
     0
 49
-3.0
 74
     0
 49
0.5
 74
     0
 49
-3.0
 74
     0
 49
0.5
 74
     0
 49
-3.0
 74
     0
  0
LTYPE
  5
94
330
5
100
AcDbSymbolTableRecord
100
AcDbLinetypeTableRecord
  2
ACAD_ISO11W100
 70
     0
  3
ACAD_ISO11W100
 72
    65
 73
     6
 40
15.5
 49
12.0
 74
     0
 49
-3.0
 74
     0
 49
12.0
 74
     0
 49
-3.0
 74
     0
 49
0.5
 74
     0
 49
-3.0
 74
     0
  0
LTYPE
  5
95
330
5
100
AcDbSymbolTableRecord
100
AcDbLinetypeTableRecord
  2
ACAD_ISO13W100
 70
     0
  3
ACAD_ISO13W100
 72
    65
 73
     8
 40
13.0
 49
12.0
 74
     0
 49
-3.0
 74
     0
 49
12.0
 74
     0
 49
-3.0
 74
     0
 49
0.5
 74
     0
 49
-3.0
 74
     0
 49
0.5
 74
     0
 49
-3.0
 74
     0
  0
ENDTAB
  0
TABLE
  2
LAYER
  5
2
330
0
100
AcDbSymbolTable
 70
    12
  0
LAYER
  5
10
330
2
100
AcDbSymbolTableRecord
100
AcDbLayerTableRecord
  2
0
 70
     0
 62
     7
  6
CONTINUOUS
  0
LAYER
  5
96
330
2
100
AcDbSymbolTableRecord
100
AcDbLayerTableRecord
  2
1
 70
     0
 62
     7
  6
CONTINUOUS
  0
LAYER
  5
97
330
2
100
AcDbSymbolTableRecord
100
AcDbLayerTableRecord
  2
2
 70
     0
 62
   151
  6
CONTINUOUS
  0
LAYER
  5
98
330
2
100
AcDbSymbolTableRecord
100
AcDbLayerTableRecord
  2
3
 70
     0
 62
     1
  6
DASHDOT
  0
LAYER
  5
99
330
2
100
AcDbSymbolTableRecord
100
AcDbLayerTableRecord
  2
4
 70
     0
 62
     7
  6
CONTINUOUS
  0
LAYER
  5
9A
330
2
100
AcDbSymbolTableRecord
100
AcDbLayerTableRecord
  2
5
 70
     0
 62
     6
  6
CONTINUOUS
  0
LAYER
  5
9B
330
2
100
AcDbSymbolTableRecord
100
AcDbLayerTableRecord
  2
6
 70
     0
 62
     3
  6
CONTINUOUS
  0
LAYER
  5
9C
330
2
100
AcDbSymbolTableRecord
100
AcDbLayerTableRecord
  2
7
 70
     0
 62
     4
  6
CONTINUOUS
  0
LAYER
  5
9D
330
2
100
AcDbSymbolTableRecord
100
AcDbLayerTableRecord
  2
8
 70
     0
 62
     7
  6
CONTINUOUS
  0
LAYER
  5
9E
330
2
100
AcDbSymbolTableRecord
100
AcDbLayerTableRecord
  2
9
 70
     0
 62
     2
  6
CONTINUOUS
  0
LAYER
  5
9F
330
2
100
AcDbSymbolTableRecord
100
AcDbLayerTableRecord
  2
10
 70
     0
 62
     1
  6
CONTINUOUS
  0
LAYER
  5
A0
330
2
100
AcDbSymbolTableRecord
100
AcDbLayerTableRecord
  2
11
 70
     0
 62
     3
  6
HIDDEN
  0
ENDTAB
  0
TABLE
  2
STYLE
  5
3
330
0
100
AcDbSymbolTable
 70
     3
  0
STYLE
  5
11
330
3
100
AcDbSymbolTableRecord
100
AcDbTextStyleTableRecord
  2
STANDARD
 70
     0
 40
0.0
 41
1.0
 50
0.0
 71
     0
 42
5.6
  3
txt
  4
bigfont
  0
STYLE
  5
41
330
3
100
AcDbSymbolTableRecord
100
AcDbTextStyleTableRecord
  2
T_STANDARD
 70
     4
 40
10.0
 41
1.0
 50
0.0
 71
     0
 42
10.0
  3
txt
  4
bigfont
  0
STYLE
  5
1F7
330
3
100
AcDbSymbolTableRecord
100
AcDbTextStyleTableRecord
  2
ＭＳ_ゴシック
 70
     0
 40
0.0
 41
1.0
 50
0.0
 71
     0
 42
0.0
  3

  4

1001
ACAD
1000
ＭＳ ゴシック
1071
      256
  0
ENDTAB
  0
TABLE
  2
VIEW
  5
6
330
0
100
AcDbSymbolTable
 70
     0
  0
ENDTAB
  0
TABLE
  2
UCS
  5
7
330
0
100
AcDbSymbolTable
 70
     0
  0
ENDTAB
  0
TABLE
  2
APPID
  5
9
330
0
100
AcDbSymbolTable
 70
     2
  0
APPID
  5
12
330
9
100
AcDbSymbolTableRecord
100
AcDbRegAppTableRecord
  2
ACAD
 70
     0
  0
APPID
  5
40
330
9
100
AcDbSymbolTableRecord
100
AcDbRegAppTableRecord
  2
ODA
 70
     0
  0
ENDTAB
  0
TABLE
  2
DIMSTYLE
  5
A
330
0
100
AcDbSymbolTable
 70
     1
  0
DIMSTYLE
105
27
102
{ACAD_REACTORS
330
201
330
20B
330
215
330
21F
330
229
330
233
330
23D
330
247
330
251
330
25B
330
265
330
26F
330
279
330
283
330
28B
330
293
102
}
330
A
100
AcDbSymbolTableRecord
100
AcDbDimStyleTableRecord
  2
STANDARD
 70
     0
  3

  4

  5

  6

  7

 40
1.0
 41
0.18
 42
0.0625
 43
0.38
 44
0.18
 45
0.0
 46
0.0
 47
0.0
 48
0.0
140
0.18
141
0.09
142
0.0
143
25.4
144
1.0
145
0.0
146
1.0
147
0.09
 71
     0
 72
     0
 73
     1
 74
     1
 75
     0
 76
     0
 77
     0
 78
     0
170
     0
171
     2
172
     0
173
     0
174
     0
175
     0
176
     0
177
     0
178
     0
270
     2
271
     4
272
     4
273
     2
274
     2
340
11
275
     0
280
     0
281
     0
282
     0
283
     1
284
     0
285
     0
286
     0
287
     3
288
     0
  0
ENDTAB
  0
TABLE
  2
BLOCK_RECORD
  5
1
330
0
100
AcDbSymbolTable
 70
    32
  0
BLOCK_RECORD
  5
1F
330
1
100
AcDbSymbolTableRecord
100
AcDbBlockTableRecord
  2
*MODEL_SPACE
  0
BLOCK_RECORD
  5
1B
330
1
100
AcDbSymbolTableRecord
100
AcDbBlockTableRecord
  2
*PAPER_SPACE
  0
BLOCK_RECORD
  5
42
330
1
100
AcDbSymbolTableRecord
100
AcDbBlockTableRecord
  2
_ORIGIN
  0
BLOCK_RECORD
  5
47
330
1
100
AcDbSymbolTableRecord
100
AcDbBlockTableRecord
  2
_DOTBLANK
  0
BLOCK_RECORD
  5
4C
330
1
100
AcDbSymbolTableRecord
100
AcDbBlockTableRecord
  2
_DOT
  0
BLOCK_RECORD
  5
51
330
1
100
AcDbSymbolTableRecord
100
AcDbBlockTableRecord
  2
_OPEN
  0
BLOCK_RECORD
  5
57
330
1
100
AcDbSymbolTableRecord
100
AcDbBlockTableRecord
  2
_CLOSED
  0
BLOCK_RECORD
  5
5E
330
1
100
AcDbSymbolTableRecord
100
AcDbBlockTableRecord
  2
_CLOSEDBLANK
  0
BLOCK_RECORD
  5
64
330
1
100
AcDbSymbolTableRecord
100
AcDbBlockTableRecord
  2
_ARROWFILLED
  0
BLOCK_RECORD
  5
68
330
1
100
AcDbSymbolTableRecord
100
AcDbBlockTableRecord
  2
_BOXBLANK
  0
BLOCK_RECORD
  5
70
330
1
100
AcDbSymbolTableRecord
100
AcDbBlockTableRecord
  2
_BOXFILLED
  0
BLOCK_RECORD
  5
75
330
1
100
AcDbSymbolTableRecord
100
AcDbBlockTableRecord
  2
_INTEGRAL
  0
BLOCK_RECORD
  5
7A
330
1
100
AcDbSymbolTableRecord
100
AcDbBlockTableRecord
  2
_OBLIQUE
  0
BLOCK_RECORD
  5
7E
330
1
100
AcDbSymbolTableRecord
100
AcDbBlockTableRecord
  2
_NONE
  0
BLOCK_RECORD
  5
81
330
1
100
AcDbSymbolTableRecord
100
AcDbBlockTableRecord
  2
MARK_OPEN
  0
BLOCK_RECORD
  5
86
330
1
100
AcDbSymbolTableRecord
100
AcDbBlockTableRecord
  2
MARK_ORIGIN
  0
BLOCK_RECORD
  5
8A
330
1
100
AcDbSymbolTableRecord
100
AcDbBlockTableRecord
  2
MARK_DOT
  0
BLOCK_RECORD
  5
1F8
330
1
100
AcDbSymbolTableRecord
100
AcDbBlockTableRecord
  2
DIM1
  0
BLOCK_RECORD
  5
202
330
1
100
AcDbSymbolTableRecord
100
AcDbBlockTableRecord
  2
DIM2
  0
BLOCK_RECORD
  5
20C
330
1
100
AcDbSymbolTableRecord
100
AcDbBlockTableRecord
  2
DIM3
  0
BLOCK_RECORD
  5
216
330
1
100
AcDbSymbolTableRecord
100
AcDbBlockTableRecord
  2
DIM4
  0
BLOCK_RECORD
  5
220
330
1
100
AcDbSymbolTableRecord
100
AcDbBlockTableRecord
  2
DIM5
  0
BLOCK_RECORD
  5
22A
330
1
100
AcDbSymbolTableRecord
100
AcDbBlockTableRecord
  2
DIM6
  0
BLOCK_RECORD
  5
234
330
1
100
AcDbSymbolTableRecord
100
AcDbBlockTableRecord
  2
DIM7
  0
BLOCK_RECORD
  5
23E
330
1
100
AcDbSymbolTableRecord
100
AcDbBlockTableRecord
  2
DIM8
  0
BLOCK_RECORD
  5
248
330
1
100
AcDbSymbolTableRecord
100
AcDbBlockTableRecord
  2
DIM9
  0
BLOCK_RECORD
  5
252
330
1
100
AcDbSymbolTableRecord
100
AcDbBlockTableRecord
  2
DIM10
  0
BLOCK_RECORD
  5
25C
330
1
100
AcDbSymbolTableRecord
100
AcDbBlockTableRecord
  2
DIM11
  0
BLOCK_RECORD
  5
266
330
1
100
AcDbSymbolTableRecord
100
AcDbBlockTableRecord
  2
DIM12
  0
BLOCK_RECORD
  5
270
330
1
100
AcDbSymbolTableRecord
100
AcDbBlockTableRecord
  2
DIM13
  0
BLOCK_RECORD
  5
27A
330
1
100
AcDbSymbolTableRecord
100
AcDbBlockTableRecord
  2
DIM14
  0
BLOCK_RECORD
  5
284
330
1
100
AcDbSymbolTableRecord
100
AcDbBlockTableRecord
  2
DIM15
  0
BLOCK_RECORD
  5
28C
330
1
100
AcDbSymbolTableRecord
100
AcDbBlockTableRecord
  2
DIM16
  0
ENDTAB
  0
ENDSEC
  0
SECTION
  2
BLOCKS
  0
BLOCK
  5
20
330
1F
100
AcDbEntity
  8
0
100
AcDbBlockBegin
  2
*MODEL_SPACE
 70
     0
 10
0.0
 20
0.0
 30
0.0
  3
*MODEL_SPACE
  1

  0
ENDBLK
  5
21
330
1F
100
AcDbEntity
  8
0
100
AcDbBlockEnd
  0
BLOCK
  5
1C
330
1B
100
AcDbEntity
 67
     1
  8
0
100
AcDbBlockBegin
  2
*PAPER_SPACE
 70
     0
 10
0.0
 20
0.0
 30
0.0
  3
*PAPER_SPACE
  1

  0
ENDBLK
  5
1D
330
1B
100
AcDbEntity
 67
     1
  8
0
100
AcDbBlockEnd
  0
BLOCK
  5
45
330
42
100
AcDbEntity
  8
0
100
AcDbBlockBegin
  2
_ORIGIN
 70
     0
 10
0.0
 20
0.0
 30
0.0
  3
_ORIGIN
  1

  0
CIRCLE
  5
43
330
42
100
AcDbEntity
  8
0
 62
     0
100
AcDbCircle
 10
0.0
 20
0.0
 30
0.0
 40
0.5
  0
LINE
  5
44
330
42
100
AcDbEntity
  8
0
 62
     0
100
AcDbLine
 10
0.0
 20
0.0
 30
0.0
 11
-1.0
 21
0.0
 31
0.0
  0
ENDBLK
  5
46
330
42
100
AcDbEntity
  8
0
100
AcDbBlockEnd
  0
BLOCK
  5
4A
330
47
100
AcDbEntity
  8
0
100
AcDbBlockBegin
  2
_DOTBLANK
 70
     0
 10
0.0
 20
0.0
 30
0.0
  3
_DOTBLANK
  1

  0
CIRCLE
  5
48
330
47
100
AcDbEntity
  8
0
 62
     0
100
AcDbCircle
 10
0.0
 20
0.0
 30
0.0
 40
0.5
  0
LINE
  5
49
330
47
100
AcDbEntity
  8
0
 62
     0
100
AcDbLine
 10
-0.5
 20
0.0
 30
0.0
 11
-1.0
 21
0.0
 31
0.0
  0
ENDBLK
  5
4B
330
47
100
AcDbEntity
  8
0
100
AcDbBlockEnd
  0
BLOCK
  5
4F
330
4C
100
AcDbEntity
  8
0
100
AcDbBlockBegin
  2
_DOT
 70
     0
 10
0.0
 20
0.0
 30
0.0
  3
_DOT
  1

  0
LWPOLYLINE
  5
4D
330
4C
100
AcDbEntity
  8
0
 62
     0
100
AcDbPolyline
 90
        2
 70
     1
 43
0.5
 10
-0.25
 20
0.0
 42
1.0
 10
0.25
 20
0.0
 42
1.0
  0
LINE
  5
4E
330
4C
100
AcDbEntity
  8
0
 62
     0
100
AcDbLine
 10
-0.5
 20
0.0
 30
0.0
 11
-1.0
 21
0.0
 31
0.0
  0
ENDBLK
  5
50
330
4C
100
AcDbEntity
  8
0
100
AcDbBlockEnd
  0
BLOCK
  5
55
330
51
100
AcDbEntity
  8
0
100
AcDbBlockBegin
  2
_OPEN
 70
     0
 10
0.0
 20
0.0
 30
0.0
  3
_OPEN
  1

  0
LINE
  5
52
330
51
100
AcDbEntity
  8
0
 62
     0
100
AcDbLine
 10
0.0
 20
0.0
 30
0.0
 11
-1.0
 21
0.1666666666666667
 31
0.0
  0
LINE
  5
53
330
51
100
AcDbEntity
  8
0
 62
     0
100
AcDbLine
 10
0.0
 20
0.0
 30
0.0
 11
-1.0
 21
-0.1666666666666667
 31
0.0
  0
LINE
  5
54
330
51
100
AcDbEntity
  8
0
 62
     0
100
AcDbLine
 10
0.0
 20
0.0
 30
0.0
 11
-1.0
 21
0.0
 31
0.0
  0
ENDBLK
  5
56
330
51
100
AcDbEntity
  8
0
100
AcDbBlockEnd
  0
BLOCK
  5
5C
330
57
100
AcDbEntity
  8
0
100
AcDbBlockBegin
  2
_CLOSED
 70
     0
 10
0.0
 20
0.0
 30
0.0
  3
_CLOSED
  1

  0
LINE
  5
58
330
57
100
AcDbEntity
  8
0
 62
     0
100
AcDbLine
 10
0.0
 20
0.0
 30
0.0
 11
-1.0
 21
0.1666666666666667
 31
0.0
  0
LINE
  5
59
330
57
100
AcDbEntity
  8
0
 62
     0
100
AcDbLine
 10
0.0
 20
0.0
 30
0.0
 11
-1.0
 21
-0.1666666666666667
 31
0.0
  0
LINE
  5
5A
330
57
100
AcDbEntity
  8
0
 62
     0
100
AcDbLine
 10
-1.0
 20
0.1666666666666667
 30
0.0
 11
-1.0
 21
-0.1666666666666667
 31
0.0
  0
LINE
  5
5B
330
57
100
AcDbEntity
  8
0
 62
     0
100
AcDbLine
 10
0.0
 20
0.0
 30
0.0
 11
-1.0
 21
0.0
 31
0.0
  0
ENDBLK
  5
5D
330
57
100
AcDbEntity
  8
0
100
AcDbBlockEnd
  0
BLOCK
  5
62
330
5E
100
AcDbEntity
  8
0
100
AcDbBlockBegin
  2
_CLOSEDBLANK
 70
     0
 10
0.0
 20
0.0
 30
0.0
  3
_CLOSEDBLANK
  1

  0
LINE
  5
5F
330
5E
100
AcDbEntity
  8
0
 62
     0
100
AcDbLine
 10
0.0
 20
0.0
 30
0.0
 11
-1.0
 21
0.1666666666666667
 31
0.0
  0
LINE
  5
60
330
5E
100
AcDbEntity
  8
0
 62
     0
100
AcDbLine
 10
0.0
 20
0.0
 30
0.0
 11
-1.0
 21
-0.1666666666666667
 31
0.0
  0
LINE
  5
61
330
5E
100
AcDbEntity
  8
0
 62
     0
100
AcDbLine
 10
-1.0
 20
0.1666666666666667
 30
0.0
 11
-1.0
 21
-0.1666666666666667
 31
0.0
  0
ENDBLK
  5
63
330
5E
100
AcDbEntity
  8
0
100
AcDbBlockEnd
  0
BLOCK
  5
66
330
64
100
AcDbEntity
  8
0
100
AcDbBlockBegin
  2
_ARROWFILLED
 70
     0
 10
0.0
 20
0.0
 30
0.0
  3
_ARROWFILLED
  1

  0
SOLID
  5
65
330
64
100
AcDbEntity
  8
0
 62
     0
100
AcDbTrace
 10
0.0
 20
0.0
 30
0.0
 11
-1.0
 21
-0.1666666666666667
 31
0.0
 12
-1.0
 22
0.1666666666666667
 32
0.0
 13
0.0
 23
0.0
 33
0.0
  0
ENDBLK
  5
67
330
64
100
AcDbEntity
  8
0
100
AcDbBlockEnd
  0
BLOCK
  5
6E
330
68
100
AcDbEntity
  8
0
100
AcDbBlockBegin
  2
_BOXBLANK
 70
     0
 10
0.0
 20
0.0
 30
0.0
  3
_BOXBLANK
  1

  0
LINE
  5
69
330
68
100
AcDbEntity
  8
0
 62
     0
100
AcDbLine
 10
-0.5
 20
-0.5
 30
0.0
 11
0.5
 21
-0.5
 31
0.0
  0
LINE
  5
6A
330
68
100
AcDbEntity
  8
0
 62
     0
100
AcDbLine
 10
0.5
 20
-0.5
 30
0.0
 11
0.5
 21
0.5
 31
0.0
  0
LINE
  5
6B
330
68
100
AcDbEntity
  8
0
 62
     0
100
AcDbLine
 10
0.5
 20
0.5
 30
0.0
 11
-0.5
 21
0.5
 31
0.0
  0
LINE
  5
6C
330
68
100
AcDbEntity
  8
0
 62
     0
100
AcDbLine
 10
-0.5
 20
0.5
 30
0.0
 11
-0.5
 21
-0.5
 31
0.0
  0
LINE
  5
6D
330
68
100
AcDbEntity
  8
0
 62
     0
100
AcDbLine
 10
-0.5
 20
0.0
 30
0.0
 11
-1.0
 21
0.0
 31
0.0
  0
ENDBLK
  5
6F
330
68
100
AcDbEntity
  8
0
100
AcDbBlockEnd
  0
BLOCK
  5
73
330
70
100
AcDbEntity
  8
0
100
AcDbBlockBegin
  2
_BOXFILLED
 70
     0
 10
0.0
 20
0.0
 30
0.0
  3
_BOXFILLED
  1

  0
SOLID
  5
71
330
70
100
AcDbEntity
  8
0
 62
     0
100
AcDbTrace
 10
-0.5
 20
0.5
 30
0.0
 11
0.5
 21
0.5
 31
0.0
 12
-0.5
 22
-0.5
 32
0.0
 13
0.5
 23
-0.5
 33
0.0
  0
LINE
  5
72
330
70
100
AcDbEntity
  8
0
 62
     0
100
AcDbLine
 10
-0.5
 20
0.0
 30
0.0
 11
-1.0
 21
0.0
 31
0.0
  0
ENDBLK
  5
74
330
70
100
AcDbEntity
  8
0
100
AcDbBlockEnd
  0
BLOCK
  5
78
330
75
100
AcDbEntity
  8
0
100
AcDbBlockBegin
  2
_INTEGRAL
 70
     0
 10
0.0
 20
0.0
 30
0.0
  3
_INTEGRAL
  1

  0
ARC
  5
76
330
75
100
AcDbEntity
  8
0
 62
     0
100
AcDbCircle
 10
0.444888
 20
-0.0913346
 30
0.0
 40
0.4541666
100
AcDbArc
 50
101.9999999999999
 51
167.9999999999998
  0
ARC
  5
77
330
75
100
AcDbEntity
  8
0
 62
     0
100
AcDbCircle
 10
-0.444888
 20
0.0913346
 30
0.0
 40
0.4541666
100
AcDbArc
 50
281.9999999999997
 51
347.9999999999997
  0
ENDBLK
  5
79
330
75
100
AcDbEntity
  8
0
100
AcDbBlockEnd
  0
BLOCK
  5
7C
330
7A
100
AcDbEntity
  8
0
100
AcDbBlockBegin
  2
_OBLIQUE
 70
     0
 10
0.0
 20
0.0
 30
0.0
  3
_OBLIQUE
  1

  0
LINE
  5
7B
330
7A
100
AcDbEntity
  8
0
 62
     0
100
AcDbLine
 10
-0.5
 20
-0.5
 30
0.0
 11
0.5
 21
0.5
 31
0.0
  0
ENDBLK
  5
7D
330
7A
100
AcDbEntity
  8
0
100
AcDbBlockEnd
  0
BLOCK
  5
7F
330
7E
100
AcDbEntity
  8
0
100
AcDbBlockBegin
  2
_NONE
 70
     0
 10
0.0
 20
0.0
 30
0.0
  3
_NONE
  1

  0
ENDBLK
  5
80
330
7E
100
AcDbEntity
  8
0
100
AcDbBlockEnd
  0
BLOCK
  5
84
330
81
100
AcDbEntity
  8
0
100
AcDbBlockBegin
  2
MARK_OPEN
 70
     0
 10
0.0
 20
0.0
 30
0.0
  3
MARK_OPEN
  1

  0
LINE
  5
82
330
81
100
AcDbEntity
  8
0
 62
     0
100
AcDbLine
 10
0.0
 20
0.0
 30
0.0
 11
-1.0
 21
0.1666666666666667
 31
0.0
  0
LINE
  5
83
330
81
100
AcDbEntity
  8
0
 62
     0
100
AcDbLine
 10
0.0
 20
0.0
 30
0.0
 11
-1.0
 21
-0.1666666666666667
 31
0.0
  0
ENDBLK
  5
85
330
81
100
AcDbEntity
  8
0
100
AcDbBlockEnd
  0
BLOCK
  5
88
330
86
100
AcDbEntity
  8
0
100
AcDbBlockBegin
  2
MARK_ORIGIN
 70
     0
 10
0.0
 20
0.0
 30
0.0
  3
MARK_ORIGIN
  1

  0
CIRCLE
  5
87
330
86
100
AcDbEntity
  8
0
 62
     0
100
AcDbCircle
 10
0.0
 20
0.0
 30
0.0
 40
0.5
  0
ENDBLK
  5
89
330
86
100
AcDbEntity
  8
0
100
AcDbBlockEnd
  0
BLOCK
  5
8C
330
8A
100
AcDbEntity
  8
0
100
AcDbBlockBegin
  2
MARK_DOT
 70
     0
 10
0.0
 20
0.0
 30
0.0
  3
MARK_DOT
  1

  0
LWPOLYLINE
  5
8B
330
8A
100
AcDbEntity
  8
0
 62
     0
100
AcDbPolyline
 90
        2
 70
     1
 43
0.5
 10
-0.25
 20
0.0
 42
1.0
 10
0.25
 20
0.0
 42
1.0
  0
ENDBLK
  5
8D
330
8A
100
AcDbEntity
  8
0
100
AcDbBlockEnd
  0
BLOCK
  5
1F9
330
1F8
100
AcDbEntity
  8
0
100
AcDbBlockBegin
  2
DIM1
 70
     0
 10
0.0
 20
0.0
 30
0.0
  3
DIM1
  1

  0
LINE
  5
1FB
330
1F8
100
AcDbEntity
  8
7
  6
CONTINUOUS
 62
     4
100
AcDbLine
 10
629.0014808089863
 20
250.2374275996824
 30
0.0
 11
629.0014808089862
 21
179.2374275996836
 31
0.0
  0
LINE
  5
1FC
330
1F8
100
AcDbEntity
  8
7
  6
CONTINUOUS
 62
     4
100
AcDbLine
 10
129.0014808089863
 20
250.2374275996824
 30
0.0
 11
129.0014808089862
 21
179.2374275996836
 31
0.0
  0
LINE
  5
1FD
330
1F8
100
AcDbEntity
  8
7
  6
CONTINUOUS
 62
     4
100
AcDbLine
 10
629.0014808089862
 20
182.2374275996836
 30
0.0
 11
129.0014808089862
 21
182.2374275996836
 31
0.0
  0
MTEXT
  5
1FE
330
1F8
100
AcDbEntity
  8
7
  6
CONTINUOUS
 62
     4
100
AcDbMText
 10
379.0014808089863
 20
182.2374275996836
 30
0.0
 40
6.0
 41
77.14285714285714
 71
     8
 72
     1
  1
500
  7
ＭＳ_ゴシック
1001
ACAD
1000
ACAD_MTEXT_DEFINED_HEIGHT_BEGIN
1070
    46
1040
6.0
1000
ACAD_MTEXT_DEFINED_HEIGHT_END
  0
INSERT
  5
1FF
330
1F8
100
AcDbEntity
  8
7
  6
CONTINUOUS
 62
     4
100
AcDbBlockReference
  2
_ARROWFILLED
 10
629.0014808089862
 20
182.2374275996836
 30
0.0
 41
4.0
 42
4.0
 43
4.0
 50
359.9999999999997
  0
INSERT
  5
200
330
1F8
100
AcDbEntity
  8
7
  6
CONTINUOUS
 62
     4
100
AcDbBlockReference
  2
_ARROWFILLED
 10
129.0014808089862
 20
182.2374275996836
 30
0.0
 41
4.0
 42
4.0
 43
4.0
 50
179.9999999999998
  0
ENDBLK
  5
1FA
330
1F8
100
AcDbEntity
  8
0
100
AcDbBlockEnd
  0
BLOCK
  5
203
330
202
100
AcDbEntity
  8
0
100
AcDbBlockBegin
  2
DIM2
 70
     0
 10
0.0
 20
0.0
 30
0.0
  3
DIM2
  1

  0
LINE
  5
205
330
202
100
AcDbEntity
  8
7
  6
CONTINUOUS
 62
     4
100
AcDbLine
 10
644.0014808089863
 20
235.2374275996824
 30
0.0
 11
644.0014808089862
 21
163.2374275996836
 31
0.0
  0
LINE
  5
206
330
202
100
AcDbEntity
  8
7
  6
CONTINUOUS
 62
     4
100
AcDbLine
 10
114.0014808089845
 20
235.2374275996824
 30
0.0
 11
114.0014808089844
 21
163.2374275996836
 31
0.0
  0
LINE
  5
207
330
202
100
AcDbEntity
  8
7
  6
CONTINUOUS
 62
     4
100
AcDbLine
 10
644.0014808089862
 20
166.2374275996836
 30
0.0
 11
114.0014808089844
 21
166.2374275996836
 31
0.0
  0
MTEXT
  5
208
330
202
100
AcDbEntity
  8
7
  6
CONTINUOUS
 62
     4
100
AcDbMText
 10
379.0014808089844
 20
166.2374275996836
 30
0.0
 40
6.0
 41
77.14285714285714
 71
     8
 72
     1
  1
530
  7
ＭＳ_ゴシック
1001
ACAD
1000
ACAD_MTEXT_DEFINED_HEIGHT_BEGIN
1070
    46
1040
6.0
1000
ACAD_MTEXT_DEFINED_HEIGHT_END
  0
INSERT
  5
209
330
202
100
AcDbEntity
  8
7
  6
CONTINUOUS
 62
     4
100
AcDbBlockReference
  2
_ARROWFILLED
 10
644.0014808089862
 20
166.2374275996836
 30
0.0
 41
4.0
 42
4.0
 43
4.0
 50
359.9999999999997
  0
INSERT
  5
20A
330
202
100
AcDbEntity
  8
7
  6
CONTINUOUS
 62
     4
100
AcDbBlockReference
  2
_ARROWFILLED
 10
114.0014808089844
 20
166.2374275996836
 30
0.0
 41
4.0
 42
4.0
 43
4.0
 50
179.9999999999998
  0
ENDBLK
  5
204
330
202
100
AcDbEntity
  8
0
100
AcDbBlockEnd
  0
BLOCK
  5
20D
330
20C
100
AcDbEntity
  8
0
100
AcDbBlockBegin
  2
DIM3
 70
     0
 10
0.0
 20
0.0
 30
0.0
  3
DIM3
  1

  0
LINE
  5
20F
330
20C
100
AcDbEntity
  8
7
  6
CONTINUOUS
 62
     4
100
AcDbLine
 10
491.5014808089863
 20
219.1374275996828
 30
0.0
 11
491.5014808089862
 21
195.2374275996836
 31
0.0
  0
LINE
  5
210
330
20C
100
AcDbEntity
  8
7
  6
CONTINUOUS
 62
     4
100
AcDbLine
 10
604.0014808089863
 20
219.1374275996828
 30
0.0
 11
604.0014808089863
 21
195.2374275996836
 31
0.0
  0
LINE
  5
211
330
20C
100
AcDbEntity
  8
7
  6
CONTINUOUS
 62
     4
100
AcDbLine
 10
491.5014808089862
 20
198.2374275996836
 30
0.0
 11
604.0014808089863
 21
198.2374275996836
 31
0.0
  0
MTEXT
  5
212
330
20C
100
AcDbEntity
  8
7
  6
CONTINUOUS
 62
     4
100
AcDbMText
 10
547.7514808089863
 20
198.2374275996836
 30
0.0
 40
6.0
 41
115.7142857142857
 71
     8
 72
     1
  1
112.5
  7
ＭＳ_ゴシック
1001
ACAD
1000
ACAD_MTEXT_DEFINED_HEIGHT_BEGIN
1070
    46
1040
6.0
1000
ACAD_MTEXT_DEFINED_HEIGHT_END
  0
INSERT
  5
213
330
20C
100
AcDbEntity
  8
7
  6
CONTINUOUS
 62
     4
100
AcDbBlockReference
  2
_ARROWFILLED
 10
491.5014808089862
 20
198.2374275996836
 30
0.0
 41
4.0
 42
4.0
 43
4.0
 50
179.9999999999998
  0
INSERT
  5
214
330
20C
100
AcDbEntity
  8
7
  6
CONTINUOUS
 62
     4
100
AcDbBlockReference
  2
_ARROWFILLED
 10
604.0014808089863
 20
198.2374275996836
 30
0.0
 41
4.0
 42
4.0
 43
4.0
 50
359.9999999999997
  0
ENDBLK
  5
20E
330
20C
100
AcDbEntity
  8
0
100
AcDbBlockEnd
  0
BLOCK
  5
217
330
216
100
AcDbEntity
  8
0
100
AcDbBlockBegin
  2
DIM4
 70
     0
 10
0.0
 20
0.0
 30
0.0
  3
DIM4
  1

  0
LINE
  5
219
330
216
100
AcDbEntity
  8
7
  6
CONTINUOUS
 62
     4
100
AcDbLine
 10
266.5014808089863
 20
219.1374275996828
 30
0.0
 11
266.5014808089862
 21
195.2374275996836
 31
0.0
  0
LINE
  5
21A
330
216
100
AcDbEntity
  8
7
  6
CONTINUOUS
 62
     4
100
AcDbLine
 10
154.0014808089863
 20
219.1374275996828
 30
0.0
 11
154.0014808089863
 21
195.2374275996836
 31
0.0
  0
LINE
  5
21B
330
216
100
AcDbEntity
  8
7
  6
CONTINUOUS
 62
     4
100
AcDbLine
 10
266.5014808089862
 20
198.2374275996836
 30
0.0
 11
154.0014808089863
 21
198.2374275996836
 31
0.0
  0
MTEXT
  5
21C
330
216
100
AcDbEntity
  8
7
  6
CONTINUOUS
 62
     4
100
AcDbMText
 10
210.2514808089863
 20
198.2374275996836
 30
0.0
 40
6.0
 41
115.7142857142857
 71
     8
 72
     1
  1
112.5
  7
ＭＳ_ゴシック
1001
ACAD
1000
ACAD_MTEXT_DEFINED_HEIGHT_BEGIN
1070
    46
1040
6.0
1000
ACAD_MTEXT_DEFINED_HEIGHT_END
  0
INSERT
  5
21D
330
216
100
AcDbEntity
  8
7
  6
CONTINUOUS
 62
     4
100
AcDbBlockReference
  2
_ARROWFILLED
 10
266.5014808089862
 20
198.2374275996836
 30
0.0
 41
4.0
 42
4.0
 43
4.0
 50
359.9999999999997
  0
INSERT
  5
21E
330
216
100
AcDbEntity
  8
7
  6
CONTINUOUS
 62
     4
100
AcDbBlockReference
  2
_ARROWFILLED
 10
154.0014808089863
 20
198.2374275996836
 30
0.0
 41
4.0
 42
4.0
 43
4.0
 50
179.9999999999998
  0
ENDBLK
  5
218
330
216
100
AcDbEntity
  8
0
100
AcDbBlockEnd
  0
BLOCK
  5
221
330
220
100
AcDbEntity
  8
0
100
AcDbBlockBegin
  2
DIM5
 70
     0
 10
0.0
 20
0.0
 30
0.0
  3
DIM5
  1

  0
LINE
  5
223
330
220
100
AcDbEntity
  8
7
  6
CONTINUOUS
 62
     4
100
AcDbLine
 10
740.7406123690434
 20
235.2374275996842
 30
0.0
 11
740.7406123690433
 21
163.2374275996836
 31
0.0
  0
LINE
  5
224
330
220
100
AcDbEntity
  8
7
  6
CONTINUOUS
 62
     4
100
AcDbLine
 10
785.7406123690434
 20
220.2374275996842
 30
0.0
 11
785.7406123690433
 21
163.2374275996836
 31
0.0
  0
LINE
  5
225
330
220
100
AcDbEntity
  8
7
  6
CONTINUOUS
 62
     4
100
AcDbLine
 10
740.7406123690433
 20
166.2374275996836
 30
0.0
 11
785.7406123690433
 21
166.2374275996836
 31
0.0
  0
MTEXT
  5
226
330
220
100
AcDbEntity
  8
7
  6
CONTINUOUS
 62
     4
100
AcDbMText
 10
763.2406123690434
 20
166.2374275996836
 30
0.0
 40
6.0
 41
48.57142857142856
 71
     8
 72
     1
  1
45
  7
ＭＳ_ゴシック
1001
ACAD
1000
ACAD_MTEXT_DEFINED_HEIGHT_BEGIN
1070
    46
1040
6.0
1000
ACAD_MTEXT_DEFINED_HEIGHT_END
  0
INSERT
  5
227
330
220
100
AcDbEntity
  8
7
  6
CONTINUOUS
 62
     4
100
AcDbBlockReference
  2
_ARROWFILLED
 10
740.7406123690433
 20
166.2374275996836
 30
0.0
 41
4.0
 42
4.0
 43
4.0
 50
179.9999999999998
  0
INSERT
  5
228
330
220
100
AcDbEntity
  8
7
  6
CONTINUOUS
 62
     4
100
AcDbBlockReference
  2
_ARROWFILLED
 10
785.7406123690433
 20
166.2374275996836
 30
0.0
 41
4.0
 42
4.0
 43
4.0
 50
359.9999999999997
  0
ENDBLK
  5
222
330
220
100
AcDbEntity
  8
0
100
AcDbBlockEnd
  0
BLOCK
  5
22B
330
22A
100
AcDbEntity
  8
0
100
AcDbBlockBegin
  2
DIM6
 70
     0
 10
0.0
 20
0.0
 30
0.0
  3
DIM6
  1

  0
LINE
  5
22D
330
22A
100
AcDbEntity
  8
7
  6
CONTINUOUS
 62
     4
100
AcDbLine
 10
784.7406123690434
 20
220.2374275996842
 30
0.0
 11
784.7406123690434
 21
195.2374275996836
 31
0.0
  0
LINE
  5
22E
330
22A
100
AcDbEntity
  8
7
  6
CONTINUOUS
 62
     4
100
AcDbLine
 10
785.7406123690434
 20
220.2374275996842
 30
0.0
 11
785.7406123690434
 21
195.2374275996836
 31
0.0
  0
LINE
  5
22F
330
22A
100
AcDbEntity
  8
7
  6
CONTINUOUS
 62
     4
100
AcDbLine
 10
776.7406123690434
 20
198.2374275996836
 30
0.0
 11
798.2406123690434
 21
198.2374275996836
 31
0.0
  0
MTEXT
  5
230
330
22A
100
AcDbEntity
  8
7
  6
CONTINUOUS
 62
     4
100
AcDbMText
 10
795.2406123690434
 20
198.2374275996836
 30
0.0
 40
6.0
 41
7.142857142857143
 71
     7
 72
     1
  1
1
  7
ＭＳ_ゴシック
1001
ACAD
1000
ACAD_MTEXT_DEFINED_HEIGHT_BEGIN
1070
    46
1040
6.0
1000
ACAD_MTEXT_DEFINED_HEIGHT_END
  0
INSERT
  5
231
330
22A
100
AcDbEntity
  8
7
  6
CONTINUOUS
 62
     4
100
AcDbBlockReference
  2
_ARROWFILLED
 10
784.7406123690434
 20
198.2374275996836
 30
0.0
 41
4.0
 42
4.0
 43
4.0
 50
359.9999999999997
  0
INSERT
  5
232
330
22A
100
AcDbEntity
  8
7
  6
CONTINUOUS
 62
     4
100
AcDbBlockReference
  2
_ARROWFILLED
 10
785.7406123690434
 20
198.2374275996836
 30
0.0
 41
4.0
 42
4.0
 43
4.0
 50
179.9999999999995
  0
ENDBLK
  5
22C
330
22A
100
AcDbEntity
  8
0
100
AcDbBlockEnd
  0
BLOCK
  5
235
330
234
100
AcDbEntity
  8
0
100
AcDbBlockBegin
  2
DIM7
 70
     0
 10
0.0
 20
0.0
 30
0.0
  3
DIM7
  1

  0
LINE
  5
237
330
234
100
AcDbEntity
  8
7
  6
CONTINUOUS
 62
     4
100
AcDbLine
 10
266.5014808089863
 20
219.1374275996828
 30
0.0
 11
266.5014808089862
 21
195.2374275996836
 31
0.0
  0
LINE
  5
238
330
234
100
AcDbEntity
  8
7
  6
CONTINUOUS
 62
     4
100
AcDbLine
 10
379.0014808089863
 20
210.2374275996835
 30
0.0
 11
379.0014808089863
 21
195.2374275996836
 31
0.0
  0
LINE
  5
239
330
234
100
AcDbEntity
  8
7
  6
CONTINUOUS
 62
     4
100
AcDbLine
 10
266.5014808089862
 20
198.2374275996836
 30
0.0
 11
379.0014808089863
 21
198.2374275996836
 31
0.0
  0
MTEXT
  5
23A
330
234
100
AcDbEntity
  8
7
  6
CONTINUOUS
 62
     4
100
AcDbMText
 10
322.7514808089863
 20
198.2374275996836
 30
0.0
 40
6.0
 41
115.7142857142857
 71
     8
 72
     1
  1
112.5
  7
ＭＳ_ゴシック
1001
ACAD
1000
ACAD_MTEXT_DEFINED_HEIGHT_BEGIN
1070
    46
1040
6.0
1000
ACAD_MTEXT_DEFINED_HEIGHT_END
  0
INSERT
  5
23B
330
234
100
AcDbEntity
  8
7
  6
CONTINUOUS
 62
     4
100
AcDbBlockReference
  2
_ARROWFILLED
 10
266.5014808089862
 20
198.2374275996836
 30
0.0
 41
4.0
 42
4.0
 43
4.0
 50
179.9999999999998
  0
INSERT
  5
23C
330
234
100
AcDbEntity
  8
7
  6
CONTINUOUS
 62
     4
100
AcDbBlockReference
  2
_ARROWFILLED
 10
379.0014808089863
 20
198.2374275996836
 30
0.0
 41
4.0
 42
4.0
 43
4.0
 50
359.9999999999997
  0
ENDBLK
  5
236
330
234
100
AcDbEntity
  8
0
100
AcDbBlockEnd
  0
BLOCK
  5
23F
330
23E
100
AcDbEntity
  8
0
100
AcDbBlockBegin
  2
DIM8
 70
     0
 10
0.0
 20
0.0
 30
0.0
  3
DIM8
  1

  0
LINE
  5
241
330
23E
100
AcDbEntity
  8
7
  6
CONTINUOUS
 62
     4
100
AcDbLine
 10
127.0014808089763
 20
352.2374275996854
 30
0.0
 11
95.00148080898435
 21
352.2374275996854
 31
0.0
  0
LINE
  5
242
330
23E
100
AcDbEntity
  8
7
  6
CONTINUOUS
 62
     4
100
AcDbLine
 10
127.0014808089782
 20
252.2374275996854
 30
0.0
 11
95.00148080898452
 21
252.2374275996854
 31
0.0
  0
LINE
  5
243
330
23E
100
AcDbEntity
  8
7
  6
CONTINUOUS
 62
     4
100
AcDbLine
 10
98.00148080898435
 20
352.2374275996854
 30
0.0
 11
98.00148080898452
 21
252.2374275996854
 31
0.0
  0
MTEXT
  5
244
330
23E
100
AcDbEntity
  8
7
  6
CONTINUOUS
 62
     4
100
AcDbMText
 10
98.00148080898444
 20
302.2374275996824
 30
0.0
 40
6.0
 41
72.85714285714286
 71
     8
 72
     1
  1
100
  7
ＭＳ_ゴシック
 11
1.615544574432587E-15
 21
1.0
 31
0.0
1001
ACAD
1000
ACAD_MTEXT_DEFINED_HEIGHT_BEGIN
1070
    46
1040
6.0
1000
ACAD_MTEXT_DEFINED_HEIGHT_END
  0
INSERT
  5
245
330
23E
100
AcDbEntity
  8
7
  6
CONTINUOUS
 62
     4
100
AcDbBlockReference
  2
_ARROWFILLED
 10
98.00148080898435
 20
352.2374275996854
 30
0.0
 41
4.0
 42
4.0
 43
4.0
 50
89.99999999999991
  0
INSERT
  5
246
330
23E
100
AcDbEntity
  8
7
  6
CONTINUOUS
 62
     4
100
AcDbBlockReference
  2
_ARROWFILLED
 10
98.00148080898452
 20
252.2374275996854
 30
0.0
 41
4.0
 42
4.0
 43
4.0
 50
269.9999999999999
  0
ENDBLK
  5
240
330
23E
100
AcDbEntity
  8
0
100
AcDbBlockEnd
  0
BLOCK
  5
249
330
248
100
AcDbEntity
  8
0
100
AcDbBlockBegin
  2
DIM9
 70
     0
 10
0.0
 20
0.0
 30
0.0
  3
DIM9
  1

  0
LINE
  5
24B
330
248
100
AcDbEntity
  8
7
  6
CONTINUOUS
 62
     4
100
AcDbLine
 10
112.0014808089754
 20
367.2374275996854
 30
0.0
 11
79.00148080898441
 21
367.2374275996854
 31
0.0
  0
LINE
  5
24C
330
248
100
AcDbEntity
  8
7
  6
CONTINUOUS
 62
     4
100
AcDbLine
 10
112.0014808089772
 20
237.2374275996854
 30
0.0
 11
79.00148080898462
 21
237.2374275996854
 31
0.0
  0
LINE
  5
24D
330
248
100
AcDbEntity
  8
7
  6
CONTINUOUS
 62
     4
100
AcDbLine
 10
82.00148080898441
 20
367.2374275996854
 30
0.0
 11
82.00148080898462
 21
237.2374275996854
 31
0.0
  0
MTEXT
  5
24E
330
248
100
AcDbEntity
  8
7
  6
CONTINUOUS
 62
     4
100
AcDbMText
 10
82.00148080898452
 20
302.2374275996854
 30
0.0
 40
6.0
 41
72.85714285714286
 71
     8
 72
     1
  1
130
  7
ＭＳ_ゴシック
 11
1.615544574432587E-15
 21
1.0
 31
0.0
1001
ACAD
1000
ACAD_MTEXT_DEFINED_HEIGHT_BEGIN
1070
    46
1040
6.0
1000
ACAD_MTEXT_DEFINED_HEIGHT_END
  0
INSERT
  5
24F
330
248
100
AcDbEntity
  8
7
  6
CONTINUOUS
 62
     4
100
AcDbBlockReference
  2
_ARROWFILLED
 10
82.00148080898441
 20
367.2374275996854
 30
0.0
 41
4.0
 42
4.0
 43
4.0
 50
89.99999999999991
  0
INSERT
  5
250
330
248
100
AcDbEntity
  8
7
  6
CONTINUOUS
 62
     4
100
AcDbBlockReference
  2
_ARROWFILLED
 10
82.00148080898462
 20
237.2374275996854
 30
0.0
 41
4.0
 42
4.0
 43
4.0
 50
269.9999999999999
  0
ENDBLK
  5
24A
330
248
100
AcDbEntity
  8
0
100
AcDbBlockEnd
  0
BLOCK
  5
253
330
252
100
AcDbEntity
  8
0
100
AcDbBlockBegin
  2
DIM10
 70
     0
 10
0.0
 20
0.0
 30
0.0
  3
DIM10
  1

  0
LINE
  5
255
330
252
100
AcDbEntity
  8
7
  6
CONTINUOUS
 62
     4
100
AcDbLine
 10
132.0014808089845
 20
382.2374275996848
 30
0.0
 11
47.00148080898447
 21
382.2374275996848
 31
0.0
  0
LINE
  5
256
330
252
100
AcDbEntity
  8
7
  6
CONTINUOUS
 62
     4
100
AcDbLine
 10
132.0014808089863
 20
222.2374275996829
 30
0.0
 11
47.00148080898474
 21
222.2374275996829
 31
0.0
  0
LINE
  5
257
330
252
100
AcDbEntity
  8
7
  6
CONTINUOUS
 62
     4
100
AcDbLine
 10
50.00148080898447
 20
382.2374275996848
 30
0.0
 11
50.00148080898474
 21
222.2374275996829
 31
0.0
  0
MTEXT
  5
258
330
252
100
AcDbEntity
  8
7
  6
CONTINUOUS
 62
     4
100
AcDbMText
 10
50.0014808089846
 20
302.2374275996854
 30
0.0
 40
6.0
 41
72.85714285714286
 71
     8
 72
     1
  1
160
  7
ＭＳ_ゴシック
 11
1.615544574432587E-15
 21
1.0
 31
0.0
1001
ACAD
1000
ACAD_MTEXT_DEFINED_HEIGHT_BEGIN
1070
    46
1040
6.0
1000
ACAD_MTEXT_DEFINED_HEIGHT_END
  0
INSERT
  5
259
330
252
100
AcDbEntity
  8
7
  6
CONTINUOUS
 62
     4
100
AcDbBlockReference
  2
_ARROWFILLED
 10
50.00148080898447
 20
382.2374275996848
 30
0.0
 41
4.0
 42
4.0
 43
4.0
 50
89.99999999999991
  0
INSERT
  5
25A
330
252
100
AcDbEntity
  8
7
  6
CONTINUOUS
 62
     4
100
AcDbBlockReference
  2
_ARROWFILLED
 10
50.00148080898474
 20
222.2374275996829
 30
0.0
 41
4.0
 42
4.0
 43
4.0
 50
269.9999999999999
  0
ENDBLK
  5
254
330
252
100
AcDbEntity
  8
0
100
AcDbBlockEnd
  0
BLOCK
  5
25D
330
25C
100
AcDbEntity
  8
0
100
AcDbBlockBegin
  2
DIM11
 70
     0
 10
0.0
 20
0.0
 30
0.0
  3
DIM11
  1

  0
LINE
  5
25F
330
25C
100
AcDbEntity
  8
7
  6
CONTINUOUS
 62
     4
100
AcDbLine
 10
379.0014808089863
 20
210.2374275996835
 30
0.0
 11
379.0014808089863
 21
195.2374275996836
 31
0.0
  0
LINE
  5
260
330
25C
100
AcDbEntity
  8
7
  6
CONTINUOUS
 62
     4
100
AcDbLine
 10
491.5014808089863
 20
219.1374275996828
 30
0.0
 11
491.5014808089862
 21
195.2374275996836
 31
0.0
  0
LINE
  5
261
330
25C
100
AcDbEntity
  8
7
  6
CONTINUOUS
 62
     4
100
AcDbLine
 10
379.0014808089863
 20
198.2374275996836
 30
0.0
 11
491.5014808089862
 21
198.2374275996836
 31
0.0
  0
MTEXT
  5
262
330
25C
100
AcDbEntity
  8
7
  6
CONTINUOUS
 62
     4
100
AcDbMText
 10
435.2514808089863
 20
198.2374275996836
 30
0.0
 40
6.0
 41
115.7142857142857
 71
     8
 72
     1
  1
112.5
  7
ＭＳ_ゴシック
1001
ACAD
1000
ACAD_MTEXT_DEFINED_HEIGHT_BEGIN
1070
    46
1040
6.0
1000
ACAD_MTEXT_DEFINED_HEIGHT_END
  0
INSERT
  5
263
330
25C
100
AcDbEntity
  8
7
  6
CONTINUOUS
 62
     4
100
AcDbBlockReference
  2
_ARROWFILLED
 10
379.0014808089863
 20
198.2374275996836
 30
0.0
 41
4.0
 42
4.0
 43
4.0
 50
179.9999999999998
  0
INSERT
  5
264
330
25C
100
AcDbEntity
  8
7
  6
CONTINUOUS
 62
     4
100
AcDbBlockReference
  2
_ARROWFILLED
 10
491.5014808089862
 20
198.2374275996836
 30
0.0
 41
4.0
 42
4.0
 43
4.0
 50
359.9999999999997
  0
ENDBLK
  5
25E
330
25C
100
AcDbEntity
  8
0
100
AcDbBlockEnd
  0
BLOCK
  5
267
330
266
100
AcDbEntity
  8
0
100
AcDbBlockBegin
  2
DIM12
 70
     0
 10
0.0
 20
0.0
 30
0.0
  3
DIM12
  1

  0
LINE
  5
269
330
266
100
AcDbEntity
  8
7
  6
CONTINUOUS
 62
     4
100
AcDbLine
 10
143.9014808089863
 20
375.237427599682
 30
0.0
 11
63.0014808089847
 21
375.2374275996823
 31
0.0
  0
LINE
  5
26A
330
266
100
AcDbEntity
  8
7
  6
CONTINUOUS
 62
     4
100
AcDbLine
 10
143.9014808089863
 20
229.2374275996829
 30
0.0
 11
63.0014808089847
 21
229.2374275996831
 31
0.0
  0
LINE
  5
26B
330
266
100
AcDbEntity
  8
7
  6
CONTINUOUS
 62
     4
100
AcDbLine
 10
66.0014808089847
 20
375.2374275996823
 30
0.0
 11
66.0014808089847
 21
229.2374275996831
 31
0.0
  0
MTEXT
  5
26C
330
266
100
AcDbEntity
  8
7
  6
CONTINUOUS
 62
     4
100
AcDbMText
 10
66.0014808089847
 20
302.2374275996824
 30
0.0
 40
6.0
 41
72.85714285714286
 71
     8
 72
     1
  1
146
  7
ＭＳ_ゴシック
 11
1.615544574432587E-15
 21
1.0
 31
0.0
1001
ACAD
1000
ACAD_MTEXT_DEFINED_HEIGHT_BEGIN
1070
    46
1040
6.0
1000
ACAD_MTEXT_DEFINED_HEIGHT_END
  0
INSERT
  5
26D
330
266
100
AcDbEntity
  8
7
  6
CONTINUOUS
 62
     4
100
AcDbBlockReference
  2
_ARROWFILLED
 10
66.0014808089847
 20
375.2374275996823
 30
0.0
 41
4.0
 42
4.0
 43
4.0
 50
89.99999999999991
  0
INSERT
  5
26E
330
266
100
AcDbEntity
  8
7
  6
CONTINUOUS
 62
     4
100
AcDbBlockReference
  2
_ARROWFILLED
 10
66.0014808089847
 20
229.2374275996831
 30
0.0
 41
4.0
 42
4.0
 43
4.0
 50
269.9999999999998
  0
ENDBLK
  5
268
330
266
100
AcDbEntity
  8
0
100
AcDbBlockEnd
  0
BLOCK
  5
271
330
270
100
AcDbEntity
  8
0
100
AcDbBlockBegin
  2
DIM13
 70
     0
 10
0.0
 20
0.0
 30
0.0
  3
DIM13
  1

  0
LINE
  5
273
330
270
100
AcDbEntity
  8
7
  6
CONTINUOUS
 62
     4
100
AcDbLine
 10
785.7406123690434
 20
220.2374275996842
 30
0.0
 11
785.7406123690433
 21
179.3071207519474
 31
0.0
  0
LINE
  5
274
330
270
100
AcDbEntity
  8
7
  6
CONTINUOUS
 62
     4
100
AcDbLine
 10
765.31240913876
 20
300.2374275996842
 30
0.0
 11
765.3124091387598
 21
179.3071207519474
 31
0.0
  0
LINE
  5
275
330
270
100
AcDbEntity
  8
7
  6
CONTINUOUS
 62
     4
100
AcDbLine
 10
813.2406123690434
 20
182.3071207519474
 30
0.0
 11
765.3124091387598
 21
182.3071207519474
 31
0.0
  0
MTEXT
  5
276
330
270
100
AcDbEntity
  8
7
  6
CONTINUOUS
 62
     4
100
AcDbMText
 10
795.2406123690434
 20
182.3071207519474
 30
0.0
 40
6.0
 41
128.5714285714286
 71
     7
 72
     1
  1
(20.5)
  7
ＭＳ_ゴシック
1001
ACAD
1000
ACAD_MTEXT_DEFINED_HEIGHT_BEGIN
1070
    46
1040
6.0
1000
ACAD_MTEXT_DEFINED_HEIGHT_END
  0
INSERT
  5
277
330
270
100
AcDbEntity
  8
7
  6
CONTINUOUS
 62
     4
100
AcDbBlockReference
  2
_ARROWFILLED
 10
785.7406123690433
 20
182.3071207519474
 30
0.0
 41
4.0
 42
4.0
 43
4.0
 50
359.9999999999997
  0
INSERT
  5
278
330
270
100
AcDbEntity
  8
7
  6
CONTINUOUS
 62
     4
100
AcDbBlockReference
  2
_ARROWFILLED
 10
765.3124091387598
 20
182.3071207519474
 30
0.0
 41
4.0
 42
4.0
 43
4.0
 50
179.9999999999998
  0
ENDBLK
  5
272
330
270
100
AcDbEntity
  8
0
100
AcDbBlockEnd
  0
BLOCK
  5
27B
330
27A
100
AcDbEntity
  8
0
100
AcDbBlockBegin
  2
DIM14
 70
     0
 10
0.0
 20
0.0
 30
0.0
  3
DIM14
  1

  0
LINE
  5
27D
330
27A
100
AcDbEntity
  8
7
  6
CONTINUOUS
 62
     4
100
AcDbLine
 10
662.0014808089863
 20
297.737427599682
 30
0.0
 11
662.0014808089861
 21
163.2374275996836
 31
0.0
  0
LINE
  5
27E
330
27A
100
AcDbEntity
  8
7
  6
CONTINUOUS
 62
     4
100
AcDbLine
 10
644.0014808089863
 20
235.237427599682
 30
0.0
 11
644.0014808089862
 21
163.2374275996836
 31
0.0
  0
LINE
  5
27F
330
27A
100
AcDbEntity
  8
7
  6
CONTINUOUS
 62
     4
100
AcDbLine
 10
682.0014808089866
 20
166.2374275996836
 30
0.0
 11
644.0014808089862
 21
166.2374275996836
 31
0.0
  0
MTEXT
  5
280
330
27A
100
AcDbEntity
  8
7
  6
CONTINUOUS
 62
     4
100
AcDbMText
 10
670.0014808089866
 20
166.2374275996836
 30
0.0
 40
6.0
 41
85.71428571428571
 71
     7
 72
     1
  1
(18)
  7
ＭＳ_ゴシック
1001
ACAD
1000
ACAD_MTEXT_DEFINED_HEIGHT_BEGIN
1070
    46
1040
6.0
1000
ACAD_MTEXT_DEFINED_HEIGHT_END
  0
INSERT
  5
281
330
27A
100
AcDbEntity
  8
7
  6
CONTINUOUS
 62
     4
100
AcDbBlockReference
  2
_ARROWFILLED
 10
662.0014808089861
 20
166.2374275996836
 30
0.0
 41
4.0
 42
4.0
 43
4.0
 50
359.9999999999997
  0
INSERT
  5
282
330
27A
100
AcDbEntity
  8
7
  6
CONTINUOUS
 62
     4
100
AcDbBlockReference
  2
_ARROWFILLED
 10
644.0014808089862
 20
166.2374275996836
 30
0.0
 41
4.0
 42
4.0
 43
4.0
 50
179.9999999999998
  0
ENDBLK
  5
27C
330
27A
100
AcDbEntity
  8
0
100
AcDbBlockEnd
  0
BLOCK
  5
285
330
284
100
AcDbEntity
  8
0
100
AcDbBlockBegin
  2
DIM15
 70
     0
 10
0.0
 20
0.0
 30
0.0
  3
DIM15
  1

  0
LINE
  5
287
330
284
100
AcDbEntity
  8
7
  6
CONTINUOUS
 62
     4
100
AcDbLine
 10
369.309072821095
 20
287.6666614085532
 30
0.0
 11
441.4380427220767
 21
396.0994014817402
 31
0.0
  0
MTEXT
  5
288
330
284
100
AcDbEntity
  8
7
  6
CONTINUOUS
 62
     4
100
AcDbMText
 10
436.4533757568826
 20
388.6058645834456
 30
0.0
 40
6.0
 41
75.71428571428571
 71
     7
 72
     1
  1
\U+220535
  7
ＭＳ_ゴシック
 11
0.5538518850220593
 21
0.8326152109212944
 31
0.0
1001
ACAD
1000
ACAD_MTEXT_DEFINED_HEIGHT_BEGIN
1070
    46
1040
6.0
1000
ACAD_MTEXT_DEFINED_HEIGHT_END
  0
INSERT
  5
289
330
284
100
AcDbEntity
  8
7
  6
CONTINUOUS
 62
     4
100
AcDbBlockReference
  2
_ARROWFILLED
 10
369.309072821095
 20
287.6666614085532
 30
0.0
 41
4.0
 42
4.0
 43
4.0
 50
236.3683281664811
  0
INSERT
  5
28A
330
284
100
AcDbEntity
  8
7
  6
CONTINUOUS
 62
     4
100
AcDbBlockReference
  2
_ARROWFILLED
 10
388.6938887968661
 20
316.8081937907971
 30
0.0
 41
4.0
 42
4.0
 43
4.0
 50
56.36832816648118
  0
ENDBLK
  5
286
330
284
100
AcDbEntity
  8
0
100
AcDbBlockEnd
  0
BLOCK
  5
28D
330
28C
100
AcDbEntity
  8
0
100
AcDbBlockBegin
  2
DIM16
 70
     0
 10
0.0
 20
0.0
 30
0.0
  3
DIM16
  1

  0
LINE
  5
28F
330
28C
100
AcDbEntity
  8
7
  6
CONTINUOUS
 62
     4
100
AcDbLine
 10
372.2784401407656
 20
280.7653358484375
 30
0.0
 11
410.1799659656163
 21
401.8154797024855
 31
0.0
  0
MTEXT
  5
290
330
28C
100
AcDbEntity
  8
7
  6
CONTINUOUS
 62
     4
100
AcDbMText
 10
407.4907496983346
 20
393.2266430019895
 30
0.0
 40
6.0
 41
75.71428571428571
 71
     7
 72
     1
  1
\U+220545
  7
ＭＳ_ゴシック
 11
0.2988018074758951
 21
0.9543151889439558
 31
0.0
1001
ACAD
1000
ACAD_MTEXT_DEFINED_HEIGHT_BEGIN
1070
    46
1040
6.0
1000
ACAD_MTEXT_DEFINED_HEIGHT_END
  0
INSERT
  5
291
330
28C
100
AcDbEntity
  8
7
  6
CONTINUOUS
 62
     4
100
AcDbBlockReference
  2
_ARROWFILLED
 10
372.2784401407656
 20
280.7653358484375
 30
0.0
 41
4.0
 42
4.0
 43
4.0
 50
252.6143488822576
  0
INSERT
  5
292
330
28C
100
AcDbEntity
  8
7
  6
CONTINUOUS
 62
     4
100
AcDbBlockReference
  2
_ARROWFILLED
 10
385.7245214771808
 20
323.7095193509152
 30
0.0
 41
4.0
 42
4.0
 43
4.0
 50
72.61434888225763
  0
ENDBLK
  5
28E
330
28C
100
AcDbEntity
  8
0
100
AcDbBlockEnd
  0
ENDSEC
  0
SECTION
  2
ENTITIES
  0
POLYLINE
  5
A1
330
1F
100
AcDbEntity
  8
8
  6
CONTINUOUS
 62
     7
100
AcDb2dPolyline
 66
     1
 10
0.0
 20
0.0
 30
0.0
  0
VERTEX
  5
A2
330
A1
100
AcDbEntity
  8
8
  6
CONTINUOUS
 62
     7
100
AcDbVertex
100
AcDb2dVertex
 10
129.0014808089863
 20
252.2374275996824
 30
0.0
  0
VERTEX
  5
A3
330
A1
100
AcDbEntity
  8
8
  6
CONTINUOUS
 62
     7
100
AcDbVertex
100
AcDb2dVertex
 10
629.0014808089863
 20
252.2374275996824
 30
0.0
  0
VERTEX
  5
A4
330
A1
100
AcDbEntity
  8
8
  6
CONTINUOUS
 62
     7
100
AcDbVertex
100
AcDb2dVertex
 10
629.0014808089863
 20
352.2374275996824
 30
0.0
  0
VERTEX
  5
A5
330
A1
100
AcDbEntity
  8
8
  6
CONTINUOUS
 62
     7
100
AcDbVertex
100
AcDb2dVertex
 10
129.0014808089863
 20
352.2374275996824
 30
0.0
  0
VERTEX
  5
A6
330
A1
100
AcDbEntity
  8
8
  6
CONTINUOUS
 62
     7
100
AcDbVertex
100
AcDb2dVertex
 10
129.0014808089863
 20
252.2374275996824
 30
0.0
  0
SEQEND
  5
A7
330
A1
100
AcDbEntity
  8
8
  6
CONTINUOUS
 62
     7
  0
LINE
  5
A8
330
1F
100
AcDbEntity
  8
8
  6
CONTINUOUS
 62
     7
100
AcDbLine
 10
644.0014808089863
 20
237.2374275996824
 30
0.0
 11
114.0014808089845
 21
237.2374275996824
 31
0.0
  0
LINE
  5
A9
330
1F
100
AcDbEntity
  8
8
  6
CONTINUOUS
 62
     7
100
AcDbLine
 10
114.0014808089845
 20
237.2374275996824
 30
0.0
 11
114.0014808089845
 21
367.2374275996824
 31
0.0
  0
LINE
  5
AA
330
1F
100
AcDbEntity
  8
8
  6
CONTINUOUS
 62
     7
100
AcDbLine
 10
644.0014808089863
 20
237.2374275996824
 30
0.0
 11
644.0014808089863
 21
367.2374275996824
 31
0.0
  0
LINE
  5
AB
330
1F
100
AcDbEntity
  8
8
  6
CONTINUOUS
 62
     7
100
AcDbLine
 10
644.0014808089863
 20
367.2374275996824
 30
0.0
 11
114.0014808089845
 21
367.2374275996824
 31
0.0
  0
LINE
  5
AC
330
1F
100
AcDbEntity
  8
8
  6
CONTINUOUS
 62
     7
100
AcDbLine
 10
127.4514808089871
 20
367.5540942663495
 30
0.0
 11
120.5514808089874
 21
367.5540942663495
 31
0.0
  0
ARC
  5
AD
330
1F
100
AcDbEntity
  8
8
  6
CONTINUOUS
 62
     7
100
AcDbCircle
 10
124.0014808089882
 20
364.5870767224899
 30
0.0
 40
4.550350877192969
100
AcDbArc
 50
40.6956985254205
 51
139.3043014745795
  0
LINE
  5
AE
330
1F
100
AcDbEntity
  8
8
  6
CONTINUOUS
 62
     7
100
AcDbLine
 10
127.4514808089871
 20
367.2374275996829
 30
0.0
 11
127.4514808089871
 21
367.5540942663495
 31
0.0
  0
LINE
  5
AF
330
1F
100
AcDbEntity
  8
8
  6
CONTINUOUS
 62
     7
100
AcDbLine
 10
120.5514808089874
 20
367.2374275996829
 30
0.0
 11
120.5514808089874
 21
367.5540942663495
 31
0.0
  0
LINE
  5
B0
330
1F
100
AcDbEntity
  8
8
  6
CONTINUOUS
 62
     7
100
AcDbLine
 10
148.9514808089871
 20
367.5540942663495
 30
0.0
 11
142.0514808089874
 21
367.5540942663495
 31
0.0
  0
ARC
  5
B1
330
1F
100
AcDbEntity
  8
8
  6
CONTINUOUS
 62
     7
100
AcDbCircle
 10
145.5014808089882
 20
364.5870767224899
 30
0.0
 40
4.550350877192983
100
AcDbArc
 50
40.6956985254205
 51
139.3043014745795
  0
LINE
  5
B2
330
1F
100
AcDbEntity
  8
8
  6
CONTINUOUS
 62
     7
100
AcDbLine
 10
148.9514808089871
 20
367.2374275996829
 30
0.0
 11
148.9514808089871
 21
367.5540942663495
 31
0.0
  0
LINE
  5
B3
330
1F
100
AcDbEntity
  8
8
  6
CONTINUOUS
 62
     7
100
AcDbLine
 10
142.0514808089874
 20
367.2374275996829
 30
0.0
 11
142.0514808089874
 21
367.5540942663495
 31
0.0
  0
LINE
  5
B4
330
1F
100
AcDbEntity
  8
3
  6
DASHDOT
 62
     1
100
AcDbLine
 10
654.0014808089863
 20
302.237427599682
 30
0.0
 11
104.0014808089845
 21
302.2374275996824
 31
0.0
  0
LINE
  5
B5
330
1F
100
AcDbEntity
  8
3
  6
DASHDOT
 62
     1
100
AcDbLine
 10
379.0014808089863
 20
392.2374275996813
 30
0.0
 11
379.0014808089863
 21
212.2374275996835
 31
0.0
  0
LINE
  5
B6
330
1F
100
AcDbEntity
  8
8
  6
CONTINUOUS
 62
     7
100
AcDbLine
 10
629.0014808089863
 20
227.2374275996829
 30
0.0
 11
629.0014808089863
 21
237.2374275996829
 31
0.0
  0
ARC
  5
B7
330
1F
100
AcDbEntity
  8
8
  6
CONTINUOUS
 62
     7
100
AcDbCircle
 10
624.0014808089863
 20
227.2374275996829
 30
0.0
 40
5.0
100
AcDbArc
 50
269.9999999999998
 51
0.0
  0
LINE
  5
B8
330
1F
100
AcDbEntity
  8
8
  6
CONTINUOUS
 62
     7
100
AcDbLine
 10
134.0014808089863
 20
222.2374275996829
 30
0.0
 11
624.0014808089863
 21
222.2374275996842
 31
0.0
  0
LINE
  5
B9
330
1F
100
AcDbEntity
  8
8
  6
CONTINUOUS
 62
     7
100
AcDbLine
 10
129.0014808089863
 20
227.2374275996829
 30
0.0
 11
129.0014808089863
 21
237.2374275996829
 31
0.0
  0
ARC
  5
BA
330
1F
100
AcDbEntity
  8
8
  6
CONTINUOUS
 62
     7
100
AcDbCircle
 10
134.0014808089845
 20
227.2374275996829
 30
0.0
 40
5.0
100
AcDbArc
 50
179.9999999999998
 51
269.9999999999998
  0
CIRCLE
  5
BB
330
1F
100
AcDbEntity
  8
8
  6
CONTINUOUS
 62
     7
100
AcDbCircle
 10
604.0014808089863
 20
229.2374275996829
 30
0.0
 40
3.100000000000023
  0
CIRCLE
  5
BC
330
1F
100
AcDbEntity
  8
8
  6
CONTINUOUS
 62
     7
100
AcDbCircle
 10
491.5014808089863
 20
229.2374275996829
 30
0.0
 40
3.100000000000023
  0
CIRCLE
  5
BD
330
1F
100
AcDbEntity
  8
8
  6
CONTINUOUS
 62
     7
100
AcDbCircle
 10
266.5014808089863
 20
229.2374275996829
 30
0.0
 40
3.100000000000023
  0
CIRCLE
  5
BE
330
1F
100
AcDbEntity
  8
8
  6
CONTINUOUS
 62
     7
100
AcDbCircle
 10
154.0014808089863
 20
229.2374275996829
 30
0.0
 40
3.099999999999994
  0
LINE
  5
BF
330
1F
100
AcDbEntity
  8
8
  6
CONTINUOUS
 62
     7
100
AcDbLine
 10
629.0014808089863
 20
377.237427599682
 30
0.0
 11
629.0014808089863
 21
367.237427599682
 31
0.0
  0
ARC
  5
C0
330
1F
100
AcDbEntity
  8
8
  6
CONTINUOUS
 62
     7
100
AcDbCircle
 10
624.0014808089863
 20
377.237427599682
 30
0.0
 40
5.0
100
AcDbArc
 50
0.0
 51
89.99999999999991
  0
LINE
  5
C1
330
1F
100
AcDbEntity
  8
8
  6
CONTINUOUS
 62
     7
100
AcDbLine
 10
134.0014808089863
 20
382.237427599682
 30
0.0
 11
624.0014808089863
 21
382.2374275996806
 31
0.0
  0
LINE
  5
C2
330
1F
100
AcDbEntity
  8
8
  6
CONTINUOUS
 62
     7
100
AcDbLine
 10
129.0014808089863
 20
377.237427599682
 30
0.0
 11
129.0014808089863
 21
367.237427599682
 31
0.0
  0
ARC
  5
C3
330
1F
100
AcDbEntity
  8
8
  6
CONTINUOUS
 62
     7
100
AcDbCircle
 10
134.0014808089845
 20
377.237427599682
 30
0.0
 40
5.0
100
AcDbArc
 50
89.99999999999991
 51
179.9999999999998
  0
CIRCLE
  5
C4
330
1F
100
AcDbEntity
  8
8
  6
CONTINUOUS
 62
     7
100
AcDbCircle
 10
604.0014808089863
 20
375.237427599682
 30
0.0
 40
3.100000000000023
  0
CIRCLE
  5
C5
330
1F
100
AcDbEntity
  8
8
  6
CONTINUOUS
 62
     7
100
AcDbCircle
 10
491.5014808089863
 20
375.237427599682
 30
0.0
 40
3.100000000000023
  0
CIRCLE
  5
C6
330
1F
100
AcDbEntity
  8
8
  6
CONTINUOUS
 62
     7
100
AcDbCircle
 10
266.5014808089863
 20
375.237427599682
 30
0.0
 40
3.100000000000023
  0
CIRCLE
  5
C7
330
1F
100
AcDbEntity
  8
8
  6
CONTINUOUS
 62
     7
100
AcDbCircle
 10
154.0014808089863
 20
375.237427599682
 30
0.0
 40
3.099999999999994
  0
LINE
  5
C8
330
1F
100
AcDbEntity
  8
8
  6
CONTINUOUS
 62
     7
100
AcDbLine
 10
779.1906123690442
 20
236.9207609330185
 30
0.0
 11
772.2906123690427
 21
236.9207609330185
 31
0.0
  0
ARC
  5
C9
330
1F
100
AcDbEntity
  8
8
  6
CONTINUOUS
 62
     7
100
AcDbCircle
 10
775.7406123690434
 20
239.8877784768772
 30
0.0
 40
4.550350877192955
100
AcDbArc
 50
220.6956985253453
 51
319.304301474654
  0
LINE
  5
CA
330
1F
100
AcDbEntity
  8
8
  6
CONTINUOUS
 62
     7
100
AcDbLine
 10
779.1906123690442
 20
237.2374275996842
 30
0.0
 11
779.1906123690442
 21
236.9207609330185
 31
0.0
  0
LINE
  5
CB
330
1F
100
AcDbEntity
  8
8
  6
CONTINUOUS
 62
     7
100
AcDbLine
 10
772.2906123690427
 20
237.2374275996842
 30
0.0
 11
772.2906123690427
 21
236.9207609330185
 31
0.0
  0
LINE
  5
CC
330
1F
100
AcDbEntity
  8
8
  6
CONTINUOUS
 62
     7
100
AcDbLine
 10
740.7406123690434
 20
367.2374275996842
 30
0.0
 11
740.7406123690434
 21
237.2374275996842
 31
0.0
  0
LINE
  5
CD
330
1F
100
AcDbEntity
  8
8
  6
CONTINUOUS
 62
     7
100
AcDbLine
 10
785.7406123690434
 20
382.2374275996842
 30
0.0
 11
785.7406123690434
 21
222.2374275996842
 31
0.0
  0
LINE
  5
CE
330
1F
100
AcDbEntity
  8
8
  6
CONTINUOUS
 62
     7
100
AcDbLine
 10
784.7406123690434
 20
382.2374275996842
 30
0.0
 11
784.7406123690434
 21
222.2374275996842
 31
0.0
  0
LINE
  5
CF
330
1F
100
AcDbEntity
  8
8
  6
CONTINUOUS
 62
     7
100
AcDbLine
 10
740.7406123690434
 20
367.2374275996842
 30
0.0
 11
784.7406123690434
 21
367.2374275996824
 31
0.0
  0
LINE
  5
D0
330
1F
100
AcDbEntity
  8
8
  6
CONTINUOUS
 62
     7
100
AcDbLine
 10
784.7406123690434
 20
366.2374275996824
 30
0.0
 11
785.7406123690434
 21
366.2374275996824
 31
0.0
  0
LINE
  5
D1
330
1F
100
AcDbEntity
  8
8
  6
CONTINUOUS
 62
     7
100
AcDbLine
 10
784.7406123690434
 20
382.2374275996842
 30
0.0
 11
785.7406123690434
 21
382.2374275996842
 31
0.0
  0
LINE
  5
D2
330
1F
100
AcDbEntity
  8
8
  6
CONTINUOUS
 62
     7
100
AcDbLine
 10
740.7406123690434
 20
237.2374275996842
 30
0.0
 11
784.7406123690434
 21
237.2374275996842
 31
0.0
  0
LINE
  5
D3
330
1F
100
AcDbEntity
  8
8
  6
CONTINUOUS
 62
     7
100
AcDbLine
 10
784.7406123690434
 20
238.2374275996842
 30
0.0
 11
785.7406123690434
 21
238.2374275996842
 31
0.0
  0
LINE
  5
D4
330
1F
100
AcDbEntity
  8
8
  6
CONTINUOUS
 62
     7
100
AcDbLine
 10
784.7406123690434
 20
222.2374275996842
 30
0.0
 11
785.7406123690434
 21
222.2374275996842
 31
0.0
  0
LINE
  5
D5
330
1F
100
AcDbEntity
  8
8
  6
CONTINUOUS
 62
     7
100
AcDbLine
 10
779.1906123690442
 20
367.5540942663499
 30
0.0
 11
772.2906123690427
 21
367.5540942663499
 31
0.0
  0
ARC
  5
D6
330
1F
100
AcDbEntity
  8
8
  6
CONTINUOUS
 62
     7
100
AcDbCircle
 10
775.7406123690434
 20
364.5870767224912
 30
0.0
 40
4.550350877192955
100
AcDbArc
 50
40.69569852534186
 51
139.3043014746581
  0
LINE
  5
D7
330
1F
100
AcDbEntity
  8
8
  6
CONTINUOUS
 62
     7
100
AcDbLine
 10
779.1906123690442
 20
367.2374275996842
 30
0.0
 11
779.1906123690442
 21
367.5540942663499
 31
0.0
  0
LINE
  5
D8
330
1F
100
AcDbEntity
  8
8
  6
CONTINUOUS
 62
     7
100
AcDbLine
 10
772.2906123690427
 20
367.2374275996842
 30
0.0
 11
772.2906123690427
 21
367.5540942663499
 31
0.0
  0
LINE
  5
D9
330
1F
100
AcDbEntity
  8
8
  6
CONTINUOUS
 62
     7
100
AcDbLine
 10
630.5514808089856
 20
367.5540942663495
 30
0.0
 11
637.4514808089853
 21
367.5540942663495
 31
0.0
  0
ARC
  5
DA
330
1F
100
AcDbEntity
  8
8
  6
CONTINUOUS
 62
     7
100
AcDbCircle
 10
634.0014808089845
 20
364.5870767224899
 30
0.0
 40
4.550350877192955
100
AcDbArc
 50
40.6956985254205
 51
139.3043014745795
  0
LINE
  5
DB
330
1F
100
AcDbEntity
  8
8
  6
CONTINUOUS
 62
     7
100
AcDbLine
 10
630.5514808089856
 20
367.2374275996829
 30
0.0
 11
630.5514808089856
 21
367.5540942663495
 31
0.0
  0
LINE
  5
DC
330
1F
100
AcDbEntity
  8
8
  6
CONTINUOUS
 62
     7
100
AcDbLine
 10
637.4514808089853
 20
367.2374275996829
 30
0.0
 11
637.4514808089853
 21
367.5540942663495
 31
0.0
  0
LINE
  5
DD
330
1F
100
AcDbEntity
  8
8
  6
CONTINUOUS
 62
     7
100
AcDbLine
 10
609.0514808089856
 20
367.5540942663495
 30
0.0
 11
615.9514808089853
 21
367.5540942663495
 31
0.0
  0
ARC
  5
DE
330
1F
100
AcDbEntity
  8
8
  6
CONTINUOUS
 62
     7
100
AcDbCircle
 10
612.5014808089845
 20
364.5870767224899
 30
0.0
 40
4.550350877192955
100
AcDbArc
 50
40.6956985254205
 51
139.3043014745795
  0
LINE
  5
DF
330
1F
100
AcDbEntity
  8
8
  6
CONTINUOUS
 62
     7
100
AcDbLine
 10
609.0514808089856
 20
367.2374275996829
 30
0.0
 11
609.0514808089856
 21
367.5540942663495
 31
0.0
  0
LINE
  5
E0
330
1F
100
AcDbEntity
  8
8
  6
CONTINUOUS
 62
     7
100
AcDbLine
 10
615.9514808089853
 20
367.2374275996829
 30
0.0
 11
615.9514808089853
 21
367.5540942663495
 31
0.0
  0
LINE
  5
E1
330
1F
100
AcDbEntity
  8
8
  6
CONTINUOUS
 62
     7
100
AcDbLine
 10
127.4514808089871
 20
236.9207609330153
 30
0.0
 11
120.5514808089874
 21
236.9207609330153
 31
0.0
  0
ARC
  5
E2
330
1F
100
AcDbEntity
  8
8
  6
CONTINUOUS
 62
     7
100
AcDbCircle
 10
124.0014808089882
 20
239.8877784768749
 30
0.0
 40
4.550350877192969
100
AcDbArc
 50
220.6956985254212
 51
319.3043014745781
  0
LINE
  5
E3
330
1F
100
AcDbEntity
  8
8
  6
CONTINUOUS
 62
     7
100
AcDbLine
 10
127.4514808089871
 20
237.237427599682
 30
0.0
 11
127.4514808089871
 21
236.9207609330153
 31
0.0
  0
LINE
  5
E4
330
1F
100
AcDbEntity
  8
8
  6
CONTINUOUS
 62
     7
100
AcDbLine
 10
120.5514808089874
 20
237.237427599682
 30
0.0
 11
120.5514808089874
 21
236.9207609330153
 31
0.0
  0
LINE
  5
E5
330
1F
100
AcDbEntity
  8
8
  6
CONTINUOUS
 62
     7
100
AcDbLine
 10
148.9514808089871
 20
236.9207609330153
 30
0.0
 11
142.0514808089874
 21
236.9207609330153
 31
0.0
  0
ARC
  5
E6
330
1F
100
AcDbEntity
  8
8
  6
CONTINUOUS
 62
     7
100
AcDbCircle
 10
145.5014808089882
 20
239.8877784768749
 30
0.0
 40
4.550350877192983
100
AcDbArc
 50
220.6956985254212
 51
319.3043014745781
  0
LINE
  5
E7
330
1F
100
AcDbEntity
  8
8
  6
CONTINUOUS
 62
     7
100
AcDbLine
 10
148.9514808089871
 20
237.237427599682
 30
0.0
 11
148.9514808089871
 21
236.9207609330153
 31
0.0
  0
LINE
  5
E8
330
1F
100
AcDbEntity
  8
8
  6
CONTINUOUS
 62
     7
100
AcDbLine
 10
142.0514808089874
 20
237.237427599682
 30
0.0
 11
142.0514808089874
 21
236.9207609330153
 31
0.0
  0
LINE
  5
E9
330
1F
100
AcDbEntity
  8
8
  6
CONTINUOUS
 62
     7
100
AcDbLine
 10
630.5514808089856
 20
236.9207609330153
 30
0.0
 11
637.4514808089853
 21
236.9207609330153
 31
0.0
  0
ARC
  5
EA
330
1F
100
AcDbEntity
  8
8
  6
CONTINUOUS
 62
     7
100
AcDbCircle
 10
634.0014808089845
 20
239.8877784768749
 30
0.0
 40
4.550350877192955
100
AcDbArc
 50
220.6956985254207
 51
319.3043014745776
  0
LINE
  5
EB
330
1F
100
AcDbEntity
  8
8
  6
CONTINUOUS
 62
     7
100
AcDbLine
 10
630.5514808089856
 20
237.237427599682
 30
0.0
 11
630.5514808089856
 21
236.9207609330153
 31
0.0
  0
LINE
  5
EC
330
1F
100
AcDbEntity
  8
8
  6
CONTINUOUS
 62
     7
100
AcDbLine
 10
637.4514808089853
 20
237.237427599682
 30
0.0
 11
637.4514808089853
 21
236.9207609330153
 31
0.0
  0
LINE
  5
ED
330
1F
100
AcDbEntity
  8
8
  6
CONTINUOUS
 62
     7
100
AcDbLine
 10
609.0514808089856
 20
236.9207609330153
 30
0.0
 11
615.9514808089853
 21
236.9207609330153
 31
0.0
  0
ARC
  5
EE
330
1F
100
AcDbEntity
  8
8
  6
CONTINUOUS
 62
     7
100
AcDbCircle
 10
612.5014808089845
 20
239.8877784768749
 30
0.0
 40
4.550350877192955
100
AcDbArc
 50
220.6956985254207
 51
319.3043014745776
  0
LINE
  5
EF
330
1F
100
AcDbEntity
  8
8
  6
CONTINUOUS
 62
     7
100
AcDbLine
 10
609.0514808089856
 20
237.237427599682
 30
0.0
 11
609.0514808089856
 21
236.9207609330153
 31
0.0
  0
LINE
  5
F0
330
1F
100
AcDbEntity
  8
8
  6
CONTINUOUS
 62
     7
100
AcDbLine
 10
615.9514808089853
 20
237.237427599682
 30
0.0
 11
615.9514808089853
 21
236.9207609330153
 31
0.0
  0
CIRCLE
  5
F1
330
1F
100
AcDbEntity
  8
8
  6
CONTINUOUS
 62
     7
100
AcDbCircle
 10
379.0014808089863
 20
229.2374275996829
 30
0.0
 40
3.100000000000023
  0
CIRCLE
  5
F2
330
1F
100
AcDbEntity
  8
8
  6
CONTINUOUS
 62
     7
100
AcDbCircle
 10
379.0014808089863
 20
375.237427599682
 30
0.0
 40
3.100000000000023
  0
LINE
  5
F3
330
1F
100
AcDbEntity
  8
8
  6
CONTINUOUS
 62
     7
100
AcDbLine
 10
450.5514808089874
 20
367.5540942663495
 30
0.0
 11
457.4514808089853
 21
367.5540942663495
 31
0.0
  0
ARC
  5
F4
330
1F
100
AcDbEntity
  8
8
  6
CONTINUOUS
 62
     7
100
AcDbCircle
 10
454.0014808089845
 20
364.5870767224899
 30
0.0
 40
4.550350877192955
100
AcDbArc
 50
40.6956985254205
 51
139.3043014745795
  0
LINE
  5
F5
330
1F
100
AcDbEntity
  8
8
  6
CONTINUOUS
 62
     7
100
AcDbLine
 10
450.5514808089874
 20
367.2374275996829
 30
0.0
 11
450.5514808089874
 21
367.5540942663495
 31
0.0
  0
LINE
  5
F6
330
1F
100
AcDbEntity
  8
8
  6
CONTINUOUS
 62
     7
100
AcDbLine
 10
457.4514808089853
 20
367.2374275996829
 30
0.0
 11
457.4514808089853
 21
367.5540942663495
 31
0.0
  0
LINE
  5
F7
330
1F
100
AcDbEntity
  8
8
  6
CONTINUOUS
 62
     7
100
AcDbLine
 10
300.5514808089856
 20
367.5540942663495
 30
0.0
 11
307.4514808089853
 21
367.5540942663495
 31
0.0
  0
ARC
  5
F8
330
1F
100
AcDbEntity
  8
8
  6
CONTINUOUS
 62
     7
100
AcDbCircle
 10
304.0014808089845
 20
364.5870767224899
 30
0.0
 40
4.550350877192955
100
AcDbArc
 50
40.6956985254205
 51
139.3043014745795
  0
LINE
  5
F9
330
1F
100
AcDbEntity
  8
8
  6
CONTINUOUS
 62
     7
100
AcDbLine
 10
300.5514808089856
 20
367.2374275996829
 30
0.0
 11
300.5514808089856
 21
367.5540942663495
 31
0.0
  0
LINE
  5
FA
330
1F
100
AcDbEntity
  8
8
  6
CONTINUOUS
 62
     7
100
AcDbLine
 10
307.4514808089853
 20
367.2374275996829
 30
0.0
 11
307.4514808089853
 21
367.5540942663495
 31
0.0
  0
LINE
  5
FB
330
1F
100
AcDbEntity
  8
8
  6
CONTINUOUS
 62
     7
100
AcDbLine
 10
307.4514808089853
 20
236.9207609330153
 30
0.0
 11
300.5514808089856
 21
236.9207609330153
 31
0.0
  0
ARC
  5
FC
330
1F
100
AcDbEntity
  8
8
  6
CONTINUOUS
 62
     7
100
AcDbCircle
 10
304.0014808089863
 20
239.8877784768749
 30
0.0
 40
4.550350877192955
100
AcDbArc
 50
220.6956985254212
 51
319.3043014745781
  0
LINE
  5
FD
330
1F
100
AcDbEntity
  8
8
  6
CONTINUOUS
 62
     7
100
AcDbLine
 10
307.4514808089853
 20
237.237427599682
 30
0.0
 11
307.4514808089853
 21
236.9207609330153
 31
0.0
  0
LINE
  5
FE
330
1F
100
AcDbEntity
  8
8
  6
CONTINUOUS
 62
     7
100
AcDbLine
 10
300.5514808089856
 20
237.237427599682
 30
0.0
 11
300.5514808089856
 21
236.9207609330153
 31
0.0
  0
LINE
  5
FF
330
1F
100
AcDbEntity
  8
8
  6
CONTINUOUS
 62
     7
100
AcDbLine
 10
457.4514808089853
 20
236.9207609330153
 30
0.0
 11
450.5514808089856
 21
236.9207609330153
 31
0.0
  0
ARC
  5
100
330
1F
100
AcDbEntity
  8
8
  6
CONTINUOUS
 62
     7
100
AcDbCircle
 10
454.0014808089863
 20
239.8877784768749
 30
0.0
 40
4.550350877192955
100
AcDbArc
 50
220.6956985254212
 51
319.3043014745781
  0
LINE
  5
101
330
1F
100
AcDbEntity
  8
8
  6
CONTINUOUS
 62
     7
100
AcDbLine
 10
457.4514808089853
 20
237.237427599682
 30
0.0
 11
457.4514808089853
 21
236.9207609330153
 31
0.0
  0
LINE
  5
102
330
1F
100
AcDbEntity
  8
8
  6
CONTINUOUS
 62
     7
100
AcDbLine
 10
450.5514808089856
 20
237.237427599682
 30
0.0
 11
450.5514808089856
 21
236.9207609330153
 31
0.0
  0
LINE
  5
103
330
1F
100
AcDbEntity
  8
3
  6
DASHDOT
 62
     1
100
AcDbLine
 10
258.4014808089863
 20
375.237427599682
 30
0.0
 11
274.6014808089864
 21
375.237427599682
 31
0.0
  0
LINE
  5
104
330
1F
100
AcDbEntity
  8
3
  6
DASHDOT
 62
     1
100
AcDbLine
 10
266.5014808089863
 20
383.337427599682
 30
0.0
 11
266.5014808089863
 21
367.1374275996819
 31
0.0
  0
LINE
  5
105
330
1F
100
AcDbEntity
  8
3
  6
DASHDOT
 62
     1
100
AcDbLine
 10
145.9014808089863
 20
375.237427599682
 30
0.0
 11
162.1014808089864
 21
375.237427599682
 31
0.0
  0
LINE
  5
106
330
1F
100
AcDbEntity
  8
3
  6
DASHDOT
 62
     1
100
AcDbLine
 10
154.0014808089863
 20
383.337427599682
 30
0.0
 11
154.0014808089863
 21
367.1374275996819
 31
0.0
  0
LINE
  5
107
330
1F
100
AcDbEntity
  8
3
  6
DASHDOT
 62
     1
100
AcDbLine
 10
370.9014808089863
 20
375.237427599682
 30
0.0
 11
387.1014808089864
 21
375.237427599682
 31
0.0
  0
LINE
  5
108
330
1F
100
AcDbEntity
  8
3
  6
DASHDOT
 62
     1
100
AcDbLine
 10
483.4014808089863
 20
375.237427599682
 30
0.0
 11
499.6014808089864
 21
375.237427599682
 31
0.0
  0
LINE
  5
109
330
1F
100
AcDbEntity
  8
3
  6
DASHDOT
 62
     1
100
AcDbLine
 10
491.5014808089863
 20
383.337427599682
 30
0.0
 11
491.5014808089863
 21
367.1374275996819
 31
0.0
  0
LINE
  5
10A
330
1F
100
AcDbEntity
  8
3
  6
DASHDOT
 62
     1
100
AcDbLine
 10
595.9014808089864
 20
375.237427599682
 30
0.0
 11
612.1014808089863
 21
375.237427599682
 31
0.0
  0
LINE
  5
10B
330
1F
100
AcDbEntity
  8
3
  6
DASHDOT
 62
     1
100
AcDbLine
 10
604.0014808089863
 20
383.337427599682
 30
0.0
 11
604.0014808089863
 21
367.1374275996819
 31
0.0
  0
LINE
  5
10C
330
1F
100
AcDbEntity
  8
3
  6
DASHDOT
 62
     1
100
AcDbLine
 10
595.9014808089864
 20
229.2374275996829
 30
0.0
 11
612.1014808089863
 21
229.2374275996829
 31
0.0
  0
LINE
  5
10D
330
1F
100
AcDbEntity
  8
3
  6
DASHDOT
 62
     1
100
AcDbLine
 10
604.0014808089863
 20
237.3374275996829
 30
0.0
 11
604.0014808089863
 21
221.1374275996828
 31
0.0
  0
LINE
  5
10E
330
1F
100
AcDbEntity
  8
3
  6
DASHDOT
 62
     1
100
AcDbLine
 10
483.4014808089863
 20
229.2374275996829
 30
0.0
 11
499.6014808089864
 21
229.2374275996829
 31
0.0
  0
LINE
  5
10F
330
1F
100
AcDbEntity
  8
3
  6
DASHDOT
 62
     1
100
AcDbLine
 10
491.5014808089863
 20
237.3374275996829
 30
0.0
 11
491.5014808089863
 21
221.1374275996828
 31
0.0
  0
LINE
  5
110
330
1F
100
AcDbEntity
  8
3
  6
DASHDOT
 62
     1
100
AcDbLine
 10
370.9014808089863
 20
229.2374275996829
 30
0.0
 11
387.1014808089864
 21
229.2374275996829
 31
0.0
  0
LINE
  5
111
330
1F
100
AcDbEntity
  8
3
  6
DASHDOT
 62
     1
100
AcDbLine
 10
258.4014808089863
 20
229.2374275996829
 30
0.0
 11
274.6014808089864
 21
229.2374275996829
 31
0.0
  0
LINE
  5
112
330
1F
100
AcDbEntity
  8
3
  6
DASHDOT
 62
     1
100
AcDbLine
 10
266.5014808089863
 20
237.3374275996829
 30
0.0
 11
266.5014808089863
 21
221.1374275996828
 31
0.0
  0
LINE
  5
113
330
1F
100
AcDbEntity
  8
3
  6
DASHDOT
 62
     1
100
AcDbLine
 10
145.9014808089863
 20
229.2374275996829
 30
0.0
 11
162.1014808089864
 21
229.2374275996829
 31
0.0
  0
LINE
  5
114
330
1F
100
AcDbEntity
  8
3
  6
DASHDOT
 62
     1
100
AcDbLine
 10
154.0014808089863
 20
237.3374275996829
 30
0.0
 11
154.0014808089863
 21
221.1374275996828
 31
0.0
  0
LINE
  5
115
330
1F
100
AcDbEntity
  8
3
  6
DASHDOT
 62
     1
100
AcDbLine
 10
779.7406123690434
 20
375.237427599682
 30
0.0
 11
790.7406123690434
 21
375.237427599682
 31
0.0
  0
LINE
  5
116
330
1F
100
AcDbEntity
  8
3
  6
DASHDOT
 62
     1
100
AcDbLine
 10
779.7406123690432
 20
229.2475902013089
 30
0.0
 11
790.7406123690432
 21
229.2475902013089
 31
0.0
  0
LINE
  5
117
330
1F
100
AcDbEntity
  8
3
  6
DASHDOT
 62
     1
100
AcDbLine
 10
730.7406123690434
 20
302.237427599682
 30
0.0
 11
795.7406123690434
 21
302.237427599682
 31
0.0
  0
LINE
  5
118
330
1F
100
AcDbEntity
  8
5
  6
CONTINUOUS
 62
     6
100
AcDbLine
 10
40.00001799999973
 20
71.26310844198633
 30
0.0
 11
184.0000179999997
 21
71.26310844198633
 31
0.0
  0
LINE
  5
119
330
1F
100
AcDbEntity
  8
5
  6
CONTINUOUS
 62
     6
100
AcDbLine
 10
40.00001799999973
 20
61.26308844198638
 30
0.0
 11
184.0000179999997
 21
61.26308844198638
 31
0.0
  0
LINE
  5
11A
330
1F
100
AcDbEntity
  8
5
  6
CONTINUOUS
 62
     6
100
AcDbLine
 10
40.00001799999973
 20
51.26310844198633
 30
0.0
 11
184.0000179999997
 21
51.26310844198633
 31
0.0
  0
LINE
  5
11B
330
1F
100
AcDbEntity
  8
5
  6
CONTINUOUS
 62
     6
100
AcDbLine
 10
40.00001799999791
 20
41.26310844198633
 30
0.0
 11
184.0000179999997
 21
41.26310844198633
 31
0.0
  0
LINE
  5
11C
330
1F
100
AcDbEntity
  8
5
  6
CONTINUOUS
 62
     6
100
AcDbLine
 10
128.0000179999997
 20
71.26310844198633
 30
0.0
 11
128.0000179999997
 21
41.26310844198633
 31
0.0
  0
LINE
  5
11D
330
1F
100
AcDbEntity
  8
5
  6
CONTINUOUS
 62
     6
100
AcDbLine
 10
128.0000179999997
 20
71.26310844198633
 30
0.0
 11
128.0000179999997
 21
41.26310844198633
 31
0.0
  0
LINE
  5
11E
330
1F
100
AcDbEntity
  8
5
  6
CONTINUOUS
 62
     6
100
AcDbLine
 10
80.00003799999922
 20
71.26310844198633
 30
0.0
 11
80.00003799999922
 21
41.26310844198633
 31
0.0
  0
LINE
  5
11F
330
1F
100
AcDbEntity
  8
5
  6
CONTINUOUS
 62
     6
100
AcDbLine
 10
40.00001799999973
 20
71.26310844198633
 30
0.0
 11
80.00003799999922
 21
61.26308844198638
 31
0.0
  0
LINE
  5
120
330
1F
100
AcDbEntity
  8
5
  6
CONTINUOUS
 62
     6
100
AcDbLine
 10
184.0000179999997
 20
71.26310844198633
 30
0.0
 11
184.0000179999997
 21
41.26310844198633
 31
0.0
  0
LINE
  5
121
330
1F
100
AcDbEntity
  8
5
  6
CONTINUOUS
 62
     6
100
AcDbLine
 10
40.00001799999791
 20
71.26310844198633
 30
0.0
 11
40.00001799999791
 21
41.26310844198633
 31
0.0
  0
MTEXT
  5
122
330
1F
100
AcDbEntity
  8
2
  6
CONTINUOUS
 62
   151
100
AcDbMText
 10
158.0000179999979
 20
78.59640177531946
 30
0.0
 40
4.0
 41
8.680459999999998
 71
     7
 72
     1
  1
{\fＭＳ ゴシック;\T0.750000;3 -}
1001
ACAD
1000
ACAD_MTEXT_DEFINED_HEIGHT_BEGIN
1070
    46
1040
4.0
1000
ACAD_MTEXT_DEFINED_HEIGHT_END
  0
MTEXT
  5
123
330
1F
100
AcDbEntity
  8
2
  6
CONTINUOUS
 62
   151
100
AcDbMText
 10
158.0000179999979
 20
84.59640177531946
 30
0.0
 40
4.0
 41
11.42177
 71
     7
 72
     1
  1
{\fＭＳ ゴシック;\T0.750000;2 NC}
1001
ACAD
1000
ACAD_MTEXT_DEFINED_HEIGHT_BEGIN
1070
    46
1040
4.0
1000
ACAD_MTEXT_DEFINED_HEIGHT_END
  0
MTEXT
  5
124
330
1F
100
AcDbEntity
  8
2
  6
CONTINUOUS
 62
   151
100
AcDbMText
 10
158.0000179999979
 20
91.2630684419862
 30
0.0
 40
4.0
 41
8.44843903184
 71
     7
 72
     1
  1
{\fＭＳ ゴシック;\T0.769362;1 +}
1001
ACAD
1000
ACAD_MTEXT_DEFINED_HEIGHT_BEGIN
1070
    46
1040
4.0
1000
ACAD_MTEXT_DEFINED_HEIGHT_END
  0
LINE
  5
125
330
1F
100
AcDbEntity
  8
10
  6
CONTINUOUS
 62
     1
100
AcDbLine
 10
132.6000079999981
 20
87.9630484419863
 30
0.0
 11
132.6000079999981
 21
90.36306844198634
 31
0.0
  0
LINE
  5
126
330
1F
100
AcDbEntity
  8
10
  6
CONTINUOUS
 62
     1
100
AcDbLine
 10
149.9999999999979
 20
78.26304844198626
 30
0.0
 11
149.9999999999979
 21
95.26308844198616
 31
0.0
  0
LINE
  5
127
330
1F
100
AcDbEntity
  8
10
  6
CONTINUOUS
 62
     1
100
AcDbLine
 10
148.9999959999979
 20
95.26308844198616
 30
0.0
 11
148.9999959999979
 21
78.26304844198626
 31
0.0
  0
LINE
  5
128
330
1F
100
AcDbEntity
  8
10
  6
CONTINUOUS
 62
     1
100
AcDbLine
 10
148.0000179999979
 20
94.66304844198612
 30
0.0
 11
148.0000179999979
 21
78.86308844198629
 31
0.0
  0
LINE
  5
129
330
1F
100
AcDbEntity
  8
10
  6
CONTINUOUS
 62
     1
100
AcDbLine
 10
136.999981999998
 20
94.66304844198612
 30
0.0
 11
136.999981999998
 21
78.86308844198629
 31
0.0
  0
LINE
  5
12A
330
1F
100
AcDbEntity
  8
10
  6
CONTINUOUS
 62
     1
100
AcDbLine
 10
131.999989999998
 20
90.1630284419864
 30
0.0
 11
131.999989999998
 21
83.36308844198629
 31
0.0
  0
LINE
  5
12B
330
1F
100
AcDbEntity
  8
10
  6
CONTINUOUS
 62
     1
100
AcDbLine
 10
143.5000039999982
 20
88.76305844198623
 30
0.0
 11
143.5000039999982
 21
84.76307844198618
 31
0.0
  0
LINE
  5
12C
330
1F
100
AcDbEntity
  8
10
  6
CONTINUOUS
 62
     1
100
AcDbLine
 10
145.5000099999979
 20
84.76307844198618
 30
0.0
 11
145.5000099999979
 21
88.76305844198623
 31
0.0
  0
LINE
  5
12D
330
1F
100
AcDbEntity
  8
10
  6
CONTINUOUS
 62
     1
100
AcDbLine
 10
137.5999979999979
 20
95.26308844198616
 30
0.0
 11
147.400001999998
 21
95.26308844198616
 31
0.0
  0
LINE
  5
12E
330
1F
100
AcDbEntity
  8
10
  6
CONTINUOUS
 62
     1
100
AcDbLine
 10
137.0000059999979
 20
96.26308844198616
 30
0.0
 11
147.999993999998
 21
96.26308844198616
 31
0.0
  0
LINE
  5
12F
330
1F
100
AcDbEntity
  8
10
  6
CONTINUOUS
 62
     1
100
AcDbLine
 10
148.0000179999979
 20
97.26304844198603
 30
0.0
 11
136.999981999998
 21
97.26304844198603
 31
0.0
  0
LINE
  5
130
330
1F
100
AcDbEntity
  8
10
  6
CONTINUOUS
 62
     1
100
AcDbLine
 10
141.5000219999979
 20
93.26297844198643
 30
0.0
 11
139.5000019999979
 21
93.26297844198643
 31
0.0
  0
LINE
  5
131
330
1F
100
AcDbEntity
  8
10
  6
CONTINUOUS
 62
     1
100
AcDbLine
 10
139.5000019999979
 20
90.26295844198648
 30
0.0
 11
141.5000219999979
 21
90.26295844198648
 31
0.0
  0
LINE
  5
132
330
1F
100
AcDbEntity
  8
10
  6
CONTINUOUS
 62
     1
100
AcDbLine
 10
145.5000099999979
 20
88.76305844198623
 30
0.0
 11
143.5000039999982
 21
88.76305844198623
 31
0.0
  0
ARC
  5
133
330
1F
100
AcDbEntity
  8
10
  6
CONTINUOUS
 62
     1
100
AcDbCircle
 10
148.0000179999979
 20
95.26308844198616
 30
0.0
 40
2.0
100
AcDbArc
 50
0.0
 51
89.99999999999991
  0
ARC
  5
134
330
1F
100
AcDbEntity
  8
10
  6
CONTINUOUS
 62
     1
100
AcDbCircle
 10
147.400001999998
 20
94.66304844198612
 30
0.0
 40
0.5999999999999943
100
AcDbArc
 50
0.0
 51
89.99999999999991
  0
ARC
  5
135
330
1F
100
AcDbEntity
  8
10
  6
CONTINUOUS
 62
     1
100
AcDbCircle
 10
147.999993999998
 20
95.26308844198616
 30
0.0
 40
1.0
100
AcDbArc
 50
0.0
 51
89.99999999999991
  0
LINE
  5
136
330
1F
100
AcDbEntity
  8
10
  6
CONTINUOUS
 62
     1
100
AcDbLine
 10
145.5000099999979
 20
93.76295844198648
 30
0.0
 11
143.5000039999982
 21
93.76295844198648
 31
0.0
  0
LINE
  5
137
330
1F
100
AcDbEntity
  8
10
  6
CONTINUOUS
 62
     1
100
AcDbLine
 10
141.5000219999979
 20
90.26295844198648
 30
0.0
 11
141.5000219999979
 21
93.26297844198643
 31
0.0
  0
LINE
  5
138
330
1F
100
AcDbEntity
  8
10
  6
CONTINUOUS
 62
     1
100
AcDbLine
 10
143.5000039999982
 20
93.76295844198648
 30
0.0
 11
143.5000039999982
 21
89.76297844198643
 31
0.0
  0
LINE
  5
139
330
1F
100
AcDbEntity
  8
10
  6
CONTINUOUS
 62
     1
100
AcDbLine
 10
145.5000099999979
 20
89.76297844198643
 30
0.0
 11
145.5000099999979
 21
93.76295844198648
 31
0.0
  0
LINE
  5
13A
330
1F
100
AcDbEntity
  8
10
  6
CONTINUOUS
 62
     1
100
AcDbLine
 10
143.5000039999982
 20
89.76297844198643
 30
0.0
 11
145.5000099999979
 21
89.76297844198643
 31
0.0
  0
LINE
  5
13B
330
1F
100
AcDbEntity
  8
10
  6
CONTINUOUS
 62
     1
100
AcDbLine
 10
133.9999959999979
 20
88.7630684419862
 30
0.0
 11
133.9999959999979
 21
90.76308844198616
 31
0.0
  0
ARC
  5
13C
330
1F
100
AcDbEntity
  8
10
  6
CONTINUOUS
 62
     1
100
AcDbCircle
 10
132.6000079999981
 20
90.1630284419864
 30
0.0
 40
0.5999999999999943
100
AcDbArc
 50
89.99999999999991
 51
179.9999999999998
  0
LINE
  5
13D
330
1F
100
AcDbEntity
  8
10
  6
CONTINUOUS
 62
     1
100
AcDbLine
 10
132.999993999998
 20
90.36306844198634
 30
0.0
 11
132.999993999998
 21
90.76308844198616
 31
0.0
  0
LINE
  5
13E
330
1F
100
AcDbEntity
  8
10
  6
CONTINUOUS
 62
     1
100
AcDbLine
 10
132.6000079999981
 20
90.36306844198634
 30
0.0
 11
132.999993999998
 21
90.36306844198634
 31
0.0
  0
LINE
  5
13F
330
1F
100
AcDbEntity
  8
10
  6
CONTINUOUS
 62
     1
100
AcDbLine
 10
133.9999959999979
 20
88.7630684419862
 30
0.0
 11
136.999981999998
 21
88.7630684419862
 31
0.0
  0
LINE
  5
140
330
1F
100
AcDbEntity
  8
10
  6
CONTINUOUS
 62
     1
100
AcDbLine
 10
132.6000079999981
 20
90.76308844198616
 30
0.0
 11
136.999981999998
 21
90.76308844198616
 31
0.0
  0
ARC
  5
141
330
1F
100
AcDbEntity
  8
10
  6
CONTINUOUS
 62
     1
100
AcDbCircle
 10
137.5999979999979
 20
94.66304844198612
 30
0.0
 40
0.5999999999999943
100
AcDbArc
 50
89.99999999999991
 51
179.9999999999998
  0
ARC
  5
142
330
1F
100
AcDbEntity
  8
10
  6
CONTINUOUS
 62
     1
100
AcDbCircle
 10
137.0000059999979
 20
95.26308844198616
 30
0.0
 40
1.0
100
AcDbArc
 50
89.99999999999991
 51
179.9999999999998
  0
ARC
  5
143
330
1F
100
AcDbEntity
  8
10
  6
CONTINUOUS
 62
     1
100
AcDbCircle
 10
136.999981999998
 20
95.26308844198616
 30
0.0
 40
2.0
100
AcDbArc
 50
89.99999999999991
 51
179.9999999999998
  0
LINE
  5
144
330
1F
100
AcDbEntity
  8
10
  6
CONTINUOUS
 62
     1
100
AcDbLine
 10
139.5000019999979
 20
92.76295844198648
 30
0.0
 11
138.5000119999981
 21
92.76295844198648
 31
0.0
  0
LINE
  5
145
330
1F
100
AcDbEntity
  8
10
  6
CONTINUOUS
 62
     1
100
AcDbLine
 10
139.5000019999979
 20
93.26297844198643
 30
0.0
 11
139.5000019999979
 21
92.76295844198648
 31
0.0
  0
LINE
  5
146
330
1F
100
AcDbEntity
  8
10
  6
CONTINUOUS
 62
     1
100
AcDbLine
 10
138.5000119999981
 20
92.76295844198648
 30
0.0
 11
138.5000119999981
 21
90.76299844198638
 31
0.0
  0
LINE
  5
147
330
1F
100
AcDbEntity
  8
10
  6
CONTINUOUS
 62
     1
100
AcDbLine
 10
139.5000019999979
 20
90.76299844198638
 30
0.0
 11
139.5000019999979
 21
90.26295844198648
 31
0.0
  0
LINE
  5
148
330
1F
100
AcDbEntity
  8
10
  6
CONTINUOUS
 62
     1
100
AcDbLine
 10
138.5000119999981
 20
90.76299844198638
 30
0.0
 11
139.5000019999979
 21
90.76299844198638
 31
0.0
  0
LINE
  5
149
330
1F
100
AcDbEntity
  8
10
  6
CONTINUOUS
 62
     1
100
AcDbLine
 10
136.0000039999981
 20
95.26308844198616
 30
0.0
 11
136.0000039999981
 21
90.76308844198616
 31
0.0
  0
LINE
  5
14A
330
1F
100
AcDbEntity
  8
10
  6
CONTINUOUS
 62
     1
100
AcDbLine
 10
134.9999999999979
 20
95.26308844198616
 30
0.0
 11
134.9999999999979
 21
90.76308844198616
 31
0.0
  0
LINE
  5
14B
330
1F
100
AcDbEntity
  8
10
  6
CONTINUOUS
 62
     1
100
AcDbLine
 10
147.400001999998
 20
78.26304844198626
 30
0.0
 11
137.5999979999979
 21
78.26304844198626
 31
0.0
  0
LINE
  5
14C
330
1F
100
AcDbEntity
  8
10
  6
CONTINUOUS
 62
     1
100
AcDbLine
 10
147.999993999998
 20
77.26304844198626
 30
0.0
 11
137.0000059999979
 21
77.26304844198626
 31
0.0
  0
LINE
  5
14D
330
1F
100
AcDbEntity
  8
10
  6
CONTINUOUS
 62
     1
100
AcDbLine
 10
148.0000179999979
 20
76.26308844198616
 30
0.0
 11
136.999981999998
 21
76.26308844198616
 31
0.0
  0
LINE
  5
14E
330
1F
100
AcDbEntity
  8
10
  6
CONTINUOUS
 62
     1
100
AcDbLine
 10
139.5000019999979
 20
80.26315844198598
 30
0.0
 11
141.5000219999979
 21
80.26315844198598
 31
0.0
  0
LINE
  5
14F
330
1F
100
AcDbEntity
  8
10
  6
CONTINUOUS
 62
     1
100
AcDbLine
 10
141.5000219999979
 20
83.26317844198593
 30
0.0
 11
139.5000019999979
 21
83.26317844198593
 31
0.0
  0
LINE
  5
150
330
1F
100
AcDbEntity
  8
10
  6
CONTINUOUS
 62
     1
100
AcDbLine
 10
139.5000019999979
 20
85.26305844198623
 30
0.0
 11
141.5000219999979
 21
85.26305844198623
 31
0.0
  0
LINE
  5
151
330
1F
100
AcDbEntity
  8
10
  6
CONTINUOUS
 62
     1
100
AcDbLine
 10
141.5000219999979
 20
88.26307844198618
 30
0.0
 11
139.5000019999979
 21
88.26307844198618
 31
0.0
  0
ARC
  5
152
330
1F
100
AcDbEntity
  8
10
  6
CONTINUOUS
 62
     1
100
AcDbCircle
 10
148.0000179999979
 20
78.26304844198626
 30
0.0
 40
2.0
100
AcDbArc
 50
269.9999999999998
 51
0.0
  0
ARC
  5
153
330
1F
100
AcDbEntity
  8
10
  6
CONTINUOUS
 62
     1
100
AcDbCircle
 10
147.400001999998
 20
78.86308844198629
 30
0.0
 40
0.5999999999999943
100
AcDbArc
 50
269.9999999999998
 51
0.0
  0
ARC
  5
154
330
1F
100
AcDbEntity
  8
10
  6
CONTINUOUS
 62
     1
100
AcDbCircle
 10
147.999993999998
 20
78.26304844198626
 30
0.0
 40
1.0
100
AcDbArc
 50
269.9999999999998
 51
0.0
  0
LINE
  5
155
330
1F
100
AcDbEntity
  8
10
  6
CONTINUOUS
 62
     1
100
AcDbLine
 10
143.5000039999982
 20
79.76317844198593
 30
0.0
 11
145.5000099999979
 21
79.76317844198593
 31
0.0
  0
LINE
  5
156
330
1F
100
AcDbEntity
  8
10
  6
CONTINUOUS
 62
     1
100
AcDbLine
 10
145.5000099999979
 20
79.76317844198593
 30
0.0
 11
145.5000099999979
 21
83.76315844198598
 31
0.0
  0
LINE
  5
157
330
1F
100
AcDbEntity
  8
10
  6
CONTINUOUS
 62
     1
100
AcDbLine
 10
143.5000039999982
 20
83.76315844198598
 30
0.0
 11
143.5000039999982
 21
79.76317844198593
 31
0.0
  0
LINE
  5
158
330
1F
100
AcDbEntity
  8
10
  6
CONTINUOUS
 62
     1
100
AcDbLine
 10
141.5000219999979
 20
80.26315844198598
 30
0.0
 11
141.5000219999979
 21
83.26317844198593
 31
0.0
  0
LINE
  5
159
330
1F
100
AcDbEntity
  8
10
  6
CONTINUOUS
 62
     1
100
AcDbLine
 10
145.5000099999979
 20
83.76315844198598
 30
0.0
 11
143.5000039999982
 21
83.76315844198598
 31
0.0
  0
LINE
  5
15A
330
1F
100
AcDbEntity
  8
10
  6
CONTINUOUS
 62
     1
100
AcDbLine
 10
143.5000039999982
 20
84.76307844198618
 30
0.0
 11
145.5000099999979
 21
84.76307844198618
 31
0.0
  0
LINE
  5
15B
330
1F
100
AcDbEntity
  8
10
  6
CONTINUOUS
 62
     1
100
AcDbLine
 10
141.5000219999979
 20
85.26305844198623
 30
0.0
 11
141.5000219999979
 21
88.26307844198618
 31
0.0
  0
ARC
  5
15C
330
1F
100
AcDbEntity
  8
10
  6
CONTINUOUS
 62
     1
100
AcDbCircle
 10
137.5999979999979
 20
78.86308844198629
 30
0.0
 40
0.5999999999999943
100
AcDbArc
 50
179.9999999999998
 51
269.9999999999998
  0
ARC
  5
15D
330
1F
100
AcDbEntity
  8
10
  6
CONTINUOUS
 62
     1
100
AcDbCircle
 10
137.0000059999979
 20
78.26304844198626
 30
0.0
 40
1.0
100
AcDbArc
 50
179.9999999999998
 51
269.9999999999998
  0
ARC
  5
15E
330
1F
100
AcDbEntity
  8
10
  6
CONTINUOUS
 62
     1
100
AcDbCircle
 10
136.999981999998
 20
78.26304844198626
 30
0.0
 40
2.0
100
AcDbArc
 50
179.9999999999998
 51
269.9999999999998
  0
LINE
  5
15F
330
1F
100
AcDbEntity
  8
10
  6
CONTINUOUS
 62
     1
100
AcDbLine
 10
138.5000119999981
 20
80.76319844198588
 30
0.0
 11
139.5000019999979
 21
80.76319844198588
 31
0.0
  0
LINE
  5
160
330
1F
100
AcDbEntity
  8
10
  6
CONTINUOUS
 62
     1
100
AcDbLine
 10
139.5000019999979
 20
80.76319844198588
 30
0.0
 11
139.5000019999979
 21
80.26315844198598
 31
0.0
  0
LINE
  5
161
330
1F
100
AcDbEntity
  8
10
  6
CONTINUOUS
 62
     1
100
AcDbLine
 10
138.5000119999981
 20
82.76315844198598
 30
0.0
 11
138.5000119999981
 21
80.76319844198588
 31
0.0
  0
LINE
  5
162
330
1F
100
AcDbEntity
  8
10
  6
CONTINUOUS
 62
     1
100
AcDbLine
 10
139.5000019999979
 20
83.26317844198593
 30
0.0
 11
139.5000019999979
 21
82.76315844198598
 31
0.0
  0
LINE
  5
163
330
1F
100
AcDbEntity
  8
10
  6
CONTINUOUS
 62
     1
100
AcDbLine
 10
139.5000019999979
 20
82.76315844198598
 30
0.0
 11
138.5000119999981
 21
82.76315844198598
 31
0.0
  0
LINE
  5
164
330
1F
100
AcDbEntity
  8
10
  6
CONTINUOUS
 62
     1
100
AcDbLine
 10
132.6000079999981
 20
83.1630684419863
 30
0.0
 11
132.6000079999981
 21
85.56308844198634
 31
0.0
  0
LINE
  5
165
330
1F
100
AcDbEntity
  8
10
  6
CONTINUOUS
 62
     1
100
AcDbLine
 10
133.9999959999979
 20
82.76304844198626
 30
0.0
 11
133.9999959999979
 21
84.7630684419862
 31
0.0
  0
LINE
  5
166
330
1F
100
AcDbEntity
  8
10
  6
CONTINUOUS
 62
     1
100
AcDbLine
 10
132.999993999998
 20
85.56308844198634
 30
0.0
 11
132.6000079999981
 21
85.56308844198634
 31
0.0
  0
LINE
  5
167
330
1F
100
AcDbEntity
  8
10
  6
CONTINUOUS
 62
     1
100
AcDbLine
 10
136.999981999998
 20
84.7630684419862
 30
0.0
 11
133.9999959999979
 21
84.7630684419862
 31
0.0
  0
ARC
  5
168
330
1F
100
AcDbEntity
  8
10
  6
CONTINUOUS
 62
     1
100
AcDbCircle
 10
132.6000079999981
 20
83.36308844198629
 30
0.0
 40
0.5999999999999943
100
AcDbArc
 50
179.9999999999998
 51
269.9999999999998
  0
LINE
  5
169
330
1F
100
AcDbEntity
  8
10
  6
CONTINUOUS
 62
     1
100
AcDbLine
 10
132.999993999998
 20
82.76304844198626
 30
0.0
 11
132.999993999998
 21
83.1630684419863
 31
0.0
  0
LINE
  5
16A
330
1F
100
AcDbEntity
  8
10
  6
CONTINUOUS
 62
     1
100
AcDbLine
 10
132.999993999998
 20
83.1630684419863
 30
0.0
 11
132.6000079999981
 21
83.1630684419863
 31
0.0
  0
LINE
  5
16B
330
1F
100
AcDbEntity
  8
10
  6
CONTINUOUS
 62
     1
100
AcDbLine
 10
132.6000079999981
 20
82.76304844198626
 30
0.0
 11
136.999981999998
 21
82.76304844198626
 31
0.0
  0
LINE
  5
16C
330
1F
100
AcDbEntity
  8
10
  6
CONTINUOUS
 62
     1
100
AcDbLine
 10
138.5000119999981
 20
85.76309844198613
 30
0.0
 11
139.5000019999979
 21
85.76309844198613
 31
0.0
  0
LINE
  5
16D
330
1F
100
AcDbEntity
  8
10
  6
CONTINUOUS
 62
     1
100
AcDbLine
 10
139.5000019999979
 20
85.76309844198613
 30
0.0
 11
139.5000019999979
 21
85.26305844198623
 31
0.0
  0
LINE
  5
16E
330
1F
100
AcDbEntity
  8
10
  6
CONTINUOUS
 62
     1
100
AcDbLine
 10
136.0000039999981
 20
78.26304844198626
 30
0.0
 11
136.0000039999981
 21
82.76304844198626
 31
0.0
  0
LINE
  5
16F
330
1F
100
AcDbEntity
  8
10
  6
CONTINUOUS
 62
     1
100
AcDbLine
 10
134.9999999999979
 20
78.26304844198626
 30
0.0
 11
134.9999999999979
 21
82.76304844198626
 31
0.0
  0
LINE
  5
170
330
1F
100
AcDbEntity
  8
10
  6
CONTINUOUS
 62
     1
100
AcDbLine
 10
132.999993999998
 20
87.9630484419863
 30
0.0
 11
132.6000079999981
 21
87.9630484419863
 31
0.0
  0
LINE
  5
171
330
1F
100
AcDbEntity
  8
10
  6
CONTINUOUS
 62
     1
100
AcDbLine
 10
139.5000019999979
 20
88.26307844198618
 30
0.0
 11
139.5000019999979
 21
87.76305844198623
 31
0.0
  0
LINE
  5
172
330
1F
100
AcDbEntity
  8
10
  6
CONTINUOUS
 62
     1
100
AcDbLine
 10
139.5000019999979
 20
87.76305844198623
 30
0.0
 11
138.5000119999981
 21
87.76305844198623
 31
0.0
  0
LINE
  5
173
330
1F
100
AcDbEntity
  8
10
  6
CONTINUOUS
 62
     1
100
AcDbLine
 10
132.999993999998
 20
85.56308844198634
 30
0.0
 11
132.999993999998
 21
87.9630484419863
 31
0.0
  0
LINE
  5
174
330
1F
100
AcDbEntity
  8
10
  6
CONTINUOUS
 62
     1
100
AcDbLine
 10
138.5000119999981
 20
87.76305844198623
 30
0.0
 11
138.5000119999981
 21
85.76309844198613
 31
0.0
  0
POLYLINE
  5
175
330
1F
100
AcDbEntity
  8
8
  6
CONTINUOUS
 62
     7
100
AcDb2dPolyline
 66
     1
 10
0.0
 20
0.0
 30
0.0
  0
VERTEX
  5
176
330
175
100
AcDbEntity
  8
8
  6
CONTINUOUS
 62
     7
100
AcDbVertex
100
AcDb2dVertex
 10
775.7047139841726
 20
308.2374275996842
 30
0.0
  0
VERTEX
  5
177
330
175
100
AcDbEntity
  8
8
  6
CONTINUOUS
 62
     7
100
AcDbVertex
100
AcDb2dVertex
 10
779.1688155993106
 20
302.2374275996842
 30
0.0
  0
VERTEX
  5
178
330
175
100
AcDbEntity
  8
8
  6
CONTINUOUS
 62
     7
100
AcDbVertex
100
AcDb2dVertex
 10
775.7047139841726
 20
296.2374275996842
 30
0.0
  0
VERTEX
  5
179
330
175
100
AcDbEntity
  8
8
  6
CONTINUOUS
 62
     7
100
AcDbVertex
100
AcDb2dVertex
 10
768.7765107538971
 20
296.2374275996842
 30
0.0
  0
VERTEX
  5
17A
330
175
100
AcDbEntity
  8
8
  6
CONTINUOUS
 62
     7
100
AcDbVertex
100
AcDb2dVertex
 10
765.31240913876
 20
302.2374275996842
 30
0.0
  0
VERTEX
  5
17B
330
175
100
AcDbEntity
  8
8
  6
CONTINUOUS
 62
     7
100
AcDbVertex
100
AcDb2dVertex
 10
768.7765107538971
 20
308.2374275996842
 30
0.0
  0
VERTEX
  5
17C
330
175
100
AcDbEntity
  8
8
  6
CONTINUOUS
 62
     7
100
AcDbVertex
100
AcDb2dVertex
 10
775.7047139841726
 20
308.2374275996842
 30
0.0
  0
SEQEND
  5
17D
330
175
100
AcDbEntity
  8
8
  6
CONTINUOUS
 62
     7
  0
CIRCLE
  5
17E
330
1F
100
AcDbEntity
  8
8
  6
CONTINUOUS
 62
     7
100
AcDbCircle
 10
772.2406123690345
 20
302.2374275996842
 30
0.0
 40
1.849999999990359
  0
CIRCLE
  5
17F
330
1F
100
AcDbEntity
  8
8
  6
CONTINUOUS
 62
     7
100
AcDbCircle
 10
772.2406123690345
 20
302.2374275996842
 30
0.0
 40
5.0
  0
LINE
  5
180
330
1F
100
AcDbEntity
  8
8
  6
CONTINUOUS
 62
     7
100
AcDbLine
 10
784.740612369043
 20
309.7374275996842
 30
0.0
 11
772.2406123690345
 21
309.7374275996842
 31
0.0
  0
LINE
  5
181
330
1F
100
AcDbEntity
  8
8
  6
CONTINUOUS
 62
     7
100
AcDbLine
 10
784.7406123690425
 20
294.7374275996872
 30
0.0
 11
772.2406123690363
 21
294.7374275996842
 31
0.0
  0
ARC
  5
182
330
1F
100
AcDbEntity
  8
8
  6
CONTINUOUS
 62
     7
100
AcDbCircle
 10
772.2406123690345
 20
302.2374275996842
 30
0.0
 40
7.5
100
AcDbArc
 50
89.99999999999991
 51
270.0000000000257
  0
LINE
  5
183
330
1F
100
AcDbEntity
  8
8
  6
CONTINUOUS
 62
     7
100
AcDbLine
 10
651.0014808089866
 20
308.237427599682
 30
0.0
 11
651.0014808089866
 21
302.237427599682
 31
0.0
  0
LINE
  5
184
330
1F
100
AcDbEntity
  8
8
  6
CONTINUOUS
 62
     7
100
AcDbLine
 10
662.0014808089863
 20
304.737427599682
 30
0.0
 11
662.0014808089863
 21
299.737427599682
 31
0.0
  0
ARC
  5
185
330
1F
100
AcDbEntity
  8
8
  6
CONTINUOUS
 62
     7
100
AcDbCircle
 10
659.0014808089863
 20
304.737427599682
 30
0.0
 40
3.0
100
AcDbArc
 50
0.0
 51
89.99999999999991
  0
LINE
  5
186
330
1F
100
AcDbEntity
  8
8
  6
CONTINUOUS
 62
     7
100
AcDbLine
 10
659.0014808089863
 20
308.237427599682
 30
0.0
 11
659.0014808089863
 21
296.237427599682
 31
0.0
  0
LINE
  5
187
330
1F
100
AcDbEntity
  8
8
  6
CONTINUOUS
 62
     7
100
AcDbLine
 10
651.0014808089866
 20
308.237427599682
 30
0.0
 11
659.0014808089863
 21
308.237427599682
 31
0.0
  0
LINE
  5
188
330
1F
100
AcDbEntity
  8
8
  6
CONTINUOUS
 62
     7
100
AcDbLine
 10
649.1014808089849
 20
307.237427599682
 30
0.0
 11
651.0014808089866
 21
307.237427599682
 31
0.0
  0
LINE
  5
189
330
1F
100
AcDbEntity
  8
8
  6
CONTINUOUS
 62
     7
100
AcDbLine
 10
651.0014808089866
 20
296.237427599682
 30
0.0
 11
651.0014808089866
 21
302.237427599682
 31
0.0
  0
LINE
  5
18A
330
1F
100
AcDbEntity
  8
8
  6
CONTINUOUS
 62
     7
100
AcDbLine
 10
651.0014808089866
 20
302.237427599682
 30
0.0
 11
659.0014808089863
 21
302.237427599682
 31
0.0
  0
LINE
  5
18B
330
1F
100
AcDbEntity
  8
8
  6
CONTINUOUS
 62
     7
100
AcDbLine
 10
649.1014808089849
 20
297.237427599682
 30
0.0
 11
651.0014808089866
 21
297.237427599682
 31
0.0
  0
ARC
  5
18C
330
1F
100
AcDbEntity
  8
8
  6
CONTINUOUS
 62
     7
100
AcDbCircle
 10
659.0014808089863
 20
299.737427599682
 30
0.0
 40
3.0
100
AcDbArc
 50
269.9999999999998
 51
0.0
  0
LINE
  5
18D
330
1F
100
AcDbEntity
  8
8
  6
CONTINUOUS
 62
     7
100
AcDbLine
 10
651.0014808089866
 20
296.237427599682
 30
0.0
 11
659.0014808089863
 21
296.237427599682
 31
0.0
  0
LINE
  5
18E
330
1F
100
AcDbEntity
  8
10
  6
CONTINUOUS
 62
     1
100
AcDbLine
 10
662.0014808089863
 20
304.0874275996814
 30
0.0
 11
680.7253893192657
 21
304.087416051497
 31
0.0
  0
ARC
  5
18F
330
1F
100
AcDbEntity
  8
10
  6
CONTINUOUS
 62
     1
100
AcDbCircle
 10
681.7593067173476
 20
303.1624219158159
 30
0.0
 40
1.387299296151127
100
AcDbArc
 50
138.1825956443065
 51
221.817414355677
  0
ARC
  5
190
330
1F
100
AcDbEntity
  8
10
  6
CONTINUOUS
 62
     1
100
AcDbCircle
 10
679.6911874426097
 20
301.3124275996818
 30
0.0
 40
1.387515353286972
100
AcDbArc
 50
318.1902521645574
 51
41.80974783544226
  0
ARC
  5
191
330
1F
100
AcDbEntity
  8
10
  6
CONTINUOUS
 62
     1
100
AcDbCircle
 10
679.691202795917
 20
303.1624217353394
 30
0.0
 40
1.387500000000045
100
AcDbArc
 50
318.190009999983
 51
41.80999999999911
  0
LINE
  5
192
330
1F
100
AcDbEntity
  8
10
  6
CONTINUOUS
 62
     1
100
AcDbLine
 10
662.0014808089863
 20
300.3874275996816
 30
0.0
 11
680.7253894807072
 21
300.3874275996816
 31
0.0
  0
LINE
  5
193
330
1F
100
AcDbEntity
  8
8
  6
CONTINUOUS
 62
     7
100
AcDbLine
 10
644.5014808089863
 20
308.487427599682
 30
0.0
 11
644.0014808089863
 21
308.487427599682
 31
0.0
  0
LINE
  5
194
330
1F
100
AcDbEntity
  8
8
  6
CONTINUOUS
 62
     7
100
AcDbLine
 10
644.5014808089863
 20
309.237427599682
 30
0.0
 11
649.1014808089859
 21
309.237427599682
 31
0.0
  0
LINE
  5
195
330
1F
100
AcDbEntity
  8
8
  6
CONTINUOUS
 62
     7
100
AcDbLine
 10
644.5014808089863
 20
305.737427599682
 30
0.0
 11
649.1014808089859
 21
305.737427599682
 31
0.0
  0
LINE
  5
196
330
1F
100
AcDbEntity
  8
8
  6
CONTINUOUS
 62
     7
100
AcDbLine
 10
644.5014808089863
 20
295.237427599681
 30
0.0
 11
649.1014808089859
 21
295.237427599682
 31
0.0
  0
LINE
  5
197
330
1F
100
AcDbEntity
  8
8
  6
CONTINUOUS
 62
     7
100
AcDbLine
 10
644.5014808089863
 20
298.737427599682
 30
0.0
 11
649.1014808089859
 21
298.737427599682
 31
0.0
  0
LINE
  5
198
330
1F
100
AcDbEntity
  8
8
  6
CONTINUOUS
 62
     7
100
AcDbLine
 10
649.1014808089859
 20
309.237427599682
 30
0.0
 11
649.1014808089859
 21
302.237427599682
 31
0.0
  0
LINE
  5
199
330
1F
100
AcDbEntity
  8
8
  6
CONTINUOUS
 62
     7
100
AcDbLine
 10
649.1014808089859
 20
295.237427599682
 30
0.0
 11
649.1014808089859
 21
302.237427599682
 31
0.0
  0
LINE
  5
19A
330
1F
100
AcDbEntity
  8
8
  6
CONTINUOUS
 62
     7
100
AcDbLine
 10
644.5014808089863
 20
309.237427599682
 30
0.0
 11
644.5014808089863
 21
295.237427599681
 31
0.0
  0
LINE
  5
19B
330
1F
100
AcDbEntity
  8
8
  6
CONTINUOUS
 62
     7
100
AcDbLine
 10
644.5014808089863
 20
295.987427599682
 30
0.0
 11
644.0014808089863
 21
295.987427599682
 31
0.0
  0
LINE
  5
19C
330
1F
100
AcDbEntity
  8
8
  6
CONTINUOUS
 62
     7
100
AcDbLine
 10
644.0014808089863
 20
308.487427599682
 30
0.0
 11
644.0014808089863
 21
295.987427599682
 31
0.0
  0
ARC
  5
19D
330
1F
100
AcDbEntity
  8
10
  6
CONTINUOUS
 62
     1
100
AcDbCircle
 10
683.1578599628057
 20
301.3356386706002
 30
0.0
 40
1.387515022395519
100
AcDbArc
 50
138.1902399436242
 51
221.8097600563755
  0
ARC
  5
19E
330
1F
100
AcDbEntity
  8
10
  6
CONTINUOUS
 62
     1
100
AcDbCircle
 10
681.0897406879758
 20
301.335644462722
 30
0.0
 40
1.387299627082371
100
AcDbArc
 50
318.1825978710856
 51
41.81739912887618
  0
LINE
  5
19F
330
1F
100
AcDbEntity
  8
10
  6
CONTINUOUS
 62
     1
100
AcDbLine
 10
682.1236583686406
 20
300.4106386706001
 30
0.0
 11
689.4810856691666
 21
300.4106386705998
 31
0.0
  0
ARC
  5
1A0
330
1F
100
AcDbEntity
  8
10
  6
CONTINUOUS
 62
     1
100
AcDbCircle
 10
683.1578449404216
 20
303.1856329326085
 30
0.0
 40
1.387500000000045
100
AcDbArc
 50
138.1900000000009
 51
221.8099970000301
  0
LINE
  5
1A1
330
1F
100
AcDbEntity
  8
10
  6
CONTINUOUS
 62
     1
100
AcDbLine
 10
682.123658417073
 20
304.1106272487661
 30
0.0
 11
689.4810856691666
 21
304.1106272487659
 31
0.0
  0
MTEXT
  5
1A2
330
1F
100
AcDbEntity
  8
7
  6
CONTINUOUS
 62
     4
100
AcDbMText
 10
677.6674688331569
 20
292.8771003238655
 30
0.0
 40
6.0
 41
38.99793999408
 71
     1
 72
     1
  1
{\fＭＳ ゴシック;\T1.555898;L=500}
1001
ACAD
1000
ACAD_MTEXT_DEFINED_HEIGHT_BEGIN
1070
    46
1040
6.0
1000
ACAD_MTEXT_DEFINED_HEIGHT_END
  0
LINE
  5
1A3
330
1F
100
AcDbEntity
  8
10
  6
CONTINUOUS
 62
     1
100
AcDbLine
 10
706.4336379566729
 20
306.7606629596823
 30
0.0
 11
698.5988844803162
 21
306.7606629596823
 31
0.0
  0
LINE
  5
1A4
330
1F
100
AcDbEntity
  8
10
  6
CONTINUOUS
 62
     1
100
AcDbLine
 10
715.4336149566727
 20
304.2606429596822
 30
0.0
 11
702.4336059566726
 21
304.2606429596822
 31
0.0
  0
LINE
  5
1A5
330
1F
100
AcDbEntity
  8
10
  6
CONTINUOUS
 62
     1
100
AcDbLine
 10
712.4336109566727
 20
302.660642959682
 30
0.0
 11
703.4336099566726
 21
302.660642959682
 31
0.0
  0
LINE
  5
1A6
330
1F
100
AcDbEntity
  8
10
  6
CONTINUOUS
 62
     1
100
AcDbLine
 10
712.4336109566727
 20
301.0606529596821
 30
0.0
 11
703.4336099566726
 21
301.0606529596821
 31
0.0
  0
LINE
  5
1A7
330
1F
100
AcDbEntity
  8
10
  6
CONTINUOUS
 62
     1
100
AcDbLine
 10
712.4336109566727
 20
301.8606229596821
 30
0.0
 11
703.4336099566726
 21
301.8606229596821
 31
0.0
  0
LINE
  5
1A8
330
1F
100
AcDbEntity
  8
10
  6
CONTINUOUS
 62
     1
100
AcDbLine
 10
712.4336109566727
 20
303.4606229596823
 30
0.0
 11
703.4336099566726
 21
303.4606229596823
 31
0.0
  0
LINE
  5
1A9
330
1F
100
AcDbEntity
  8
10
  6
CONTINUOUS
 62
     1
100
AcDbLine
 10
706.4336379566729
 20
297.7606029596818
 30
0.0
 11
698.5988844803162
 21
297.7606029596816
 31
0.0
  0
LINE
  5
1AA
330
1F
100
AcDbEntity
  8
10
  6
CONTINUOUS
 62
     1
100
AcDbLine
 10
715.4336149566727
 20
300.2606329596822
 30
0.0
 11
702.4336059566726
 21
300.2606329596822
 31
0.0
  0
LINE
  5
1AB
330
1F
100
AcDbEntity
  8
10
  6
CONTINUOUS
 62
     1
100
AcDbLine
 10
695.7781144016112
 20
305.7508927489364
 30
0.0
 11
689.4810856691666
 21
305.7508927489364
 31
0.0
  0
LINE
  5
1AC
330
1F
100
AcDbEntity
  8
10
  6
CONTINUOUS
 62
     1
100
AcDbLine
 10
695.7781144016112
 20
298.7703731704294
 30
0.0
 11
689.4810856691666
 21
298.7703731704294
 31
0.0
  0
LINE
  5
1AD
330
1F
100
AcDbEntity
  8
10
  6
CONTINUOUS
 62
     1
100
AcDbLine
 10
689.4810856691666
 20
298.7703731704294
 30
0.0
 11
689.4810856691666
 21
305.7508927489364
 31
0.0
  0
ARC
  5
1AE
330
1F
100
AcDbEntity
  8
10
  6
CONTINUOUS
 62
     1
100
AcDbCircle
 10
698.5988844803167
 20
304.7606629596823
 30
0.0
 40
2.0
100
AcDbArc
 50
90.00000000001303
 51
120.0000000000151
  0
ARC
  5
1AF
330
1F
100
AcDbEntity
  8
10
  6
CONTINUOUS
 62
     1
100
AcDbCircle
 10
695.7781144016112
 20
307.7508927489355
 30
0.0
 40
2.0
100
AcDbArc
 50
269.9999999999998
 51
300.0000000000147
  0
LINE
  5
1B0
330
1F
100
AcDbEntity
  8
10
  6
CONTINUOUS
 62
     1
100
AcDbLine
 10
697.5988844803167
 20
306.4927137672505
 30
0.0
 11
696.7781144016114
 21
306.0188419413673
 31
0.0
  0
ARC
  5
1B1
330
1F
100
AcDbEntity
  8
10
  6
CONTINUOUS
 62
     1
100
AcDbCircle
 10
698.5988844803167
 20
299.7606029596816
 30
0.0
 40
2.0
100
AcDbArc
 50
239.9999999999846
 51
269.9999999999866
  0
ARC
  5
1B2
330
1F
100
AcDbEntity
  8
10
  6
CONTINUOUS
 62
     1
100
AcDbCircle
 10
695.7781144016112
 20
296.7703731704285
 30
0.0
 40
2.0
100
AcDbArc
 50
59.99999999998492
 51
89.99999999999991
  0
LINE
  5
1B3
330
1F
100
AcDbEntity
  8
10
  6
CONTINUOUS
 62
     1
100
AcDbLine
 10
697.5988844803167
 20
298.0285521521137
 30
0.0
 11
696.7781144016114
 21
298.5024239779968
 31
0.0
  0
LINE
  5
1B4
330
1F
100
AcDbEntity
  8
10
  6
CONTINUOUS
 62
     1
100
AcDbLine
 10
702.4336059566726
 20
300.2606329596822
 30
0.0
 11
702.4336059566726
 21
304.2606429596822
 31
0.0
  0
LINE
  5
1B5
330
1F
100
AcDbEntity
  8
10
  6
CONTINUOUS
 62
     1
100
AcDbLine
 10
703.4336099566726
 20
300.2606329596822
 30
0.0
 11
703.4336099566726
 21
304.2606429596822
 31
0.0
  0
LINE
  5
1B6
330
1F
100
AcDbEntity
  8
10
  6
CONTINUOUS
 62
     1
100
AcDbLine
 10
715.4336149566727
 20
302.2606329596822
 30
0.0
 11
715.4336149566727
 21
307.5106429596822
 31
0.0
  0
ARC
  5
1B7
330
1F
100
AcDbEntity
  8
10
  6
CONTINUOUS
 62
     1
100
AcDbCircle
 10
708.4336139566727
 20
306.5106429596822
 30
0.0
 40
1.0
100
AcDbArc
 50
89.99999999999991
 51
179.9999999999998
  0
LINE
  5
1B8
330
1F
100
AcDbEntity
  8
10
  6
CONTINUOUS
 62
     1
100
AcDbLine
 10
706.4336379566729
 20
306.2606529596821
 30
0.0
 11
707.4336099566726
 21
306.2606529596821
 31
0.0
  0
LINE
  5
1B9
330
1F
100
AcDbEntity
  8
10
  6
CONTINUOUS
 62
     1
100
AcDbLine
 10
706.4336379566729
 20
306.7606629596823
 30
0.0
 11
706.4336379566729
 21
304.2606429596822
 31
0.0
  0
LINE
  5
1BA
330
1F
100
AcDbEntity
  8
10
  6
CONTINUOUS
 62
     1
100
AcDbLine
 10
707.4336099566726
 20
306.5106429596822
 30
0.0
 11
707.4336099566726
 21
304.2606429596822
 31
0.0
  0
LINE
  5
1BB
330
1F
100
AcDbEntity
  8
10
  6
CONTINUOUS
 62
     1
100
AcDbLine
 10
707.4336099566726
 20
306.2606529596821
 30
0.0
 11
707.4336099566726
 21
304.2606429596822
 31
0.0
  0
LINE
  5
1BC
330
1F
100
AcDbEntity
  8
10
  6
CONTINUOUS
 62
     1
100
AcDbLine
 10
708.4336139566727
 20
297.010622959682
 30
0.0
 11
715.4336149566727
 21
297.010622959682
 31
0.0
  0
LINE
  5
1BD
330
1F
100
AcDbEntity
  8
10
  6
CONTINUOUS
 62
     1
100
AcDbLine
 10
707.4336099566726
 20
298.260612959682
 30
0.0
 11
706.4336379566729
 21
298.260612959682
 31
0.0
  0
LINE
  5
1BE
330
1F
100
AcDbEntity
  8
10
  6
CONTINUOUS
 62
     1
100
AcDbLine
 10
706.4336379566729
 20
297.7606029596818
 30
0.0
 11
706.4336379566729
 21
300.260622959682
 31
0.0
  0
LINE
  5
1BF
330
1F
100
AcDbEntity
  8
10
  6
CONTINUOUS
 62
     1
100
AcDbLine
 10
707.4336099566726
 20
298.010622959682
 30
0.0
 11
707.4336099566726
 21
300.2606329596822
 31
0.0
  0
LINE
  5
1C0
330
1F
100
AcDbEntity
  8
10
  6
CONTINUOUS
 62
     1
100
AcDbLine
 10
707.4336099566726
 20
300.2606329596822
 30
0.0
 11
707.4336099566726
 21
298.260612959682
 31
0.0
  0
ARC
  5
1C1
330
1F
100
AcDbEntity
  8
10
  6
CONTINUOUS
 62
     1
100
AcDbCircle
 10
708.4336139566727
 20
298.010622959682
 30
0.0
 40
1.0
100
AcDbArc
 50
179.9999999999998
 51
269.9999999999998
  0
LINE
  5
1C2
330
1F
100
AcDbEntity
  8
10
  6
CONTINUOUS
 62
     1
100
AcDbLine
 10
712.4336109566727
 20
304.2606429596822
 30
0.0
 11
712.4336109566727
 21
300.2606329596822
 31
0.0
  0
LINE
  5
1C3
330
1F
100
AcDbEntity
  8
10
  6
CONTINUOUS
 62
     1
100
AcDbLine
 10
715.4336149566727
 20
302.2606329596822
 30
0.0
 11
715.4336149566727
 21
297.010622959682
 31
0.0
  0
LINE
  5
1C4
330
1F
100
AcDbEntity
  8
10
  6
CONTINUOUS
 62
     1
100
AcDbLine
 10
714.4336059566726
 20
304.2606429596822
 30
0.0
 11
714.4336059566726
 21
300.2606329596822
 31
0.0
  0
LINE
  5
1C5
330
1F
100
AcDbEntity
  8
10
  6
CONTINUOUS
 62
     1
100
AcDbLine
 10
708.4336139566727
 20
307.5106429596822
 30
0.0
 11
715.4336149566727
 21
307.5106429596822
 31
0.0
  0
CIRCLE
  5
1C6
330
1F
100
AcDbEntity
  8
8
  6
CONTINUOUS
 62
     7
100
AcDbCircle
 10
379.0014808089752
 20
302.2374275996756
 30
0.0
 40
17.5
  0
CIRCLE
  5
1C7
330
1F
100
AcDbEntity
  8
11
  6
HIDDEN
 62
     3
100
AcDbCircle
 10
379.0014808089752
 20
302.2374275996756
 30
0.0
 40
22.5
  0
HATCH
  5
1C8
330
1F
100
AcDbEntity
  8
9
  6
CONTINUOUS
 62
     2
100
AcDbHatch
 10
0.0
 20
0.0
 30
0.0
210
0.0
220
0.0
230
1.0
  2

 70
     0
 71
     0
 91
        4
 92
        0
 93
       40
 72
     1
 10
379.0014808089762
 20
324.7374275996754
 11
378.0200445932561
 21
324.7160125852672
 72
     1
 10
378.0200445932561
 20
324.7160125852672
 11
377.0404765971538
 21
324.6518083067397
 72
     1
 10
377.0404765971538
 20
324.6518083067397
 11
376.0646414840249
 21
324.5449369805862
 72
     1
 10
376.0646414840249
 20
324.5449369805862
 11
375.0943968114701
 21
324.3956020424501
 72
     1
 10
375.0943968114701
 20
324.3956020424501
 11
374.1315894953687
 21
324.2040877598739
 72
     1
 10
374.1315894953687
 20
324.2040877598739
 11
373.1780522941692
 21
323.9707586911794
 72
     1
 10
373.1780522941692
 20
323.9707586911794
 11
372.2356003201298
 21
323.6960589915105
 72
     1
 10
372.2356003201298
 20
323.6960589915105
 11
371.3060275841484
 21
323.3805115673583
 72
     1
 10
371.3060275841484
 20
323.3805115673583
 11
370.3911035807613
 21
323.0247170811793
 72
     1
 10
370.3911035807613
 20
323.0247170811793
 11
369.4925699198101
 21
322.629352808
 72
     1
 10
369.4925699198101
 20
322.629352808
 11
368.6121370111875
 21
322.1951713461853
 72
     1
 10
368.6121370111875
 20
322.1951713461853
 11
367.7514808089757
 21
321.7229991848252
 72
     1
 10
367.7514808089757
 20
321.7229991848252
 11
366.9122396211721
 21
321.2137351304652
 72
     1
 10
366.9122396211721
 20
321.2137351304652
 11
366.0960109910771
 21
320.6683485961776
 72
     1
 10
366.0960109910771
 20
320.6683485961776
 11
365.3043486562794
 21
320.087877756228
 72
     1
 10
365.3043486562794
 20
320.087877756228
 11
364.5387595910285
 21
319.4734275698522
 72
     1
 10
364.5387595910285
 20
319.4734275698522
 11
363.8007011376232
 21
318.826167677903
 72
     1
 10
363.8007011376232
 20
318.826167677903
 11
363.0915782322782
 21
318.1473301763725
 72
     1
 10
363.0915782322782
 20
318.1473301763725
 11
362.4127407307477
 21
317.4382072710275
 72
     1
 10
362.4127407307477
 20
317.4382072710275
 11
361.7654808387985
 21
316.7001488176222
 72
     1
 10
361.7654808387985
 20
316.7001488176222
 11
361.1510306524227
 21
315.9345597523713
 72
     1
 10
361.1510306524227
 20
315.9345597523713
 11
360.5705598124731
 21
315.1428974175736
 72
     1
 10
360.5705598124731
 20
315.1428974175736
 11
360.0251732781854
 21
314.3266687874785
 72
     1
 10
360.0251732781854
 20
314.3266687874785
 11
359.5159092238255
 21
313.487427599675
 72
     1
 10
359.5159092238255
 20
313.487427599675
 11
359.0437370624654
 21
312.6267713974632
 72
     1
 10
359.0437370624654
 20
312.6267713974632
 11
358.6095556006507
 21
311.7463384888406
 72
     1
 10
358.6095556006507
 20
311.7463384888406
 11
358.2141913274713
 21
310.8478048278894
 72
     1
 10
358.2141913274713
 20
310.8478048278894
 11
357.8583968412923
 21
309.9328808245024
 72
     1
 10
357.8583968412923
 20
309.9328808245024
 11
357.5428494171401
 21
309.003308088521
 72
     1
 10
357.5428494171401
 20
309.003308088521
 11
357.2681497174712
 21
308.0608561144815
 72
     1
 10
357.2681497174712
 20
308.0608561144815
 11
357.0348206487768
 21
307.107318913282
 72
     1
 10
357.0348206487768
 20
307.107318913282
 11
356.8433063662005
 21
306.1445115971806
 72
     1
 10
356.8433063662005
 20
306.1445115971806
 11
356.6939714280645
 21
305.1742669246258
 72
     1
 10
356.6939714280645
 20
305.1742669246258
 11
356.5871001019109
 21
304.1984318114969
 72
     1
 10
356.5871001019109
 20
304.1984318114969
 11
356.5228958233834
 21
303.2188638153946
 72
     1
 10
356.5228958233834
 20
303.2188638153946
 11
356.5014808089752
 21
302.2374275996745
 72
     1
 10
356.5014808089752
 20
302.2374275996822
 11
129.0014808089863
 21
302.2374275996823
 72
     1
 10
129.0014808089863
 20
302.2374275996823
 11
129.0014808089863
 21
352.2374275996824
 72
     1
 10
129.0014808089863
 20
352.2374275996824
 11
379.0014808089863
 21
352.2374275996824
 72
     1
 10
379.0014808089863
 20
352.2374275996824
 11
379.0014808089863
 21
324.7374275996756
 97
        0
 92
        0
 93
       40
 72
     1
 10
401.5014808089753
 20
302.2374275996777
 11
401.4800657945671
 21
303.2188638153976
 72
     1
 10
401.4800657945671
 20
303.2188638153976
 11
401.4158615160395
 21
304.1984318114998
 72
     1
 10
401.4158615160395
 20
304.1984318114998
 11
401.308990189886
 21
305.1742669246286
 72
     1
 10
401.308990189886
 20
305.1742669246286
 11
401.15965525175
 21
306.1445115971832
 72
     1
 10
401.15965525175
 20
306.1445115971832
 11
400.9681409691738
 21
307.1073189132845
 72
     1
 10
400.9681409691738
 20
307.1073189132845
 11
400.7348119004794
 21
308.0608561144838
 72
     1
 10
400.7348119004794
 20
308.0608561144838
 11
400.4601122008104
 21
309.0033080885232
 72
     1
 10
400.4601122008104
 20
309.0033080885232
 11
400.1445647766583
 21
309.9328808245045
 72
     1
 10
400.1445647766583
 20
309.9328808245045
 11
399.7887702904794
 21
310.8478048278914
 72
     1
 10
399.7887702904794
 20
310.8478048278914
 11
399.3934060173001
 21
311.7463384888425
 72
     1
 10
399.3934060173001
 20
311.7463384888425
 11
398.9592245554855
 21
312.6267713974649
 72
     1
 10
398.9592245554855
 20
312.6267713974649
 11
398.4870523941254
 21
313.4874275996766
 72
     1
 10
398.4870523941254
 20
313.4874275996766
 11
397.9777883397655
 21
314.3266687874801
 72
     1
 10
397.9777883397655
 20
314.3266687874801
 11
397.432401805478
 21
315.142897417575
 72
     1
 10
397.432401805478
 20
315.142897417575
 11
396.8519309655285
 21
315.9345597523726
 72
     1
 10
396.8519309655285
 20
315.9345597523726
 11
396.2374807791527
 21
316.7001488176235
 72
     1
 10
396.2374807791527
 20
316.7001488176235
 11
395.5902208872036
 21
317.4382072710286
 72
     1
 10
395.5902208872036
 20
317.4382072710286
 11
394.9113833856732
 21
318.1473301763735
 72
     1
 10
394.9113833856732
 20
318.1473301763735
 11
394.2022604803283
 21
318.8261676779039
 72
     1
 10
394.2022604803283
 20
318.8261676779039
 11
393.4642020269231
 21
319.4734275698531
 72
     1
 10
393.4642020269231
 20
319.4734275698531
 11
392.6986129616723
 21
320.0878777562288
 72
     1
 10
392.6986129616723
 20
320.0878777562288
 11
391.9069506268747
 21
320.6683485961782
 72
     1
 10
391.9069506268747
 20
320.6683485961782
 11
391.0907219967798
 21
321.2137351304658
 72
     1
 10
391.0907219967798
 20
321.2137351304658
 11
390.2514808089763
 21
321.7229991848257
 72
     1
 10
390.2514808089763
 20
321.7229991848257
 11
389.3908246067647
 21
322.1951713461858
 72
     1
 10
389.3908246067647
 20
322.1951713461858
 11
388.5103916981423
 21
322.6293528080004
 72
     1
 10
388.5103916981423
 20
322.6293528080004
 11
387.6118580371911
 21
323.0247170811797
 72
     1
 10
387.6118580371911
 20
323.0247170811797
 11
386.6969340338042
 21
323.3805115673587
 72
     1
 10
386.6969340338042
 20
323.3805115673587
 11
385.7673612978229
 21
323.6960589915108
 72
     1
 10
385.7673612978229
 20
323.6960589915108
 11
384.8249093237836
 21
323.9707586911797
 72
     1
 10
384.8249093237836
 20
323.9707586911797
 11
383.8713721225843
 21
324.2040877598741
 72
     1
 10
383.8713721225843
 20
324.2040877598741
 11
382.908564806483
 21
324.3956020424503
 72
     1
 10
382.908564806483
 20
324.3956020424503
 11
381.9383201339283
 21
324.5449369805863
 72
     1
 10
381.9383201339283
 20
324.5449369805863
 11
380.9624850207995
 21
324.6518083067398
 72
     1
 10
380.9624850207995
 20
324.6518083067398
 11
379.9829170246974
 21
324.7160125852674
 72
     1
 10
379.9829170246974
 20
324.7160125852674
 11
379.0014808089774
 21
324.7374275996756
 72
     1
 10
379.0014808089863
 20
324.7374275996756
 11
379.0014808089863
 21
352.2374275996824
 72
     1
 10
379.0014808089863
 20
352.2374275996824
 11
629.0014808089863
 21
352.2374275996824
 72
     1
 10
629.0014808089863
 20
352.2374275996824
 11
629.0014808089863
 21
302.237427599682
 72
     1
 10
629.0014808089863
 20
302.237427599682
 11
401.5014808089752
 21
302.2374275996821
 97
        0
 92
        0
 93
       40
 72
     1
 10
129.0014808089863
 20
252.2374275996824
 11
379.0014808089863
 21
252.2374275996824
 72
     1
 10
379.0014808089863
 20
252.2374275996824
 11
379.0014808089863
 21
279.7374275996756
 72
     1
 10
379.0014808089757
 20
279.7374275996756
 11
378.0200445932556
 21
279.7588426140838
 72
     1
 10
378.0200445932556
 20
279.7588426140838
 11
377.0404765971533
 21
279.8230468926113
 72
     1
 10
377.0404765971533
 20
279.8230468926113
 11
376.0646414840244
 21
279.9299182187648
 72
     1
 10
376.0646414840244
 20
279.9299182187648
 11
375.0943968114697
 21
280.0792531569009
 72
     1
 10
375.0943968114697
 20
280.0792531569009
 11
374.1315894953682
 21
280.2707674394771
 72
     1
 10
374.1315894953682
 20
280.2707674394771
 11
373.1780522941689
 21
280.5040965081716
 72
     1
 10
373.1780522941689
 20
280.5040965081716
 11
372.2356003201294
 21
280.7787962078405
 72
     1
 10
372.2356003201294
 20
280.7787962078405
 11
371.306027584148
 21
281.0943436319927
 72
     1
 10
371.306027584148
 20
281.0943436319927
 11
370.391103580761
 21
281.4501381181717
 72
     1
 10
370.391103580761
 20
281.4501381181717
 11
369.4925699198098
 21
281.845502391351
 72
     1
 10
369.4925699198098
 20
281.845502391351
 11
368.6121370111873
 21
282.2796838531657
 72
     1
 10
368.6121370111873
 20
282.2796838531657
 11
367.7514808089755
 21
282.7518560145258
 72
     1
 10
367.7514808089755
 20
282.7518560145258
 11
366.9122396211719
 21
283.2611200688858
 72
     1
 10
366.9122396211719
 20
283.2611200688858
 11
366.0960109910769
 21
283.8065066031734
 72
     1
 10
366.0960109910769
 20
283.8065066031734
 11
365.3043486562793
 21
284.3869774431229
 72
     1
 10
365.3043486562793
 20
284.3869774431229
 11
364.5387595910283
 21
285.0014276294987
 72
     1
 10
364.5387595910283
 20
285.0014276294987
 11
363.8007011376231
 21
285.648687521448
 72
     1
 10
363.8007011376231
 20
285.648687521448
 11
363.0915782322781
 21
286.3275250229784
 72
     1
 10
363.0915782322781
 20
286.3275250229784
 11
362.4127407307476
 21
287.0366479283234
 72
     1
 10
362.4127407307476
 20
287.0366479283234
 11
361.7654808387984
 21
287.7747063817287
 72
     1
 10
361.7654808387984
 20
287.7747063817287
 11
361.1510306524226
 21
288.5402954469796
 72
     1
 10
361.1510306524226
 20
288.5402954469796
 11
360.5705598124731
 21
289.3319577817773
 72
     1
 10
360.5705598124731
 20
289.3319577817773
 11
360.0251732781854
 21
290.1481864118723
 72
     1
 10
360.0251732781854
 20
290.1481864118723
 11
359.5159092238255
 21
290.9874275996759
 72
     1
 10
359.5159092238255
 20
290.9874275996759
 11
359.0437370624654
 21
291.8480838018876
 72
     1
 10
359.0437370624654
 20
291.8480838018876
 11
358.6095556006508
 21
292.7285167105102
 72
     1
 10
358.6095556006508
 20
292.7285167105102
 11
358.2141913274714
 21
293.6270503714614
 72
     1
 10
358.2141913274714
 20
293.6270503714614
 11
357.8583968412924
 21
294.5419743748484
 72
     1
 10
357.8583968412924
 20
294.5419743748484
 11
357.5428494171402
 21
295.4715471108298
 72
     1
 10
357.5428494171402
 20
295.4715471108298
 11
357.2681497174713
 21
296.4139990848693
 72
     1
 10
357.2681497174713
 20
296.4139990848693
 11
357.0348206487769
 21
297.3675362860687
 72
     1
 10
357.0348206487769
 20
297.3675362860687
 11
356.8433063662007
 21
298.33034360217
 72
     1
 10
356.8433063662007
 20
298.33034360217
 11
356.6939714280646
 21
299.3005882747248
 72
     1
 10
356.6939714280646
 20
299.3005882747248
 11
356.5871001019111
 21
300.2764233878537
 72
     1
 10
356.5871001019111
 20
300.2764233878537
 11
356.5228958233836
 21
301.255991383956
 72
     1
 10
356.5228958233836
 20
301.255991383956
 11
356.5014808089754
 21
302.237427599676
 72
     1
 10
356.5014808089753
 20
302.2374275996822
 11
129.0014808089863
 21
302.2374275996824
 72
     1
 10
129.0014808089863
 20
302.2374275996824
 11
129.0014808089863
 21
252.2374275996824
 97
        0
 92
        0
 93
       40
 72
     1
 10
379.0014808089863
 20
252.2374275996824
 11
629.0014808089863
 21
252.2374275996824
 72
     1
 10
629.0014808089863
 20
252.2374275996824
 11
629.0014808089863
 21
302.237427599682
 72
     1
 10
629.0014808089863
 20
302.237427599682
 11
401.5014808089752
 21
302.2374275996756
 72
     1
 10
401.5014808089752
 20
302.2374275996766
 11
401.480065794567
 21
301.2559913839565
 72
     1
 10
401.480065794567
 20
301.2559913839565
 11
401.4158615160395
 21
300.2764233878542
 72
     1
 10
401.4158615160395
 20
300.2764233878542
 11
401.3089901898859
 21
299.3005882747253
 72
     1
 10
401.3089901898859
 20
299.3005882747253
 11
401.1596552517498
 21
298.3303436021705
 72
     1
 10
401.1596552517498
 20
298.3303436021705
 11
400.9681409691736
 21
297.3675362860691
 72
     1
 10
400.9681409691736
 20
297.3675362860691
 11
400.7348119004792
 21
296.4139990848697
 72
     1
 10
400.7348119004792
 20
296.4139990848697
 11
400.4601122008102
 21
295.4715471108302
 72
     1
 10
400.4601122008102
 20
295.4715471108302
 11
400.1445647766581
 21
294.5419743748488
 72
     1
 10
400.1445647766581
 20
294.5419743748488
 11
399.788770290479
 21
293.6270503714618
 72
     1
 10
399.788770290479
 20
293.6270503714618
 11
399.3934060172997
 21
292.7285167105106
 72
     1
 10
399.3934060172997
 20
292.7285167105106
 11
398.959224555485
 21
291.848083801888
 72
     1
 10
398.959224555485
 20
291.848083801888
 11
398.4870523941249
 21
290.9874275996762
 72
     1
 10
398.4870523941249
 20
290.9874275996762
 11
397.977788339765
 21
290.1481864118727
 72
     1
 10
397.977788339765
 20
290.1481864118727
 11
397.4324018054773
 21
289.3319577817776
 72
     1
 10
397.4324018054773
 20
289.3319577817776
 11
396.8519309655277
 21
288.5402954469799
 72
     1
 10
396.8519309655277
 20
288.5402954469799
 11
396.237480779152
 21
287.774706381729
 72
     1
 10
396.237480779152
 20
287.774706381729
 11
395.5902208872027
 21
287.0366479283238
 72
     1
 10
395.5902208872027
 20
287.0366479283238
 11
394.9113833856722
 21
286.3275250229788
 72
     1
 10
394.9113833856722
 20
286.3275250229788
 11
394.2022604803273
 21
285.6486875214483
 72
     1
 10
394.2022604803273
 20
285.6486875214483
 11
393.464202026922
 21
285.0014276294991
 72
     1
 10
393.464202026922
 20
285.0014276294991
 11
392.698612961671
 21
284.3869774431233
 72
     1
 10
392.698612961671
 20
284.3869774431233
 11
391.9069506268733
 21
283.8065066031737
 72
     1
 10
391.9069506268733
 20
283.8065066031737
 11
391.0907219967783
 21
283.2611200688861
 72
     1
 10
391.0907219967783
 20
283.2611200688861
 11
390.2514808089747
 21
282.7518560145261
 72
     1
 10
390.2514808089747
 20
282.7518560145261
 11
389.390824606763
 21
282.279683853166
 72
     1
 10
389.390824606763
 20
282.279683853166
 11
388.5103916981404
 21
281.8455023913514
 72
     1
 10
388.5103916981404
 20
281.8455023913514
 11
387.6118580371892
 21
281.450138118172
 72
     1
 10
387.6118580371892
 20
281.450138118172
 11
386.6969340338022
 21
281.0943436319931
 72
     1
 10
386.6969340338022
 20
281.0943436319931
 11
385.7673612978207
 21
280.7787962078409
 72
     1
 10
385.7673612978207
 20
280.7787962078409
 11
384.8249093237812
 21
280.5040965081719
 72
     1
 10
384.8249093237812
 20
280.5040965081719
 11
383.8713721225818
 21
280.2707674394775
 72
     1
 10
383.8713721225818
 20
280.2707674394775
 11
382.9085648064804
 21
280.0792531569013
 72
     1
 10
382.9085648064804
 20
280.0792531569013
 11
381.9383201339256
 21
279.9299182187652
 72
     1
 10
381.9383201339256
 20
279.9299182187652
 11
380.9624850207967
 21
279.8230468926117
 72
     1
 10
380.9624850207967
 20
279.8230468926117
 11
379.9829170246945
 21
279.7588426140842
 72
     1
 10
379.9829170246945
 20
279.7588426140842
 11
379.0014808089743
 21
279.737427599676
 72
     1
 10
379.0014808089863
 20
279.7374275996756
 11
379.0014808089863
 21
252.2374275996824
 97
        0
 75
     0
 76
     2
 52
0.0
 41
0.5
 77
     0
 78
     2
 53
45.0
 43
0.0
 44
0.0
 45
-6.735192090801852
 46
6.735192090801876
 79
     0
 53
135.0
 43
0.0
 44
0.0
 45
-6.735192090801878
 46
-6.735192090801851
 79
     0
 98
        0
  0
LINE
  5
1C9
330
1F
100
AcDbEntity
  8
10
  6
CONTINUOUS
 62
     1
100
AcDbLine
 10
126.0000179999979
 20
90.76304844318588
 30
0.0
 11
99.99999999219818
 21
90.76304844318588
 31
0.0
  0
LINE
  5
1CA
330
1F
100
AcDbEntity
  8
10
  6
CONTINUOUS
 62
     1
100
AcDbLine
 10
120.0000099981977
 20
87.56304844222586
 30
0.0
 11
102.0000079927969
 21
87.56304844222586
 31
0.0
  0
LINE
  5
1CB
330
1F
100
AcDbEntity
  8
10
  6
CONTINUOUS
 62
     1
100
AcDbLine
 10
120.0000099981977
 20
84.36306844126548
 30
0.0
 11
102.0000079927969
 21
84.36306844126548
 31
0.0
  0
LINE
  5
1CC
330
1F
100
AcDbEntity
  8
10
  6
CONTINUOUS
 62
     1
100
AcDbLine
 10
120.0000099981977
 20
85.96300844174579
 30
0.0
 11
102.0000079927969
 21
85.96300844174579
 31
0.0
  0
LINE
  5
1CD
330
1F
100
AcDbEntity
  8
10
  6
CONTINUOUS
 62
     1
100
AcDbLine
 10
120.0000099981977
 20
89.16300844270646
 30
0.0
 11
102.0000079927969
 21
89.16300844270646
 31
0.0
  0
LINE
  5
1CE
330
1F
100
AcDbEntity
  8
10
  6
CONTINUOUS
 62
     1
100
AcDbLine
 10
126.0000179999979
 20
82.76302844078637
 30
0.0
 11
99.99999999219818
 21
82.76302844078637
 31
0.0
  0
LINE
  5
1CF
330
1F
100
AcDbEntity
  8
10
  6
CONTINUOUS
 62
     1
100
AcDbLine
 10
74.09507433251213
 20
89.86304788466657
 30
0.0
 11
40.00001799999792
 21
89.86304788466657
 31
0.0
  0
LINE
  5
1D0
330
1F
100
AcDbEntity
  8
10
  6
CONTINUOUS
 62
     1
100
AcDbLine
 10
74.09495940941315
 20
83.66304789256004
 30
0.0
 11
40.00001799999791
 21
83.6630476440636
 31
0.0
  0
LINE
  5
1D1
330
1F
100
AcDbEntity
  8
10
  6
CONTINUOUS
 62
     1
100
AcDbLine
 10
74.0949594094138
 20
81.16302844030783
 30
0.0
 11
74.0949594094138
 21
92.36302844366739
 31
0.0
  0
LINE
  5
1D2
330
1F
100
AcDbEntity
  8
10
  6
CONTINUOUS
 62
     1
100
AcDbLine
 10
99.99999999219818
 20
82.76302844078637
 30
0.0
 11
99.99999999219818
 21
90.76304844318588
 31
0.0
  0
LINE
  5
1D3
330
1F
100
AcDbEntity
  8
10
  6
CONTINUOUS
 62
     1
100
AcDbLine
 10
102.0000079927969
 20
82.76302844078637
 30
0.0
 11
102.0000079927969
 21
90.76304844318588
 31
0.0
  0
LINE
  5
1D4
330
1F
100
AcDbEntity
  8
10
  6
CONTINUOUS
 62
     1
100
AcDbLine
 10
126.0000179999979
 20
86.76302844198631
 30
0.0
 11
126.0000179999979
 21
97.26304844513581
 31
0.0
  0
ARC
  5
1D5
330
1F
100
AcDbEntity
  8
10
  6
CONTINUOUS
 62
     1
100
AcDbCircle
 10
112.000015995798
 20
95.26304844453568
 30
0.0
 40
2.000000000599996
100
AcDbArc
 50
89.99999999999991
 51
179.9999999999998
  0
LINE
  5
1D6
330
1F
100
AcDbEntity
  8
10
  6
CONTINUOUS
 62
     1
100
AcDbLine
 10
108.0000639945975
 20
94.7630684443861
 30
0.0
 11
110.0000079951967
 21
94.7630684443861
 31
0.0
  0
LINE
  5
1D7
330
1F
100
AcDbEntity
  8
10
  6
CONTINUOUS
 62
     1
100
AcDbLine
 10
108.0000639945975
 20
95.76308844468645
 30
0.0
 11
108.0000639945975
 21
90.76304844318653
 31
0.0
  0
LINE
  5
1D8
330
1F
100
AcDbEntity
  8
10
  6
CONTINUOUS
 62
     1
100
AcDbLine
 10
110.0000079951967
 20
95.26304844453568
 30
0.0
 11
110.0000079951967
 21
90.76304844318588
 31
0.0
  0
LINE
  5
1D9
330
1F
100
AcDbEntity
  8
10
  6
CONTINUOUS
 62
     1
100
AcDbLine
 10
110.0000079951967
 20
94.7630684443861
 30
0.0
 11
110.0000079951967
 21
90.76304844318588
 31
0.0
  0
LINE
  5
1DA
330
1F
100
AcDbEntity
  8
10
  6
CONTINUOUS
 62
     1
100
AcDbLine
 10
112.000015995798
 20
76.26300843883584
 30
0.0
 11
126.0000179999979
 21
76.26300843883584
 31
0.0
  0
LINE
  5
1DB
330
1F
100
AcDbEntity
  8
10
  6
CONTINUOUS
 62
     1
100
AcDbLine
 10
110.0000079951967
 20
78.76298843958556
 30
0.0
 11
108.0000639945975
 21
78.76298843958556
 31
0.0
  0
LINE
  5
1DC
330
1F
100
AcDbEntity
  8
10
  6
CONTINUOUS
 62
     1
100
AcDbLine
 10
108.0000639945975
 20
77.76296843928586
 30
0.0
 11
108.0000639945975
 21
82.76300844078577
 31
0.0
  0
LINE
  5
1DD
330
1F
100
AcDbEntity
  8
10
  6
CONTINUOUS
 62
     1
100
AcDbLine
 10
110.0000079951967
 20
78.26300843943596
 30
0.0
 11
110.0000079951967
 21
82.76302844078637
 31
0.0
  0
LINE
  5
1DE
330
1F
100
AcDbEntity
  8
10
  6
CONTINUOUS
 62
     1
100
AcDbLine
 10
110.0000079951967
 20
82.76302844078637
 30
0.0
 11
110.0000079951967
 21
78.76298843958556
 31
0.0
  0
ARC
  5
1DF
330
1F
100
AcDbEntity
  8
10
  6
CONTINUOUS
 62
     1
100
AcDbCircle
 10
112.000015995798
 20
78.26300843943596
 30
0.0
 40
2.000000000599996
100
AcDbArc
 50
179.9999999999998
 51
269.9999999999998
  0
LINE
  5
1E0
330
1F
100
AcDbEntity
  8
10
  6
CONTINUOUS
 62
     1
100
AcDbLine
 10
120.0000099981977
 20
90.76304844318588
 30
0.0
 11
120.0000099981977
 21
82.76302844078637
 31
0.0
  0
LINE
  5
1E1
330
1F
100
AcDbEntity
  8
10
  6
CONTINUOUS
 62
     1
100
AcDbLine
 10
126.0000179999979
 20
86.76302844198631
 30
0.0
 11
126.0000179999979
 21
76.26300843883584
 31
0.0
  0
LINE
  5
1E2
330
1F
100
AcDbEntity
  8
10
  6
CONTINUOUS
 62
     1
100
AcDbLine
 10
123.9999999993978
 20
90.76304844318588
 30
0.0
 11
123.9999999993978
 21
82.76302844078637
 31
0.0
  0
LINE
  5
1E3
330
1F
100
AcDbEntity
  8
10
  6
CONTINUOUS
 62
     1
100
AcDbLine
 10
112.000015995798
 20
97.26304844513581
 30
0.0
 11
126.0000179999979
 21
97.26304844513581
 31
0.0
  0
LINE
  5
1E4
330
1F
100
AcDbEntity
  8
10
  6
CONTINUOUS
 62
     1
100
AcDbLine
 10
108.0000639945975
 20
95.76308844468645
 30
0.0
 11
92.33055703718415
 21
95.76308844468645
 31
0.0
  0
LINE
  5
1E5
330
1F
100
AcDbEntity
  8
10
  6
CONTINUOUS
 62
     1
100
AcDbLine
 10
82.39198814434741
 20
92.36302844366739
 30
0.0
 11
74.0949594094138
 21
92.36302844366739
 31
0.0
  0
ARC
  5
1E6
330
1F
100
AcDbEntity
  8
10
  6
CONTINUOUS
 62
     1
100
AcDbCircle
 10
92.43050898005288
 20
91.0038780623785
 30
0.0
 40
4.760259851515556
100
AcDbArc
 50
91.2031371291626
 51
128.5407048704934
  0
ARC
  5
1E7
330
1F
100
AcDbEntity
  8
10
  6
CONTINUOUS
 62
     1
100
AcDbCircle
 10
81.91741134246519
 20
105.2261087156557
 30
0.0
 40
12.87183192962442
100
AcDbArc
 50
272.1129402668354
 51
301.7409359603907
  0
LINE
  5
1E8
330
1F
100
AcDbEntity
  8
10
  6
CONTINUOUS
 62
     1
100
AcDbLine
 10
89.46453163254077
 20
94.72719005951186
 30
0.0
 11
88.68901687868151
 21
94.27944640761118
 31
0.0
  0
LINE
  5
1E9
330
1F
100
AcDbEntity
  8
10
  6
CONTINUOUS
 62
     1
100
AcDbLine
 10
108.0000639945975
 20
77.76296843928878
 30
0.0
 11
92.33055703718415
 21
77.76296843928878
 31
0.0
  0
LINE
  5
1EA
330
1F
100
AcDbEntity
  8
10
  6
CONTINUOUS
 62
     1
100
AcDbLine
 10
82.39198814434741
 20
81.16302844030783
 30
0.0
 11
74.0949594094138
 21
81.16302844030783
 31
0.0
  0
ARC
  5
1EB
330
1F
100
AcDbEntity
  8
10
  6
CONTINUOUS
 62
     1
100
AcDbCircle
 10
92.43050898005288
 20
82.52217882159673
 30
0.0
 40
4.760259851515556
100
AcDbArc
 50
231.4592951295162
 51
268.7968628708372
  0
ARC
  5
1EC
330
1F
100
AcDbEntity
  8
10
  6
CONTINUOUS
 62
     1
100
AcDbCircle
 10
81.91741134246519
 20
68.29994816831952
 30
0.0
 40
12.87183192962442
100
AcDbArc
 50
58.25906403960889
 51
87.88705973316424
  0
LINE
  5
1ED
330
1F
100
AcDbEntity
  8
10
  6
CONTINUOUS
 62
     1
100
AcDbLine
 10
89.46453163254077
 20
78.79886682446337
 30
0.0
 11
88.68901687868151
 21
79.24661047636405
 31
0.0
  0
MTEXT
  5
1EE
330
1F
100
AcDbEntity
  8
2
  6
CONTINUOUS
 62
   151
100
AcDbMText
 10
82.00003799999922
 20
66.26309844198659
 30
0.0
 40
4.0
 41
14.1499936208
 71
     4
 72
     1
  1
{\fＭＳ ゴシック;\T0.762970;Light}
1001
ACAD
1000
ACAD_MTEXT_DEFINED_HEIGHT_BEGIN
1070
    46
1040
4.0
1000
ACAD_MTEXT_DEFINED_HEIGHT_END
  0
MTEXT
  5
1EF
330
1F
100
AcDbEntity
  8
2
  6
CONTINUOUS
 62
   151
100
AcDbMText
 10
82.00003799999922
 20
56.26311844198653
 30
0.0
 40
4.0
 41
25.52732986687999
 71
     4
 72
     1
  1
{\fＭＳ ゴシック;\T0.757746;SMR-03V-B}
1001
ACAD
1000
ACAD_MTEXT_DEFINED_HEIGHT_BEGIN
1070
    46
1040
4.0
1000
ACAD_MTEXT_DEFINED_HEIGHT_END
  0
MTEXT
  5
1F0
330
1F
100
AcDbEntity
  8
2
  6
CONTINUOUS
 62
   151
100
AcDbMText
 10
82.00003799999922
 20
46.26311844198653
 30
0.0
 40
4.0
 41
36.85864398112
 71
     4
 72
     1
  1
{\fＭＳ ゴシック;\T0.765486;BYM-001T-P0.6}
1001
ACAD
1000
ACAD_MTEXT_DEFINED_HEIGHT_BEGIN
1070
    46
1040
4.0
1000
ACAD_MTEXT_DEFINED_HEIGHT_END
  0
MTEXT
  5
1F1
330
1F
100
AcDbEntity
  8
2
  6
CONTINUOUS
 62
   151
100
AcDbMText
 10
130.0000179999997
 20
56.26311844198653
 30
0.0
 40
4.0
 41
28.36553734692
 71
     4
 72
     1
  1
{\fＭＳ ゴシック;\T0.758093;SMP-03V-BC}
1001
ACAD
1000
ACAD_MTEXT_DEFINED_HEIGHT_BEGIN
1070
    46
1040
4.0
1000
ACAD_MTEXT_DEFINED_HEIGHT_END
  0
MTEXT
  5
1F2
330
1F
100
AcDbEntity
  8
2
  6
CONTINUOUS
 62
   151
100
AcDbMText
 10
130.0000179999997
 20
46.26311844198653
 30
0.0
 40
4.0
 41
39.70298692048001
 71
     4
 72
     1
  1
{\fＭＳ ゴシック;\T0.763956;BHF-001T-0.8SS}
1001
ACAD
1000
ACAD_MTEXT_DEFINED_HEIGHT_BEGIN
1070
    46
1040
4.0
1000
ACAD_MTEXT_DEFINED_HEIGHT_END
  0
MTEXT
  5
1F3
330
1F
100
AcDbEntity
  8
2
  6
CONTINUOUS
 62
   151
100
AcDbMText
 10
130.0000179999997
 20
66.26309844198659
 30
0.0
 40
4.0
 41
46.98988480707999
 71
     4
 72
     1
  1
{\fＭＳ ゴシック;\T0.992983;Power　Supply　}
1001
ACAD
1000
ACAD_MTEXT_DEFINED_HEIGHT_BEGIN
1070
    46
1040
4.0
1000
ACAD_MTEXT_DEFINED_HEIGHT_END
  0
MTEXT
  5
1F4
330
1F
100
AcDbEntity
  8
2
  6
CONTINUOUS
 62
   151
100
AcDbMText
 10
42.00001799999791
 20
56.26311844198653
 30
0.0
 40
4.0
 41
25.476877744
 71
     4
 72
     1
  1
{\fＭＳ ゴシック;\T0.773550;Connector}
1001
ACAD
1000
ACAD_MTEXT_DEFINED_HEIGHT_BEGIN
1070
    46
1040
4.0
1000
ACAD_MTEXT_DEFINED_HEIGHT_END
  0
MTEXT
  5
1F5
330
1F
100
AcDbEntity
  8
2
  6
CONTINUOUS
 62
   151
100
AcDbMText
 10
42.00001799999791
 20
46.26311844198653
 30
0.0
 40
4.0
 41
19.83480595536
 71
     4
 72
     1
  1
{\fＭＳ ゴシック;\T0.761366;Contact}
1001
ACAD
1000
ACAD_MTEXT_DEFINED_HEIGHT_BEGIN
1070
    46
1040
4.0
1000
ACAD_MTEXT_DEFINED_HEIGHT_END
  0
MTEXT
  5
1F6
330
1F
100
AcDbEntity
  8
2
  6
CONTINUOUS
 62
   151
100
AcDbMText
 10
44.00001799999791
 20
100.3477886694038
 30
0.0
 40
6.0
 41
63.81406693813498
 71
     7
 72
     1
  1
{\fＭＳ ゴシック;\W0.750000;\T0.771853;Details of Connector}
1001
ACAD
1000
ACAD_MTEXT_DEFINED_HEIGHT_BEGIN
1070
    46
1040
6.0
1000
ACAD_MTEXT_DEFINED_HEIGHT_END
  0
DIMENSION
  5
201
330
1F
100
AcDbEntity
  8
7
  6
CONTINUOUS
 62
     4
100
AcDbDimension
  2
DIM1
 10
129.0014808089862
 20
182.2374275996836
 30
0.0
 11
379.0014808089863
 21
182.2374275996836
 31
0.0
 70
   160
  1
<>
  3
STANDARD
100
AcDbAlignedDimension
 13
629.0014808089863
 23
252.2374275996824
 33
0.0
 14
129.0014808089863
 24
252.2374275996824
 34
0.0
 50
179.9999999999998
100
AcDbRotatedDimension
1001
ACAD
1000
DSTYLE
1002
{
1070
   287
1070
     4
1070
     7
1000

1070
     6
1000

1070
   279
1070
     1
1070
   340
1005
1F7
1070
   140
1040
6.0
1070
    40
1040
1.0
1070
   147
1040
0.0
1070
    76
1070
     0
1070
    75
1070
     0
1070
   173
1070
     1
1070
   289
1070
     2
1070
   288
1070
     1
1070
    77
1070
     1
1070
   172
1070
     1
1070
   174
1070
     0
1070
    74
1070
     0
1070
    73
1070
     0
1070
   284
1070
     8
1070
    78
1070
     8
1070
    42
1040
2.0
1070
    44
1040
3.0
1070
    43
1040
30.0
1070
   271
1070
     2
1070
    41
1040
4.0
1002
}
  0
DIMENSION
  5
20B
330
1F
100
AcDbEntity
  8
7
  6
CONTINUOUS
 62
     4
100
AcDbDimension
  2
DIM2
 10
114.0014808089844
 20
166.2374275996836
 30
0.0
 11
379.0014808089844
 21
166.2374275996836
 31
0.0
 70
   160
  1
<>
  3
STANDARD
100
AcDbAlignedDimension
 13
644.0014808089863
 23
237.2374275996824
 33
0.0
 14
114.0014808089845
 24
237.2374275996824
 34
0.0
 50
179.9999999999998
100
AcDbRotatedDimension
1001
ACAD
1000
DSTYLE
1002
{
1070
   287
1070
     4
1070
     7
1000

1070
     6
1000

1070
   279
1070
     1
1070
   340
1005
1F7
1070
   140
1040
6.0
1070
    40
1040
1.0
1070
   147
1040
0.0
1070
    76
1070
     0
1070
    75
1070
     0
1070
   173
1070
     1
1070
   289
1070
     2
1070
   288
1070
     1
1070
    77
1070
     1
1070
   172
1070
     1
1070
   174
1070
     0
1070
    74
1070
     0
1070
    73
1070
     0
1070
   284
1070
     8
1070
    78
1070
     8
1070
    42
1040
2.0
1070
    44
1040
3.0
1070
    43
1040
30.0
1070
   271
1070
     2
1070
    41
1040
4.0
1002
}
  0
DIMENSION
  5
215
330
1F
100
AcDbEntity
  8
7
  6
CONTINUOUS
 62
     4
100
AcDbDimension
  2
DIM3
 10
604.0014808089863
 20
198.2374275996836
 30
0.0
 11
547.7514808089863
 21
198.2374275996836
 31
0.0
 70
   160
  1
<>
  3
STANDARD
100
AcDbAlignedDimension
 13
491.5014808089863
 23
221.1374275996828
 33
0.0
 14
604.0014808089863
 24
221.1374275996828
 34
0.0
100
AcDbRotatedDimension
1001
ACAD
1000
DSTYLE
1002
{
1070
   287
1070
     4
1070
     7
1000

1070
     6
1000

1070
   279
1070
     1
1070
   340
1005
1F7
1070
   140
1040
6.0
1070
    40
1040
1.0
1070
   147
1040
0.0
1070
    76
1070
     0
1070
    75
1070
     0
1070
   173
1070
     1
1070
   289
1070
     2
1070
   288
1070
     1
1070
    77
1070
     1
1070
   172
1070
     1
1070
   174
1070
     0
1070
    74
1070
     0
1070
    73
1070
     0
1070
   284
1070
     8
1070
    78
1070
     8
1070
    42
1040
2.0
1070
    44
1040
3.0
1070
    43
1040
30.0
1070
   271
1070
     2
1070
    41
1040
4.0
1002
}
  0
DIMENSION
  5
21F
330
1F
100
AcDbEntity
  8
7
  6
CONTINUOUS
 62
     4
100
AcDbDimension
  2
DIM4
 10
154.0014808089863
 20
198.2374275996836
 30
0.0
 11
210.2514808089863
 21
198.2374275996836
 31
0.0
 70
   160
  1
<>
  3
STANDARD
100
AcDbAlignedDimension
 13
266.5014808089863
 23
221.1374275996828
 33
0.0
 14
154.0014808089863
 24
221.1374275996828
 34
0.0
 50
179.9999999999998
100
AcDbRotatedDimension
1001
ACAD
1000
DSTYLE
1002
{
1070
   287
1070
     4
1070
     7
1000

1070
     6
1000

1070
   279
1070
     1
1070
   340
1005
1F7
1070
   140
1040
6.0
1070
    40
1040
1.0
1070
   147
1040
0.0
1070
    76
1070
     0
1070
    75
1070
     0
1070
   173
1070
     1
1070
   289
1070
     2
1070
   288
1070
     1
1070
    77
1070
     1
1070
   172
1070
     1
1070
   174
1070
     0
1070
    74
1070
     0
1070
    73
1070
     0
1070
   284
1070
     8
1070
    78
1070
     8
1070
    42
1040
2.0
1070
    44
1040
3.0
1070
    43
1040
30.0
1070
   271
1070
     2
1070
    41
1040
4.0
1002
}
  0
DIMENSION
  5
229
330
1F
100
AcDbEntity
  8
7
  6
CONTINUOUS
 62
     4
100
AcDbDimension
  2
DIM5
 10
785.7406123690433
 20
166.2374275996836
 30
0.0
 11
763.2406123690434
 21
166.2374275996836
 31
0.0
 70
   160
  1
<>
  3
STANDARD
100
AcDbAlignedDimension
 13
740.7406123690434
 23
237.2374275996842
 33
0.0
 14
785.7406123690434
 24
222.2374275996842
 34
0.0
100
AcDbRotatedDimension
1001
ACAD
1000
DSTYLE
1002
{
1070
   287
1070
     4
1070
     7
1000

1070
     6
1000

1070
   279
1070
     1
1070
   340
1005
1F7
1070
   140
1040
6.0
1070
    40
1040
1.0
1070
   147
1040
0.0
1070
    76
1070
     0
1070
    75
1070
     0
1070
   173
1070
     1
1070
   289
1070
     2
1070
   288
1070
     1
1070
    77
1070
     1
1070
   172
1070
     1
1070
   174
1070
     0
1070
    74
1070
     0
1070
    73
1070
     0
1070
   284
1070
     8
1070
    78
1070
     8
1070
    42
1040
2.0
1070
    44
1040
3.0
1070
    43
1040
30.0
1070
   271
1070
     2
1070
    41
1040
4.0
1002
}
  0
DIMENSION
  5
233
330
1F
100
AcDbEntity
  8
7
  6
CONTINUOUS
 62
     4
100
AcDbDimension
  2
DIM6
 10
785.7406123690434
 20
198.2374275996836
 30
0.0
 11
796.7406123690434
 21
198.2374275996836
 31
0.0
 70
   160
  1
<>
  3
STANDARD
100
AcDbAlignedDimension
 13
784.7406123690434
 23
222.2374275996842
 33
0.0
 14
785.7406123690434
 24
222.2374275996842
 34
0.0
100
AcDbRotatedDimension
1001
ACAD
1000
DSTYLE
1002
{
1070
   287
1070
     4
1070
     7
1000

1070
     6
1000

1070
   279
1070
     1
1070
   340
1005
1F7
1070
   140
1040
6.0
1070
    40
1040
1.0
1070
   147
1040
0.0
1070
    76
1070
     0
1070
    75
1070
     0
1070
   173
1070
     1
1070
   289
1070
     2
1070
   288
1070
     1
1070
    77
1070
     1
1070
   172
1070
     1
1070
   174
1070
     0
1070
    74
1070
     0
1070
    73
1070
     0
1070
   284
1070
     8
1070
    78
1070
     8
1070
    42
1040
2.0
1070
    44
1040
3.0
1070
    43
1040
30.0
1070
   271
1070
     2
1070
    41
1040
4.0
1002
}
  0
DIMENSION
  5
23D
330
1F
100
AcDbEntity
  8
7
  6
CONTINUOUS
 62
     4
100
AcDbDimension
  2
DIM7
 10
379.0014808089863
 20
198.2374275996836
 30
0.0
 11
322.7514808089863
 21
198.2374275996836
 31
0.0
 70
   160
  1
<>
  3
STANDARD
100
AcDbAlignedDimension
 13
266.5014808089863
 23
221.1374275996828
 33
0.0
 14
379.0014808089863
 24
212.2374275996835
 34
0.0
100
AcDbRotatedDimension
1001
ACAD
1000
DSTYLE
1002
{
1070
   287
1070
     4
1070
     7
1000

1070
     6
1000

1070
   279
1070
     1
1070
   340
1005
1F7
1070
   140
1040
6.0
1070
    40
1040
1.0
1070
   147
1040
0.0
1070
    76
1070
     0
1070
    75
1070
     0
1070
   173
1070
     1
1070
   289
1070
     2
1070
   288
1070
     1
1070
    77
1070
     1
1070
   172
1070
     1
1070
   174
1070
     0
1070
    74
1070
     0
1070
    73
1070
     0
1070
   284
1070
     8
1070
    78
1070
     8
1070
    42
1040
2.0
1070
    44
1040
3.0
1070
    43
1040
30.0
1070
   271
1070
     2
1070
    41
1040
4.0
1002
}
  0
DIMENSION
  5
247
330
1F
100
AcDbEntity
  8
7
  6
CONTINUOUS
 62
     4
100
AcDbDimension
  2
DIM8
 10
98.00148080898452
 20
252.2374275996854
 30
0.0
 11
98.00148080898444
 21
302.2374275996824
 31
0.0
 70
   160
  1
<>
 53
89.99999999999991
  3
STANDARD
100
AcDbAlignedDimension
 13
129.0014808089763
 23
352.2374275996854
 33
0.0
 14
129.0014808089782
 24
252.2374275996854
 34
0.0
 50
-89.99999999999991
100
AcDbRotatedDimension
1001
ACAD
1000
DSTYLE
1002
{
1070
   287
1070
     4
1070
     7
1000

1070
     6
1000

1070
   279
1070
     1
1070
   340
1005
1F7
1070
   140
1040
6.0
1070
    40
1040
1.0
1070
   147
1040
0.0
1070
    76
1070
     0
1070
    75
1070
     0
1070
   173
1070
     1
1070
   289
1070
     2
1070
   288
1070
     1
1070
    77
1070
     1
1070
   172
1070
     1
1070
   174
1070
     0
1070
    74
1070
     0
1070
    73
1070
     0
1070
   284
1070
     8
1070
    78
1070
     8
1070
    42
1040
2.0
1070
    44
1040
3.0
1070
    43
1040
30.0
1070
   271
1070
     2
1070
    41
1040
4.0
1002
}
  0
DIMENSION
  5
251
330
1F
100
AcDbEntity
  8
7
  6
CONTINUOUS
 62
     4
100
AcDbDimension
  2
DIM9
 10
82.00148080898462
 20
237.2374275996854
 30
0.0
 11
82.00148080898452
 21
302.2374275996854
 31
0.0
 70
   160
  1
<>
 53
89.99999999999991
  3
STANDARD
100
AcDbAlignedDimension
 13
114.0014808089754
 23
367.2374275996854
 33
0.0
 14
114.0014808089772
 24
237.2374275996854
 34
0.0
 50
-89.99999999999991
100
AcDbRotatedDimension
1001
ACAD
1000
DSTYLE
1002
{
1070
   287
1070
     4
1070
     7
1000

1070
     6
1000

1070
   279
1070
     1
1070
   340
1005
1F7
1070
   140
1040
6.0
1070
    40
1040
1.0
1070
   147
1040
0.0
1070
    76
1070
     0
1070
    75
1070
     0
1070
   173
1070
     1
1070
   289
1070
     2
1070
   288
1070
     1
1070
    77
1070
     1
1070
   172
1070
     1
1070
   174
1070
     0
1070
    74
1070
     0
1070
    73
1070
     0
1070
   284
1070
     8
1070
    78
1070
     8
1070
    42
1040
2.0
1070
    44
1040
3.0
1070
    43
1040
30.0
1070
   271
1070
     2
1070
    41
1040
4.0
1002
}
  0
DIMENSION
  5
25B
330
1F
100
AcDbEntity
  8
7
  6
CONTINUOUS
 62
     4
100
AcDbDimension
  2
DIM10
 10
50.00148080898474
 20
222.2374275996829
 30
0.0
 11
50.0014808089846
 21
302.2374275996854
 31
0.0
 70
   160
  1
<>
 53
89.99999999999991
  3
STANDARD
100
AcDbAlignedDimension
 13
134.0014808089845
 23
382.2374275996848
 33
0.0
 14
134.0014808089863
 24
222.2374275996829
 34
0.0
 50
-89.99999999999991
100
AcDbRotatedDimension
1001
ACAD
1000
DSTYLE
1002
{
1070
   287
1070
     4
1070
     7
1000

1070
     6
1000

1070
   279
1070
     1
1070
   340
1005
1F7
1070
   140
1040
6.0
1070
    40
1040
1.0
1070
   147
1040
0.0
1070
    76
1070
     0
1070
    75
1070
     0
1070
   173
1070
     1
1070
   289
1070
     2
1070
   288
1070
     1
1070
    77
1070
     1
1070
   172
1070
     1
1070
   174
1070
     0
1070
    74
1070
     0
1070
    73
1070
     0
1070
   284
1070
     8
1070
    78
1070
     8
1070
    42
1040
2.0
1070
    44
1040
3.0
1070
    43
1040
30.0
1070
   271
1070
     2
1070
    41
1040
4.0
1002
}
  0
DIMENSION
  5
265
330
1F
100
AcDbEntity
  8
7
  6
CONTINUOUS
 62
     4
100
AcDbDimension
  2
DIM11
 10
491.5014808089862
 20
198.2374275996836
 30
0.0
 11
435.2514808089863
 21
198.2374275996836
 31
0.0
 70
   160
  1
<>
  3
STANDARD
100
AcDbAlignedDimension
 13
379.0014808089863
 23
212.2374275996835
 33
0.0
 14
491.5014808089863
 24
221.1374275996828
 34
0.0
100
AcDbRotatedDimension
1001
ACAD
1000
DSTYLE
1002
{
1070
   287
1070
     4
1070
     7
1000

1070
     6
1000

1070
   279
1070
     1
1070
   340
1005
1F7
1070
   140
1040
6.0
1070
    40
1040
1.0
1070
   147
1040
0.0
1070
    76
1070
     0
1070
    75
1070
     0
1070
   173
1070
     1
1070
   289
1070
     2
1070
   288
1070
     1
1070
    77
1070
     1
1070
   172
1070
     1
1070
   174
1070
     0
1070
    74
1070
     0
1070
    73
1070
     0
1070
   284
1070
     8
1070
    78
1070
     8
1070
    42
1040
2.0
1070
    44
1040
3.0
1070
    43
1040
30.0
1070
   271
1070
     2
1070
    41
1040
4.0
1002
}
  0
DIMENSION
  5
26F
330
1F
100
AcDbEntity
  8
7
  6
CONTINUOUS
 62
     4
100
AcDbDimension
  2
DIM12
 10
66.0014808089847
 20
229.2374275996831
 30
0.0
 11
66.0014808089847
 21
302.2374275996824
 31
0.0
 70
   160
  1
<>
 53
89.99999999999991
  3
STANDARD
100
AcDbAlignedDimension
 13
145.9014808089863
 23
375.237427599682
 33
0.0
 14
145.9014808089863
 24
229.2374275996829
 34
0.0
 50
-89.99999999999991
100
AcDbRotatedDimension
1001
ACAD
1000
DSTYLE
1002
{
1070
   287
1070
     4
1070
     7
1000

1070
     6
1000

1070
   279
1070
     1
1070
   340
1005
1F7
1070
   140
1040
6.0
1070
    40
1040
1.0
1070
   147
1040
0.0
1070
    76
1070
     0
1070
    75
1070
     0
1070
   173
1070
     1
1070
   289
1070
     2
1070
   288
1070
     1
1070
    77
1070
     1
1070
   172
1070
     1
1070
   174
1070
     0
1070
    74
1070
     0
1070
    73
1070
     0
1070
   284
1070
     8
1070
    78
1070
     8
1070
    42
1040
2.0
1070
    44
1040
3.0
1070
    43
1040
30.0
1070
   271
1070
     2
1070
    41
1040
4.0
1002
}
  0
DIMENSION
  5
279
330
1F
100
AcDbEntity
  8
7
  6
CONTINUOUS
 62
     4
100
AcDbDimension
  2
DIM13
 10
765.3124091387598
 20
182.3071207519474
 30
0.0
 11
804.2406123690434
 21
182.3071207519474
 31
0.0
 70
   160
  1
(<>
  3
STANDARD
100
AcDbAlignedDimension
 13
785.7406123690434
 23
222.2374275996842
 33
0.0
 14
765.31240913876
 24
302.2374275996842
 34
0.0
 50
179.9999999999998
100
AcDbRotatedDimension
1001
ACAD
1000
DSTYLE
1002
{
1070
   287
1070
     4
1070
     7
1000

1070
     6
1000

1070
   279
1070
     1
1070
   340
1005
1F7
1070
   140
1040
6.0
1070
    40
1040
1.0
1070
   147
1040
0.0
1070
    76
1070
     0
1070
    75
1070
     0
1070
   173
1070
     1
1070
   289
1070
     2
1070
   288
1070
     1
1070
    77
1070
     1
1070
   172
1070
     1
1070
   174
1070
     0
1070
    74
1070
     0
1070
    73
1070
     0
1070
   284
1070
     8
1070
    78
1070
     8
1070
    42
1040
2.0
1070
    44
1040
3.0
1070
    43
1040
30.0
1070
   271
1070
     2
1070
    41
1040
4.0
1002
}
  0
DIMENSION
  5
283
330
1F
100
AcDbEntity
  8
7
  6
CONTINUOUS
 62
     4
100
AcDbDimension
  2
DIM14
 10
644.0014808089862
 20
166.2374275996836
 30
0.0
 11
676.0014808089866
 21
166.2374275996836
 31
0.0
 70
   160
  1
(<>
  3
STANDARD
100
AcDbAlignedDimension
 13
662.0014808089863
 23
299.737427599682
 33
0.0
 14
644.0014808089863
 24
237.237427599682
 34
0.0
 50
179.9999999999998
100
AcDbRotatedDimension
1001
ACAD
1000
DSTYLE
1002
{
1070
   287
1070
     4
1070
     7
1000

1070
     6
1000

1070
   279
1070
     1
1070
   340
1005
1F7
1070
   140
1040
6.0
1070
    40
1040
1.0
1070
   147
1040
0.0
1070
    76
1070
     0
1070
    75
1070
     0
1070
   173
1070
     1
1070
   289
1070
     2
1070
   288
1070
     1
1070
    77
1070
     1
1070
   172
1070
     1
1070
   174
1070
     0
1070
    74
1070
     0
1070
    73
1070
     0
1070
   284
1070
     8
1070
    78
1070
     8
1070
    42
1040
2.0
1070
    44
1040
3.0
1070
    43
1040
30.0
1070
   271
1070
     2
1070
    41
1040
4.0
1002
}
  0
DIMENSION
  5
28B
330
1F
100
AcDbEntity
  8
7
  6
CONTINUOUS
 62
     4
100
AcDbDimension
  2
DIM15
 10
369.309072821095
 20
287.6666614085532
 30
0.0
 11
436.447863606718
 21
394.0141886876576
 31
0.0
 70
   163
  1
\U+2205<>
  3
STANDARD
100
AcDbDiametricDimension
 15
388.6938887968661
 25
316.8081937907971
 35
0.0
 40
0.0
1001
ACAD
1000
DSTYLE
1002
{
1070
   287
1070
     2
1070
     7
1000

1070
     6
1000

1070
   340
1005
1F7
1070
   140
1040
6.0
1070
    40
1040
1.0
1070
   147
1040
0.0
1070
    76
1070
     0
1070
    75
1070
     0
1070
   173
1070
     1
1070
   289
1070
     2
1070
   288
1070
     1
1070
    77
1070
     1
1070
   172
1070
     1
1070
   174
1070
     0
1070
    74
1070
     0
1070
    73
1070
     0
1070
   284
1070
     8
1070
    78
1070
     8
1070
    42
1040
2.0
1070
    44
1040
3.0
1070
    43
1040
30.0
1070
   271
1070
     2
1070
    41
1040
4.0
1002
}
  0
DIMENSION
  5
293
330
1F
100
AcDbEntity
  8
7
  6
CONTINUOUS
 62
     4
100
AcDbDimension
  2
DIM16
 10
372.2784401407656
 20
280.7653358484375
 30
0.0
 11
405.9724122651443
 21
398.4174667746649
 31
0.0
 70
   163
  1
\U+2205<>
  3
STANDARD
100
AcDbDiametricDimension
 15
385.7245214771808
 25
323.7095193509152
 35
0.0
 40
0.0
1001
ACAD
1000
DSTYLE
1002
{
1070
   287
1070
     2
1070
     7
1000

1070
     6
1000

1070
   340
1005
1F7
1070
   140
1040
6.0
1070
    40
1040
1.0
1070
   147
1040
0.0
1070
    76
1070
     0
1070
    75
1070
     0
1070
   173
1070
     1
1070
   289
1070
     2
1070
   288
1070
     1
1070
    77
1070
     1
1070
   172
1070
     1
1070
   174
1070
     0
1070
    74
1070
     0
1070
    73
1070
     0
1070
   284
1070
     8
1070
    78
1070
     8
1070
    42
1040
2.0
1070
    44
1040
3.0
1070
    43
1040
30.0
1070
   271
1070
     2
1070
    41
1040
4.0
1002
}
  0
INSERT
  5
294
330
1F
100
AcDbEntity
  8
7
  6
CONTINUOUS
 62
     4
100
AcDbBlockReference
  2
_OPEN
 10
155.5514808089864
 20
377.9221063514137
 30
0.0
 41
8.0
 42
8.0
 43
8.0
 50
239.9999999999998
  0
POLYLINE
  5
295
330
1F
100
AcDbEntity
  8
7
  6
CONTINUOUS
 62
     4
100
AcDb2dPolyline
 66
     1
 10
0.0
 20
0.0
 30
0.0
  0
VERTEX
  5
296
330
295
100
AcDbEntity
  8
7
  6
CONTINUOUS
 62
     4
100
AcDbVertex
100
AcDb2dVertex
 10
155.5514808089864
 20
377.9221063514137
 30
0.0
  0
VERTEX
  5
297
330
295
100
AcDbEntity
  8
7
  6
CONTINUOUS
 62
     4
100
AcDbVertex
100
AcDb2dVertex
 10
169.0514808089864
 20
401.3047922535935
 30
0.0
  0
VERTEX
  5
298
330
295
100
AcDbEntity
  8
7
  6
CONTINUOUS
 62
     4
100
AcDbVertex
100
AcDb2dVertex
 10
194.7714808089864
 20
401.3047922535935
 30
0.0
  0
SEQEND
  5
299
330
295
100
AcDbEntity
  8
7
  6
CONTINUOUS
 62
     4
  0
MTEXT
  5
29A
330
1F
100
AcDbEntity
  8
7
  6
CONTINUOUS
 62
     4
100
AcDbMText
 10
173.7714808089864
 20
401.3047922535935
 30
0.0
 40
6.0
 41
29.678826795
 71
     7
 72
     1
  1
{\fＭＳ ゴシック;\T0.777375;10-\U+00D86.2}
1001
ACAD
1000
ACAD_MTEXT_DEFINED_HEIGHT_BEGIN
1070
    46
1040
6.0
1000
ACAD_MTEXT_DEFINED_HEIGHT_END
  0
VIEWPORT
  5
3F
330
1B
100
AcDbEntity
 67
     1
  8
0
100
AcDbViewport
 10
420.0
 20
297.0
 30
0.0
 40
840.0
 41
594.0
 68
     1
 69
     1
1001
ACAD
1000
MVIEW
1002
{
1070
    16
1010
0.0
1020
0.0
1030
0.0
1010
0.0
1020
0.0
1030
1.0
1040
0.0
1040
9.0
1040
420.0
1040
297.0
1040
50.0
1040
0.0
1040
0.0
1070
     0
1070
   100
1070
     0
1070
     3
1070
     0
1070
     0
1070
     0
1070
     0
1040
0.0
1040
0.0
1040
0.0
1040
0.5
1040
0.5
1040
0.5
1040
0.5
1070
     0
1002
{
1002
}
1002
}
  0
ENDSEC
  0
SECTION
  2
OBJECTS
  0
DICTIONARY
  5
C
330
0
100
AcDbDictionary
  3
ACAD_GROUP
350
D
  3
ACAD_LAYOUT
350
1A
  3
ACAD_MATERIAL
350
3B
  3
ACAD_MLEADERSTYLE
350
2BD
  3
ACAD_MLINESTYLE
350
17
  3
ACAD_PLOTSETTINGS
350
19
  3
ACAD_VISUALSTYLE
350
2A
  3
ACDBHEADERROUNDTRIPXREC
350
29B
  3
ACDBVARIABLEDICTIONARY
350
2BB
  0
DICTIONARY
  5
D
102
{ACAD_REACTORS
330
C
102
}
330
C
100
AcDbDictionary
  0
DICTIONARY
  5
1A
102
{ACAD_REACTORS
330
C
102
}
330
C
100
AcDbDictionary
  0
DICTIONARY
  5
3B
102
{ACAD_REACTORS
330
C
102
}
330
C
100
AcDbDictionary
  3
BYBLOCK
350
3D
  3
BYLAYER
350
3C
  3
GLOBAL
350
3E
  0
DICTIONARY
  5
2BD
102
{ACAD_REACTORS
330
C
102
}
330
C
100
AcDbDictionary
  0
DICTIONARY
  5
17
102
{ACAD_REACTORS
330
C
102
}
330
C
100
AcDbDictionary
  3
STANDARD
350
18
  0
DICTIONARY
  5
19
102
{ACAD_REACTORS
330
C
102
}
330
C
100
AcDbDictionary
  0
DICTIONARY
  5
2A
102
{ACAD_REACTORS
330
C
102
}
330
C
100
AcDbDictionary
  3
2DWIREFRAME
350
2F
  3
3D_HIDDEN
350
31
  3
3DWIREFRAME
350
30
  3
BASIC
350
32
  3
BRIGHTEN
350
36
  3
COLORCHANGE
350
3A
  3
CONCEPTUAL
350
34
  3
DIM
350
35
  3
FACEPATTERN
350
39
  3
FLAT
350
2B
  3
FLATWITHEDGES
350
2C
  3
GOURAUD
350
2D
  3
GOURAUDWITHEDGES
350
2E
  3
LINEPATTERN
350
38
  3
REALISTIC
350
33
  3
THICKEN
350
37
  0
DICTIONARY
  5
29B
102
{ACAD_REACTORS
330
C
102
}
330
C
100
AcDbDictionary
  3
CEPSNTYPE
350
2A4
  3
DIMSTYLEDATA
350
2BA
  3
FINGERPRINTGUID
350
2A5
  3
HYPERLINKBASE
350
29E
  3
INSUNITS
350
2A3
  3
LAYOUTDICT
350
2A0
  3
LWETCUNION
350
2A2
  3
PLOTSETDICT
350
2A1
  3
PSVPSCALE
350
2A7
  3
PUCSBASE
350
2AA
  3
PUCSORGBACK
350
2B0
  3
PUCSORGBOTTOM
350
2AC
  3
PUCSORGFRONT
350
2AF
  3
PUCSORGLEFT
350
2AD
  3
PUCSORGRIGHT
350
2AE
  3
PUCSORGTOP
350
2AB
  3
PUCSORTHOREF
350
2A8
  3
PUCSORTHOVIEW
350
2A9
  3
STYLESHEET
350
29F
  3
TSTACKALIGN
350
29C
  3
TSTACKSIZE
350
29D
  3
UCSBASE
350
2B3
  3
UCSORGBACK
350
2B9
  3
UCSORGBOTTOM
350
2B5
  3
UCSORGFRONT
350
2B8
  3
UCSORGLEFT
350
2B6
  3
UCSORGRIGHT
350
2B7
  3
UCSORGTOP
350
2B4
  3
UCSORTHOREF
350
2B1
  3
UCSORTHOVIEW
350
2B2
  3
VERSIONGUID
350
2A6
  0
DICTIONARY
  5
2BB
102
{ACAD_REACTORS
330
C
102
}
330
C
100
AcDbDictionary
  3
DIMASSOC
350
2BE
  3
HIDETEXT
350
2BF
  0
MATERIAL
  5
3D
102
{ACAD_REACTORS
330
3B
102
}
102
{ACAD_XDICTIONARY
360
2C2
102
}
330
3B
100
AcDbMaterial
  1
ByBlock
  0
MATERIAL
  5
3C
102
{ACAD_REACTORS
330
3B
102
}
102
{ACAD_XDICTIONARY
360
2C0
102
}
330
3B
100
AcDbMaterial
  1
ByLayer
  0
MATERIAL
  5
3E
102
{ACAD_REACTORS
330
3B
102
}
102
{ACAD_XDICTIONARY
360
2C4
102
}
330
3B
100
AcDbMaterial
  1
Global
  0
MLINESTYLE
  5
18
102
{ACAD_REACTORS
330
17
102
}
330
17
100
AcDbMlineStyle
  2
Standard
 70
     0
  3

 62
   256
 51
90.0
 52
90.0
 71
     2
 49
0.5
 62
   256
  6
BYLAYER
 49
-0.5
 62
   256
  6
BYLAYER
  0
ACAD_PROXY_OBJECT
  5
2F
102
{ACAD_REACTORS
330
2A
102
}
330
2A
100
AcDbProxyObject
 90
      499
 91
      501
 93
      436
310
42CC9915DA5C99599C985B595049028333333333333E3BF0000000000000FB0107901411070040501600405405064090741402480A0340
1001
ACAD
1000
AcDbSavedByObjectVersion
1070
     0
  0
ACAD_PROXY_OBJECT
  5
31
102
{ACAD_REACTORS
330
2A
102
}
330
2A
100
AcDbProxyObject
 90
      499
 91
      501
 93
      500
310
424CD108121A5919195B90640502408333333333333E3BF0000000000000FB01079024090700405020000000000001110200405405064090740C02480A0340
1001
ACAD
1000
AcDbSavedByObjectVersion
1070
     0
  0
ACAD_PROXY_OBJECT
  5
30
102
{ACAD_REACTORS
330
2A
102
}
330
2A
100
AcDbProxyObject
 90
      499
 91
      501
 93
      436
310
42CCD915DA5C99599C985B595059028333333333333E3BF0000000000000FB0107901411070040501600405405064090741402480A0340
1001
ACAD
1000
AcDbSavedByObjectVersion
1070
     0
  0
ACAD_PROXY_OBJECT
  5
32
102
{ACAD_REACTORS
330
2A
102
}
330
2A
100
AcDbProxyObject
 90
      499
 91
      501
 93
      388
310
4150985CDA58D07406404333333333333E3BF0000000000000FB0107A41107004050150841D405064090741402480A0350
1001
ACAD
1000
AcDbSavedByObjectVersion
1070
     0
  0
ACAD_PROXY_OBJECT
  5
36
102
{ACAD_REACTORS
330
2A
102
}
330
2A
100
AcDbProxyObject
 90
      499
 91
      501
 93
      428
310
42109C9A59DA1D195B90C409028333333333333E3BF0000000000000FB010790141107004050150841D405064090741402480A029950
1001
ACAD
1000
AcDbSavedByObjectVersion
1070
     0
  0
ACAD_PROXY_OBJECT
  5
3A
102
{ACAD_REACTORS
330
2A
102
}
330
2A
100
AcDbProxyObject
 90
      499
 91
      501
 93
      452
310
42D0DBDB1BDC90DA185B99D95104090240C333333333333E3BF0000000000000FB0108901411070040501508421405064090741402480A0350
1001
ACAD
1000
AcDbSavedByObjectVersion
1070
     0
  0
ACAD_PROXY_OBJECT
  5
34
102
{ACAD_REACTORS
330
2A
102
}
330
2A
100
AcDbProxyObject
 90
      499
 91
      501
 93
      500
310
4290DBDB98D95C1D1D585B10940D028333333333333E3BF0000000000000FB0107902409070040501000000000000111010841D405064090740C02480A0340
1001
ACAD
1000
AcDbSavedByObjectVersion
1070
     0
  0
ACAD_PROXY_OBJECT
  5
35
102
{ACAD_REACTORS
330
2A
102
}
330
2A
100
AcDbProxyObject
 90
      499
 91
      501
 93
      412
310
40D11A5B50B409028333333333333E3BF0000000000000FB010790141107004050150841D405064090741402480A02677FFFFFD0
1001
ACAD
1000
AcDbSavedByObjectVersion
1070
     0
  0
ACAD_PROXY_OBJECT
  5
39
102
{ACAD_REACTORS
330
2A
102
}
330
2A
100
AcDbProxyObject
 90
      499
 91
      501
 93
      444
310
42D19858D95C185D1D195C9B90F409028333333333333E3BF0000000000000FB010790141107004050150841D405064090741402480A0350
1001
ACAD
1000
AcDbSavedByObjectVersion
1070
     0
  0
ACAD_PROXY_OBJECT
  5
2B
102
{ACAD_REACTORS
330
2A
102
}
330
2A
100
AcDbProxyObject
 90
      499
 91
      501
 93
      388
310
41119B185D240901404333333333333E3BF0000000000000F9010740A41107004050150841D405064090741402480A1B50
1001
ACAD
1000
AcDbSavedByObjectVersion
1070
     0
  0
ACAD_PROXY_OBJECT
  5
2C
102
{ACAD_REACTORS
330
2A
102
}
330
2A
100
AcDbProxyObject
 90
      499
 91
      501
 93
      476
310
43519B185D15DA5D1A115919D95CD0140901404333333333333E3BF0000000000000F9010740901411070040501600405405064090741402480A1B50
1001
ACAD
1000
AcDbSavedByObjectVersion
1070
     0
  0
ACAD_PROXY_OBJECT
  5
2D
102
{ACAD_REACTORS
330
2A
102
}
330
2A
100
AcDbProxyObject
 90
      499
 91
      501
 93
      412
310
41D1DBDD5C985D5910240902404333333333333E3BF0000000000000F9010740A411070040501641D405064090741402480A1B50
1001
ACAD
1000
AcDbSavedByObjectVersion
1070
     0
  0
ACAD_PROXY_OBJECT
  5
2E
102
{ACAD_REACTORS
330
2A
102
}
330
2A
100
AcDbProxyObject
 90
      499
 91
      501
 93
      500
310
4411DBDD5C985D5915DA5D1A115919D95CD0340902404333333333333E3BF0000000000000F9010740901411070040501600405405064090741402480A1B50
1001
ACAD
1000
AcDbSavedByObjectVersion
1070
     0
  0
ACAD_PROXY_OBJECT
  5
38
102
{ACAD_REACTORS
330
2A
102
}
330
2A
100
AcDbProxyObject
 90
      499
 91
      501
 93
      444
310
42D31A5B995C185D1D195C9B90E409028333333333333E3BF0000000000000FB010790141107004050750841D405064090741402483A0350
1001
ACAD
1000
AcDbSavedByObjectVersion
1070
     0
  0
ACAD_PROXY_OBJECT
  5
33
102
{ACAD_REACTORS
330
2A
102
}
330
2A
100
AcDbProxyObject
 90
      499
 91
      501
 93
      420
310
425499585B1A5CDD1A58D08409028333333333333E3BF0000000000000FB01079019070040501508421405064090741402480A1B40
1001
ACAD
1000
AcDbSavedByObjectVersion
1070
     0
  0
ACAD_PROXY_OBJECT
  5
37
102
{ACAD_REACTORS
330
2A
102
}
330
2A
100
AcDbProxyObject
 90
      499
 91
      501
 93
      412
310
41D51A1A58DAD95B90D409028333333333333E3BF0000000000000FB010790141107004050150C41D405064090741402480A0350
1001
ACAD
1000
AcDbSavedByObjectVersion
1070
     0
  0
XRECORD
  5
2A4
102
{ACAD_REACTORS
330
29B
102
}
330
29B
100
AcDbXrecord
 90
        0
  0
XRECORD
  5
2BA
102
{ACAD_REACTORS
330
29B
102
}
330
29B
100
AcDbXrecord
1000
DSTYLE
1002
{
1070
   171
 70
     2
1070
   143
 40
25.4
1070
   274
 70
     2
1070
    41
 40
1.55291427
1070
   289
 70
     2
1070
   141
 40
0.09
1070
    43
 40
30.0
1070
   278
 70
    46
1070
    44
 40
2.0
1070
    42
 40
2.0
1070
   147
 40
0.09
1070
    77
 70
     3
1070
   272
 70
     4
1070
   146
 40
0.5
1070
   279
 70
     2
1070
   283
 70
     1
1070
   145
 40
0.7
1070
   340
340
11
1070
   140
 40
2.8
1070
   288
 70
     1
1002
}
  0
XRECORD
  5
2A5
102
{ACAD_REACTORS
330
29B
102
}
330
29B
100
AcDbXrecord
  1
{55A8F571-207A-444B-ACC1-23D01CE2AB15}
  0
XRECORD
  5
29E
102
{ACAD_REACTORS
330
29B
102
}
330
29B
100
AcDbXrecord
  1

  0
XRECORD
  5
2A3
102
{ACAD_REACTORS
330
29B
102
}
330
29B
100
AcDbXrecord
 90
        4
  0
XRECORD
  5
2A0
102
{ACAD_REACTORS
330
29B
102
}
330
29B
100
AcDbXrecord
340
1A
  0
XRECORD
  5
2A2
102
{ACAD_REACTORS
330
29B
102
}
330
29B
100
AcDbXrecord
 90
    10781
  0
XRECORD
  5
2A1
102
{ACAD_REACTORS
330
29B
102
}
330
29B
100
AcDbXrecord
340
19
  0
XRECORD
  5
2A7
102
{ACAD_REACTORS
330
29B
102
}
330
29B
100
AcDbXrecord
 40
0.0
  0
XRECORD
  5
2AA
102
{ACAD_REACTORS
330
29B
102
}
330
29B
100
AcDbXrecord
340
0
  0
XRECORD
  5
2B0
102
{ACAD_REACTORS
330
29B
102
}
330
29B
100
AcDbXrecord
 10
0.0
 20
0.0
 30
0.0
  0
XRECORD
  5
2AC
102
{ACAD_REACTORS
330
29B
102
}
330
29B
100
AcDbXrecord
 10
0.0
 20
0.0
 30
0.0
  0
XRECORD
  5
2AF
102
{ACAD_REACTORS
330
29B
102
}
330
29B
100
AcDbXrecord
 10
0.0
 20
0.0
 30
0.0
  0
XRECORD
  5
2AD
102
{ACAD_REACTORS
330
29B
102
}
330
29B
100
AcDbXrecord
 10
0.0
 20
0.0
 30
0.0
  0
XRECORD
  5
2AE
102
{ACAD_REACTORS
330
29B
102
}
330
29B
100
AcDbXrecord
 10
0.0
 20
0.0
 30
0.0
  0
XRECORD
  5
2AB
102
{ACAD_REACTORS
330
29B
102
}
330
29B
100
AcDbXrecord
 10
0.0
 20
0.0
 30
0.0
  0
XRECORD
  5
2A8
102
{ACAD_REACTORS
330
29B
102
}
330
29B
100
AcDbXrecord
340
0
  0
XRECORD
  5
2A9
102
{ACAD_REACTORS
330
29B
102
}
330
29B
100
AcDbXrecord
 70
     0
  0
XRECORD
  5
29F
102
{ACAD_REACTORS
330
29B
102
}
330
29B
100
AcDbXrecord
  1

  0
XRECORD
  5
29C
102
{ACAD_REACTORS
330
29B
102
}
330
29B
100
AcDbXrecord
 90
        1
  0
XRECORD
  5
29D
102
{ACAD_REACTORS
330
29B
102
}
330
29B
100
AcDbXrecord
 90
       70
  0
XRECORD
  5
2B3
102
{ACAD_REACTORS
330
29B
102
}
330
29B
100
AcDbXrecord
340
0
  0
XRECORD
  5
2B9
102
{ACAD_REACTORS
330
29B
102
}
330
29B
100
AcDbXrecord
 10
0.0
 20
0.0
 30
0.0
  0
XRECORD
  5
2B5
102
{ACAD_REACTORS
330
29B
102
}
330
29B
100
AcDbXrecord
 10
0.0
 20
0.0
 30
0.0
  0
XRECORD
  5
2B8
102
{ACAD_REACTORS
330
29B
102
}
330
29B
100
AcDbXrecord
 10
0.0
 20
0.0
 30
0.0
  0
XRECORD
  5
2B6
102
{ACAD_REACTORS
330
29B
102
}
330
29B
100
AcDbXrecord
 10
0.0
 20
0.0
 30
0.0
  0
XRECORD
  5
2B7
102
{ACAD_REACTORS
330
29B
102
}
330
29B
100
AcDbXrecord
 10
0.0
 20
0.0
 30
0.0
  0
XRECORD
  5
2B4
102
{ACAD_REACTORS
330
29B
102
}
330
29B
100
AcDbXrecord
 10
0.0
 20
0.0
 30
0.0
  0
XRECORD
  5
2B1
102
{ACAD_REACTORS
330
29B
102
}
330
29B
100
AcDbXrecord
340
0
  0
XRECORD
  5
2B2
102
{ACAD_REACTORS
330
29B
102
}
330
29B
100
AcDbXrecord
 70
     0
  0
XRECORD
  5
2A6
102
{ACAD_REACTORS
330
29B
102
}
330
29B
100
AcDbXrecord
  1
{FAEB1C32-E019-11D5-929B-00C0DF256EC4}
  0
DICTIONARYVAR
  5
2BE
102
{ACAD_REACTORS
330
2BB
102
}
330
2BB
100
DictionaryVariables
280
     0
  1
1
  0
DICTIONARYVAR
  5
2BF
102
{ACAD_REACTORS
330
2BB
102
}
330
2BB
100
DictionaryVariables
280
     0
  1
1
  0
DICTIONARY
  5
2C2
330
3D
100
AcDbDictionary
280
     1
  3
ACAD_XREC_ROUNDTRIP
360
2C3
  0
DICTIONARY
  5
2C0
330
3C
100
AcDbDictionary
280
     1
  3
ACAD_XREC_ROUNDTRIP
360
2C1
  0
DICTIONARY
  5
2C4
330
3E
100
AcDbDictionary
280
     1
  3
ACAD_XREC_ROUNDTRIP
360
2C5
  0
XRECORD
  5
2C3
102
{ACAD_REACTORS
330
2C2
102
}
330
2C2
100
AcDbXrecord
102
MATERIAL
148
0.0
149
0.0
149
0.0
 93
        0
 94
      127
282
     0
 72
     1
 77
     1
171
     1
175
     1
179
     1
273
     0
  0
XRECORD
  5
2C1
102
{ACAD_REACTORS
330
2C0
102
}
330
2C0
100
AcDbXrecord
102
MATERIAL
148
0.0
149
0.0
149
0.0
 93
        0
 94
      127
282
     0
 72
     1
 77
     1
171
     1
175
     1
179
     1
273
     0
  0
XRECORD
  5
2C5
102
{ACAD_REACTORS
330
2C4
102
}
330
2C4
100
AcDbXrecord
102
MATERIAL
148
0.0
149
0.0
149
0.0
 93
        0
 94
      127
282
     0
 72
     1
 77
     1
171
     1
175
     1
179
     1
273
     0
  0
ENDSEC
  0
EOF
