  0
SECTION
  2
HEADER
  9
$ACADVER
  1
AC1014
  9
$ACADMAINTVER
 70
     9
  9
$DWGCODEPAGE
  3
ANSI_932
  9
$INSBASE
 10
0.0
 20
0.0
 30
0.0
  9
$EXTMIN
 10
40.00001799999791
 20
41.26310844198633
 30
0.0
  9
$EXTMAX
 10
813.2406123690434
 20
415.9794192648664
 30
0.0
  9
$LIMMIN
 10
0.0
 20
0.0
  9
$LIMMAX
 10
420.0
 20
297.0
  9
$ORTHOMODE
 70
     0
  9
$REGENMODE
 70
     1
  9
$FILLMODE
 70
     1
  9
$QTEXTMODE
 70
     0
  9
$MIRRTEXT
 70
     1
  9
$DRAGMODE
 70
     2
  9
$LTSCALE
 40
0.5
  9
$OSMODE
 70
    37
  9
$ATTMODE
 70
     1
  9
$TEXTSIZE
 40
5.6
  9
$TRACEWID
 40
0.05
  9
$TEXTSTYLE
  7
STANDARD
  9
$CLAYER
  8
0
  9
$CELTYPE
  6
BYLAYER
  9
$CECOLOR
 62
   256
  9
$CELTSCALE
 40
1.0
  9
$DELOBJ
 70
     1
  9
$DISPSILH
 70
     0
  9
$DIMSCALE
 40
1.0
  9
$DIMASZ
 40
1.55291427
  9
$DIMEXO
 40
2.0
  9
$DIMDLI
 40
30.0
  9
$DIMRND
 40
0.0
  9
$DIMDLE
 40
0.0
  9
$DIMEXE
 40
2.0
  9
$DIMTP
 40
0.0
  9
$DIMTM
 40
0.0
  9
$DIMTXT
 40
2.8
  9
$DIMCEN
 40
0.09
  9
$DIMTSZ
 40
0.0
  9
$DIMTOL
 70
     0
  9
$DIMLIM
 70
     0
  9
$DIMTIH
 70
     0
  9
$DIMTOH
 70
     0
  9
$DIMSE1
 70
     0
  9
$DIMSE2
 70
     0
  9
$DIMTAD
 70
     3
  9
$DIMZIN
 70
     8
  9
$DIMBLK
  1

  9
$DIMASO
 70
     1
  9
$DIMSHO
 70
     1
  9
$DIMPOST
  1

  9
$DIMAPOST
  1

  9
$DIMALT
 70
     0
  9
$DIMALTD
 70
     2
  9
$DIMALTF
 40
25.4
  9
$DIMLFAC
 40
1.0
  9
$DIMTOFL
 70
     1
  9
$DIMTVP
 40
0.7
  9
$DIMTIX
 70
     0
  9
$DIMSOXD
 70
     0
  9
$DIMSAH
 70
     0
  9
$DIMBLK1
  1

  9
$DIMBLK2
  1

  9
$DIMSTYLE
  2
STANDARD
  9
$DIMCLRD
 70
     0
  9
$DIMCLRE
 70
     0
  9
$DIMCLRT
 70
     0
  9
$DIMTFAC
 40
0.5
  9
$DIMGAP
 40
0.09
  9
$DIMJUST
 70
     0
  9
$DIMSD1
 70
     0
  9
$DIMSD2
 70
     0
  9
$DIMTOLJ
 70
     1
  9
$DIMTZIN
 70
     8
  9
$DIMALTZ
 70
     0
  9
$DIMALTTZ
 70
     0
  9
$DIMFIT
 70
     5
  9
$DIMUPT
 70
     1
  9
$DIMUNIT
 70
     2
  9
$DIMDEC
 70
     2
  9
$DIMTDEC
 70
     4
  9
$DIMALTU
 70
     2
  9
$DIMALTTD
 70
     2
  9
$DIMTXSTY
  7
STANDARD
  9
$DIMAUNIT
 70
     0
  9
$LUNITS
 70
     2
  9
$LUPREC
 70
     4
  9
$SKETCHINC
 40
0.1
  9
$FILLETRAD
 40
0.5
  9
$AUNITS
 70
     0
  9
$AUPREC
 70
     0
  9
$MENU
  1
.
  9
$ELEVATION
 40
0.0
  9
$PELEVATION
 40
0.0
  9
$THICKNESS
 40
0.0
  9
$LIMCHECK
 70
     0
  9
$CHAMFERA
 40
0.5
  9
$CHAMFERB
 40
0.5
  9
$CHAMFERC
 40
1.0
  9
$CHAMFERD
 40
0.0
  9
$SKPOLY
 70
     0
  9
$TDCREATE
 40
2460098.060763889
  9
$TDUPDATE
 40
2460097.685774271
  9
$TDINDWG
 40
0.0000000116
  9
$TDUSRTIMER
 40
0.0000000116
  9
$USRTIMER
 70
     1
  9
$ANGBASE
 50
0.0
  9
$ANGDIR
 70
     0
  9
$PDMODE
 70
     0
  9
$PDSIZE
 40
0.0
  9
$PLINEWID
 40
0.0
  9
$COORDS
 70
     1
  9
$SPLFRAME
 70
     0
  9
$SPLINETYPE
 70
     6
  9
$SPLINESEGS
 70
     8
  9
$ATTDIA
 70
     0
  9
$ATTREQ
 70
     1
  9
$HANDLING
 70
     1
  9
$HANDSEED
  5
2C6
  9
$SURFTAB1
 70
     6
  9
$SURFTAB2
 70
     6
  9
$SURFTYPE
 70
     6
  9
$SURFU
 70
     6
  9
$SURFV
 70
     6
  9
$UCSNAME
  2

  9
$UCSORG
 10
0.0
 20
0.0
 30
0.0
  9
$UCSXDIR
 10
1.0
 20
0.0
 30
0.0
  9
$UCSYDIR
 10
0.0
 20
1.0
 30
0.0
  9
$PUCSNAME
  2

  9
$PUCSORG
 10
0.0
 20
0.0
 30
0.0
  9
$PUCSXDIR
 10
1.0
 20
0.0
 30
0.0
  9
$PUCSYDIR
 10
0.0
 20
1.0
 30
0.0
  9
$USERI1
 70
     0
  9
$USERI2
 70
     0
  9
$USERI3
 70
     0
  9
$USERI4
 70
     0
  9
$USERI5
 70
     0
  9
$USERR1
 40
0.0
  9
$USERR2
 40
0.0
  9
$USERR3
 40
0.0
  9
$USERR4
 40
0.0
  9
$USERR5
 40
0.0
  9
$WORLDVIEW
 70
     1
  9
$SHADEDGE
 70
     3
  9
$SHADEDIF
 70
    70
  9
$TILEMODE
 70
     1
  9
$MAXACTVP
 70
    64
  9
$PINSBASE
 10
0.0
 20
0.0
 30
0.0
  9
$PLIMCHECK
 70
     0
  9
$PEXTMIN
 10
0.0
 20
0.0
 30
0.0
  9
$PEXTMAX
 10
420.0
 20
297.0
 30
0.0
  9
$PLIMMIN
 10
0.0
 20
0.0
  9
$PLIMMAX
 10
420.0
 20
297.0
  9
$UNITMODE
 70
     0
  9
$VISRETAIN
 70
     1
  9
$PLINEGEN
 70
     0
  9
$PSLTSCALE
 70
     1
  9
$TREEDEPTH
 70
  3020
  9
$PICKSTYLE
 70
     1
  9
$CMLSTYLE
  2
STANDARD
  9
$CMLJUST
 70
     0
  9
$CMLSCALE
 40
1.0
  9
$PROXYGRAPHICS
 70
     1
  9
$MEASUREMENT
 70
     1
  0
ENDSEC
  0
SECTION
  2
CLASSES
  0
CLASS
  1
ACDBDICTIONARYWDFLT
  2
AcDbDictionaryWithDefault
  3
ObjectDBX Classes
 90
        0
280
     0
281
     0
  0
CLASS
  1
VISUALSTYLE
  2
AcDbVisualStyle
  3
ObjectDBX Classes
 90
     4095
280
     0
281
     0
  0
CLASS
  1
MATERIAL
  2
AcDbMaterial
  3
ObjectDBX Classes
 90
     1153
280
     0
281
     0
  0
CLASS
  1
DICTIONARYVAR
  2
AcDbDictionaryVar
  3
ObjectDBX Classes
 90
        0
280
     0
281
     0
  0
CLASS
  1
XRECORD
  2
AcDbXrecord
  3
AutoCAD 2000
 90
        0
280
     0
281
     0
  0
CLASS
  1
LWPOLYLINE
  2
AcDbPolyline
  3
AutoCAD 2000
 90
        0
280
     0
281
     1
  0
CLASS
  1
HATCH
  2
AcDbHatch
  3
AutoCAD 2000
 90
        0
280
     0
281
     1
  0
CLASS
  1
ACDBPLACEHOLDER
  2
AcDbPlaceHolder
  3
ObjectDBX Classes
 90
        0
280
     0
281
     0
  0
CLASS
  1
LAYOUT
  2
AcDbLayout
  3
ObjectDBX Classes
 90
        0
280
     0
281
     0
  0
ENDSEC
  0
SECTION
  2
TABLES
  0
TABLE
  2
VPORT
  5
8
330
0
100
AcDbSymbolTable
 70
     1
  0
VPORT
  5
29
330
8
100
AcDbSymbolTableRecord
100
AcDbViewportTableRecord
  2
*ACTIVE
 70
     0
 10
0.0
 20
0.0
 11
1.0
 21
1.0
 12
10.42990654205607
 22
4.5
 13
0.0
 23
0.0
 14
0.5
 24
0.5
 15
0.5
 25
0.5
 16
0.0
 26
0.0
 36
1.0
 17
0.0
 27
0.0
 37
0.0
 40
9.0
 41
1.972972972850329
 42
50.0
 43
0.0
 44
0.0
 50
0.0
 51
0.0
 71
     0
 72
   100
 73
     1
 74
     3
 75
     0
 76
     0
 77
     0
 78
     0
  0
ENDTAB
  0
TABLE
  2
LTYPE
  5
5
330
0
100
AcDbSymbolTable
 70
     9
  0
LTYPE
  5
14
330
5
100
AcDbSymbolTableRecord
100
AcDbLinetypeTableRecord
  2
BYBLOCK
 70
     0
  3

 72
    65
 73
     0
 40
0.0
  0
LTYPE
  5
15
330
5
100
AcDbSymbolTableRecord
100
AcDbLinetypeTableRecord
  2
BYLAYER
 70
     0
  3

 72
    65
 73
     0
 40
0.0
  0
LTYPE
  5
16
330
5
100
AcDbSymbolTableRecord
100
AcDbLinetypeTableRecord
  2
CONTINUOUS
 70
     0
  3
Solid line
 72
    65
 73
     0
 40
0.0
  0
LTYPE
  5
8E
330
5
100
AcDbSymbolTableRecord
100
AcDbLinetypeTableRecord
  2
DOT
 70
     0
  3
DOT
 72
    65
 73
     2
 40
4.0
 49
6.0
 74
     0
 49
-2.0
 74
     0
  0
LTYPE
  5
8F
330
5
100
AcDbSymbolTableRecord
100
AcDbLinetypeTableRecord
  2
HIDDEN
 70
     0
  3
HIDDEN
 72
    65
 73
     2
 40
4.2
 49
8.4
 74
     0
 49
-4.2
 74
     0
  0
LTYPE
  5
90
330
5
100
AcDbSymbolTableRecord
100
AcDbLinetypeTableRecord
  2
DASHDOT
 70
     0
  3
DASHDOT
 72
    65
 73
     4
 40
14.5
 49
30.0
 74
     0
 49
-9.0
 74
     0
 49
2.5
 74
     0
 49
-9.0
 74
     0
  0
LTYPE
  5
91
330
5
100
AcDbSymbolTableRecord
100
AcDbLinetypeTableRecord
  2
PHANTOM
 70
     0
  3
PHANTOM
 72
    65
 73
     6
 40
12.0
 49
30.0
 74
     0
 49
-9.0
 74
     0
 49
2.5
 74
     0
 49
-5.0
 74
     0
 49
2.5
 74
     0
 49
-9.0
 74
     0
  0
LTYPE
  5
92
330
5
100
AcDbSymbolTableRecord
100
AcDbLinetypeTableRecord
  2
ACAD_ISO14W100
 70
     0
  3
ACAD_ISO14W100
 72
    65
 73
     8
 40
1.5
 49
12.0
 74
     0
 49
-3.0
 74
     0
 49
0.5
 74
     0
 49
-3.0
 74
     0
 49
0.5
 74
     0
 49
-3.0
 74
     0
 49
0.5
 74
     0
 49
-3.0
 74
     0
  0
LTYPE
  5
93
330
5
100
AcDbSymbolTableRecord
100
AcDbLinetypeTableRecord
  2
ACAD_ISO06W100
 70
     0
  3
ACAD_ISO06W100
 72
    65
 73
     8
 40
13.5
 49
24.0
 74
     0
 49
-3.0
 74
     0
 49
0.5
 74
     0
 49
-3.0
 74
     0
 49
0.5
 74
     0
 49
-3.0
 74
     0
 49
0.5
 74
     0
 49
-3.0
 74
     0
  0
LTYPE
  5
94
330
5
100
AcDbSymbolTableRecord
100
AcDbLinetypeTableRecord
  2
ACAD_ISO11W100
 70
     0
  3
ACAD_ISO11W100
 72
    65
 73
     6
 40
15.5
 49
12.0
 74
     0
 49
-3.0
 74
     0
 49
12.0
 74
     0
 49
-3.0
 74
     0
 49
0.5
 74
     0
 49
-3.0
 74
     0
  0
LTYPE
  5
95
330
5
100
AcDbSymbolTableRecord
100
AcDbLinetypeTableRecord
  2
ACAD_ISO13W100
 70
     0
  3
ACAD_ISO13W100
 72
    65
 73
     8
 40
13.0
 49
12.0
 74
     0
 49
-3.0
 74
     0
 49
12.0
 74
     0
 49
-3.0
 74
     0
 49
0.5
 74
     0
 49
-3.0
 74
     0
 49
0.5
 74
     0
 49
-3.0
 74
     0
  0
ENDTAB
  0
TABLE
  2
LAYER
  5
2
330
0
100
AcDbSymbolTable
 70
    12
  0
LAYER
  5
10
330
2
100
AcDbSymbolTableRecord
100
AcDbLayerTableRecord
  2
0
 70
     0
 62
     7
  6
CONTINUOUS
  0
LAYER
  5
96
330
2
100
AcDbSymbolTableRecord
100
AcDbLayerTableRecord
  2
1
 70
     0
 62
     7
  6
CONTINUOUS
  0
LAYER
  5
97
330
2
100
AcDbSymbolTableRecord
100
AcDbLayerTableRecord
  2
2
 70
     0
 62
   151
  6
CONTINUOUS
  0
LAYER
  5
98
330
2
100
AcDbSymbolTableRecord
100
AcDbLayerTableRecord
  2
3
 70
     0
 62
     1
  6
DASHDOT
  0
LAYER
  5
99
330
2
100
AcDbSymbolTableRecord
100
AcDbLayerTableRecord
  2
4
 70
     0
 62
     7
  6
CONTINUOUS
  0
LAYER
  5
9A
330
2
100
AcDbSymbolTableRecord
100
AcDbLayerTableRecord
  2
5
 70
     0
 62
     6
  6
CONTINUOUS
  0
LAYER
  5
9B
330
2
100
AcDbSymbolTableRecord
100
AcDbLayerTableRecord
  2
6
 70
     0
 62
     3
  6
CONTINUOUS
  0
LAYER
  5
9C
330
2
100
AcDbSymbolTableRecord
100
AcDbLayerTableRecord
  2
7
 70
     0
 62
     4
  6
CONTINUOUS
  0
LAYER
  5
9D
330
2
100
AcDbSymbolTableRecord
100
AcDbLayerTableRecord
  2
8
 70
     0
 62
     7
  6
CONTINUOUS
  0
LAYER
  5
9E
330
2
100
AcDbSymbolTableRecord
100
AcDbLayerTableRecord
  2
9
 70
     0
 62
     2
  6
CONTINUOUS
  0
LAYER
  5
9F
330
2
100
AcDbSymbolTableRecord
100
AcDbLayerTableRecord
  2
10
 70
     0
 62
     1
  6
CONTINUOUS
  0
LAYER
  5
A0
330
2
100
AcDbSymbolTableRecord
100
AcDbLayerTableRecord
  2
11
 70
     0
 62
     3
  6
HIDDEN
  0
ENDTAB
  0
TABLE
  2
STYLE
  5
3
330
0
100
AcDbSymbolTable
 70
     3
  0
STYLE
  5
11
330
3
100
AcDbSymbolTableRecord
100
AcDbTextStyleTableRecord
  2
STANDARD
 70
     0
 40
0.0
 41
1.0
 50
0.0
 71
     0
 42
5.6
  3
txt
  4
bigfont
  0
STYLE
  5
41
330
3
100
AcDbSymbolTableRecord
100
AcDbTextStyleTableRecord
  2
T_STANDARD
 70
     4
 40
10.0
 41
1.0
 50
0.0
 71
     0
 42
10.0
  3
txt
  4
bigfont
  0
STYLE
  5
1EF
330
3
100
AcDbSymbolTableRecord
100
AcDbTextStyleTableRecord
  2
ＭＳ_ゴシック
 70
     0
 40
0.0
 41
1.0
 50
0.0
 71
     0
 42
0.0
  3

  4

1001
ACAD
1000
ＭＳ ゴシック
1071
      256
  0
ENDTAB
  0
TABLE
  2
VIEW
  5
6
330
0
100
AcDbSymbolTable
 70
     0
  0
ENDTAB
  0
TABLE
  2
UCS
  5
7
330
0
100
AcDbSymbolTable
 70
     0
  0
ENDTAB
  0
TABLE
  2
APPID
  5
9
330
0
100
AcDbSymbolTable
 70
     2
  0
APPID
  5
12
330
9
100
AcDbSymbolTableRecord
100
AcDbRegAppTableRecord
  2
ACAD
 70
     0
  0
APPID
  5
40
330
9
100
AcDbSymbolTableRecord
100
AcDbRegAppTableRecord
  2
ODA
 70
     0
  0
ENDTAB
  0
TABLE
  2
DIMSTYLE
  5
A
330
0
100
AcDbSymbolTable
 70
     1
  0
DIMSTYLE
105
27
102
{ACAD_REACTORS
330
1F9
330
203
330
20D
330
217
330
221
330
22B
330
235
330
23F
330
249
330
253
330
25D
330
267
330
271
330
27B
330
28A
330
292
102
}
330
A
100
AcDbSymbolTableRecord
100
AcDbDimStyleTableRecord
  2
STANDARD
 70
     0
  3

  4

  5

  6

  7

 40
1.0
 41
0.18
 42
0.0625
 43
0.38
 44
0.18
 45
0.0
 46
0.0
 47
0.0
 48
0.0
140
0.18
141
0.09
142
0.0
143
25.4
144
1.0
145
0.0
146
1.0
147
0.09
 71
     0
 72
     0
 73
     1
 74
     1
 75
     0
 76
     0
 77
     0
 78
     0
170
     0
171
     2
172
     0
173
     0
174
     0
175
     0
176
     0
177
     0
178
     0
270
     2
271
     4
272
     4
273
     2
274
     2
340
11
275
     0
280
     0
281
     0
282
     0
283
     1
284
     0
285
     0
286
     0
287
     3
288
     0
  0
ENDTAB
  0
TABLE
  2
BLOCK_RECORD
  5
1
330
0
100
AcDbSymbolTable
 70
    32
  0
BLOCK_RECORD
  5
1F
330
1
100
AcDbSymbolTableRecord
100
AcDbBlockTableRecord
  2
*MODEL_SPACE
  0
BLOCK_RECORD
  5
1B
330
1
100
AcDbSymbolTableRecord
100
AcDbBlockTableRecord
  2
*PAPER_SPACE
  0
BLOCK_RECORD
  5
42
330
1
100
AcDbSymbolTableRecord
100
AcDbBlockTableRecord
  2
_ORIGIN
  0
BLOCK_RECORD
  5
47
330
1
100
AcDbSymbolTableRecord
100
AcDbBlockTableRecord
  2
_DOTBLANK
  0
BLOCK_RECORD
  5
4C
330
1
100
AcDbSymbolTableRecord
100
AcDbBlockTableRecord
  2
_DOT
  0
BLOCK_RECORD
  5
51
330
1
100
AcDbSymbolTableRecord
100
AcDbBlockTableRecord
  2
_OPEN
  0
BLOCK_RECORD
  5
57
330
1
100
AcDbSymbolTableRecord
100
AcDbBlockTableRecord
  2
_CLOSED
  0
BLOCK_RECORD
  5
5E
330
1
100
AcDbSymbolTableRecord
100
AcDbBlockTableRecord
  2
_CLOSEDBLANK
  0
BLOCK_RECORD
  5
64
330
1
100
AcDbSymbolTableRecord
100
AcDbBlockTableRecord
  2
_ARROWFILLED
  0
BLOCK_RECORD
  5
68
330
1
100
AcDbSymbolTableRecord
100
AcDbBlockTableRecord
  2
_BOXBLANK
  0
BLOCK_RECORD
  5
70
330
1
100
AcDbSymbolTableRecord
100
AcDbBlockTableRecord
  2
_BOXFILLED
  0
BLOCK_RECORD
  5
75
330
1
100
AcDbSymbolTableRecord
100
AcDbBlockTableRecord
  2
_INTEGRAL
  0
BLOCK_RECORD
  5
7A
330
1
100
AcDbSymbolTableRecord
100
AcDbBlockTableRecord
  2
_OBLIQUE
  0
BLOCK_RECORD
  5
7E
330
1
100
AcDbSymbolTableRecord
100
AcDbBlockTableRecord
  2
_NONE
  0
BLOCK_RECORD
  5
81
330
1
100
AcDbSymbolTableRecord
100
AcDbBlockTableRecord
  2
MARK_OPEN
  0
BLOCK_RECORD
  5
86
330
1
100
AcDbSymbolTableRecord
100
AcDbBlockTableRecord
  2
MARK_ORIGIN
  0
BLOCK_RECORD
  5
8A
330
1
100
AcDbSymbolTableRecord
100
AcDbBlockTableRecord
  2
MARK_DOT
  0
BLOCK_RECORD
  5
1F0
330
1
100
AcDbSymbolTableRecord
100
AcDbBlockTableRecord
  2
DIM1
  0
BLOCK_RECORD
  5
1FA
330
1
100
AcDbSymbolTableRecord
100
AcDbBlockTableRecord
  2
DIM2
  0
BLOCK_RECORD
  5
204
330
1
100
AcDbSymbolTableRecord
100
AcDbBlockTableRecord
  2
DIM3
  0
BLOCK_RECORD
  5
20E
330
1
100
AcDbSymbolTableRecord
100
AcDbBlockTableRecord
  2
DIM4
  0
BLOCK_RECORD
  5
218
330
1
100
AcDbSymbolTableRecord
100
AcDbBlockTableRecord
  2
DIM5
  0
BLOCK_RECORD
  5
222
330
1
100
AcDbSymbolTableRecord
100
AcDbBlockTableRecord
  2
DIM6
  0
BLOCK_RECORD
  5
22C
330
1
100
AcDbSymbolTableRecord
100
AcDbBlockTableRecord
  2
DIM7
  0
BLOCK_RECORD
  5
236
330
1
100
AcDbSymbolTableRecord
100
AcDbBlockTableRecord
  2
DIM8
  0
BLOCK_RECORD
  5
240
330
1
100
AcDbSymbolTableRecord
100
AcDbBlockTableRecord
  2
DIM9
  0
BLOCK_RECORD
  5
24A
330
1
100
AcDbSymbolTableRecord
100
AcDbBlockTableRecord
  2
DIM10
  0
BLOCK_RECORD
  5
254
330
1
100
AcDbSymbolTableRecord
100
AcDbBlockTableRecord
  2
DIM11
  0
BLOCK_RECORD
  5
25E
330
1
100
AcDbSymbolTableRecord
100
AcDbBlockTableRecord
  2
DIM12
  0
BLOCK_RECORD
  5
268
330
1
100
AcDbSymbolTableRecord
100
AcDbBlockTableRecord
  2
DIM13
  0
BLOCK_RECORD
  5
272
330
1
100
AcDbSymbolTableRecord
100
AcDbBlockTableRecord
  2
DIM14
  0
BLOCK_RECORD
  5
283
330
1
100
AcDbSymbolTableRecord
100
AcDbBlockTableRecord
  2
DIM15
  0
BLOCK_RECORD
  5
28B
330
1
100
AcDbSymbolTableRecord
100
AcDbBlockTableRecord
  2
DIM16
  0
ENDTAB
  0
ENDSEC
  0
SECTION
  2
BLOCKS
  0
BLOCK
  5
20
330
1F
100
AcDbEntity
  8
0
100
AcDbBlockBegin
  2
*MODEL_SPACE
 70
     0
 10
0.0
 20
0.0
 30
0.0
  3
*MODEL_SPACE
  1

  0
ENDBLK
  5
21
330
1F
100
AcDbEntity
  8
0
100
AcDbBlockEnd
  0
BLOCK
  5
1C
330
1B
100
AcDbEntity
 67
     1
  8
0
100
AcDbBlockBegin
  2
*PAPER_SPACE
 70
     0
 10
0.0
 20
0.0
 30
0.0
  3
*PAPER_SPACE
  1

  0
ENDBLK
  5
1D
330
1B
100
AcDbEntity
 67
     1
  8
0
100
AcDbBlockEnd
  0
BLOCK
  5
45
330
42
100
AcDbEntity
  8
0
100
AcDbBlockBegin
  2
_ORIGIN
 70
     0
 10
0.0
 20
0.0
 30
0.0
  3
_ORIGIN
  1

  0
CIRCLE
  5
43
330
42
100
AcDbEntity
  8
0
 62
     0
100
AcDbCircle
 10
0.0
 20
0.0
 30
0.0
 40
0.5
  0
LINE
  5
44
330
42
100
AcDbEntity
  8
0
 62
     0
100
AcDbLine
 10
0.0
 20
0.0
 30
0.0
 11
-1.0
 21
0.0
 31
0.0
  0
ENDBLK
  5
46
330
42
100
AcDbEntity
  8
0
100
AcDbBlockEnd
  0
BLOCK
  5
4A
330
47
100
AcDbEntity
  8
0
100
AcDbBlockBegin
  2
_DOTBLANK
 70
     0
 10
0.0
 20
0.0
 30
0.0
  3
_DOTBLANK
  1

  0
CIRCLE
  5
48
330
47
100
AcDbEntity
  8
0
 62
     0
100
AcDbCircle
 10
0.0
 20
0.0
 30
0.0
 40
0.5
  0
LINE
  5
49
330
47
100
AcDbEntity
  8
0
 62
     0
100
AcDbLine
 10
-0.5
 20
0.0
 30
0.0
 11
-1.0
 21
0.0
 31
0.0
  0
ENDBLK
  5
4B
330
47
100
AcDbEntity
  8
0
100
AcDbBlockEnd
  0
BLOCK
  5
4F
330
4C
100
AcDbEntity
  8
0
100
AcDbBlockBegin
  2
_DOT
 70
     0
 10
0.0
 20
0.0
 30
0.0
  3
_DOT
  1

  0
LWPOLYLINE
  5
4D
330
4C
100
AcDbEntity
  8
0
 62
     0
100
AcDbPolyline
 90
        2
 70
     1
 43
0.5
 10
-0.25
 20
0.0
 42
1.0
 10
0.25
 20
0.0
 42
1.0
  0
LINE
  5
4E
330
4C
100
AcDbEntity
  8
0
 62
     0
100
AcDbLine
 10
-0.5
 20
0.0
 30
0.0
 11
-1.0
 21
0.0
 31
0.0
  0
ENDBLK
  5
50
330
4C
100
AcDbEntity
  8
0
100
AcDbBlockEnd
  0
BLOCK
  5
55
330
51
100
AcDbEntity
  8
0
100
AcDbBlockBegin
  2
_OPEN
 70
     0
 10
0.0
 20
0.0
 30
0.0
  3
_OPEN
  1

  0
LINE
  5
52
330
51
100
AcDbEntity
  8
0
 62
     0
100
AcDbLine
 10
0.0
 20
0.0
 30
0.0
 11
-1.0
 21
0.1666666666666667
 31
0.0
  0
LINE
  5
53
330
51
100
AcDbEntity
  8
0
 62
     0
100
AcDbLine
 10
0.0
 20
0.0
 30
0.0
 11
-1.0
 21
-0.1666666666666667
 31
0.0
  0
LINE
  5
54
330
51
100
AcDbEntity
  8
0
 62
     0
100
AcDbLine
 10
0.0
 20
0.0
 30
0.0
 11
-1.0
 21
0.0
 31
0.0
  0
ENDBLK
  5
56
330
51
100
AcDbEntity
  8
0
100
AcDbBlockEnd
  0
BLOCK
  5
5C
330
57
100
AcDbEntity
  8
0
100
AcDbBlockBegin
  2
_CLOSED
 70
     0
 10
0.0
 20
0.0
 30
0.0
  3
_CLOSED
  1

  0
LINE
  5
58
330
57
100
AcDbEntity
  8
0
 62
     0
100
AcDbLine
 10
0.0
 20
0.0
 30
0.0
 11
-1.0
 21
0.1666666666666667
 31
0.0
  0
LINE
  5
59
330
57
100
AcDbEntity
  8
0
 62
     0
100
AcDbLine
 10
0.0
 20
0.0
 30
0.0
 11
-1.0
 21
-0.1666666666666667
 31
0.0
  0
LINE
  5
5A
330
57
100
AcDbEntity
  8
0
 62
     0
100
AcDbLine
 10
-1.0
 20
0.1666666666666667
 30
0.0
 11
-1.0
 21
-0.1666666666666667
 31
0.0
  0
LINE
  5
5B
330
57
100
AcDbEntity
  8
0
 62
     0
100
AcDbLine
 10
0.0
 20
0.0
 30
0.0
 11
-1.0
 21
0.0
 31
0.0
  0
ENDBLK
  5
5D
330
57
100
AcDbEntity
  8
0
100
AcDbBlockEnd
  0
BLOCK
  5
62
330
5E
100
AcDbEntity
  8
0
100
AcDbBlockBegin
  2
_CLOSEDBLANK
 70
     0
 10
0.0
 20
0.0
 30
0.0
  3
_CLOSEDBLANK
  1

  0
LINE
  5
5F
330
5E
100
AcDbEntity
  8
0
 62
     0
100
AcDbLine
 10
0.0
 20
0.0
 30
0.0
 11
-1.0
 21
0.1666666666666667
 31
0.0
  0
LINE
  5
60
330
5E
100
AcDbEntity
  8
0
 62
     0
100
AcDbLine
 10
0.0
 20
0.0
 30
0.0
 11
-1.0
 21
-0.1666666666666667
 31
0.0
  0
LINE
  5
61
330
5E
100
AcDbEntity
  8
0
 62
     0
100
AcDbLine
 10
-1.0
 20
0.1666666666666667
 30
0.0
 11
-1.0
 21
-0.1666666666666667
 31
0.0
  0
ENDBLK
  5
63
330
5E
100
AcDbEntity
  8
0
100
AcDbBlockEnd
  0
BLOCK
  5
66
330
64
100
AcDbEntity
  8
0
100
AcDbBlockBegin
  2
_ARROWFILLED
 70
     0
 10
0.0
 20
0.0
 30
0.0
  3
_ARROWFILLED
  1

  0
SOLID
  5
65
330
64
100
AcDbEntity
  8
0
 62
     0
100
AcDbTrace
 10
0.0
 20
0.0
 30
0.0
 11
-1.0
 21
-0.1666666666666667
 31
0.0
 12
-1.0
 22
0.1666666666666667
 32
0.0
 13
0.0
 23
0.0
 33
0.0
  0
ENDBLK
  5
67
330
64
100
AcDbEntity
  8
0
100
AcDbBlockEnd
  0
BLOCK
  5
6E
330
68
100
AcDbEntity
  8
0
100
AcDbBlockBegin
  2
_BOXBLANK
 70
     0
 10
0.0
 20
0.0
 30
0.0
  3
_BOXBLANK
  1

  0
LINE
  5
69
330
68
100
AcDbEntity
  8
0
 62
     0
100
AcDbLine
 10
-0.5
 20
-0.5
 30
0.0
 11
0.5
 21
-0.5
 31
0.0
  0
LINE
  5
6A
330
68
100
AcDbEntity
  8
0
 62
     0
100
AcDbLine
 10
0.5
 20
-0.5
 30
0.0
 11
0.5
 21
0.5
 31
0.0
  0
LINE
  5
6B
330
68
100
AcDbEntity
  8
0
 62
     0
100
AcDbLine
 10
0.5
 20
0.5
 30
0.0
 11
-0.5
 21
0.5
 31
0.0
  0
LINE
  5
6C
330
68
100
AcDbEntity
  8
0
 62
     0
100
AcDbLine
 10
-0.5
 20
0.5
 30
0.0
 11
-0.5
 21
-0.5
 31
0.0
  0
LINE
  5
6D
330
68
100
AcDbEntity
  8
0
 62
     0
100
AcDbLine
 10
-0.5
 20
0.0
 30
0.0
 11
-1.0
 21
0.0
 31
0.0
  0
ENDBLK
  5
6F
330
68
100
AcDbEntity
  8
0
100
AcDbBlockEnd
  0
BLOCK
  5
73
330
70
100
AcDbEntity
  8
0
100
AcDbBlockBegin
  2
_BOXFILLED
 70
     0
 10
0.0
 20
0.0
 30
0.0
  3
_BOXFILLED
  1

  0
SOLID
  5
71
330
70
100
AcDbEntity
  8
0
 62
     0
100
AcDbTrace
 10
-0.5
 20
0.5
 30
0.0
 11
0.5
 21
0.5
 31
0.0
 12
-0.5
 22
-0.5
 32
0.0
 13
0.5
 23
-0.5
 33
0.0
  0
LINE
  5
72
330
70
100
AcDbEntity
  8
0
 62
     0
100
AcDbLine
 10
-0.5
 20
0.0
 30
0.0
 11
-1.0
 21
0.0
 31
0.0
  0
ENDBLK
  5
74
330
70
100
AcDbEntity
  8
0
100
AcDbBlockEnd
  0
BLOCK
  5
78
330
75
100
AcDbEntity
  8
0
100
AcDbBlockBegin
  2
_INTEGRAL
 70
     0
 10
0.0
 20
0.0
 30
0.0
  3
_INTEGRAL
  1

  0
ARC
  5
76
330
75
100
AcDbEntity
  8
0
 62
     0
100
AcDbCircle
 10
0.444888
 20
-0.0913346
 30
0.0
 40
0.4541666
100
AcDbArc
 50
101.9999999999999
 51
167.9999999999998
  0
ARC
  5
77
330
75
100
AcDbEntity
  8
0
 62
     0
100
AcDbCircle
 10
-0.444888
 20
0.0913346
 30
0.0
 40
0.4541666
100
AcDbArc
 50
281.9999999999997
 51
347.9999999999997
  0
ENDBLK
  5
79
330
75
100
AcDbEntity
  8
0
100
AcDbBlockEnd
  0
BLOCK
  5
7C
330
7A
100
AcDbEntity
  8
0
100
AcDbBlockBegin
  2
_OBLIQUE
 70
     0
 10
0.0
 20
0.0
 30
0.0
  3
_OBLIQUE
  1

  0
LINE
  5
7B
330
7A
100
AcDbEntity
  8
0
 62
     0
100
AcDbLine
 10
-0.5
 20
-0.5
 30
0.0
 11
0.5
 21
0.5
 31
0.0
  0
ENDBLK
  5
7D
330
7A
100
AcDbEntity
  8
0
100
AcDbBlockEnd
  0
BLOCK
  5
7F
330
7E
100
AcDbEntity
  8
0
100
AcDbBlockBegin
  2
_NONE
 70
     0
 10
0.0
 20
0.0
 30
0.0
  3
_NONE
  1

  0
ENDBLK
  5
80
330
7E
100
AcDbEntity
  8
0
100
AcDbBlockEnd
  0
BLOCK
  5
84
330
81
100
AcDbEntity
  8
0
100
AcDbBlockBegin
  2
MARK_OPEN
 70
     0
 10
0.0
 20
0.0
 30
0.0
  3
MARK_OPEN
  1

  0
LINE
  5
82
330
81
100
AcDbEntity
  8
0
 62
     0
100
AcDbLine
 10
0.0
 20
0.0
 30
0.0
 11
-1.0
 21
0.1666666666666667
 31
0.0
  0
LINE
  5
83
330
81
100
AcDbEntity
  8
0
 62
     0
100
AcDbLine
 10
0.0
 20
0.0
 30
0.0
 11
-1.0
 21
-0.1666666666666667
 31
0.0
  0
ENDBLK
  5
85
330
81
100
AcDbEntity
  8
0
100
AcDbBlockEnd
  0
BLOCK
  5
88
330
86
100
AcDbEntity
  8
0
100
AcDbBlockBegin
  2
MARK_ORIGIN
 70
     0
 10
0.0
 20
0.0
 30
0.0
  3
MARK_ORIGIN
  1

  0
CIRCLE
  5
87
330
86
100
AcDbEntity
  8
0
 62
     0
100
AcDbCircle
 10
0.0
 20
0.0
 30
0.0
 40
0.5
  0
ENDBLK
  5
89
330
86
100
AcDbEntity
  8
0
100
AcDbBlockEnd
  0
BLOCK
  5
8C
330
8A
100
AcDbEntity
  8
0
100
AcDbBlockBegin
  2
MARK_DOT
 70
     0
 10
0.0
 20
0.0
 30
0.0
  3
MARK_DOT
  1

  0
LWPOLYLINE
  5
8B
330
8A
100
AcDbEntity
  8
0
 62
     0
100
AcDbPolyline
 90
        2
 70
     1
 43
0.5
 10
-0.25
 20
0.0
 42
1.0
 10
0.25
 20
0.0
 42
1.0
  0
ENDBLK
  5
8D
330
8A
100
AcDbEntity
  8
0
100
AcDbBlockEnd
  0
BLOCK
  5
1F1
330
1F0
100
AcDbEntity
  8
0
100
AcDbBlockBegin
  2
DIM1
 70
     0
 10
0.0
 20
0.0
 30
0.0
  3
DIM1
  1

  0
LINE
  5
1F3
330
1F0
100
AcDbEntity
  8
7
  6
CONTINUOUS
 62
     4
100
AcDbLine
 10
629.0014808089863
 20
250.2374275996824
 30
0.0
 11
629.0014808089862
 21
179.2374275996836
 31
0.0
  0
LINE
  5
1F4
330
1F0
100
AcDbEntity
  8
7
  6
CONTINUOUS
 62
     4
100
AcDbLine
 10
129.0014808089863
 20
250.2374275996824
 30
0.0
 11
129.0014808089862
 21
179.2374275996836
 31
0.0
  0
LINE
  5
1F5
330
1F0
100
AcDbEntity
  8
7
  6
CONTINUOUS
 62
     4
100
AcDbLine
 10
629.0014808089862
 20
182.2374275996836
 30
0.0
 11
129.0014808089862
 21
182.2374275996836
 31
0.0
  0
MTEXT
  5
1F6
330
1F0
100
AcDbEntity
  8
7
  6
CONTINUOUS
 62
     4
100
AcDbMText
 10
379.0014808089863
 20
182.2374275996836
 30
0.0
 40
6.0
 41
77.14285714285714
 71
     8
 72
     1
  1
500
  7
ＭＳ_ゴシック
1001
ACAD
1000
ACAD_MTEXT_DEFINED_HEIGHT_BEGIN
1070
    46
1040
6.0
1000
ACAD_MTEXT_DEFINED_HEIGHT_END
  0
INSERT
  5
1F7
330
1F0
100
AcDbEntity
  8
7
  6
CONTINUOUS
 62
     4
100
AcDbBlockReference
  2
_ARROWFILLED
 10
629.0014808089862
 20
182.2374275996836
 30
0.0
 41
4.0
 42
4.0
 43
4.0
 50
359.9999999999997
  0
INSERT
  5
1F8
330
1F0
100
AcDbEntity
  8
7
  6
CONTINUOUS
 62
     4
100
AcDbBlockReference
  2
_ARROWFILLED
 10
129.0014808089862
 20
182.2374275996836
 30
0.0
 41
4.0
 42
4.0
 43
4.0
 50
179.9999999999998
  0
ENDBLK
  5
1F2
330
1F0
100
AcDbEntity
  8
0
100
AcDbBlockEnd
  0
BLOCK
  5
1FB
330
1FA
100
AcDbEntity
  8
0
100
AcDbBlockBegin
  2
DIM2
 70
     0
 10
0.0
 20
0.0
 30
0.0
  3
DIM2
  1

  0
LINE
  5
1FD
330
1FA
100
AcDbEntity
  8
7
  6
CONTINUOUS
 62
     4
100
AcDbLine
 10
644.0014808089863
 20
235.2374275996824
 30
0.0
 11
644.0014808089862
 21
163.2374275996836
 31
0.0
  0
LINE
  5
1FE
330
1FA
100
AcDbEntity
  8
7
  6
CONTINUOUS
 62
     4
100
AcDbLine
 10
114.0014808089845
 20
235.2374275996824
 30
0.0
 11
114.0014808089844
 21
163.2374275996836
 31
0.0
  0
LINE
  5
1FF
330
1FA
100
AcDbEntity
  8
7
  6
CONTINUOUS
 62
     4
100
AcDbLine
 10
644.0014808089862
 20
166.2374275996836
 30
0.0
 11
114.0014808089844
 21
166.2374275996836
 31
0.0
  0
MTEXT
  5
200
330
1FA
100
AcDbEntity
  8
7
  6
CONTINUOUS
 62
     4
100
AcDbMText
 10
379.0014808089844
 20
166.2374275996836
 30
0.0
 40
6.0
 41
77.14285714285714
 71
     8
 72
     1
  1
530
  7
ＭＳ_ゴシック
1001
ACAD
1000
ACAD_MTEXT_DEFINED_HEIGHT_BEGIN
1070
    46
1040
6.0
1000
ACAD_MTEXT_DEFINED_HEIGHT_END
  0
INSERT
  5
201
330
1FA
100
AcDbEntity
  8
7
  6
CONTINUOUS
 62
     4
100
AcDbBlockReference
  2
_ARROWFILLED
 10
644.0014808089862
 20
166.2374275996836
 30
0.0
 41
4.0
 42
4.0
 43
4.0
 50
359.9999999999997
  0
INSERT
  5
202
330
1FA
100
AcDbEntity
  8
7
  6
CONTINUOUS
 62
     4
100
AcDbBlockReference
  2
_ARROWFILLED
 10
114.0014808089844
 20
166.2374275996836
 30
0.0
 41
4.0
 42
4.0
 43
4.0
 50
179.9999999999998
  0
ENDBLK
  5
1FC
330
1FA
100
AcDbEntity
  8
0
100
AcDbBlockEnd
  0
BLOCK
  5
205
330
204
100
AcDbEntity
  8
0
100
AcDbBlockBegin
  2
DIM3
 70
     0
 10
0.0
 20
0.0
 30
0.0
  3
DIM3
  1

  0
LINE
  5
207
330
204
100
AcDbEntity
  8
7
  6
CONTINUOUS
 62
     4
100
AcDbLine
 10
491.5014808089863
 20
219.1374275996828
 30
0.0
 11
491.5014808089862
 21
195.2374275996836
 31
0.0
  0
LINE
  5
208
330
204
100
AcDbEntity
  8
7
  6
CONTINUOUS
 62
     4
100
AcDbLine
 10
604.0014808089863
 20
219.1374275996828
 30
0.0
 11
604.0014808089863
 21
195.2374275996836
 31
0.0
  0
LINE
  5
209
330
204
100
AcDbEntity
  8
7
  6
CONTINUOUS
 62
     4
100
AcDbLine
 10
491.5014808089862
 20
198.2374275996836
 30
0.0
 11
604.0014808089863
 21
198.2374275996836
 31
0.0
  0
MTEXT
  5
20A
330
204
100
AcDbEntity
  8
7
  6
CONTINUOUS
 62
     4
100
AcDbMText
 10
547.7514808089863
 20
198.2374275996836
 30
0.0
 40
6.0
 41
115.7142857142857
 71
     8
 72
     1
  1
112.5
  7
ＭＳ_ゴシック
1001
ACAD
1000
ACAD_MTEXT_DEFINED_HEIGHT_BEGIN
1070
    46
1040
6.0
1000
ACAD_MTEXT_DEFINED_HEIGHT_END
  0
INSERT
  5
20B
330
204
100
AcDbEntity
  8
7
  6
CONTINUOUS
 62
     4
100
AcDbBlockReference
  2
_ARROWFILLED
 10
491.5014808089862
 20
198.2374275996836
 30
0.0
 41
4.0
 42
4.0
 43
4.0
 50
179.9999999999998
  0
INSERT
  5
20C
330
204
100
AcDbEntity
  8
7
  6
CONTINUOUS
 62
     4
100
AcDbBlockReference
  2
_ARROWFILLED
 10
604.0014808089863
 20
198.2374275996836
 30
0.0
 41
4.0
 42
4.0
 43
4.0
 50
359.9999999999997
  0
ENDBLK
  5
206
330
204
100
AcDbEntity
  8
0
100
AcDbBlockEnd
  0
BLOCK
  5
20F
330
20E
100
AcDbEntity
  8
0
100
AcDbBlockBegin
  2
DIM4
 70
     0
 10
0.0
 20
0.0
 30
0.0
  3
DIM4
  1

  0
LINE
  5
211
330
20E
100
AcDbEntity
  8
7
  6
CONTINUOUS
 62
     4
100
AcDbLine
 10
266.5014808089863
 20
219.1374275996828
 30
0.0
 11
266.5014808089862
 21
195.2374275996836
 31
0.0
  0
LINE
  5
212
330
20E
100
AcDbEntity
  8
7
  6
CONTINUOUS
 62
     4
100
AcDbLine
 10
154.0014808089863
 20
219.1374275996828
 30
0.0
 11
154.0014808089863
 21
195.2374275996836
 31
0.0
  0
LINE
  5
213
330
20E
100
AcDbEntity
  8
7
  6
CONTINUOUS
 62
     4
100
AcDbLine
 10
266.5014808089862
 20
198.2374275996836
 30
0.0
 11
154.0014808089863
 21
198.2374275996836
 31
0.0
  0
MTEXT
  5
214
330
20E
100
AcDbEntity
  8
7
  6
CONTINUOUS
 62
     4
100
AcDbMText
 10
210.2514808089863
 20
198.2374275996836
 30
0.0
 40
6.0
 41
115.7142857142857
 71
     8
 72
     1
  1
112.5
  7
ＭＳ_ゴシック
1001
ACAD
1000
ACAD_MTEXT_DEFINED_HEIGHT_BEGIN
1070
    46
1040
6.0
1000
ACAD_MTEXT_DEFINED_HEIGHT_END
  0
INSERT
  5
215
330
20E
100
AcDbEntity
  8
7
  6
CONTINUOUS
 62
     4
100
AcDbBlockReference
  2
_ARROWFILLED
 10
266.5014808089862
 20
198.2374275996836
 30
0.0
 41
4.0
 42
4.0
 43
4.0
 50
359.9999999999997
  0
INSERT
  5
216
330
20E
100
AcDbEntity
  8
7
  6
CONTINUOUS
 62
     4
100
AcDbBlockReference
  2
_ARROWFILLED
 10
154.0014808089863
 20
198.2374275996836
 30
0.0
 41
4.0
 42
4.0
 43
4.0
 50
179.9999999999998
  0
ENDBLK
  5
210
330
20E
100
AcDbEntity
  8
0
100
AcDbBlockEnd
  0
BLOCK
  5
219
330
218
100
AcDbEntity
  8
0
100
AcDbBlockBegin
  2
DIM5
 70
     0
 10
0.0
 20
0.0
 30
0.0
  3
DIM5
  1

  0
LINE
  5
21B
330
218
100
AcDbEntity
  8
7
  6
CONTINUOUS
 62
     4
100
AcDbLine
 10
740.7406123690434
 20
235.2374275996842
 30
0.0
 11
740.7406123690433
 21
163.2374275996836
 31
0.0
  0
LINE
  5
21C
330
218
100
AcDbEntity
  8
7
  6
CONTINUOUS
 62
     4
100
AcDbLine
 10
785.7406123690434
 20
220.2374275996842
 30
0.0
 11
785.7406123690433
 21
163.2374275996836
 31
0.0
  0
LINE
  5
21D
330
218
100
AcDbEntity
  8
7
  6
CONTINUOUS
 62
     4
100
AcDbLine
 10
740.7406123690433
 20
166.2374275996836
 30
0.0
 11
785.7406123690433
 21
166.2374275996836
 31
0.0
  0
MTEXT
  5
21E
330
218
100
AcDbEntity
  8
7
  6
CONTINUOUS
 62
     4
100
AcDbMText
 10
763.2406123690434
 20
166.2374275996836
 30
0.0
 40
6.0
 41
48.57142857142856
 71
     8
 72
     1
  1
45
  7
ＭＳ_ゴシック
1001
ACAD
1000
ACAD_MTEXT_DEFINED_HEIGHT_BEGIN
1070
    46
1040
6.0
1000
ACAD_MTEXT_DEFINED_HEIGHT_END
  0
INSERT
  5
21F
330
218
100
AcDbEntity
  8
7
  6
CONTINUOUS
 62
     4
100
AcDbBlockReference
  2
_ARROWFILLED
 10
740.7406123690433
 20
166.2374275996836
 30
0.0
 41
4.0
 42
4.0
 43
4.0
 50
179.9999999999998
  0
INSERT
  5
220
330
218
100
AcDbEntity
  8
7
  6
CONTINUOUS
 62
     4
100
AcDbBlockReference
  2
_ARROWFILLED
 10
785.7406123690433
 20
166.2374275996836
 30
0.0
 41
4.0
 42
4.0
 43
4.0
 50
359.9999999999997
  0
ENDBLK
  5
21A
330
218
100
AcDbEntity
  8
0
100
AcDbBlockEnd
  0
BLOCK
  5
223
330
222
100
AcDbEntity
  8
0
100
AcDbBlockBegin
  2
DIM6
 70
     0
 10
0.0
 20
0.0
 30
0.0
  3
DIM6
  1

  0
LINE
  5
225
330
222
100
AcDbEntity
  8
7
  6
CONTINUOUS
 62
     4
100
AcDbLine
 10
784.7406123690434
 20
220.2374275996842
 30
0.0
 11
784.7406123690434
 21
195.2374275996836
 31
0.0
  0
LINE
  5
226
330
222
100
AcDbEntity
  8
7
  6
CONTINUOUS
 62
     4
100
AcDbLine
 10
785.7406123690434
 20
220.2374275996842
 30
0.0
 11
785.7406123690434
 21
195.2374275996836
 31
0.0
  0
LINE
  5
227
330
222
100
AcDbEntity
  8
7
  6
CONTINUOUS
 62
     4
100
AcDbLine
 10
776.7406123690434
 20
198.2374275996836
 30
0.0
 11
798.2406123690434
 21
198.2374275996836
 31
0.0
  0
MTEXT
  5
228
330
222
100
AcDbEntity
  8
7
  6
CONTINUOUS
 62
     4
100
AcDbMText
 10
795.2406123690434
 20
198.2374275996836
 30
0.0
 40
6.0
 41
7.142857142857143
 71
     7
 72
     1
  1
1
  7
ＭＳ_ゴシック
1001
ACAD
1000
ACAD_MTEXT_DEFINED_HEIGHT_BEGIN
1070
    46
1040
6.0
1000
ACAD_MTEXT_DEFINED_HEIGHT_END
  0
INSERT
  5
229
330
222
100
AcDbEntity
  8
7
  6
CONTINUOUS
 62
     4
100
AcDbBlockReference
  2
_ARROWFILLED
 10
784.7406123690434
 20
198.2374275996836
 30
0.0
 41
4.0
 42
4.0
 43
4.0
 50
359.9999999999997
  0
INSERT
  5
22A
330
222
100
AcDbEntity
  8
7
  6
CONTINUOUS
 62
     4
100
AcDbBlockReference
  2
_ARROWFILLED
 10
785.7406123690434
 20
198.2374275996836
 30
0.0
 41
4.0
 42
4.0
 43
4.0
 50
179.9999999999995
  0
ENDBLK
  5
224
330
222
100
AcDbEntity
  8
0
100
AcDbBlockEnd
  0
BLOCK
  5
22D
330
22C
100
AcDbEntity
  8
0
100
AcDbBlockBegin
  2
DIM7
 70
     0
 10
0.0
 20
0.0
 30
0.0
  3
DIM7
  1

  0
LINE
  5
22F
330
22C
100
AcDbEntity
  8
7
  6
CONTINUOUS
 62
     4
100
AcDbLine
 10
266.5014808089863
 20
219.1374275996828
 30
0.0
 11
266.5014808089862
 21
195.2374275996836
 31
0.0
  0
LINE
  5
230
330
22C
100
AcDbEntity
  8
7
  6
CONTINUOUS
 62
     4
100
AcDbLine
 10
379.0014808089863
 20
210.2374275996835
 30
0.0
 11
379.0014808089863
 21
195.2374275996836
 31
0.0
  0
LINE
  5
231
330
22C
100
AcDbEntity
  8
7
  6
CONTINUOUS
 62
     4
100
AcDbLine
 10
266.5014808089862
 20
198.2374275996836
 30
0.0
 11
379.0014808089863
 21
198.2374275996836
 31
0.0
  0
MTEXT
  5
232
330
22C
100
AcDbEntity
  8
7
  6
CONTINUOUS
 62
     4
100
AcDbMText
 10
322.7514808089863
 20
198.2374275996836
 30
0.0
 40
6.0
 41
115.7142857142857
 71
     8
 72
     1
  1
112.5
  7
ＭＳ_ゴシック
1001
ACAD
1000
ACAD_MTEXT_DEFINED_HEIGHT_BEGIN
1070
    46
1040
6.0
1000
ACAD_MTEXT_DEFINED_HEIGHT_END
  0
INSERT
  5
233
330
22C
100
AcDbEntity
  8
7
  6
CONTINUOUS
 62
     4
100
AcDbBlockReference
  2
_ARROWFILLED
 10
266.5014808089862
 20
198.2374275996836
 30
0.0
 41
4.0
 42
4.0
 43
4.0
 50
179.9999999999998
  0
INSERT
  5
234
330
22C
100
AcDbEntity
  8
7
  6
CONTINUOUS
 62
     4
100
AcDbBlockReference
  2
_ARROWFILLED
 10
379.0014808089863
 20
198.2374275996836
 30
0.0
 41
4.0
 42
4.0
 43
4.0
 50
359.9999999999997
  0
ENDBLK
  5
22E
330
22C
100
AcDbEntity
  8
0
100
AcDbBlockEnd
  0
BLOCK
  5
237
330
236
100
AcDbEntity
  8
0
100
AcDbBlockBegin
  2
DIM8
 70
     0
 10
0.0
 20
0.0
 30
0.0
  3
DIM8
  1

  0
LINE
  5
239
330
236
100
AcDbEntity
  8
7
  6
CONTINUOUS
 62
     4
100
AcDbLine
 10
127.0014808089763
 20
352.2374275996854
 30
0.0
 11
95.00148080898435
 21
352.2374275996854
 31
0.0
  0
LINE
  5
23A
330
236
100
AcDbEntity
  8
7
  6
CONTINUOUS
 62
     4
100
AcDbLine
 10
127.0014808089782
 20
252.2374275996854
 30
0.0
 11
95.00148080898452
 21
252.2374275996854
 31
0.0
  0
LINE
  5
23B
330
236
100
AcDbEntity
  8
7
  6
CONTINUOUS
 62
     4
100
AcDbLine
 10
98.00148080898435
 20
352.2374275996854
 30
0.0
 11
98.00148080898452
 21
252.2374275996854
 31
0.0
  0
MTEXT
  5
23C
330
236
100
AcDbEntity
  8
7
  6
CONTINUOUS
 62
     4
100
AcDbMText
 10
98.00148080898444
 20
302.2374275996824
 30
0.0
 40
6.0
 41
72.85714285714286
 71
     8
 72
     1
  1
100
  7
ＭＳ_ゴシック
 11
1.615544574432587E-15
 21
1.0
 31
0.0
1001
ACAD
1000
ACAD_MTEXT_DEFINED_HEIGHT_BEGIN
1070
    46
1040
6.0
1000
ACAD_MTEXT_DEFINED_HEIGHT_END
  0
INSERT
  5
23D
330
236
100
AcDbEntity
  8
7
  6
CONTINUOUS
 62
     4
100
AcDbBlockReference
  2
_ARROWFILLED
 10
98.00148080898435
 20
352.2374275996854
 30
0.0
 41
4.0
 42
4.0
 43
4.0
 50
89.99999999999991
  0
INSERT
  5
23E
330
236
100
AcDbEntity
  8
7
  6
CONTINUOUS
 62
     4
100
AcDbBlockReference
  2
_ARROWFILLED
 10
98.00148080898452
 20
252.2374275996854
 30
0.0
 41
4.0
 42
4.0
 43
4.0
 50
269.9999999999999
  0
ENDBLK
  5
238
330
236
100
AcDbEntity
  8
0
100
AcDbBlockEnd
  0
BLOCK
  5
241
330
240
100
AcDbEntity
  8
0
100
AcDbBlockBegin
  2
DIM9
 70
     0
 10
0.0
 20
0.0
 30
0.0
  3
DIM9
  1

  0
LINE
  5
243
330
240
100
AcDbEntity
  8
7
  6
CONTINUOUS
 62
     4
100
AcDbLine
 10
112.0014808089754
 20
367.2374275996854
 30
0.0
 11
79.00148080898441
 21
367.2374275996854
 31
0.0
  0
LINE
  5
244
330
240
100
AcDbEntity
  8
7
  6
CONTINUOUS
 62
     4
100
AcDbLine
 10
112.0014808089772
 20
237.2374275996854
 30
0.0
 11
79.00148080898462
 21
237.2374275996854
 31
0.0
  0
LINE
  5
245
330
240
100
AcDbEntity
  8
7
  6
CONTINUOUS
 62
     4
100
AcDbLine
 10
82.00148080898441
 20
367.2374275996854
 30
0.0
 11
82.00148080898462
 21
237.2374275996854
 31
0.0
  0
MTEXT
  5
246
330
240
100
AcDbEntity
  8
7
  6
CONTINUOUS
 62
     4
100
AcDbMText
 10
82.00148080898452
 20
302.2374275996854
 30
0.0
 40
6.0
 41
72.85714285714286
 71
     8
 72
     1
  1
130
  7
ＭＳ_ゴシック
 11
1.615544574432587E-15
 21
1.0
 31
0.0
1001
ACAD
1000
ACAD_MTEXT_DEFINED_HEIGHT_BEGIN
1070
    46
1040
6.0
1000
ACAD_MTEXT_DEFINED_HEIGHT_END
  0
INSERT
  5
247
330
240
100
AcDbEntity
  8
7
  6
CONTINUOUS
 62
     4
100
AcDbBlockReference
  2
_ARROWFILLED
 10
82.00148080898441
 20
367.2374275996854
 30
0.0
 41
4.0
 42
4.0
 43
4.0
 50
89.99999999999991
  0
INSERT
  5
248
330
240
100
AcDbEntity
  8
7
  6
CONTINUOUS
 62
     4
100
AcDbBlockReference
  2
_ARROWFILLED
 10
82.00148080898462
 20
237.2374275996854
 30
0.0
 41
4.0
 42
4.0
 43
4.0
 50
269.9999999999999
  0
ENDBLK
  5
242
330
240
100
AcDbEntity
  8
0
100
AcDbBlockEnd
  0
BLOCK
  5
24B
330
24A
100
AcDbEntity
  8
0
100
AcDbBlockBegin
  2
DIM10
 70
     0
 10
0.0
 20
0.0
 30
0.0
  3
DIM10
  1

  0
LINE
  5
24D
330
24A
100
AcDbEntity
  8
7
  6
CONTINUOUS
 62
     4
100
AcDbLine
 10
132.0014808089845
 20
382.2374275996848
 30
0.0
 11
47.00148080898447
 21
382.2374275996848
 31
0.0
  0
LINE
  5
24E
330
24A
100
AcDbEntity
  8
7
  6
CONTINUOUS
 62
     4
100
AcDbLine
 10
132.0014808089863
 20
222.2374275996829
 30
0.0
 11
47.00148080898474
 21
222.2374275996829
 31
0.0
  0
LINE
  5
24F
330
24A
100
AcDbEntity
  8
7
  6
CONTINUOUS
 62
     4
100
AcDbLine
 10
50.00148080898447
 20
382.2374275996848
 30
0.0
 11
50.00148080898474
 21
222.2374275996829
 31
0.0
  0
MTEXT
  5
250
330
24A
100
AcDbEntity
  8
7
  6
CONTINUOUS
 62
     4
100
AcDbMText
 10
50.0014808089846
 20
302.2374275996854
 30
0.0
 40
6.0
 41
72.85714285714286
 71
     8
 72
     1
  1
160
  7
ＭＳ_ゴシック
 11
1.615544574432587E-15
 21
1.0
 31
0.0
1001
ACAD
1000
ACAD_MTEXT_DEFINED_HEIGHT_BEGIN
1070
    46
1040
6.0
1000
ACAD_MTEXT_DEFINED_HEIGHT_END
  0
INSERT
  5
251
330
24A
100
AcDbEntity
  8
7
  6
CONTINUOUS
 62
     4
100
AcDbBlockReference
  2
_ARROWFILLED
 10
50.00148080898447
 20
382.2374275996848
 30
0.0
 41
4.0
 42
4.0
 43
4.0
 50
89.99999999999991
  0
INSERT
  5
252
330
24A
100
AcDbEntity
  8
7
  6
CONTINUOUS
 62
     4
100
AcDbBlockReference
  2
_ARROWFILLED
 10
50.00148080898474
 20
222.2374275996829
 30
0.0
 41
4.0
 42
4.0
 43
4.0
 50
269.9999999999999
  0
ENDBLK
  5
24C
330
24A
100
AcDbEntity
  8
0
100
AcDbBlockEnd
  0
BLOCK
  5
255
330
254
100
AcDbEntity
  8
0
100
AcDbBlockBegin
  2
DIM11
 70
     0
 10
0.0
 20
0.0
 30
0.0
  3
DIM11
  1

  0
LINE
  5
257
330
254
100
AcDbEntity
  8
7
  6
CONTINUOUS
 62
     4
100
AcDbLine
 10
379.0014808089863
 20
210.2374275996835
 30
0.0
 11
379.0014808089863
 21
195.2374275996836
 31
0.0
  0
LINE
  5
258
330
254
100
AcDbEntity
  8
7
  6
CONTINUOUS
 62
     4
100
AcDbLine
 10
491.5014808089863
 20
219.1374275996828
 30
0.0
 11
491.5014808089862
 21
195.2374275996836
 31
0.0
  0
LINE
  5
259
330
254
100
AcDbEntity
  8
7
  6
CONTINUOUS
 62
     4
100
AcDbLine
 10
379.0014808089863
 20
198.2374275996836
 30
0.0
 11
491.5014808089862
 21
198.2374275996836
 31
0.0
  0
MTEXT
  5
25A
330
254
100
AcDbEntity
  8
7
  6
CONTINUOUS
 62
     4
100
AcDbMText
 10
435.2514808089863
 20
198.2374275996836
 30
0.0
 40
6.0
 41
115.7142857142857
 71
     8
 72
     1
  1
112.5
  7
ＭＳ_ゴシック
1001
ACAD
1000
ACAD_MTEXT_DEFINED_HEIGHT_BEGIN
1070
    46
1040
6.0
1000
ACAD_MTEXT_DEFINED_HEIGHT_END
  0
INSERT
  5
25B
330
254
100
AcDbEntity
  8
7
  6
CONTINUOUS
 62
     4
100
AcDbBlockReference
  2
_ARROWFILLED
 10
379.0014808089863
 20
198.2374275996836
 30
0.0
 41
4.0
 42
4.0
 43
4.0
 50
179.9999999999998
  0
INSERT
  5
25C
330
254
100
AcDbEntity
  8
7
  6
CONTINUOUS
 62
     4
100
AcDbBlockReference
  2
_ARROWFILLED
 10
491.5014808089862
 20
198.2374275996836
 30
0.0
 41
4.0
 42
4.0
 43
4.0
 50
359.9999999999997
  0
ENDBLK
  5
256
330
254
100
AcDbEntity
  8
0
100
AcDbBlockEnd
  0
BLOCK
  5
25F
330
25E
100
AcDbEntity
  8
0
100
AcDbBlockBegin
  2
DIM12
 70
     0
 10
0.0
 20
0.0
 30
0.0
  3
DIM12
  1

  0
LINE
  5
261
330
25E
100
AcDbEntity
  8
7
  6
CONTINUOUS
 62
     4
100
AcDbLine
 10
143.9014808089863
 20
375.237427599682
 30
0.0
 11
63.0014808089847
 21
375.2374275996823
 31
0.0
  0
LINE
  5
262
330
25E
100
AcDbEntity
  8
7
  6
CONTINUOUS
 62
     4
100
AcDbLine
 10
143.9014808089863
 20
229.2374275996829
 30
0.0
 11
63.0014808089847
 21
229.2374275996831
 31
0.0
  0
LINE
  5
263
330
25E
100
AcDbEntity
  8
7
  6
CONTINUOUS
 62
     4
100
AcDbLine
 10
66.0014808089847
 20
375.2374275996823
 30
0.0
 11
66.0014808089847
 21
229.2374275996831
 31
0.0
  0
MTEXT
  5
264
330
25E
100
AcDbEntity
  8
7
  6
CONTINUOUS
 62
     4
100
AcDbMText
 10
66.0014808089847
 20
302.2374275996824
 30
0.0
 40
6.0
 41
72.85714285714286
 71
     8
 72
     1
  1
146
  7
ＭＳ_ゴシック
 11
1.615544574432587E-15
 21
1.0
 31
0.0
1001
ACAD
1000
ACAD_MTEXT_DEFINED_HEIGHT_BEGIN
1070
    46
1040
6.0
1000
ACAD_MTEXT_DEFINED_HEIGHT_END
  0
INSERT
  5
265
330
25E
100
AcDbEntity
  8
7
  6
CONTINUOUS
 62
     4
100
AcDbBlockReference
  2
_ARROWFILLED
 10
66.0014808089847
 20
375.2374275996823
 30
0.0
 41
4.0
 42
4.0
 43
4.0
 50
89.99999999999991
  0
INSERT
  5
266
330
25E
100
AcDbEntity
  8
7
  6
CONTINUOUS
 62
     4
100
AcDbBlockReference
  2
_ARROWFILLED
 10
66.0014808089847
 20
229.2374275996831
 30
0.0
 41
4.0
 42
4.0
 43
4.0
 50
269.9999999999998
  0
ENDBLK
  5
260
330
25E
100
AcDbEntity
  8
0
100
AcDbBlockEnd
  0
BLOCK
  5
269
330
268
100
AcDbEntity
  8
0
100
AcDbBlockBegin
  2
DIM13
 70
     0
 10
0.0
 20
0.0
 30
0.0
  3
DIM13
  1

  0
LINE
  5
26B
330
268
100
AcDbEntity
  8
7
  6
CONTINUOUS
 62
     4
100
AcDbLine
 10
785.7406123690434
 20
220.2374275996842
 30
0.0
 11
785.7406123690433
 21
179.3071207519474
 31
0.0
  0
LINE
  5
26C
330
268
100
AcDbEntity
  8
7
  6
CONTINUOUS
 62
     4
100
AcDbLine
 10
765.31240913876
 20
300.2374275996842
 30
0.0
 11
765.3124091387598
 21
179.3071207519474
 31
0.0
  0
LINE
  5
26D
330
268
100
AcDbEntity
  8
7
  6
CONTINUOUS
 62
     4
100
AcDbLine
 10
813.2406123690434
 20
182.3071207519474
 30
0.0
 11
765.3124091387598
 21
182.3071207519474
 31
0.0
  0
MTEXT
  5
26E
330
268
100
AcDbEntity
  8
7
  6
CONTINUOUS
 62
     4
100
AcDbMText
 10
795.2406123690434
 20
182.3071207519474
 30
0.0
 40
6.0
 41
128.5714285714286
 71
     7
 72
     1
  1
(20.5)
  7
ＭＳ_ゴシック
1001
ACAD
1000
ACAD_MTEXT_DEFINED_HEIGHT_BEGIN
1070
    46
1040
6.0
1000
ACAD_MTEXT_DEFINED_HEIGHT_END
  0
INSERT
  5
26F
330
268
100
AcDbEntity
  8
7
  6
CONTINUOUS
 62
     4
100
AcDbBlockReference
  2
_ARROWFILLED
 10
785.7406123690433
 20
182.3071207519474
 30
0.0
 41
4.0
 42
4.0
 43
4.0
 50
359.9999999999997
  0
INSERT
  5
270
330
268
100
AcDbEntity
  8
7
  6
CONTINUOUS
 62
     4
100
AcDbBlockReference
  2
_ARROWFILLED
 10
765.3124091387598
 20
182.3071207519474
 30
0.0
 41
4.0
 42
4.0
 43
4.0
 50
179.9999999999998
  0
ENDBLK
  5
26A
330
268
100
AcDbEntity
  8
0
100
AcDbBlockEnd
  0
BLOCK
  5
273
330
272
100
AcDbEntity
  8
0
100
AcDbBlockBegin
  2
DIM14
 70
     0
 10
0.0
 20
0.0
 30
0.0
  3
DIM14
  1

  0
LINE
  5
275
330
272
100
AcDbEntity
  8
7
  6
CONTINUOUS
 62
     4
100
AcDbLine
 10
662.0014808089863
 20
297.737427599682
 30
0.0
 11
662.0014808089861
 21
163.2374275996836
 31
0.0
  0
LINE
  5
276
330
272
100
AcDbEntity
  8
7
  6
CONTINUOUS
 62
     4
100
AcDbLine
 10
644.0014808089863
 20
235.237427599682
 30
0.0
 11
644.0014808089862
 21
163.2374275996836
 31
0.0
  0
LINE
  5
277
330
272
100
AcDbEntity
  8
7
  6
CONTINUOUS
 62
     4
100
AcDbLine
 10
682.0014808089866
 20
166.2374275996836
 30
0.0
 11
644.0014808089862
 21
166.2374275996836
 31
0.0
  0
MTEXT
  5
278
330
272
100
AcDbEntity
  8
7
  6
CONTINUOUS
 62
     4
100
AcDbMText
 10
670.0014808089866
 20
166.2374275996836
 30
0.0
 40
6.0
 41
85.71428571428571
 71
     7
 72
     1
  1
(18)
  7
ＭＳ_ゴシック
1001
ACAD
1000
ACAD_MTEXT_DEFINED_HEIGHT_BEGIN
1070
    46
1040
6.0
1000
ACAD_MTEXT_DEFINED_HEIGHT_END
  0
INSERT
  5
279
330
272
100
AcDbEntity
  8
7
  6
CONTINUOUS
 62
     4
100
AcDbBlockReference
  2
_ARROWFILLED
 10
662.0014808089861
 20
166.2374275996836
 30
0.0
 41
4.0
 42
4.0
 43
4.0
 50
359.9999999999997
  0
INSERT
  5
27A
330
272
100
AcDbEntity
  8
7
  6
CONTINUOUS
 62
     4
100
AcDbBlockReference
  2
_ARROWFILLED
 10
644.0014808089862
 20
166.2374275996836
 30
0.0
 41
4.0
 42
4.0
 43
4.0
 50
179.9999999999998
  0
ENDBLK
  5
274
330
272
100
AcDbEntity
  8
0
100
AcDbBlockEnd
  0
BLOCK
  5
284
330
283
100
AcDbEntity
  8
0
100
AcDbBlockBegin
  2
DIM15
 70
     0
 10
0.0
 20
0.0
 30
0.0
  3
DIM15
  1

  0
LINE
  5
286
330
283
100
AcDbEntity
  8
7
  6
CONTINUOUS
 62
     4
100
AcDbLine
 10
389.6304207242599
 20
271.5246348859371
 30
0.0
 11
340.1475022025104
 21
414.5077198919828
 31
0.0
  0
MTEXT
  5
287
330
283
100
AcDbEntity
  8
7
  6
CONTINUOUS
 62
     4
100
AcDbMText
 10
342.3550512618352
 20
408.1289090975891
 30
0.0
 40
4.5
 41
56.78571428571429
 71
     9
 72
     1
  1
\U+220565
  7
ＭＳ_ゴシック
 11
0.3270443050853327
 21
-0.9450090065767901
 31
0.0
1001
ACAD
1000
ACAD_MTEXT_DEFINED_HEIGHT_BEGIN
1070
    46
1040
4.5
1000
ACAD_MTEXT_DEFINED_HEIGHT_END
  0
INSERT
  5
288
330
283
100
AcDbEntity
  8
7
  6
CONTINUOUS
 62
     4
100
AcDbBlockReference
  2
_ARROWFILLED
 10
389.6304207242599
 20
271.5246348859371
 30
0.0
 41
3.0
 42
3.0
 43
3.0
 50
289.0894746890011
  0
INSERT
  5
289
330
283
100
AcDbEntity
  8
7
  6
CONTINUOUS
 62
     4
100
AcDbBlockReference
  2
_ARROWFILLED
 10
368.3725408937136
 20
332.9502203134284
 30
0.0
 41
3.0
 42
3.0
 43
3.0
 50
109.0894746890011
  0
ENDBLK
  5
285
330
283
100
AcDbEntity
  8
0
100
AcDbBlockEnd
  0
BLOCK
  5
28C
330
28B
100
AcDbEntity
  8
0
100
AcDbBlockBegin
  2
DIM16
 70
     0
 10
0.0
 20
0.0
 30
0.0
  3
DIM16
  1

  0
LINE
  5
28E
330
28B
100
AcDbEntity
  8
7
  6
CONTINUOUS
 62
     4
100
AcDbLine
 10
394.8917156416931
 20
279.793042177902
 30
0.0
 11
312.1482475960465
 21
396.6652160320389
 31
0.0
  0
MTEXT
  5
28F
330
28B
100
AcDbEntity
  8
7
  6
CONTINUOUS
 62
     4
100
AcDbMText
 10
316.0485779640745
 20
391.156139610329
 30
0.0
 40
4.5
 41
56.78571428571429
 71
     9
 72
     1
  1
\U+220555
  7
ＭＳ_ゴシック
 11
0.5778267211893608
 21
-0.81615946988291
 31
0.0
1001
ACAD
1000
ACAD_MTEXT_DEFINED_HEIGHT_BEGIN
1070
    46
1040
4.5
1000
ACAD_MTEXT_DEFINED_HEIGHT_END
  0
INSERT
  5
290
330
28B
100
AcDbEntity
  8
7
  6
CONTINUOUS
 62
     4
100
AcDbBlockReference
  2
_ARROWFILLED
 10
394.8917156416931
 20
279.793042177902
 30
0.0
 41
3.0
 42
3.0
 43
3.0
 50
305.2978305142594
  0
INSERT
  5
291
330
28B
100
AcDbEntity
  8
7
  6
CONTINUOUS
 62
     4
100
AcDbBlockReference
  2
_ARROWFILLED
 10
363.111245976279
 20
324.6818130214613
 30
0.0
 41
3.0
 42
3.0
 43
3.0
 50
125.2978305142594
  0
ENDBLK
  5
28D
330
28B
100
AcDbEntity
  8
0
100
AcDbBlockEnd
  0
ENDSEC
  0
SECTION
  2
ENTITIES
  0
POLYLINE
  5
A1
330
1F
100
AcDbEntity
  8
8
  6
CONTINUOUS
 62
     7
100
AcDb2dPolyline
 66
     1
 10
0.0
 20
0.0
 30
0.0
  0
VERTEX
  5
A2
330
A1
100
AcDbEntity
  8
8
  6
CONTINUOUS
 62
     7
100
AcDbVertex
100
AcDb2dVertex
 10
129.0014808089863
 20
252.2374275996824
 30
0.0
  0
VERTEX
  5
A3
330
A1
100
AcDbEntity
  8
8
  6
CONTINUOUS
 62
     7
100
AcDbVertex
100
AcDb2dVertex
 10
629.0014808089863
 20
252.2374275996824
 30
0.0
  0
VERTEX
  5
A4
330
A1
100
AcDbEntity
  8
8
  6
CONTINUOUS
 62
     7
100
AcDbVertex
100
AcDb2dVertex
 10
629.0014808089863
 20
352.2374275996824
 30
0.0
  0
VERTEX
  5
A5
330
A1
100
AcDbEntity
  8
8
  6
CONTINUOUS
 62
     7
100
AcDbVertex
100
AcDb2dVertex
 10
129.0014808089863
 20
352.2374275996824
 30
0.0
  0
VERTEX
  5
A6
330
A1
100
AcDbEntity
  8
8
  6
CONTINUOUS
 62
     7
100
AcDbVertex
100
AcDb2dVertex
 10
129.0014808089863
 20
252.2374275996824
 30
0.0
  0
SEQEND
  5
A7
330
A1
100
AcDbEntity
  8
8
  6
CONTINUOUS
 62
     7
  0
LINE
  5
A8
330
1F
100
AcDbEntity
  8
8
  6
CONTINUOUS
 62
     7
100
AcDbLine
 10
644.0014808089863
 20
237.2374275996824
 30
0.0
 11
114.0014808089845
 21
237.2374275996824
 31
0.0
  0
LINE
  5
A9
330
1F
100
AcDbEntity
  8
8
  6
CONTINUOUS
 62
     7
100
AcDbLine
 10
114.0014808089845
 20
237.2374275996824
 30
0.0
 11
114.0014808089845
 21
367.2374275996824
 31
0.0
  0
LINE
  5
AA
330
1F
100
AcDbEntity
  8
8
  6
CONTINUOUS
 62
     7
100
AcDbLine
 10
644.0014808089863
 20
237.2374275996824
 30
0.0
 11
644.0014808089863
 21
367.2374275996824
 31
0.0
  0
LINE
  5
AB
330
1F
100
AcDbEntity
  8
8
  6
CONTINUOUS
 62
     7
100
AcDbLine
 10
644.0014808089863
 20
367.2374275996824
 30
0.0
 11
114.0014808089845
 21
367.2374275996824
 31
0.0
  0
LINE
  5
AC
330
1F
100
AcDbEntity
  8
8
  6
CONTINUOUS
 62
     7
100
AcDbLine
 10
127.4514808089871
 20
367.5540942663495
 30
0.0
 11
120.5514808089874
 21
367.5540942663495
 31
0.0
  0
ARC
  5
AD
330
1F
100
AcDbEntity
  8
8
  6
CONTINUOUS
 62
     7
100
AcDbCircle
 10
124.0014808089882
 20
364.5870767224899
 30
0.0
 40
4.550350877192969
100
AcDbArc
 50
40.6956985254205
 51
139.3043014745795
  0
LINE
  5
AE
330
1F
100
AcDbEntity
  8
8
  6
CONTINUOUS
 62
     7
100
AcDbLine
 10
127.4514808089871
 20
367.2374275996829
 30
0.0
 11
127.4514808089871
 21
367.5540942663495
 31
0.0
  0
LINE
  5
AF
330
1F
100
AcDbEntity
  8
8
  6
CONTINUOUS
 62
     7
100
AcDbLine
 10
120.5514808089874
 20
367.2374275996829
 30
0.0
 11
120.5514808089874
 21
367.5540942663495
 31
0.0
  0
LINE
  5
B0
330
1F
100
AcDbEntity
  8
8
  6
CONTINUOUS
 62
     7
100
AcDbLine
 10
148.9514808089871
 20
367.5540942663495
 30
0.0
 11
142.0514808089874
 21
367.5540942663495
 31
0.0
  0
ARC
  5
B1
330
1F
100
AcDbEntity
  8
8
  6
CONTINUOUS
 62
     7
100
AcDbCircle
 10
145.5014808089882
 20
364.5870767224899
 30
0.0
 40
4.550350877192983
100
AcDbArc
 50
40.6956985254205
 51
139.3043014745795
  0
LINE
  5
B2
330
1F
100
AcDbEntity
  8
8
  6
CONTINUOUS
 62
     7
100
AcDbLine
 10
148.9514808089871
 20
367.2374275996829
 30
0.0
 11
148.9514808089871
 21
367.5540942663495
 31
0.0
  0
LINE
  5
B3
330
1F
100
AcDbEntity
  8
8
  6
CONTINUOUS
 62
     7
100
AcDbLine
 10
142.0514808089874
 20
367.2374275996829
 30
0.0
 11
142.0514808089874
 21
367.5540942663495
 31
0.0
  0
LINE
  5
B4
330
1F
100
AcDbEntity
  8
3
  6
DASHDOT
 62
     1
100
AcDbLine
 10
654.0014808089863
 20
302.237427599682
 30
0.0
 11
104.0014808089845
 21
302.2374275996824
 31
0.0
  0
LINE
  5
B5
330
1F
100
AcDbEntity
  8
3
  6
DASHDOT
 62
     1
100
AcDbLine
 10
379.0014808089863
 20
392.2374275996813
 30
0.0
 11
379.0014808089863
 21
212.2374275996835
 31
0.0
  0
LINE
  5
B6
330
1F
100
AcDbEntity
  8
8
  6
CONTINUOUS
 62
     7
100
AcDbLine
 10
629.0014808089863
 20
227.2374275996829
 30
0.0
 11
629.0014808089863
 21
237.2374275996829
 31
0.0
  0
ARC
  5
B7
330
1F
100
AcDbEntity
  8
8
  6
CONTINUOUS
 62
     7
100
AcDbCircle
 10
624.0014808089863
 20
227.2374275996829
 30
0.0
 40
5.0
100
AcDbArc
 50
269.9999999999998
 51
0.0
  0
LINE
  5
B8
330
1F
100
AcDbEntity
  8
8
  6
CONTINUOUS
 62
     7
100
AcDbLine
 10
134.0014808089863
 20
222.2374275996829
 30
0.0
 11
624.0014808089863
 21
222.2374275996842
 31
0.0
  0
LINE
  5
B9
330
1F
100
AcDbEntity
  8
8
  6
CONTINUOUS
 62
     7
100
AcDbLine
 10
129.0014808089863
 20
227.2374275996829
 30
0.0
 11
129.0014808089863
 21
237.2374275996829
 31
0.0
  0
ARC
  5
BA
330
1F
100
AcDbEntity
  8
8
  6
CONTINUOUS
 62
     7
100
AcDbCircle
 10
134.0014808089845
 20
227.2374275996829
 30
0.0
 40
5.0
100
AcDbArc
 50
179.9999999999998
 51
269.9999999999998
  0
CIRCLE
  5
BB
330
1F
100
AcDbEntity
  8
8
  6
CONTINUOUS
 62
     7
100
AcDbCircle
 10
604.0014808089863
 20
229.2374275996829
 30
0.0
 40
3.100000000000023
  0
CIRCLE
  5
BC
330
1F
100
AcDbEntity
  8
8
  6
CONTINUOUS
 62
     7
100
AcDbCircle
 10
491.5014808089863
 20
229.2374275996829
 30
0.0
 40
3.100000000000023
  0
CIRCLE
  5
BD
330
1F
100
AcDbEntity
  8
8
  6
CONTINUOUS
 62
     7
100
AcDbCircle
 10
266.5014808089863
 20
229.2374275996829
 30
0.0
 40
3.100000000000023
  0
CIRCLE
  5
BE
330
1F
100
AcDbEntity
  8
8
  6
CONTINUOUS
 62
     7
100
AcDbCircle
 10
154.0014808089863
 20
229.2374275996829
 30
0.0
 40
3.099999999999994
  0
LINE
  5
BF
330
1F
100
AcDbEntity
  8
8
  6
CONTINUOUS
 62
     7
100
AcDbLine
 10
629.0014808089863
 20
377.237427599682
 30
0.0
 11
629.0014808089863
 21
367.237427599682
 31
0.0
  0
ARC
  5
C0
330
1F
100
AcDbEntity
  8
8
  6
CONTINUOUS
 62
     7
100
AcDbCircle
 10
624.0014808089863
 20
377.237427599682
 30
0.0
 40
5.0
100
AcDbArc
 50
0.0
 51
89.99999999999991
  0
LINE
  5
C1
330
1F
100
AcDbEntity
  8
8
  6
CONTINUOUS
 62
     7
100
AcDbLine
 10
134.0014808089863
 20
382.237427599682
 30
0.0
 11
624.0014808089863
 21
382.2374275996806
 31
0.0
  0
LINE
  5
C2
330
1F
100
AcDbEntity
  8
8
  6
CONTINUOUS
 62
     7
100
AcDbLine
 10
129.0014808089863
 20
377.237427599682
 30
0.0
 11
129.0014808089863
 21
367.237427599682
 31
0.0
  0
ARC
  5
C3
330
1F
100
AcDbEntity
  8
8
  6
CONTINUOUS
 62
     7
100
AcDbCircle
 10
134.0014808089845
 20
377.237427599682
 30
0.0
 40
5.0
100
AcDbArc
 50
89.99999999999991
 51
179.9999999999998
  0
CIRCLE
  5
C4
330
1F
100
AcDbEntity
  8
8
  6
CONTINUOUS
 62
     7
100
AcDbCircle
 10
604.0014808089863
 20
375.237427599682
 30
0.0
 40
3.100000000000023
  0
CIRCLE
  5
C5
330
1F
100
AcDbEntity
  8
8
  6
CONTINUOUS
 62
     7
100
AcDbCircle
 10
491.5014808089863
 20
375.237427599682
 30
0.0
 40
3.100000000000023
  0
CIRCLE
  5
C6
330
1F
100
AcDbEntity
  8
8
  6
CONTINUOUS
 62
     7
100
AcDbCircle
 10
266.5014808089863
 20
375.237427599682
 30
0.0
 40
3.100000000000023
  0
CIRCLE
  5
C7
330
1F
100
AcDbEntity
  8
8
  6
CONTINUOUS
 62
     7
100
AcDbCircle
 10
154.0014808089863
 20
375.237427599682
 30
0.0
 40
3.099999999999994
  0
LINE
  5
C8
330
1F
100
AcDbEntity
  8
8
  6
CONTINUOUS
 62
     7
100
AcDbLine
 10
779.1906123690442
 20
236.9207609330185
 30
0.0
 11
772.2906123690427
 21
236.9207609330185
 31
0.0
  0
ARC
  5
C9
330
1F
100
AcDbEntity
  8
8
  6
CONTINUOUS
 62
     7
100
AcDbCircle
 10
775.7406123690434
 20
239.8877784768772
 30
0.0
 40
4.550350877192955
100
AcDbArc
 50
220.6956985253453
 51
319.304301474654
  0
LINE
  5
CA
330
1F
100
AcDbEntity
  8
8
  6
CONTINUOUS
 62
     7
100
AcDbLine
 10
779.1906123690442
 20
237.2374275996842
 30
0.0
 11
779.1906123690442
 21
236.9207609330185
 31
0.0
  0
LINE
  5
CB
330
1F
100
AcDbEntity
  8
8
  6
CONTINUOUS
 62
     7
100
AcDbLine
 10
772.2906123690427
 20
237.2374275996842
 30
0.0
 11
772.2906123690427
 21
236.9207609330185
 31
0.0
  0
LINE
  5
CC
330
1F
100
AcDbEntity
  8
8
  6
CONTINUOUS
 62
     7
100
AcDbLine
 10
740.7406123690434
 20
367.2374275996842
 30
0.0
 11
740.7406123690434
 21
237.2374275996842
 31
0.0
  0
LINE
  5
CD
330
1F
100
AcDbEntity
  8
8
  6
CONTINUOUS
 62
     7
100
AcDbLine
 10
785.7406123690434
 20
382.2374275996842
 30
0.0
 11
785.7406123690434
 21
222.2374275996842
 31
0.0
  0
LINE
  5
CE
330
1F
100
AcDbEntity
  8
8
  6
CONTINUOUS
 62
     7
100
AcDbLine
 10
784.7406123690434
 20
382.2374275996842
 30
0.0
 11
784.7406123690434
 21
222.2374275996842
 31
0.0
  0
LINE
  5
CF
330
1F
100
AcDbEntity
  8
8
  6
CONTINUOUS
 62
     7
100
AcDbLine
 10
740.7406123690434
 20
367.2374275996842
 30
0.0
 11
784.7406123690434
 21
367.2374275996824
 31
0.0
  0
LINE
  5
D0
330
1F
100
AcDbEntity
  8
8
  6
CONTINUOUS
 62
     7
100
AcDbLine
 10
784.7406123690434
 20
366.2374275996824
 30
0.0
 11
785.7406123690434
 21
366.2374275996824
 31
0.0
  0
LINE
  5
D1
330
1F
100
AcDbEntity
  8
8
  6
CONTINUOUS
 62
     7
100
AcDbLine
 10
784.7406123690434
 20
382.2374275996842
 30
0.0
 11
785.7406123690434
 21
382.2374275996842
 31
0.0
  0
LINE
  5
D2
330
1F
100
AcDbEntity
  8
8
  6
CONTINUOUS
 62
     7
100
AcDbLine
 10
740.7406123690434
 20
237.2374275996842
 30
0.0
 11
784.7406123690434
 21
237.2374275996842
 31
0.0
  0
LINE
  5
D3
330
1F
100
AcDbEntity
  8
8
  6
CONTINUOUS
 62
     7
100
AcDbLine
 10
784.7406123690434
 20
238.2374275996842
 30
0.0
 11
785.7406123690434
 21
238.2374275996842
 31
0.0
  0
LINE
  5
D4
330
1F
100
AcDbEntity
  8
8
  6
CONTINUOUS
 62
     7
100
AcDbLine
 10
784.7406123690434
 20
222.2374275996842
 30
0.0
 11
785.7406123690434
 21
222.2374275996842
 31
0.0
  0
LINE
  5
D5
330
1F
100
AcDbEntity
  8
8
  6
CONTINUOUS
 62
     7
100
AcDbLine
 10
779.1906123690442
 20
367.5540942663499
 30
0.0
 11
772.2906123690427
 21
367.5540942663499
 31
0.0
  0
ARC
  5
D6
330
1F
100
AcDbEntity
  8
8
  6
CONTINUOUS
 62
     7
100
AcDbCircle
 10
775.7406123690434
 20
364.5870767224912
 30
0.0
 40
4.550350877192955
100
AcDbArc
 50
40.69569852534186
 51
139.3043014746581
  0
LINE
  5
D7
330
1F
100
AcDbEntity
  8
8
  6
CONTINUOUS
 62
     7
100
AcDbLine
 10
779.1906123690442
 20
367.2374275996842
 30
0.0
 11
779.1906123690442
 21
367.5540942663499
 31
0.0
  0
LINE
  5
D8
330
1F
100
AcDbEntity
  8
8
  6
CONTINUOUS
 62
     7
100
AcDbLine
 10
772.2906123690427
 20
367.2374275996842
 30
0.0
 11
772.2906123690427
 21
367.5540942663499
 31
0.0
  0
LINE
  5
D9
330
1F
100
AcDbEntity
  8
8
  6
CONTINUOUS
 62
     7
100
AcDbLine
 10
630.5514808089856
 20
367.5540942663495
 30
0.0
 11
637.4514808089853
 21
367.5540942663495
 31
0.0
  0
ARC
  5
DA
330
1F
100
AcDbEntity
  8
8
  6
CONTINUOUS
 62
     7
100
AcDbCircle
 10
634.0014808089845
 20
364.5870767224899
 30
0.0
 40
4.550350877192955
100
AcDbArc
 50
40.6956985254205
 51
139.3043014745795
  0
LINE
  5
DB
330
1F
100
AcDbEntity
  8
8
  6
CONTINUOUS
 62
     7
100
AcDbLine
 10
630.5514808089856
 20
367.2374275996829
 30
0.0
 11
630.5514808089856
 21
367.5540942663495
 31
0.0
  0
LINE
  5
DC
330
1F
100
AcDbEntity
  8
8
  6
CONTINUOUS
 62
     7
100
AcDbLine
 10
637.4514808089853
 20
367.2374275996829
 30
0.0
 11
637.4514808089853
 21
367.5540942663495
 31
0.0
  0
LINE
  5
DD
330
1F
100
AcDbEntity
  8
8
  6
CONTINUOUS
 62
     7
100
AcDbLine
 10
609.0514808089856
 20
367.5540942663495
 30
0.0
 11
615.9514808089853
 21
367.5540942663495
 31
0.0
  0
ARC
  5
DE
330
1F
100
AcDbEntity
  8
8
  6
CONTINUOUS
 62
     7
100
AcDbCircle
 10
612.5014808089845
 20
364.5870767224899
 30
0.0
 40
4.550350877192955
100
AcDbArc
 50
40.6956985254205
 51
139.3043014745795
  0
LINE
  5
DF
330
1F
100
AcDbEntity
  8
8
  6
CONTINUOUS
 62
     7
100
AcDbLine
 10
609.0514808089856
 20
367.2374275996829
 30
0.0
 11
609.0514808089856
 21
367.5540942663495
 31
0.0
  0
LINE
  5
E0
330
1F
100
AcDbEntity
  8
8
  6
CONTINUOUS
 62
     7
100
AcDbLine
 10
615.9514808089853
 20
367.2374275996829
 30
0.0
 11
615.9514808089853
 21
367.5540942663495
 31
0.0
  0
LINE
  5
E1
330
1F
100
AcDbEntity
  8
8
  6
CONTINUOUS
 62
     7
100
AcDbLine
 10
127.4514808089871
 20
236.9207609330153
 30
0.0
 11
120.5514808089874
 21
236.9207609330153
 31
0.0
  0
ARC
  5
E2
330
1F
100
AcDbEntity
  8
8
  6
CONTINUOUS
 62
     7
100
AcDbCircle
 10
124.0014808089882
 20
239.8877784768749
 30
0.0
 40
4.550350877192969
100
AcDbArc
 50
220.6956985254212
 51
319.3043014745781
  0
LINE
  5
E3
330
1F
100
AcDbEntity
  8
8
  6
CONTINUOUS
 62
     7
100
AcDbLine
 10
127.4514808089871
 20
237.237427599682
 30
0.0
 11
127.4514808089871
 21
236.9207609330153
 31
0.0
  0
LINE
  5
E4
330
1F
100
AcDbEntity
  8
8
  6
CONTINUOUS
 62
     7
100
AcDbLine
 10
120.5514808089874
 20
237.237427599682
 30
0.0
 11
120.5514808089874
 21
236.9207609330153
 31
0.0
  0
LINE
  5
E5
330
1F
100
AcDbEntity
  8
8
  6
CONTINUOUS
 62
     7
100
AcDbLine
 10
148.9514808089871
 20
236.9207609330153
 30
0.0
 11
142.0514808089874
 21
236.9207609330153
 31
0.0
  0
ARC
  5
E6
330
1F
100
AcDbEntity
  8
8
  6
CONTINUOUS
 62
     7
100
AcDbCircle
 10
145.5014808089882
 20
239.8877784768749
 30
0.0
 40
4.550350877192983
100
AcDbArc
 50
220.6956985254212
 51
319.3043014745781
  0
LINE
  5
E7
330
1F
100
AcDbEntity
  8
8
  6
CONTINUOUS
 62
     7
100
AcDbLine
 10
148.9514808089871
 20
237.237427599682
 30
0.0
 11
148.9514808089871
 21
236.9207609330153
 31
0.0
  0
LINE
  5
E8
330
1F
100
AcDbEntity
  8
8
  6
CONTINUOUS
 62
     7
100
AcDbLine
 10
142.0514808089874
 20
237.237427599682
 30
0.0
 11
142.0514808089874
 21
236.9207609330153
 31
0.0
  0
LINE
  5
E9
330
1F
100
AcDbEntity
  8
8
  6
CONTINUOUS
 62
     7
100
AcDbLine
 10
630.5514808089856
 20
236.9207609330153
 30
0.0
 11
637.4514808089853
 21
236.9207609330153
 31
0.0
  0
ARC
  5
EA
330
1F
100
AcDbEntity
  8
8
  6
CONTINUOUS
 62
     7
100
AcDbCircle
 10
634.0014808089845
 20
239.8877784768749
 30
0.0
 40
4.550350877192955
100
AcDbArc
 50
220.6956985254207
 51
319.3043014745776
  0
LINE
  5
EB
330
1F
100
AcDbEntity
  8
8
  6
CONTINUOUS
 62
     7
100
AcDbLine
 10
630.5514808089856
 20
237.237427599682
 30
0.0
 11
630.5514808089856
 21
236.9207609330153
 31
0.0
  0
LINE
  5
EC
330
1F
100
AcDbEntity
  8
8
  6
CONTINUOUS
 62
     7
100
AcDbLine
 10
637.4514808089853
 20
237.237427599682
 30
0.0
 11
637.4514808089853
 21
236.9207609330153
 31
0.0
  0
LINE
  5
ED
330
1F
100
AcDbEntity
  8
8
  6
CONTINUOUS
 62
     7
100
AcDbLine
 10
609.0514808089856
 20
236.9207609330153
 30
0.0
 11
615.9514808089853
 21
236.9207609330153
 31
0.0
  0
ARC
  5
EE
330
1F
100
AcDbEntity
  8
8
  6
CONTINUOUS
 62
     7
100
AcDbCircle
 10
612.5014808089845
 20
239.8877784768749
 30
0.0
 40
4.550350877192955
100
AcDbArc
 50
220.6956985254207
 51
319.3043014745776
  0
LINE
  5
EF
330
1F
100
AcDbEntity
  8
8
  6
CONTINUOUS
 62
     7
100
AcDbLine
 10
609.0514808089856
 20
237.237427599682
 30
0.0
 11
609.0514808089856
 21
236.9207609330153
 31
0.0
  0
LINE
  5
F0
330
1F
100
AcDbEntity
  8
8
  6
CONTINUOUS
 62
     7
100
AcDbLine
 10
615.9514808089853
 20
237.237427599682
 30
0.0
 11
615.9514808089853
 21
236.9207609330153
 31
0.0
  0
CIRCLE
  5
F1
330
1F
100
AcDbEntity
  8
8
  6
CONTINUOUS
 62
     7
100
AcDbCircle
 10
379.0014808089863
 20
229.2374275996829
 30
0.0
 40
3.100000000000023
  0
CIRCLE
  5
F2
330
1F
100
AcDbEntity
  8
8
  6
CONTINUOUS
 62
     7
100
AcDbCircle
 10
379.0014808089863
 20
375.237427599682
 30
0.0
 40
3.100000000000023
  0
LINE
  5
F3
330
1F
100
AcDbEntity
  8
8
  6
CONTINUOUS
 62
     7
100
AcDbLine
 10
450.5514808089874
 20
367.5540942663495
 30
0.0
 11
457.4514808089853
 21
367.5540942663495
 31
0.0
  0
ARC
  5
F4
330
1F
100
AcDbEntity
  8
8
  6
CONTINUOUS
 62
     7
100
AcDbCircle
 10
454.0014808089845
 20
364.5870767224899
 30
0.0
 40
4.550350877192955
100
AcDbArc
 50
40.6956985254205
 51
139.3043014745795
  0
LINE
  5
F5
330
1F
100
AcDbEntity
  8
8
  6
CONTINUOUS
 62
     7
100
AcDbLine
 10
450.5514808089874
 20
367.2374275996829
 30
0.0
 11
450.5514808089874
 21
367.5540942663495
 31
0.0
  0
LINE
  5
F6
330
1F
100
AcDbEntity
  8
8
  6
CONTINUOUS
 62
     7
100
AcDbLine
 10
457.4514808089853
 20
367.2374275996829
 30
0.0
 11
457.4514808089853
 21
367.5540942663495
 31
0.0
  0
LINE
  5
F7
330
1F
100
AcDbEntity
  8
8
  6
CONTINUOUS
 62
     7
100
AcDbLine
 10
300.5514808089856
 20
367.5540942663495
 30
0.0
 11
307.4514808089853
 21
367.5540942663495
 31
0.0
  0
ARC
  5
F8
330
1F
100
AcDbEntity
  8
8
  6
CONTINUOUS
 62
     7
100
AcDbCircle
 10
304.0014808089845
 20
364.5870767224899
 30
0.0
 40
4.550350877192955
100
AcDbArc
 50
40.6956985254205
 51
139.3043014745795
  0
LINE
  5
F9
330
1F
100
AcDbEntity
  8
8
  6
CONTINUOUS
 62
     7
100
AcDbLine
 10
300.5514808089856
 20
367.2374275996829
 30
0.0
 11
300.5514808089856
 21
367.5540942663495
 31
0.0
  0
LINE
  5
FA
330
1F
100
AcDbEntity
  8
8
  6
CONTINUOUS
 62
     7
100
AcDbLine
 10
307.4514808089853
 20
367.2374275996829
 30
0.0
 11
307.4514808089853
 21
367.5540942663495
 31
0.0
  0
LINE
  5
FB
330
1F
100
AcDbEntity
  8
8
  6
CONTINUOUS
 62
     7
100
AcDbLine
 10
307.4514808089853
 20
236.9207609330153
 30
0.0
 11
300.5514808089856
 21
236.9207609330153
 31
0.0
  0
ARC
  5
FC
330
1F
100
AcDbEntity
  8
8
  6
CONTINUOUS
 62
     7
100
AcDbCircle
 10
304.0014808089863
 20
239.8877784768749
 30
0.0
 40
4.550350877192955
100
AcDbArc
 50
220.6956985254212
 51
319.3043014745781
  0
LINE
  5
FD
330
1F
100
AcDbEntity
  8
8
  6
CONTINUOUS
 62
     7
100
AcDbLine
 10
307.4514808089853
 20
237.237427599682
 30
0.0
 11
307.4514808089853
 21
236.9207609330153
 31
0.0
  0
LINE
  5
FE
330
1F
100
AcDbEntity
  8
8
  6
CONTINUOUS
 62
     7
100
AcDbLine
 10
300.5514808089856
 20
237.237427599682
 30
0.0
 11
300.5514808089856
 21
236.9207609330153
 31
0.0
  0
LINE
  5
FF
330
1F
100
AcDbEntity
  8
8
  6
CONTINUOUS
 62
     7
100
AcDbLine
 10
457.4514808089853
 20
236.9207609330153
 30
0.0
 11
450.5514808089856
 21
236.9207609330153
 31
0.0
  0
ARC
  5
100
330
1F
100
AcDbEntity
  8
8
  6
CONTINUOUS
 62
     7
100
AcDbCircle
 10
454.0014808089863
 20
239.8877784768749
 30
0.0
 40
4.550350877192955
100
AcDbArc
 50
220.6956985254212
 51
319.3043014745781
  0
LINE
  5
101
330
1F
100
AcDbEntity
  8
8
  6
CONTINUOUS
 62
     7
100
AcDbLine
 10
457.4514808089853
 20
237.237427599682
 30
0.0
 11
457.4514808089853
 21
236.9207609330153
 31
0.0
  0
LINE
  5
102
330
1F
100
AcDbEntity
  8
8
  6
CONTINUOUS
 62
     7
100
AcDbLine
 10
450.5514808089856
 20
237.237427599682
 30
0.0
 11
450.5514808089856
 21
236.9207609330153
 31
0.0
  0
LINE
  5
103
330
1F
100
AcDbEntity
  8
3
  6
DASHDOT
 62
     1
100
AcDbLine
 10
258.4014808089863
 20
375.237427599682
 30
0.0
 11
274.6014808089864
 21
375.237427599682
 31
0.0
  0
LINE
  5
104
330
1F
100
AcDbEntity
  8
3
  6
DASHDOT
 62
     1
100
AcDbLine
 10
266.5014808089863
 20
383.337427599682
 30
0.0
 11
266.5014808089863
 21
367.1374275996819
 31
0.0
  0
LINE
  5
105
330
1F
100
AcDbEntity
  8
3
  6
DASHDOT
 62
     1
100
AcDbLine
 10
145.9014808089863
 20
375.237427599682
 30
0.0
 11
162.1014808089864
 21
375.237427599682
 31
0.0
  0
LINE
  5
106
330
1F
100
AcDbEntity
  8
3
  6
DASHDOT
 62
     1
100
AcDbLine
 10
154.0014808089863
 20
383.337427599682
 30
0.0
 11
154.0014808089863
 21
367.1374275996819
 31
0.0
  0
LINE
  5
107
330
1F
100
AcDbEntity
  8
3
  6
DASHDOT
 62
     1
100
AcDbLine
 10
370.9014808089863
 20
375.237427599682
 30
0.0
 11
387.1014808089864
 21
375.237427599682
 31
0.0
  0
LINE
  5
108
330
1F
100
AcDbEntity
  8
3
  6
DASHDOT
 62
     1
100
AcDbLine
 10
483.4014808089863
 20
375.237427599682
 30
0.0
 11
499.6014808089864
 21
375.237427599682
 31
0.0
  0
LINE
  5
109
330
1F
100
AcDbEntity
  8
3
  6
DASHDOT
 62
     1
100
AcDbLine
 10
491.5014808089863
 20
383.337427599682
 30
0.0
 11
491.5014808089863
 21
367.1374275996819
 31
0.0
  0
LINE
  5
10A
330
1F
100
AcDbEntity
  8
3
  6
DASHDOT
 62
     1
100
AcDbLine
 10
595.9014808089864
 20
375.237427599682
 30
0.0
 11
612.1014808089863
 21
375.237427599682
 31
0.0
  0
LINE
  5
10B
330
1F
100
AcDbEntity
  8
3
  6
DASHDOT
 62
     1
100
AcDbLine
 10
604.0014808089863
 20
383.337427599682
 30
0.0
 11
604.0014808089863
 21
367.1374275996819
 31
0.0
  0
LINE
  5
10C
330
1F
100
AcDbEntity
  8
3
  6
DASHDOT
 62
     1
100
AcDbLine
 10
595.9014808089864
 20
229.2374275996829
 30
0.0
 11
612.1014808089863
 21
229.2374275996829
 31
0.0
  0
LINE
  5
10D
330
1F
100
AcDbEntity
  8
3
  6
DASHDOT
 62
     1
100
AcDbLine
 10
604.0014808089863
 20
237.3374275996829
 30
0.0
 11
604.0014808089863
 21
221.1374275996828
 31
0.0
  0
LINE
  5
10E
330
1F
100
AcDbEntity
  8
3
  6
DASHDOT
 62
     1
100
AcDbLine
 10
483.4014808089863
 20
229.2374275996829
 30
0.0
 11
499.6014808089864
 21
229.2374275996829
 31
0.0
  0
LINE
  5
10F
330
1F
100
AcDbEntity
  8
3
  6
DASHDOT
 62
     1
100
AcDbLine
 10
491.5014808089863
 20
237.3374275996829
 30
0.0
 11
491.5014808089863
 21
221.1374275996828
 31
0.0
  0
LINE
  5
110
330
1F
100
AcDbEntity
  8
3
  6
DASHDOT
 62
     1
100
AcDbLine
 10
370.9014808089863
 20
229.2374275996829
 30
0.0
 11
387.1014808089864
 21
229.2374275996829
 31
0.0
  0
LINE
  5
111
330
1F
100
AcDbEntity
  8
3
  6
DASHDOT
 62
     1
100
AcDbLine
 10
258.4014808089863
 20
229.2374275996829
 30
0.0
 11
274.6014808089864
 21
229.2374275996829
 31
0.0
  0
LINE
  5
112
330
1F
100
AcDbEntity
  8
3
  6
DASHDOT
 62
     1
100
AcDbLine
 10
266.5014808089863
 20
237.3374275996829
 30
0.0
 11
266.5014808089863
 21
221.1374275996828
 31
0.0
  0
LINE
  5
113
330
1F
100
AcDbEntity
  8
3
  6
DASHDOT
 62
     1
100
AcDbLine
 10
145.9014808089863
 20
229.2374275996829
 30
0.0
 11
162.1014808089864
 21
229.2374275996829
 31
0.0
  0
LINE
  5
114
330
1F
100
AcDbEntity
  8
3
  6
DASHDOT
 62
     1
100
AcDbLine
 10
154.0014808089863
 20
237.3374275996829
 30
0.0
 11
154.0014808089863
 21
221.1374275996828
 31
0.0
  0
LINE
  5
115
330
1F
100
AcDbEntity
  8
3
  6
DASHDOT
 62
     1
100
AcDbLine
 10
779.7406123690434
 20
375.237427599682
 30
0.0
 11
790.7406123690434
 21
375.237427599682
 31
0.0
  0
LINE
  5
116
330
1F
100
AcDbEntity
  8
3
  6
DASHDOT
 62
     1
100
AcDbLine
 10
779.7406123690432
 20
229.2475902013089
 30
0.0
 11
790.7406123690432
 21
229.2475902013089
 31
0.0
  0
LINE
  5
117
330
1F
100
AcDbEntity
  8
3
  6
DASHDOT
 62
     1
100
AcDbLine
 10
730.7406123690434
 20
302.237427599682
 30
0.0
 11
795.7406123690434
 21
302.237427599682
 31
0.0
  0
LINE
  5
118
330
1F
100
AcDbEntity
  8
5
  6
CONTINUOUS
 62
     6
100
AcDbLine
 10
40.00001799999973
 20
71.26310844198633
 30
0.0
 11
184.0000179999997
 21
71.26310844198633
 31
0.0
  0
LINE
  5
119
330
1F
100
AcDbEntity
  8
5
  6
CONTINUOUS
 62
     6
100
AcDbLine
 10
40.00001799999973
 20
61.26308844198638
 30
0.0
 11
184.0000179999997
 21
61.26308844198638
 31
0.0
  0
LINE
  5
11A
330
1F
100
AcDbEntity
  8
5
  6
CONTINUOUS
 62
     6
100
AcDbLine
 10
40.00001799999973
 20
51.26310844198633
 30
0.0
 11
184.0000179999997
 21
51.26310844198633
 31
0.0
  0
LINE
  5
11B
330
1F
100
AcDbEntity
  8
5
  6
CONTINUOUS
 62
     6
100
AcDbLine
 10
40.00001799999791
 20
41.26310844198633
 30
0.0
 11
184.0000179999997
 21
41.26310844198633
 31
0.0
  0
LINE
  5
11C
330
1F
100
AcDbEntity
  8
5
  6
CONTINUOUS
 62
     6
100
AcDbLine
 10
128.0000179999997
 20
71.26310844198633
 30
0.0
 11
128.0000179999997
 21
41.26310844198633
 31
0.0
  0
LINE
  5
11D
330
1F
100
AcDbEntity
  8
5
  6
CONTINUOUS
 62
     6
100
AcDbLine
 10
128.0000179999997
 20
71.26310844198633
 30
0.0
 11
128.0000179999997
 21
41.26310844198633
 31
0.0
  0
LINE
  5
11E
330
1F
100
AcDbEntity
  8
5
  6
CONTINUOUS
 62
     6
100
AcDbLine
 10
80.00003799999922
 20
71.26310844198633
 30
0.0
 11
80.00003799999922
 21
41.26310844198633
 31
0.0
  0
LINE
  5
11F
330
1F
100
AcDbEntity
  8
5
  6
CONTINUOUS
 62
     6
100
AcDbLine
 10
40.00001799999973
 20
71.26310844198633
 30
0.0
 11
80.00003799999922
 21
61.26308844198638
 31
0.0
  0
LINE
  5
120
330
1F
100
AcDbEntity
  8
5
  6
CONTINUOUS
 62
     6
100
AcDbLine
 10
184.0000179999997
 20
71.26310844198633
 30
0.0
 11
184.0000179999997
 21
41.26310844198633
 31
0.0
  0
LINE
  5
121
330
1F
100
AcDbEntity
  8
5
  6
CONTINUOUS
 62
     6
100
AcDbLine
 10
40.00001799999791
 20
71.26310844198633
 30
0.0
 11
40.00001799999791
 21
41.26310844198633
 31
0.0
  0
MTEXT
  5
122
330
1F
100
AcDbEntity
  8
2
  6
CONTINUOUS
 62
   151
100
AcDbMText
 10
158.0000179999979
 20
78.59640177531946
 30
0.0
 40
4.0
 41
8.680459999999998
 71
     7
 72
     1
  1
{\fＭＳ ゴシック;\T0.750000;3 -}
1001
ACAD
1000
ACAD_MTEXT_DEFINED_HEIGHT_BEGIN
1070
    46
1040
4.0
1000
ACAD_MTEXT_DEFINED_HEIGHT_END
  0
MTEXT
  5
123
330
1F
100
AcDbEntity
  8
2
  6
CONTINUOUS
 62
   151
100
AcDbMText
 10
158.0000179999979
 20
84.59640177531946
 30
0.0
 40
4.0
 41
11.42177
 71
     7
 72
     1
  1
{\fＭＳ ゴシック;\T0.750000;2 NC}
1001
ACAD
1000
ACAD_MTEXT_DEFINED_HEIGHT_BEGIN
1070
    46
1040
4.0
1000
ACAD_MTEXT_DEFINED_HEIGHT_END
  0
MTEXT
  5
124
330
1F
100
AcDbEntity
  8
2
  6
CONTINUOUS
 62
   151
100
AcDbMText
 10
158.0000179999979
 20
91.2630684419862
 30
0.0
 40
4.0
 41
8.44843903184
 71
     7
 72
     1
  1
{\fＭＳ ゴシック;\T0.769362;1 +}
1001
ACAD
1000
ACAD_MTEXT_DEFINED_HEIGHT_BEGIN
1070
    46
1040
4.0
1000
ACAD_MTEXT_DEFINED_HEIGHT_END
  0
MTEXT
  5
125
330
1F
100
AcDbEntity
  8
2
  6
CONTINUOUS
 62
   151
100
AcDbMText
 10
44.00001799999791
 20
100.3477886694038
 30
0.0
 40
6.0
 41
63.81406693813498
 71
     7
 72
     1
  1
{\fＭＳ ゴシック;\W0.750000;\T0.771853;Details of Connector}
1001
ACAD
1000
ACAD_MTEXT_DEFINED_HEIGHT_BEGIN
1070
    46
1040
6.0
1000
ACAD_MTEXT_DEFINED_HEIGHT_END
  0
LINE
  5
126
330
1F
100
AcDbEntity
  8
10
  6
CONTINUOUS
 62
     1
100
AcDbLine
 10
132.6000079999981
 20
87.9630484419863
 30
0.0
 11
132.6000079999981
 21
90.36306844198634
 31
0.0
  0
LINE
  5
127
330
1F
100
AcDbEntity
  8
10
  6
CONTINUOUS
 62
     1
100
AcDbLine
 10
149.9999999999979
 20
78.26304844198626
 30
0.0
 11
149.9999999999979
 21
95.26308844198616
 31
0.0
  0
LINE
  5
128
330
1F
100
AcDbEntity
  8
10
  6
CONTINUOUS
 62
     1
100
AcDbLine
 10
148.9999959999979
 20
95.26308844198616
 30
0.0
 11
148.9999959999979
 21
78.26304844198626
 31
0.0
  0
LINE
  5
129
330
1F
100
AcDbEntity
  8
10
  6
CONTINUOUS
 62
     1
100
AcDbLine
 10
148.0000179999979
 20
94.66304844198612
 30
0.0
 11
148.0000179999979
 21
78.86308844198629
 31
0.0
  0
LINE
  5
12A
330
1F
100
AcDbEntity
  8
10
  6
CONTINUOUS
 62
     1
100
AcDbLine
 10
136.999981999998
 20
94.66304844198612
 30
0.0
 11
136.999981999998
 21
78.86308844198629
 31
0.0
  0
LINE
  5
12B
330
1F
100
AcDbEntity
  8
10
  6
CONTINUOUS
 62
     1
100
AcDbLine
 10
131.999989999998
 20
90.1630284419864
 30
0.0
 11
131.999989999998
 21
83.36308844198629
 31
0.0
  0
LINE
  5
12C
330
1F
100
AcDbEntity
  8
10
  6
CONTINUOUS
 62
     1
100
AcDbLine
 10
143.5000039999982
 20
88.76305844198623
 30
0.0
 11
143.5000039999982
 21
84.76307844198618
 31
0.0
  0
LINE
  5
12D
330
1F
100
AcDbEntity
  8
10
  6
CONTINUOUS
 62
     1
100
AcDbLine
 10
145.5000099999979
 20
84.76307844198618
 30
0.0
 11
145.5000099999979
 21
88.76305844198623
 31
0.0
  0
LINE
  5
12E
330
1F
100
AcDbEntity
  8
10
  6
CONTINUOUS
 62
     1
100
AcDbLine
 10
137.5999979999979
 20
95.26308844198616
 30
0.0
 11
147.400001999998
 21
95.26308844198616
 31
0.0
  0
LINE
  5
12F
330
1F
100
AcDbEntity
  8
10
  6
CONTINUOUS
 62
     1
100
AcDbLine
 10
137.0000059999979
 20
96.26308844198616
 30
0.0
 11
147.999993999998
 21
96.26308844198616
 31
0.0
  0
LINE
  5
130
330
1F
100
AcDbEntity
  8
10
  6
CONTINUOUS
 62
     1
100
AcDbLine
 10
148.0000179999979
 20
97.26304844198603
 30
0.0
 11
136.999981999998
 21
97.26304844198603
 31
0.0
  0
LINE
  5
131
330
1F
100
AcDbEntity
  8
10
  6
CONTINUOUS
 62
     1
100
AcDbLine
 10
141.5000219999979
 20
93.26297844198643
 30
0.0
 11
139.5000019999979
 21
93.26297844198643
 31
0.0
  0
LINE
  5
132
330
1F
100
AcDbEntity
  8
10
  6
CONTINUOUS
 62
     1
100
AcDbLine
 10
139.5000019999979
 20
90.26295844198648
 30
0.0
 11
141.5000219999979
 21
90.26295844198648
 31
0.0
  0
LINE
  5
133
330
1F
100
AcDbEntity
  8
10
  6
CONTINUOUS
 62
     1
100
AcDbLine
 10
145.5000099999979
 20
88.76305844198623
 30
0.0
 11
143.5000039999982
 21
88.76305844198623
 31
0.0
  0
ARC
  5
134
330
1F
100
AcDbEntity
  8
10
  6
CONTINUOUS
 62
     1
100
AcDbCircle
 10
148.0000179999979
 20
95.26308844198616
 30
0.0
 40
2.0
100
AcDbArc
 50
0.0
 51
89.99999999999991
  0
ARC
  5
135
330
1F
100
AcDbEntity
  8
10
  6
CONTINUOUS
 62
     1
100
AcDbCircle
 10
147.400001999998
 20
94.66304844198612
 30
0.0
 40
0.5999999999999943
100
AcDbArc
 50
0.0
 51
89.99999999999991
  0
ARC
  5
136
330
1F
100
AcDbEntity
  8
10
  6
CONTINUOUS
 62
     1
100
AcDbCircle
 10
147.999993999998
 20
95.26308844198616
 30
0.0
 40
1.0
100
AcDbArc
 50
0.0
 51
89.99999999999991
  0
LINE
  5
137
330
1F
100
AcDbEntity
  8
10
  6
CONTINUOUS
 62
     1
100
AcDbLine
 10
145.5000099999979
 20
93.76295844198648
 30
0.0
 11
143.5000039999982
 21
93.76295844198648
 31
0.0
  0
LINE
  5
138
330
1F
100
AcDbEntity
  8
10
  6
CONTINUOUS
 62
     1
100
AcDbLine
 10
141.5000219999979
 20
90.26295844198648
 30
0.0
 11
141.5000219999979
 21
93.26297844198643
 31
0.0
  0
LINE
  5
139
330
1F
100
AcDbEntity
  8
10
  6
CONTINUOUS
 62
     1
100
AcDbLine
 10
143.5000039999982
 20
93.76295844198648
 30
0.0
 11
143.5000039999982
 21
89.76297844198643
 31
0.0
  0
LINE
  5
13A
330
1F
100
AcDbEntity
  8
10
  6
CONTINUOUS
 62
     1
100
AcDbLine
 10
145.5000099999979
 20
89.76297844198643
 30
0.0
 11
145.5000099999979
 21
93.76295844198648
 31
0.0
  0
LINE
  5
13B
330
1F
100
AcDbEntity
  8
10
  6
CONTINUOUS
 62
     1
100
AcDbLine
 10
143.5000039999982
 20
89.76297844198643
 30
0.0
 11
145.5000099999979
 21
89.76297844198643
 31
0.0
  0
LINE
  5
13C
330
1F
100
AcDbEntity
  8
10
  6
CONTINUOUS
 62
     1
100
AcDbLine
 10
133.9999959999979
 20
88.7630684419862
 30
0.0
 11
133.9999959999979
 21
90.76308844198616
 31
0.0
  0
ARC
  5
13D
330
1F
100
AcDbEntity
  8
10
  6
CONTINUOUS
 62
     1
100
AcDbCircle
 10
132.6000079999981
 20
90.1630284419864
 30
0.0
 40
0.5999999999999943
100
AcDbArc
 50
89.99999999999991
 51
179.9999999999998
  0
LINE
  5
13E
330
1F
100
AcDbEntity
  8
10
  6
CONTINUOUS
 62
     1
100
AcDbLine
 10
132.999993999998
 20
90.36306844198634
 30
0.0
 11
132.999993999998
 21
90.76308844198616
 31
0.0
  0
LINE
  5
13F
330
1F
100
AcDbEntity
  8
10
  6
CONTINUOUS
 62
     1
100
AcDbLine
 10
132.6000079999981
 20
90.36306844198634
 30
0.0
 11
132.999993999998
 21
90.36306844198634
 31
0.0
  0
LINE
  5
140
330
1F
100
AcDbEntity
  8
10
  6
CONTINUOUS
 62
     1
100
AcDbLine
 10
133.9999959999979
 20
88.7630684419862
 30
0.0
 11
136.999981999998
 21
88.7630684419862
 31
0.0
  0
LINE
  5
141
330
1F
100
AcDbEntity
  8
10
  6
CONTINUOUS
 62
     1
100
AcDbLine
 10
132.6000079999981
 20
90.76308844198616
 30
0.0
 11
136.999981999998
 21
90.76308844198616
 31
0.0
  0
ARC
  5
142
330
1F
100
AcDbEntity
  8
10
  6
CONTINUOUS
 62
     1
100
AcDbCircle
 10
137.5999979999979
 20
94.66304844198612
 30
0.0
 40
0.5999999999999943
100
AcDbArc
 50
89.99999999999991
 51
179.9999999999998
  0
ARC
  5
143
330
1F
100
AcDbEntity
  8
10
  6
CONTINUOUS
 62
     1
100
AcDbCircle
 10
137.0000059999979
 20
95.26308844198616
 30
0.0
 40
1.0
100
AcDbArc
 50
89.99999999999991
 51
179.9999999999998
  0
ARC
  5
144
330
1F
100
AcDbEntity
  8
10
  6
CONTINUOUS
 62
     1
100
AcDbCircle
 10
136.999981999998
 20
95.26308844198616
 30
0.0
 40
2.0
100
AcDbArc
 50
89.99999999999991
 51
179.9999999999998
  0
LINE
  5
145
330
1F
100
AcDbEntity
  8
10
  6
CONTINUOUS
 62
     1
100
AcDbLine
 10
139.5000019999979
 20
92.76295844198648
 30
0.0
 11
138.5000119999981
 21
92.76295844198648
 31
0.0
  0
LINE
  5
146
330
1F
100
AcDbEntity
  8
10
  6
CONTINUOUS
 62
     1
100
AcDbLine
 10
139.5000019999979
 20
93.26297844198643
 30
0.0
 11
139.5000019999979
 21
92.76295844198648
 31
0.0
  0
LINE
  5
147
330
1F
100
AcDbEntity
  8
10
  6
CONTINUOUS
 62
     1
100
AcDbLine
 10
138.5000119999981
 20
92.76295844198648
 30
0.0
 11
138.5000119999981
 21
90.76299844198638
 31
0.0
  0
LINE
  5
148
330
1F
100
AcDbEntity
  8
10
  6
CONTINUOUS
 62
     1
100
AcDbLine
 10
139.5000019999979
 20
90.76299844198638
 30
0.0
 11
139.5000019999979
 21
90.26295844198648
 31
0.0
  0
LINE
  5
149
330
1F
100
AcDbEntity
  8
10
  6
CONTINUOUS
 62
     1
100
AcDbLine
 10
138.5000119999981
 20
90.76299844198638
 30
0.0
 11
139.5000019999979
 21
90.76299844198638
 31
0.0
  0
LINE
  5
14A
330
1F
100
AcDbEntity
  8
10
  6
CONTINUOUS
 62
     1
100
AcDbLine
 10
136.0000039999981
 20
95.26308844198616
 30
0.0
 11
136.0000039999981
 21
90.76308844198616
 31
0.0
  0
LINE
  5
14B
330
1F
100
AcDbEntity
  8
10
  6
CONTINUOUS
 62
     1
100
AcDbLine
 10
134.9999999999979
 20
95.26308844198616
 30
0.0
 11
134.9999999999979
 21
90.76308844198616
 31
0.0
  0
LINE
  5
14C
330
1F
100
AcDbEntity
  8
10
  6
CONTINUOUS
 62
     1
100
AcDbLine
 10
147.400001999998
 20
78.26304844198626
 30
0.0
 11
137.5999979999979
 21
78.26304844198626
 31
0.0
  0
LINE
  5
14D
330
1F
100
AcDbEntity
  8
10
  6
CONTINUOUS
 62
     1
100
AcDbLine
 10
147.999993999998
 20
77.26304844198626
 30
0.0
 11
137.0000059999979
 21
77.26304844198626
 31
0.0
  0
LINE
  5
14E
330
1F
100
AcDbEntity
  8
10
  6
CONTINUOUS
 62
     1
100
AcDbLine
 10
148.0000179999979
 20
76.26308844198616
 30
0.0
 11
136.999981999998
 21
76.26308844198616
 31
0.0
  0
LINE
  5
14F
330
1F
100
AcDbEntity
  8
10
  6
CONTINUOUS
 62
     1
100
AcDbLine
 10
139.5000019999979
 20
80.26315844198598
 30
0.0
 11
141.5000219999979
 21
80.26315844198598
 31
0.0
  0
LINE
  5
150
330
1F
100
AcDbEntity
  8
10
  6
CONTINUOUS
 62
     1
100
AcDbLine
 10
141.5000219999979
 20
83.26317844198593
 30
0.0
 11
139.5000019999979
 21
83.26317844198593
 31
0.0
  0
LINE
  5
151
330
1F
100
AcDbEntity
  8
10
  6
CONTINUOUS
 62
     1
100
AcDbLine
 10
139.5000019999979
 20
85.26305844198623
 30
0.0
 11
141.5000219999979
 21
85.26305844198623
 31
0.0
  0
LINE
  5
152
330
1F
100
AcDbEntity
  8
10
  6
CONTINUOUS
 62
     1
100
AcDbLine
 10
141.5000219999979
 20
88.26307844198618
 30
0.0
 11
139.5000019999979
 21
88.26307844198618
 31
0.0
  0
ARC
  5
153
330
1F
100
AcDbEntity
  8
10
  6
CONTINUOUS
 62
     1
100
AcDbCircle
 10
148.0000179999979
 20
78.26304844198626
 30
0.0
 40
2.0
100
AcDbArc
 50
269.9999999999998
 51
0.0
  0
ARC
  5
154
330
1F
100
AcDbEntity
  8
10
  6
CONTINUOUS
 62
     1
100
AcDbCircle
 10
147.400001999998
 20
78.86308844198629
 30
0.0
 40
0.5999999999999943
100
AcDbArc
 50
269.9999999999998
 51
0.0
  0
ARC
  5
155
330
1F
100
AcDbEntity
  8
10
  6
CONTINUOUS
 62
     1
100
AcDbCircle
 10
147.999993999998
 20
78.26304844198626
 30
0.0
 40
1.0
100
AcDbArc
 50
269.9999999999998
 51
0.0
  0
LINE
  5
156
330
1F
100
AcDbEntity
  8
10
  6
CONTINUOUS
 62
     1
100
AcDbLine
 10
143.5000039999982
 20
79.76317844198593
 30
0.0
 11
145.5000099999979
 21
79.76317844198593
 31
0.0
  0
LINE
  5
157
330
1F
100
AcDbEntity
  8
10
  6
CONTINUOUS
 62
     1
100
AcDbLine
 10
145.5000099999979
 20
79.76317844198593
 30
0.0
 11
145.5000099999979
 21
83.76315844198598
 31
0.0
  0
LINE
  5
158
330
1F
100
AcDbEntity
  8
10
  6
CONTINUOUS
 62
     1
100
AcDbLine
 10
143.5000039999982
 20
83.76315844198598
 30
0.0
 11
143.5000039999982
 21
79.76317844198593
 31
0.0
  0
LINE
  5
159
330
1F
100
AcDbEntity
  8
10
  6
CONTINUOUS
 62
     1
100
AcDbLine
 10
141.5000219999979
 20
80.26315844198598
 30
0.0
 11
141.5000219999979
 21
83.26317844198593
 31
0.0
  0
LINE
  5
15A
330
1F
100
AcDbEntity
  8
10
  6
CONTINUOUS
 62
     1
100
AcDbLine
 10
145.5000099999979
 20
83.76315844198598
 30
0.0
 11
143.5000039999982
 21
83.76315844198598
 31
0.0
  0
LINE
  5
15B
330
1F
100
AcDbEntity
  8
10
  6
CONTINUOUS
 62
     1
100
AcDbLine
 10
143.5000039999982
 20
84.76307844198618
 30
0.0
 11
145.5000099999979
 21
84.76307844198618
 31
0.0
  0
LINE
  5
15C
330
1F
100
AcDbEntity
  8
10
  6
CONTINUOUS
 62
     1
100
AcDbLine
 10
141.5000219999979
 20
85.26305844198623
 30
0.0
 11
141.5000219999979
 21
88.26307844198618
 31
0.0
  0
ARC
  5
15D
330
1F
100
AcDbEntity
  8
10
  6
CONTINUOUS
 62
     1
100
AcDbCircle
 10
137.5999979999979
 20
78.86308844198629
 30
0.0
 40
0.5999999999999943
100
AcDbArc
 50
179.9999999999998
 51
269.9999999999998
  0
ARC
  5
15E
330
1F
100
AcDbEntity
  8
10
  6
CONTINUOUS
 62
     1
100
AcDbCircle
 10
137.0000059999979
 20
78.26304844198626
 30
0.0
 40
1.0
100
AcDbArc
 50
179.9999999999998
 51
269.9999999999998
  0
ARC
  5
15F
330
1F
100
AcDbEntity
  8
10
  6
CONTINUOUS
 62
     1
100
AcDbCircle
 10
136.999981999998
 20
78.26304844198626
 30
0.0
 40
2.0
100
AcDbArc
 50
179.9999999999998
 51
269.9999999999998
  0
LINE
  5
160
330
1F
100
AcDbEntity
  8
10
  6
CONTINUOUS
 62
     1
100
AcDbLine
 10
138.5000119999981
 20
80.76319844198588
 30
0.0
 11
139.5000019999979
 21
80.76319844198588
 31
0.0
  0
LINE
  5
161
330
1F
100
AcDbEntity
  8
10
  6
CONTINUOUS
 62
     1
100
AcDbLine
 10
139.5000019999979
 20
80.76319844198588
 30
0.0
 11
139.5000019999979
 21
80.26315844198598
 31
0.0
  0
LINE
  5
162
330
1F
100
AcDbEntity
  8
10
  6
CONTINUOUS
 62
     1
100
AcDbLine
 10
138.5000119999981
 20
82.76315844198598
 30
0.0
 11
138.5000119999981
 21
80.76319844198588
 31
0.0
  0
LINE
  5
163
330
1F
100
AcDbEntity
  8
10
  6
CONTINUOUS
 62
     1
100
AcDbLine
 10
139.5000019999979
 20
83.26317844198593
 30
0.0
 11
139.5000019999979
 21
82.76315844198598
 31
0.0
  0
LINE
  5
164
330
1F
100
AcDbEntity
  8
10
  6
CONTINUOUS
 62
     1
100
AcDbLine
 10
139.5000019999979
 20
82.76315844198598
 30
0.0
 11
138.5000119999981
 21
82.76315844198598
 31
0.0
  0
LINE
  5
165
330
1F
100
AcDbEntity
  8
10
  6
CONTINUOUS
 62
     1
100
AcDbLine
 10
132.6000079999981
 20
83.1630684419863
 30
0.0
 11
132.6000079999981
 21
85.56308844198634
 31
0.0
  0
LINE
  5
166
330
1F
100
AcDbEntity
  8
10
  6
CONTINUOUS
 62
     1
100
AcDbLine
 10
133.9999959999979
 20
82.76304844198626
 30
0.0
 11
133.9999959999979
 21
84.7630684419862
 31
0.0
  0
LINE
  5
167
330
1F
100
AcDbEntity
  8
10
  6
CONTINUOUS
 62
     1
100
AcDbLine
 10
132.999993999998
 20
85.56308844198634
 30
0.0
 11
132.6000079999981
 21
85.56308844198634
 31
0.0
  0
LINE
  5
168
330
1F
100
AcDbEntity
  8
10
  6
CONTINUOUS
 62
     1
100
AcDbLine
 10
136.999981999998
 20
84.7630684419862
 30
0.0
 11
133.9999959999979
 21
84.7630684419862
 31
0.0
  0
ARC
  5
169
330
1F
100
AcDbEntity
  8
10
  6
CONTINUOUS
 62
     1
100
AcDbCircle
 10
132.6000079999981
 20
83.36308844198629
 30
0.0
 40
0.5999999999999943
100
AcDbArc
 50
179.9999999999998
 51
269.9999999999998
  0
LINE
  5
16A
330
1F
100
AcDbEntity
  8
10
  6
CONTINUOUS
 62
     1
100
AcDbLine
 10
132.999993999998
 20
82.76304844198626
 30
0.0
 11
132.999993999998
 21
83.1630684419863
 31
0.0
  0
LINE
  5
16B
330
1F
100
AcDbEntity
  8
10
  6
CONTINUOUS
 62
     1
100
AcDbLine
 10
132.999993999998
 20
83.1630684419863
 30
0.0
 11
132.6000079999981
 21
83.1630684419863
 31
0.0
  0
LINE
  5
16C
330
1F
100
AcDbEntity
  8
10
  6
CONTINUOUS
 62
     1
100
AcDbLine
 10
132.6000079999981
 20
82.76304844198626
 30
0.0
 11
136.999981999998
 21
82.76304844198626
 31
0.0
  0
LINE
  5
16D
330
1F
100
AcDbEntity
  8
10
  6
CONTINUOUS
 62
     1
100
AcDbLine
 10
138.5000119999981
 20
85.76309844198613
 30
0.0
 11
139.5000019999979
 21
85.76309844198613
 31
0.0
  0
LINE
  5
16E
330
1F
100
AcDbEntity
  8
10
  6
CONTINUOUS
 62
     1
100
AcDbLine
 10
139.5000019999979
 20
85.76309844198613
 30
0.0
 11
139.5000019999979
 21
85.26305844198623
 31
0.0
  0
LINE
  5
16F
330
1F
100
AcDbEntity
  8
10
  6
CONTINUOUS
 62
     1
100
AcDbLine
 10
136.0000039999981
 20
78.26304844198626
 30
0.0
 11
136.0000039999981
 21
82.76304844198626
 31
0.0
  0
LINE
  5
170
330
1F
100
AcDbEntity
  8
10
  6
CONTINUOUS
 62
     1
100
AcDbLine
 10
134.9999999999979
 20
78.26304844198626
 30
0.0
 11
134.9999999999979
 21
82.76304844198626
 31
0.0
  0
LINE
  5
171
330
1F
100
AcDbEntity
  8
10
  6
CONTINUOUS
 62
     1
100
AcDbLine
 10
132.999993999998
 20
87.9630484419863
 30
0.0
 11
132.6000079999981
 21
87.9630484419863
 31
0.0
  0
LINE
  5
172
330
1F
100
AcDbEntity
  8
10
  6
CONTINUOUS
 62
     1
100
AcDbLine
 10
139.5000019999979
 20
88.26307844198618
 30
0.0
 11
139.5000019999979
 21
87.76305844198623
 31
0.0
  0
LINE
  5
173
330
1F
100
AcDbEntity
  8
10
  6
CONTINUOUS
 62
     1
100
AcDbLine
 10
139.5000019999979
 20
87.76305844198623
 30
0.0
 11
138.5000119999981
 21
87.76305844198623
 31
0.0
  0
LINE
  5
174
330
1F
100
AcDbEntity
  8
10
  6
CONTINUOUS
 62
     1
100
AcDbLine
 10
132.999993999998
 20
85.56308844198634
 30
0.0
 11
132.999993999998
 21
87.9630484419863
 31
0.0
  0
LINE
  5
175
330
1F
100
AcDbEntity
  8
10
  6
CONTINUOUS
 62
     1
100
AcDbLine
 10
138.5000119999981
 20
87.76305844198623
 30
0.0
 11
138.5000119999981
 21
85.76309844198613
 31
0.0
  0
POLYLINE
  5
176
330
1F
100
AcDbEntity
  8
8
  6
CONTINUOUS
 62
     7
100
AcDb2dPolyline
 66
     1
 10
0.0
 20
0.0
 30
0.0
  0
VERTEX
  5
177
330
176
100
AcDbEntity
  8
8
  6
CONTINUOUS
 62
     7
100
AcDbVertex
100
AcDb2dVertex
 10
775.7047139841726
 20
308.2374275996842
 30
0.0
  0
VERTEX
  5
178
330
176
100
AcDbEntity
  8
8
  6
CONTINUOUS
 62
     7
100
AcDbVertex
100
AcDb2dVertex
 10
779.1688155993106
 20
302.2374275996842
 30
0.0
  0
VERTEX
  5
179
330
176
100
AcDbEntity
  8
8
  6
CONTINUOUS
 62
     7
100
AcDbVertex
100
AcDb2dVertex
 10
775.7047139841726
 20
296.2374275996842
 30
0.0
  0
VERTEX
  5
17A
330
176
100
AcDbEntity
  8
8
  6
CONTINUOUS
 62
     7
100
AcDbVertex
100
AcDb2dVertex
 10
768.7765107538971
 20
296.2374275996842
 30
0.0
  0
VERTEX
  5
17B
330
176
100
AcDbEntity
  8
8
  6
CONTINUOUS
 62
     7
100
AcDbVertex
100
AcDb2dVertex
 10
765.31240913876
 20
302.2374275996842
 30
0.0
  0
VERTEX
  5
17C
330
176
100
AcDbEntity
  8
8
  6
CONTINUOUS
 62
     7
100
AcDbVertex
100
AcDb2dVertex
 10
768.7765107538971
 20
308.2374275996842
 30
0.0
  0
VERTEX
  5
17D
330
176
100
AcDbEntity
  8
8
  6
CONTINUOUS
 62
     7
100
AcDbVertex
100
AcDb2dVertex
 10
775.7047139841726
 20
308.2374275996842
 30
0.0
  0
SEQEND
  5
17E
330
176
100
AcDbEntity
  8
8
  6
CONTINUOUS
 62
     7
  0
CIRCLE
  5
17F
330
1F
100
AcDbEntity
  8
8
  6
CONTINUOUS
 62
     7
100
AcDbCircle
 10
772.2406123690345
 20
302.2374275996842
 30
0.0
 40
1.849999999990359
  0
CIRCLE
  5
180
330
1F
100
AcDbEntity
  8
8
  6
CONTINUOUS
 62
     7
100
AcDbCircle
 10
772.2406123690345
 20
302.2374275996842
 30
0.0
 40
5.0
  0
LINE
  5
181
330
1F
100
AcDbEntity
  8
8
  6
CONTINUOUS
 62
     7
100
AcDbLine
 10
784.740612369043
 20
309.7374275996842
 30
0.0
 11
772.2406123690345
 21
309.7374275996842
 31
0.0
  0
LINE
  5
182
330
1F
100
AcDbEntity
  8
8
  6
CONTINUOUS
 62
     7
100
AcDbLine
 10
784.7406123690425
 20
294.7374275996872
 30
0.0
 11
772.2406123690363
 21
294.7374275996842
 31
0.0
  0
ARC
  5
183
330
1F
100
AcDbEntity
  8
8
  6
CONTINUOUS
 62
     7
100
AcDbCircle
 10
772.2406123690345
 20
302.2374275996842
 30
0.0
 40
7.5
100
AcDbArc
 50
89.99999999999991
 51
270.0000000000257
  0
LINE
  5
184
330
1F
100
AcDbEntity
  8
8
  6
CONTINUOUS
 62
     7
100
AcDbLine
 10
651.0014808089866
 20
308.237427599682
 30
0.0
 11
651.0014808089866
 21
302.237427599682
 31
0.0
  0
LINE
  5
185
330
1F
100
AcDbEntity
  8
8
  6
CONTINUOUS
 62
     7
100
AcDbLine
 10
662.0014808089863
 20
304.737427599682
 30
0.0
 11
662.0014808089863
 21
299.737427599682
 31
0.0
  0
ARC
  5
186
330
1F
100
AcDbEntity
  8
8
  6
CONTINUOUS
 62
     7
100
AcDbCircle
 10
659.0014808089863
 20
304.737427599682
 30
0.0
 40
3.0
100
AcDbArc
 50
0.0
 51
89.99999999999991
  0
LINE
  5
187
330
1F
100
AcDbEntity
  8
8
  6
CONTINUOUS
 62
     7
100
AcDbLine
 10
659.0014808089863
 20
308.237427599682
 30
0.0
 11
659.0014808089863
 21
296.237427599682
 31
0.0
  0
LINE
  5
188
330
1F
100
AcDbEntity
  8
8
  6
CONTINUOUS
 62
     7
100
AcDbLine
 10
651.0014808089866
 20
308.237427599682
 30
0.0
 11
659.0014808089863
 21
308.237427599682
 31
0.0
  0
LINE
  5
189
330
1F
100
AcDbEntity
  8
8
  6
CONTINUOUS
 62
     7
100
AcDbLine
 10
649.1014808089849
 20
307.237427599682
 30
0.0
 11
651.0014808089866
 21
307.237427599682
 31
0.0
  0
LINE
  5
18A
330
1F
100
AcDbEntity
  8
8
  6
CONTINUOUS
 62
     7
100
AcDbLine
 10
651.0014808089866
 20
296.237427599682
 30
0.0
 11
651.0014808089866
 21
302.237427599682
 31
0.0
  0
LINE
  5
18B
330
1F
100
AcDbEntity
  8
8
  6
CONTINUOUS
 62
     7
100
AcDbLine
 10
651.0014808089866
 20
302.237427599682
 30
0.0
 11
659.0014808089863
 21
302.237427599682
 31
0.0
  0
LINE
  5
18C
330
1F
100
AcDbEntity
  8
8
  6
CONTINUOUS
 62
     7
100
AcDbLine
 10
649.1014808089849
 20
297.237427599682
 30
0.0
 11
651.0014808089866
 21
297.237427599682
 31
0.0
  0
ARC
  5
18D
330
1F
100
AcDbEntity
  8
8
  6
CONTINUOUS
 62
     7
100
AcDbCircle
 10
659.0014808089863
 20
299.737427599682
 30
0.0
 40
3.0
100
AcDbArc
 50
269.9999999999998
 51
0.0
  0
LINE
  5
18E
330
1F
100
AcDbEntity
  8
8
  6
CONTINUOUS
 62
     7
100
AcDbLine
 10
651.0014808089866
 20
296.237427599682
 30
0.0
 11
659.0014808089863
 21
296.237427599682
 31
0.0
  0
LINE
  5
18F
330
1F
100
AcDbEntity
  8
10
  6
CONTINUOUS
 62
     1
100
AcDbLine
 10
662.0014808089863
 20
304.0874275996814
 30
0.0
 11
680.7253893192657
 21
304.087416051497
 31
0.0
  0
ARC
  5
190
330
1F
100
AcDbEntity
  8
10
  6
CONTINUOUS
 62
     1
100
AcDbCircle
 10
681.7593067173476
 20
303.1624219158159
 30
0.0
 40
1.387299296151127
100
AcDbArc
 50
138.1825956443065
 51
221.817414355677
  0
ARC
  5
191
330
1F
100
AcDbEntity
  8
10
  6
CONTINUOUS
 62
     1
100
AcDbCircle
 10
679.6911874426097
 20
301.3124275996818
 30
0.0
 40
1.387515353286972
100
AcDbArc
 50
318.1902521645574
 51
41.80974783544226
  0
ARC
  5
192
330
1F
100
AcDbEntity
  8
10
  6
CONTINUOUS
 62
     1
100
AcDbCircle
 10
679.691202795917
 20
303.1624217353394
 30
0.0
 40
1.387500000000045
100
AcDbArc
 50
318.190009999983
 51
41.80999999999911
  0
LINE
  5
193
330
1F
100
AcDbEntity
  8
10
  6
CONTINUOUS
 62
     1
100
AcDbLine
 10
662.0014808089863
 20
300.3874275996816
 30
0.0
 11
680.7253894807072
 21
300.3874275996816
 31
0.0
  0
LINE
  5
194
330
1F
100
AcDbEntity
  8
8
  6
CONTINUOUS
 62
     7
100
AcDbLine
 10
644.5014808089863
 20
308.487427599682
 30
0.0
 11
644.0014808089863
 21
308.487427599682
 31
0.0
  0
LINE
  5
195
330
1F
100
AcDbEntity
  8
8
  6
CONTINUOUS
 62
     7
100
AcDbLine
 10
644.5014808089863
 20
309.237427599682
 30
0.0
 11
649.1014808089859
 21
309.237427599682
 31
0.0
  0
LINE
  5
196
330
1F
100
AcDbEntity
  8
8
  6
CONTINUOUS
 62
     7
100
AcDbLine
 10
644.5014808089863
 20
305.737427599682
 30
0.0
 11
649.1014808089859
 21
305.737427599682
 31
0.0
  0
LINE
  5
197
330
1F
100
AcDbEntity
  8
8
  6
CONTINUOUS
 62
     7
100
AcDbLine
 10
644.5014808089863
 20
295.237427599681
 30
0.0
 11
649.1014808089859
 21
295.237427599682
 31
0.0
  0
LINE
  5
198
330
1F
100
AcDbEntity
  8
8
  6
CONTINUOUS
 62
     7
100
AcDbLine
 10
644.5014808089863
 20
298.737427599682
 30
0.0
 11
649.1014808089859
 21
298.737427599682
 31
0.0
  0
LINE
  5
199
330
1F
100
AcDbEntity
  8
8
  6
CONTINUOUS
 62
     7
100
AcDbLine
 10
649.1014808089859
 20
309.237427599682
 30
0.0
 11
649.1014808089859
 21
302.237427599682
 31
0.0
  0
LINE
  5
19A
330
1F
100
AcDbEntity
  8
8
  6
CONTINUOUS
 62
     7
100
AcDbLine
 10
649.1014808089859
 20
295.237427599682
 30
0.0
 11
649.1014808089859
 21
302.237427599682
 31
0.0
  0
LINE
  5
19B
330
1F
100
AcDbEntity
  8
8
  6
CONTINUOUS
 62
     7
100
AcDbLine
 10
644.5014808089863
 20
309.237427599682
 30
0.0
 11
644.5014808089863
 21
295.237427599681
 31
0.0
  0
LINE
  5
19C
330
1F
100
AcDbEntity
  8
8
  6
CONTINUOUS
 62
     7
100
AcDbLine
 10
644.5014808089863
 20
295.987427599682
 30
0.0
 11
644.0014808089863
 21
295.987427599682
 31
0.0
  0
LINE
  5
19D
330
1F
100
AcDbEntity
  8
8
  6
CONTINUOUS
 62
     7
100
AcDbLine
 10
644.0014808089863
 20
308.487427599682
 30
0.0
 11
644.0014808089863
 21
295.987427599682
 31
0.0
  0
ARC
  5
19E
330
1F
100
AcDbEntity
  8
10
  6
CONTINUOUS
 62
     1
100
AcDbCircle
 10
683.1578599628057
 20
301.3356386706002
 30
0.0
 40
1.387515022395519
100
AcDbArc
 50
138.1902399436242
 51
221.8097600563755
  0
ARC
  5
19F
330
1F
100
AcDbEntity
  8
10
  6
CONTINUOUS
 62
     1
100
AcDbCircle
 10
681.0897406879758
 20
301.335644462722
 30
0.0
 40
1.387299627082371
100
AcDbArc
 50
318.1825978710856
 51
41.81739912887618
  0
LINE
  5
1A0
330
1F
100
AcDbEntity
  8
10
  6
CONTINUOUS
 62
     1
100
AcDbLine
 10
682.1236583686406
 20
300.4106386706001
 30
0.0
 11
689.4810856691666
 21
300.4106386705998
 31
0.0
  0
ARC
  5
1A1
330
1F
100
AcDbEntity
  8
10
  6
CONTINUOUS
 62
     1
100
AcDbCircle
 10
683.1578449404216
 20
303.1856329326085
 30
0.0
 40
1.387500000000045
100
AcDbArc
 50
138.1900000000009
 51
221.8099970000301
  0
LINE
  5
1A2
330
1F
100
AcDbEntity
  8
10
  6
CONTINUOUS
 62
     1
100
AcDbLine
 10
682.123658417073
 20
304.1106272487661
 30
0.0
 11
689.4810856691666
 21
304.1106272487659
 31
0.0
  0
MTEXT
  5
1A3
330
1F
100
AcDbEntity
  8
7
  6
CONTINUOUS
 62
     4
100
AcDbMText
 10
677.6674688331569
 20
292.8771003238655
 30
0.0
 40
6.0
 41
38.99793999408
 71
     1
 72
     1
  1
{\fＭＳ ゴシック;\T1.555898;L=500}
1001
ACAD
1000
ACAD_MTEXT_DEFINED_HEIGHT_BEGIN
1070
    46
1040
6.0
1000
ACAD_MTEXT_DEFINED_HEIGHT_END
  0
LINE
  5
1A4
330
1F
100
AcDbEntity
  8
10
  6
CONTINUOUS
 62
     1
100
AcDbLine
 10
706.4336379566729
 20
306.7606629596823
 30
0.0
 11
698.5988844803162
 21
306.7606629596823
 31
0.0
  0
LINE
  5
1A5
330
1F
100
AcDbEntity
  8
10
  6
CONTINUOUS
 62
     1
100
AcDbLine
 10
715.4336149566727
 20
304.2606429596822
 30
0.0
 11
702.4336059566726
 21
304.2606429596822
 31
0.0
  0
LINE
  5
1A6
330
1F
100
AcDbEntity
  8
10
  6
CONTINUOUS
 62
     1
100
AcDbLine
 10
712.4336109566727
 20
302.660642959682
 30
0.0
 11
703.4336099566726
 21
302.660642959682
 31
0.0
  0
LINE
  5
1A7
330
1F
100
AcDbEntity
  8
10
  6
CONTINUOUS
 62
     1
100
AcDbLine
 10
712.4336109566727
 20
301.0606529596821
 30
0.0
 11
703.4336099566726
 21
301.0606529596821
 31
0.0
  0
LINE
  5
1A8
330
1F
100
AcDbEntity
  8
10
  6
CONTINUOUS
 62
     1
100
AcDbLine
 10
712.4336109566727
 20
301.8606229596821
 30
0.0
 11
703.4336099566726
 21
301.8606229596821
 31
0.0
  0
LINE
  5
1A9
330
1F
100
AcDbEntity
  8
10
  6
CONTINUOUS
 62
     1
100
AcDbLine
 10
712.4336109566727
 20
303.4606229596823
 30
0.0
 11
703.4336099566726
 21
303.4606229596823
 31
0.0
  0
LINE
  5
1AA
330
1F
100
AcDbEntity
  8
10
  6
CONTINUOUS
 62
     1
100
AcDbLine
 10
706.4336379566729
 20
297.7606029596818
 30
0.0
 11
698.5988844803162
 21
297.7606029596816
 31
0.0
  0
LINE
  5
1AB
330
1F
100
AcDbEntity
  8
10
  6
CONTINUOUS
 62
     1
100
AcDbLine
 10
715.4336149566727
 20
300.2606329596822
 30
0.0
 11
702.4336059566726
 21
300.2606329596822
 31
0.0
  0
LINE
  5
1AC
330
1F
100
AcDbEntity
  8
10
  6
CONTINUOUS
 62
     1
100
AcDbLine
 10
695.7781144016112
 20
305.7508927489364
 30
0.0
 11
689.4810856691666
 21
305.7508927489364
 31
0.0
  0
LINE
  5
1AD
330
1F
100
AcDbEntity
  8
10
  6
CONTINUOUS
 62
     1
100
AcDbLine
 10
695.7781144016112
 20
298.7703731704294
 30
0.0
 11
689.4810856691666
 21
298.7703731704294
 31
0.0
  0
LINE
  5
1AE
330
1F
100
AcDbEntity
  8
10
  6
CONTINUOUS
 62
     1
100
AcDbLine
 10
689.4810856691666
 20
298.7703731704294
 30
0.0
 11
689.4810856691666
 21
305.7508927489364
 31
0.0
  0
ARC
  5
1AF
330
1F
100
AcDbEntity
  8
10
  6
CONTINUOUS
 62
     1
100
AcDbCircle
 10
698.5988844803167
 20
304.7606629596823
 30
0.0
 40
2.0
100
AcDbArc
 50
90.00000000001303
 51
120.0000000000151
  0
ARC
  5
1B0
330
1F
100
AcDbEntity
  8
10
  6
CONTINUOUS
 62
     1
100
AcDbCircle
 10
695.7781144016112
 20
307.7508927489355
 30
0.0
 40
2.0
100
AcDbArc
 50
269.9999999999998
 51
300.0000000000147
  0
LINE
  5
1B1
330
1F
100
AcDbEntity
  8
10
  6
CONTINUOUS
 62
     1
100
AcDbLine
 10
697.5988844803167
 20
306.4927137672505
 30
0.0
 11
696.7781144016114
 21
306.0188419413673
 31
0.0
  0
ARC
  5
1B2
330
1F
100
AcDbEntity
  8
10
  6
CONTINUOUS
 62
     1
100
AcDbCircle
 10
698.5988844803167
 20
299.7606029596816
 30
0.0
 40
2.0
100
AcDbArc
 50
239.9999999999846
 51
269.9999999999866
  0
ARC
  5
1B3
330
1F
100
AcDbEntity
  8
10
  6
CONTINUOUS
 62
     1
100
AcDbCircle
 10
695.7781144016112
 20
296.7703731704285
 30
0.0
 40
2.0
100
AcDbArc
 50
59.99999999998492
 51
89.99999999999991
  0
LINE
  5
1B4
330
1F
100
AcDbEntity
  8
10
  6
CONTINUOUS
 62
     1
100
AcDbLine
 10
697.5988844803167
 20
298.0285521521137
 30
0.0
 11
696.7781144016114
 21
298.5024239779968
 31
0.0
  0
LINE
  5
1B5
330
1F
100
AcDbEntity
  8
10
  6
CONTINUOUS
 62
     1
100
AcDbLine
 10
702.4336059566726
 20
300.2606329596822
 30
0.0
 11
702.4336059566726
 21
304.2606429596822
 31
0.0
  0
LINE
  5
1B6
330
1F
100
AcDbEntity
  8
10
  6
CONTINUOUS
 62
     1
100
AcDbLine
 10
703.4336099566726
 20
300.2606329596822
 30
0.0
 11
703.4336099566726
 21
304.2606429596822
 31
0.0
  0
LINE
  5
1B7
330
1F
100
AcDbEntity
  8
10
  6
CONTINUOUS
 62
     1
100
AcDbLine
 10
715.4336149566727
 20
302.2606329596822
 30
0.0
 11
715.4336149566727
 21
307.5106429596822
 31
0.0
  0
ARC
  5
1B8
330
1F
100
AcDbEntity
  8
10
  6
CONTINUOUS
 62
     1
100
AcDbCircle
 10
708.4336139566727
 20
306.5106429596822
 30
0.0
 40
1.0
100
AcDbArc
 50
89.99999999999991
 51
179.9999999999998
  0
LINE
  5
1B9
330
1F
100
AcDbEntity
  8
10
  6
CONTINUOUS
 62
     1
100
AcDbLine
 10
706.4336379566729
 20
306.2606529596821
 30
0.0
 11
707.4336099566726
 21
306.2606529596821
 31
0.0
  0
LINE
  5
1BA
330
1F
100
AcDbEntity
  8
10
  6
CONTINUOUS
 62
     1
100
AcDbLine
 10
706.4336379566729
 20
306.7606629596823
 30
0.0
 11
706.4336379566729
 21
304.2606429596822
 31
0.0
  0
LINE
  5
1BB
330
1F
100
AcDbEntity
  8
10
  6
CONTINUOUS
 62
     1
100
AcDbLine
 10
707.4336099566726
 20
306.5106429596822
 30
0.0
 11
707.4336099566726
 21
304.2606429596822
 31
0.0
  0
LINE
  5
1BC
330
1F
100
AcDbEntity
  8
10
  6
CONTINUOUS
 62
     1
100
AcDbLine
 10
707.4336099566726
 20
306.2606529596821
 30
0.0
 11
707.4336099566726
 21
304.2606429596822
 31
0.0
  0
LINE
  5
1BD
330
1F
100
AcDbEntity
  8
10
  6
CONTINUOUS
 62
     1
100
AcDbLine
 10
708.4336139566727
 20
297.010622959682
 30
0.0
 11
715.4336149566727
 21
297.010622959682
 31
0.0
  0
LINE
  5
1BE
330
1F
100
AcDbEntity
  8
10
  6
CONTINUOUS
 62
     1
100
AcDbLine
 10
707.4336099566726
 20
298.260612959682
 30
0.0
 11
706.4336379566729
 21
298.260612959682
 31
0.0
  0
LINE
  5
1BF
330
1F
100
AcDbEntity
  8
10
  6
CONTINUOUS
 62
     1
100
AcDbLine
 10
706.4336379566729
 20
297.7606029596818
 30
0.0
 11
706.4336379566729
 21
300.260622959682
 31
0.0
  0
LINE
  5
1C0
330
1F
100
AcDbEntity
  8
10
  6
CONTINUOUS
 62
     1
100
AcDbLine
 10
707.4336099566726
 20
298.010622959682
 30
0.0
 11
707.4336099566726
 21
300.2606329596822
 31
0.0
  0
LINE
  5
1C1
330
1F
100
AcDbEntity
  8
10
  6
CONTINUOUS
 62
     1
100
AcDbLine
 10
707.4336099566726
 20
300.2606329596822
 30
0.0
 11
707.4336099566726
 21
298.260612959682
 31
0.0
  0
ARC
  5
1C2
330
1F
100
AcDbEntity
  8
10
  6
CONTINUOUS
 62
     1
100
AcDbCircle
 10
708.4336139566727
 20
298.010622959682
 30
0.0
 40
1.0
100
AcDbArc
 50
179.9999999999998
 51
269.9999999999998
  0
LINE
  5
1C3
330
1F
100
AcDbEntity
  8
10
  6
CONTINUOUS
 62
     1
100
AcDbLine
 10
712.4336109566727
 20
304.2606429596822
 30
0.0
 11
712.4336109566727
 21
300.2606329596822
 31
0.0
  0
LINE
  5
1C4
330
1F
100
AcDbEntity
  8
10
  6
CONTINUOUS
 62
     1
100
AcDbLine
 10
715.4336149566727
 20
302.2606329596822
 30
0.0
 11
715.4336149566727
 21
297.010622959682
 31
0.0
  0
LINE
  5
1C5
330
1F
100
AcDbEntity
  8
10
  6
CONTINUOUS
 62
     1
100
AcDbLine
 10
714.4336059566726
 20
304.2606429596822
 30
0.0
 11
714.4336059566726
 21
300.2606329596822
 31
0.0
  0
LINE
  5
1C6
330
1F
100
AcDbEntity
  8
10
  6
CONTINUOUS
 62
     1
100
AcDbLine
 10
708.4336139566727
 20
307.5106429596822
 30
0.0
 11
715.4336149566727
 21
307.5106429596822
 31
0.0
  0
CIRCLE
  5
1C7
330
1F
100
AcDbEntity
  8
8
  6
CONTINUOUS
 62
     7
100
AcDbCircle
 10
379.0014808089863
 20
302.2374275996822
 30
0.0
 40
27.5
  0
CIRCLE
  5
1C8
330
1F
100
AcDbEntity
  8
11
  6
HIDDEN
 62
     3
100
AcDbCircle
 10
379.0014808089863
 20
302.2374275996822
 30
0.0
 40
32.5
  0
HATCH
  5
1C9
330
1F
100
AcDbEntity
  8
9
  6
CONTINUOUS
 62
     2
100
AcDbHatch
 10
0.0
 20
0.0
 30
0.0
210
0.0
220
0.0
230
1.0
  2

 70
     0
 71
     0
 91
        4
 92
        0
 93
       40
 72
     1
 10
379.0014808089862
 20
334.7374275996822
 11
377.5838507196128
 21
334.7064948010926
 72
     1
 10
377.5838507196128
 20
334.7064948010926
 11
376.1689191696873
 21
334.613755287664
 72
     1
 10
376.1689191696873
 20
334.613755287664
 11
374.7593795618346
 21
334.4593855943311
 72
     1
 10
374.7593795618346
 20
334.4593855943311
 11
373.357915034811
 21
334.243679572579
 72
     1
 10
373.357915034811
 20
334.243679572579
 11
371.9671933559979
 21
333.9670478310801
 72
     1
 10
371.9671933559979
 20
333.9670478310801
 11
370.5898618431543
 21
333.630016954077
 72
     1
 10
370.5898618431543
 20
333.630016954077
 11
369.2285423250974
 21
333.2332284989996
 72
     1
 10
369.2285423250974
 20
333.2332284989996
 11
367.8858261509021
 21
332.7774377752243
 72
     1
 10
367.8858261509021
 20
332.7774377752243
 11
366.5642692571209
 21
332.2635124062991
 72
     1
 10
366.5642692571209
 20
332.2635124062991
 11
365.2663873024135
 21
331.6924306783734
 72
     1
 10
365.2663873024135
 20
331.6924306783734
 11
363.9946508788477
 21
331.0652796779745
 72
     1
 10
363.9946508788477
 20
331.0652796779745
 11
362.7514808089863
 21
330.3832532226766
 72
     1
 10
362.7514808089863
 20
330.3832532226766
 11
361.5392435377145
 21
329.6476495886011
 72
     1
 10
361.5392435377145
 20
329.6476495886011
 11
360.3602466275773
 21
328.8598690390745
 72
     1
 10
360.3602466275773
 20
328.8598690390745
 11
359.2167343662029
 21
328.0214111591474
 72
     1
 10
359.2167343662029
 20
328.0214111591474
 11
358.1108834941738
 21
327.1338720010491
 72
     1
 10
358.1108834941738
 20
327.1338720010491
 11
357.0447990614774
 21
326.1989410460113
 72
     1
 10
357.0447990614774
 20
326.1989410460113
 11
356.0205104204235
 21
325.2183979882451
 72
     1
 10
356.0205104204235
 20
325.2183979882451
 11
355.0399673626573
 21
324.1941093471913
 72
     1
 10
355.0399673626573
 20
324.1941093471913
 11
354.1050364076195
 21
323.1280249144949
 72
     1
 10
354.1050364076195
 20
323.1280249144949
 11
353.2174972495212
 21
322.0221740424657
 72
     1
 10
353.2174972495212
 20
322.0221740424657
 11
352.3790393695941
 21
320.8786617810914
 72
     1
 10
352.3790393695941
 20
320.8786617810914
 11
351.5912588200675
 21
319.6996648709541
 72
     1
 10
351.5912588200675
 20
319.6996648709541
 11
350.8556551859921
 21
318.4874275996823
 72
     1
 10
350.8556551859921
 20
318.4874275996823
 11
350.1736287306941
 21
317.244257529821
 72
     1
 10
350.1736287306941
 20
317.244257529821
 11
349.5464777302952
 21
315.9725211062551
 72
     1
 10
349.5464777302952
 20
315.9725211062551
 11
348.9753960023695
 21
314.6746391515478
 72
     1
 10
348.9753960023695
 20
314.6746391515478
 11
348.4614706334443
 21
313.3530822577666
 72
     1
 10
348.4614706334443
 20
313.3530822577666
 11
348.0056799096689
 21
312.0103660835713
 72
     1
 10
348.0056799096689
 20
312.0103660835713
 11
347.6088914545916
 21
310.6490465655143
 72
     1
 10
347.6088914545916
 20
310.6490465655143
 11
347.2718605775885
 21
309.2717150526707
 72
     1
 10
347.2718605775885
 20
309.2717150526707
 11
346.9952288360896
 21
307.8809933738577
 72
     1
 10
346.9952288360896
 20
307.8809933738577
 11
346.7795228143374
 21
306.4795288468341
 72
     1
 10
346.7795228143374
 20
306.4795288468341
 11
346.6251531210046
 21
305.0699892389813
 72
     1
 10
346.6251531210046
 20
305.0699892389813
 11
346.5324136075759
 21
303.6550576890559
 72
     1
 10
346.5324136075759
 20
303.6550576890559
 11
346.5014808089863
 21
302.2374275996825
 72
     1
 10
346.5014808089863
 20
302.2374275996822
 11
129.0014808089863
 21
302.2374275996823
 72
     1
 10
129.0014808089863
 20
302.2374275996823
 11
129.0014808089863
 21
352.2374275996824
 72
     1
 10
129.0014808089863
 20
352.2374275996824
 11
379.0014808089863
 21
352.2374275996824
 72
     1
 10
379.0014808089863
 20
352.2374275996824
 11
379.0014808089863
 21
334.7374275996822
 97
        0
 92
        0
 93
       40
 72
     1
 10
411.5014808089863
 20
302.2374275996825
 11
411.4705480103967
 21
303.6550576890559
 72
     1
 10
411.4705480103967
 20
303.6550576890559
 11
411.377808496968
 21
305.0699892389813
 72
     1
 10
411.377808496968
 20
305.0699892389813
 11
411.2234388036351
 21
306.4795288468342
 72
     1
 10
411.2234388036351
 20
306.4795288468342
 11
411.0077327818831
 21
307.8809933738577
 72
     1
 10
411.0077327818831
 20
307.8809933738577
 11
410.7311010403841
 21
309.2717150526708
 72
     1
 10
410.7311010403841
 20
309.2717150526708
 11
410.394070163381
 21
310.6490465655144
 72
     1
 10
410.394070163381
 20
310.6490465655144
 11
409.9972817083037
 21
312.0103660835713
 72
     1
 10
409.9972817083037
 20
312.0103660835713
 11
409.5414909845283
 21
313.3530822577666
 72
     1
 10
409.5414909845283
 20
313.3530822577666
 11
409.0275656156031
 21
314.6746391515478
 72
     1
 10
409.0275656156031
 20
314.6746391515478
 11
408.4564838876775
 21
315.9725211062551
 72
     1
 10
408.4564838876775
 20
315.9725211062551
 11
407.8293328872786
 21
317.244257529821
 72
     1
 10
407.8293328872786
 20
317.244257529821
 11
407.1473064319806
 21
318.4874275996823
 72
     1
 10
407.1473064319806
 20
318.4874275996823
 11
406.4117027979051
 21
319.6996648709541
 72
     1
 10
406.4117027979051
 20
319.6996648709541
 11
405.6239222483786
 21
320.8786617810913
 72
     1
 10
405.6239222483786
 20
320.8786617810913
 11
404.7854643684515
 21
322.0221740424657
 72
     1
 10
404.7854643684515
 20
322.0221740424657
 11
403.8979252103532
 21
323.1280249144948
 72
     1
 10
403.8979252103532
 20
323.1280249144948
 11
402.9629942553154
 21
324.1941093471912
 72
     1
 10
402.9629942553154
 20
324.1941093471912
 11
401.9824511975492
 21
325.218397988245
 72
     1
 10
401.9824511975492
 20
325.218397988245
 11
400.9581625564954
 21
326.1989410460113
 72
     1
 10
400.9581625564954
 20
326.1989410460113
 11
399.892078123799
 21
327.133872001049
 72
     1
 10
399.892078123799
 20
327.133872001049
 11
398.7862272517698
 21
328.0214111591474
 72
     1
 10
398.7862272517698
 20
328.0214111591474
 11
397.6427149903955
 21
328.8598690390745
 72
     1
 10
397.6427149903955
 20
328.8598690390745
 11
396.4637180802582
 21
329.647649588601
 72
     1
 10
396.4637180802582
 20
329.647649588601
 11
395.2514808089865
 21
330.3832532226764
 72
     1
 10
395.2514808089865
 20
330.3832532226764
 11
394.0083107391251
 21
331.0652796779744
 72
     1
 10
394.0083107391251
 20
331.0652796779744
 11
392.7365743155593
 21
331.6924306783733
 72
     1
 10
392.7365743155593
 20
331.6924306783733
 11
391.438692360852
 21
332.263512406299
 72
     1
 10
391.438692360852
 20
332.263512406299
 11
390.1171354670708
 21
332.7774377752242
 72
     1
 10
390.1171354670708
 20
332.7774377752242
 11
388.7744192928755
 21
333.2332284989996
 72
     1
 10
388.7744192928755
 20
333.2332284989996
 11
387.4130997748185
 21
333.6300169540769
 72
     1
 10
387.4130997748185
 20
333.6300169540769
 11
386.035768261975
 21
333.96704783108
 72
     1
 10
386.035768261975
 20
333.96704783108
 11
384.6450465831618
 21
334.2436795725789
 72
     1
 10
384.6450465831618
 20
334.2436795725789
 11
383.2435820561383
 21
334.459385594331
 72
     1
 10
383.2435820561383
 20
334.459385594331
 11
381.8340424482855
 21
334.6137552876639
 72
     1
 10
381.8340424482855
 20
334.6137552876639
 11
380.4191108983601
 21
334.7064948010926
 72
     1
 10
380.4191108983601
 20
334.7064948010926
 11
379.0014808089867
 21
334.7374275996822
 72
     1
 10
379.0014808089863
 20
334.7374275996822
 11
379.0014808089863
 21
352.2374275996824
 72
     1
 10
379.0014808089863
 20
352.2374275996824
 11
629.0014808089863
 21
352.2374275996824
 72
     1
 10
629.0014808089863
 20
352.2374275996824
 11
629.0014808089863
 21
302.237427599682
 72
     1
 10
629.0014808089863
 20
302.237427599682
 11
411.5014808089863
 21
302.2374275996821
 97
        0
 92
        0
 93
       40
 72
     1
 10
379.0014808089863
 20
252.2374275996824
 11
629.0014808089863
 21
252.2374275996824
 72
     1
 10
629.0014808089863
 20
252.2374275996824
 11
629.0014808089863
 21
302.237427599682
 72
     1
 10
629.0014808089863
 20
302.237427599682
 11
411.5014808089863
 21
302.2374275996822
 72
     1
 10
411.5014808089863
 20
302.2374275996812
 11
411.4705480103967
 21
300.8197975103078
 72
     1
 10
411.4705480103967
 20
300.8197975103078
 11
411.377808496968
 21
299.4048659603824
 72
     1
 10
411.377808496968
 20
299.4048659603824
 11
411.2234388036351
 21
297.9953263525296
 72
     1
 10
411.2234388036351
 20
297.9953263525296
 11
411.007732781883
 21
296.5938618255061
 72
     1
 10
411.007732781883
 20
296.5938618255061
 11
410.7311010403841
 21
295.203140146693
 72
     1
 10
410.7311010403841
 20
295.203140146693
 11
410.3940701633809
 21
293.8258086338494
 72
     1
 10
410.3940701633809
 20
293.8258086338494
 11
409.9972817083036
 21
292.4644891157925
 72
     1
 10
409.9972817083036
 20
292.4644891157925
 11
409.5414909845283
 21
291.1217729415972
 72
     1
 10
409.5414909845283
 20
291.1217729415972
 11
409.0275656156031
 21
289.800216047816
 72
     1
 10
409.0275656156031
 20
289.800216047816
 11
408.4564838876774
 21
288.5023340931087
 72
     1
 10
408.4564838876774
 20
288.5023340931087
 11
407.8293328872784
 21
287.2305976695429
 72
     1
 10
407.8293328872784
 20
287.2305976695429
 11
407.1473064319805
 21
285.9874275996815
 72
     1
 10
407.1473064319805
 20
285.9874275996815
 11
406.411702797905
 21
284.7751903284097
 72
     1
 10
406.411702797905
 20
284.7751903284097
 11
405.6239222483785
 21
283.5961934182725
 72
     1
 10
405.6239222483785
 20
283.5961934182725
 11
404.7854643684514
 21
282.4526811568982
 72
     1
 10
404.7854643684514
 20
282.4526811568982
 11
403.897925210353
 21
281.346830284869
 72
     1
 10
403.897925210353
 20
281.346830284869
 11
402.9629942553153
 21
280.2807458521726
 72
     1
 10
402.9629942553153
 20
280.2807458521726
 11
401.9824511975491
 21
279.2564572111189
 72
     1
 10
401.9824511975491
 20
279.2564572111189
 11
400.9581625564953
 21
278.2759141533526
 72
     1
 10
400.9581625564953
 20
278.2759141533526
 11
399.8920781237989
 21
277.3409831983149
 72
     1
 10
399.8920781237989
 20
277.3409831983149
 11
398.7862272517697
 21
276.4534440402165
 72
     1
 10
398.7862272517697
 20
276.4534440402165
 11
397.6427149903953
 21
275.6149861602895
 72
     1
 10
397.6427149903953
 20
275.6149861602895
 11
396.4637180802581
 21
274.8272056107629
 72
     1
 10
396.4637180802581
 20
274.8272056107629
 11
395.2514808089863
 21
274.0916019766875
 72
     1
 10
395.2514808089863
 20
274.0916019766875
 11
394.008310739125
 21
273.4095755213896
 72
     1
 10
394.008310739125
 20
273.4095755213896
 11
392.7365743155592
 21
272.7824245209907
 72
     1
 10
392.7365743155592
 20
272.7824245209907
 11
391.4386923608519
 21
272.211342793065
 72
     1
 10
391.4386923608519
 20
272.211342793065
 11
390.1171354670707
 21
271.6974174241398
 72
     1
 10
390.1171354670707
 20
271.6974174241398
 11
388.7744192928753
 21
271.2416267003645
 72
     1
 10
388.7744192928753
 20
271.2416267003645
 11
387.4130997748184
 21
270.8448382452871
 72
     1
 10
387.4130997748184
 20
270.8448382452871
 11
386.0357682619749
 21
270.507807368284
 72
     1
 10
386.0357682619749
 20
270.507807368284
 11
384.6450465831617
 21
270.2311756267851
 72
     1
 10
384.6450465831617
 20
270.2311756267851
 11
383.2435820561382
 21
270.015469605033
 72
     1
 10
383.2435820561382
 20
270.015469605033
 11
381.8340424482855
 21
269.8610999117001
 72
     1
 10
381.8340424482855
 20
269.8610999117001
 11
380.41911089836
 21
269.7683603982715
 72
     1
 10
380.41911089836
 20
269.7683603982715
 11
379.0014808089866
 21
269.7374275996819
 72
     1
 10
379.0014808089863
 20
269.7374275996822
 11
379.0014808089863
 21
252.2374275996824
 97
        0
 92
        0
 93
       40
 72
     1
 10
129.0014808089863
 20
252.2374275996824
 11
379.0014808089863
 21
252.2374275996824
 72
     1
 10
379.0014808089863
 20
252.2374275996824
 11
379.0014808089863
 21
269.7374275996822
 72
     1
 10
379.0014808089863
 20
269.7374275996822
 11
377.5838507196129
 21
269.7683603982718
 72
     1
 10
377.5838507196129
 20
269.7683603982718
 11
376.1689191696874
 21
269.8610999117005
 72
     1
 10
376.1689191696874
 20
269.8610999117005
 11
374.7593795618346
 21
270.0154696050333
 72
     1
 10
374.7593795618346
 20
270.0154696050333
 11
373.3579150348111
 21
270.2311756267854
 72
     1
 10
373.3579150348111
 20
270.2311756267854
 11
371.9671933559979
 21
270.5078073682844
 72
     1
 10
371.9671933559979
 20
270.5078073682844
 11
370.5898618431544
 21
270.8448382452875
 72
     1
 10
370.5898618431544
 20
270.8448382452875
 11
369.2285423250974
 21
271.2416267003649
 72
     1
 10
369.2285423250974
 20
271.2416267003649
 11
367.8858261509021
 21
271.6974174241402
 72
     1
 10
367.8858261509021
 20
271.6974174241402
 11
366.5642692571209
 21
272.2113427930654
 72
     1
 10
366.5642692571209
 20
272.2113427930654
 11
365.2663873024136
 21
272.7824245209911
 72
     1
 10
365.2663873024136
 20
272.7824245209911
 11
363.9946508788477
 21
273.40957552139
 72
     1
 10
363.9946508788477
 20
273.40957552139
 11
362.7514808089863
 21
274.091601976688
 72
     1
 10
362.7514808089863
 20
274.091601976688
 11
361.5392435377145
 21
274.8272056107635
 72
     1
 10
361.5392435377145
 20
274.8272056107635
 11
360.3602466275773
 21
275.61498616029
 72
     1
 10
360.3602466275773
 20
275.61498616029
 11
359.2167343662029
 21
276.4534440402171
 72
     1
 10
359.2167343662029
 20
276.4534440402171
 11
358.1108834941738
 21
277.3409831983155
 72
     1
 10
358.1108834941738
 20
277.3409831983155
 11
357.0447990614774
 21
278.2759141533533
 72
     1
 10
357.0447990614774
 20
278.2759141533533
 11
356.0205104204235
 21
279.2564572111195
 72
     1
 10
356.0205104204235
 20
279.2564572111195
 11
355.0399673626573
 21
280.2807458521733
 72
     1
 10
355.0399673626573
 20
280.2807458521733
 11
354.1050364076195
 21
281.3468302848698
 72
     1
 10
354.1050364076195
 20
281.3468302848698
 11
353.2174972495212
 21
282.4526811568989
 72
     1
 10
353.2174972495212
 20
282.4526811568989
 11
352.3790393695941
 21
283.5961934182733
 72
     1
 10
352.3790393695941
 20
283.5961934182733
 11
351.5912588200675
 21
284.7751903284105
 72
     1
 10
351.5912588200675
 20
284.7751903284105
 11
350.8556551859921
 21
285.9874275996823
 72
     1
 10
350.8556551859921
 20
285.9874275996823
 11
350.1736287306941
 21
287.2305976695437
 72
     1
 10
350.1736287306941
 20
287.2305976695437
 11
349.5464777302952
 21
288.5023340931096
 72
     1
 10
349.5464777302952
 20
288.5023340931096
 11
348.9753960023696
 21
289.8002160478169
 72
     1
 10
348.9753960023696
 20
289.8002160478169
 11
348.4614706334443
 21
291.1217729415981
 72
     1
 10
348.4614706334443
 20
291.1217729415981
 11
348.005679909669
 21
292.4644891157935
 72
     1
 10
348.005679909669
 20
292.4644891157935
 11
347.6088914545916
 21
293.8258086338504
 72
     1
 10
347.6088914545916
 20
293.8258086338504
 11
347.2718605775885
 21
295.203140146694
 72
     1
 10
347.2718605775885
 20
295.203140146694
 11
346.9952288360896
 21
296.5938618255071
 72
     1
 10
346.9952288360896
 20
296.5938618255071
 11
346.7795228143376
 21
297.9953263525306
 72
     1
 10
346.7795228143376
 20
297.9953263525306
 11
346.6251531210046
 21
299.4048659603835
 72
     1
 10
346.6251531210046
 20
299.4048659603835
 11
346.532413607576
 21
300.8197975103089
 72
     1
 10
346.532413607576
 20
300.8197975103089
 11
346.5014808089864
 21
302.2374275996823
 72
     1
 10
346.5014808089863
 20
302.2374275996822
 11
129.0014808089863
 21
302.2374275996824
 72
     1
 10
129.0014808089863
 20
302.2374275996824
 11
129.0014808089863
 21
252.2374275996824
 97
        0
 75
     0
 76
     2
 52
0.0
 41
0.5
 77
     0
 78
     2
 53
45.0
 43
0.0
 44
0.0
 45
-6.735192090801852
 46
6.735192090801876
 79
     0
 53
135.0
 43
0.0
 44
0.0
 45
-6.735192090801878
 46
-6.735192090801851
 79
     0
 98
        0
  0
LINE
  5
1CA
330
1F
100
AcDbEntity
  8
10
  6
CONTINUOUS
 62
     1
100
AcDbLine
 10
126.0000179999979
 20
90.76304844318587
 30
0.0
 11
99.99999999219818
 21
90.76304844318587
 31
0.0
  0
LINE
  5
1CB
330
1F
100
AcDbEntity
  8
10
  6
CONTINUOUS
 62
     1
100
AcDbLine
 10
120.0000099981977
 20
87.56304844222585
 30
0.0
 11
102.0000079927969
 21
87.56304844222585
 31
0.0
  0
LINE
  5
1CC
330
1F
100
AcDbEntity
  8
10
  6
CONTINUOUS
 62
     1
100
AcDbLine
 10
120.0000099981977
 20
84.36306844126547
 30
0.0
 11
102.0000079927969
 21
84.36306844126547
 31
0.0
  0
LINE
  5
1CD
330
1F
100
AcDbEntity
  8
10
  6
CONTINUOUS
 62
     1
100
AcDbLine
 10
120.0000099981977
 20
85.96300844174577
 30
0.0
 11
102.0000079927969
 21
85.96300844174577
 31
0.0
  0
LINE
  5
1CE
330
1F
100
AcDbEntity
  8
10
  6
CONTINUOUS
 62
     1
100
AcDbLine
 10
120.0000099981977
 20
89.16300844270644
 30
0.0
 11
102.0000079927969
 21
89.16300844270644
 31
0.0
  0
LINE
  5
1CF
330
1F
100
AcDbEntity
  8
10
  6
CONTINUOUS
 62
     1
100
AcDbLine
 10
126.0000179999979
 20
82.76302844078637
 30
0.0
 11
99.99999999219818
 21
82.76302844078637
 31
0.0
  0
LINE
  5
1D0
330
1F
100
AcDbEntity
  8
10
  6
CONTINUOUS
 62
     1
100
AcDbLine
 10
74.09507433251213
 20
89.86304788466657
 30
0.0
 11
40.00001799999792
 21
89.86304788466657
 31
0.0
  0
LINE
  5
1D1
330
1F
100
AcDbEntity
  8
10
  6
CONTINUOUS
 62
     1
100
AcDbLine
 10
74.09495940941315
 20
83.66304789256004
 30
0.0
 11
40.00001799999791
 21
83.6630476440636
 31
0.0
  0
LINE
  5
1D2
330
1F
100
AcDbEntity
  8
10
  6
CONTINUOUS
 62
     1
100
AcDbLine
 10
74.0949594094138
 20
81.16302844030783
 30
0.0
 11
74.0949594094138
 21
92.36302844366737
 31
0.0
  0
LINE
  5
1D3
330
1F
100
AcDbEntity
  8
10
  6
CONTINUOUS
 62
     1
100
AcDbLine
 10
99.99999999219818
 20
82.76302844078637
 30
0.0
 11
99.99999999219818
 21
90.76304844318587
 31
0.0
  0
LINE
  5
1D4
330
1F
100
AcDbEntity
  8
10
  6
CONTINUOUS
 62
     1
100
AcDbLine
 10
102.0000079927969
 20
82.76302844078637
 30
0.0
 11
102.0000079927969
 21
90.76304844318587
 31
0.0
  0
LINE
  5
1D5
330
1F
100
AcDbEntity
  8
10
  6
CONTINUOUS
 62
     1
100
AcDbLine
 10
126.0000179999979
 20
86.76302844198631
 30
0.0
 11
126.0000179999979
 21
97.26304844513581
 31
0.0
  0
ARC
  5
1D6
330
1F
100
AcDbEntity
  8
10
  6
CONTINUOUS
 62
     1
100
AcDbCircle
 10
112.000015995798
 20
95.26304844453567
 30
0.0
 40
2.000000000599996
100
AcDbArc
 50
89.99999999999991
 51
179.9999999999998
  0
LINE
  5
1D7
330
1F
100
AcDbEntity
  8
10
  6
CONTINUOUS
 62
     1
100
AcDbLine
 10
108.0000639945975
 20
94.76306844438608
 30
0.0
 11
110.0000079951967
 21
94.76306844438608
 31
0.0
  0
LINE
  5
1D8
330
1F
100
AcDbEntity
  8
10
  6
CONTINUOUS
 62
     1
100
AcDbLine
 10
108.0000639945975
 20
95.76308844468643
 30
0.0
 11
108.0000639945975
 21
90.76304844318652
 31
0.0
  0
LINE
  5
1D9
330
1F
100
AcDbEntity
  8
10
  6
CONTINUOUS
 62
     1
100
AcDbLine
 10
110.0000079951967
 20
95.26304844453567
 30
0.0
 11
110.0000079951967
 21
90.76304844318587
 31
0.0
  0
LINE
  5
1DA
330
1F
100
AcDbEntity
  8
10
  6
CONTINUOUS
 62
     1
100
AcDbLine
 10
110.0000079951967
 20
94.76306844438608
 30
0.0
 11
110.0000079951967
 21
90.76304844318587
 31
0.0
  0
LINE
  5
1DB
330
1F
100
AcDbEntity
  8
10
  6
CONTINUOUS
 62
     1
100
AcDbLine
 10
112.000015995798
 20
76.26300843883583
 30
0.0
 11
126.0000179999979
 21
76.26300843883583
 31
0.0
  0
LINE
  5
1DC
330
1F
100
AcDbEntity
  8
10
  6
CONTINUOUS
 62
     1
100
AcDbLine
 10
110.0000079951967
 20
78.76298843958554
 30
0.0
 11
108.0000639945975
 21
78.76298843958554
 31
0.0
  0
LINE
  5
1DD
330
1F
100
AcDbEntity
  8
10
  6
CONTINUOUS
 62
     1
100
AcDbLine
 10
108.0000639945975
 20
77.76296843928586
 30
0.0
 11
108.0000639945975
 21
82.76300844078577
 31
0.0
  0
LINE
  5
1DE
330
1F
100
AcDbEntity
  8
10
  6
CONTINUOUS
 62
     1
100
AcDbLine
 10
110.0000079951967
 20
78.26300843943596
 30
0.0
 11
110.0000079951967
 21
82.76302844078637
 31
0.0
  0
LINE
  5
1DF
330
1F
100
AcDbEntity
  8
10
  6
CONTINUOUS
 62
     1
100
AcDbLine
 10
110.0000079951967
 20
82.76302844078637
 30
0.0
 11
110.0000079951967
 21
78.76298843958554
 31
0.0
  0
ARC
  5
1E0
330
1F
100
AcDbEntity
  8
10
  6
CONTINUOUS
 62
     1
100
AcDbCircle
 10
112.000015995798
 20
78.26300843943596
 30
0.0
 40
2.000000000599996
100
AcDbArc
 50
179.9999999999998
 51
269.9999999999998
  0
LINE
  5
1E1
330
1F
100
AcDbEntity
  8
10
  6
CONTINUOUS
 62
     1
100
AcDbLine
 10
120.0000099981977
 20
90.76304844318587
 30
0.0
 11
120.0000099981977
 21
82.76302844078637
 31
0.0
  0
LINE
  5
1E2
330
1F
100
AcDbEntity
  8
10
  6
CONTINUOUS
 62
     1
100
AcDbLine
 10
126.0000179999979
 20
86.76302844198631
 30
0.0
 11
126.0000179999979
 21
76.26300843883583
 31
0.0
  0
LINE
  5
1E3
330
1F
100
AcDbEntity
  8
10
  6
CONTINUOUS
 62
     1
100
AcDbLine
 10
123.9999999993978
 20
90.76304844318587
 30
0.0
 11
123.9999999993978
 21
82.76302844078637
 31
0.0
  0
LINE
  5
1E4
330
1F
100
AcDbEntity
  8
10
  6
CONTINUOUS
 62
     1
100
AcDbLine
 10
112.000015995798
 20
97.26304844513581
 30
0.0
 11
126.0000179999979
 21
97.26304844513581
 31
0.0
  0
LINE
  5
1E5
330
1F
100
AcDbEntity
  8
10
  6
CONTINUOUS
 62
     1
100
AcDbLine
 10
108.0000639945975
 20
95.76308844468643
 30
0.0
 11
92.33055703718415
 21
95.76308844468643
 31
0.0
  0
LINE
  5
1E6
330
1F
100
AcDbEntity
  8
10
  6
CONTINUOUS
 62
     1
100
AcDbLine
 10
82.39198814434741
 20
92.36302844366737
 30
0.0
 11
74.0949594094138
 21
92.36302844366737
 31
0.0
  0
ARC
  5
1E7
330
1F
100
AcDbEntity
  8
10
  6
CONTINUOUS
 62
     1
100
AcDbCircle
 10
92.43050898005288
 20
91.00387806237849
 30
0.0
 40
4.760259851515556
100
AcDbArc
 50
91.2031371291626
 51
128.540704870493
  0
ARC
  5
1E8
330
1F
100
AcDbEntity
  8
10
  6
CONTINUOUS
 62
     1
100
AcDbCircle
 10
81.91741134246519
 20
105.2261087156557
 30
0.0
 40
12.87183192962442
100
AcDbArc
 50
272.1129402668354
 51
301.7409359603906
  0
LINE
  5
1E9
330
1F
100
AcDbEntity
  8
10
  6
CONTINUOUS
 62
     1
100
AcDbLine
 10
89.4645316325408
 20
94.72719005951184
 30
0.0
 11
88.68901687868154
 21
94.27944640761116
 31
0.0
  0
LINE
  5
1EA
330
1F
100
AcDbEntity
  8
10
  6
CONTINUOUS
 62
     1
100
AcDbLine
 10
108.0000639945975
 20
77.76296843928877
 30
0.0
 11
92.33055703718415
 21
77.76296843928877
 31
0.0
  0
LINE
  5
1EB
330
1F
100
AcDbEntity
  8
10
  6
CONTINUOUS
 62
     1
100
AcDbLine
 10
82.39198814434741
 20
81.16302844030783
 30
0.0
 11
74.0949594094138
 21
81.16302844030783
 31
0.0
  0
ARC
  5
1EC
330
1F
100
AcDbEntity
  8
10
  6
CONTINUOUS
 62
     1
100
AcDbCircle
 10
92.43050898005288
 20
82.52217882159671
 30
0.0
 40
4.760259851515556
100
AcDbArc
 50
231.4592951295162
 51
268.7968628708372
  0
ARC
  5
1ED
330
1F
100
AcDbEntity
  8
10
  6
CONTINUOUS
 62
     1
100
AcDbCircle
 10
81.91741134246519
 20
68.29994816831952
 30
0.0
 40
12.87183192962442
100
AcDbArc
 50
58.25906403960879
 51
87.88705973316424
  0
LINE
  5
1EE
330
1F
100
AcDbEntity
  8
10
  6
CONTINUOUS
 62
     1
100
AcDbLine
 10
89.4645316325408
 20
78.79886682446336
 30
0.0
 11
88.68901687868154
 21
79.24661047636404
 31
0.0
  0
DIMENSION
  5
1F9
330
1F
100
AcDbEntity
  8
7
  6
CONTINUOUS
 62
     4
100
AcDbDimension
  2
DIM1
 10
129.0014808089862
 20
182.2374275996836
 30
0.0
 11
379.0014808089863
 21
182.2374275996836
 31
0.0
 70
   160
  1
<>
  3
STANDARD
100
AcDbAlignedDimension
 13
629.0014808089863
 23
252.2374275996824
 33
0.0
 14
129.0014808089863
 24
252.2374275996824
 34
0.0
 50
179.9999999999998
100
AcDbRotatedDimension
1001
ACAD
1000
DSTYLE
1002
{
1070
   287
1070
     4
1070
     7
1000

1070
     6
1000

1070
   279
1070
     1
1070
   340
1005
1EF
1070
   140
1040
6.0
1070
    40
1040
1.0
1070
   147
1040
0.0
1070
    76
1070
     0
1070
    75
1070
     0
1070
   173
1070
     1
1070
   289
1070
     2
1070
   288
1070
     1
1070
    77
1070
     1
1070
   172
1070
     1
1070
   174
1070
     0
1070
    74
1070
     0
1070
    73
1070
     0
1070
   284
1070
     8
1070
    78
1070
     8
1070
    42
1040
2.0
1070
    44
1040
3.0
1070
    43
1040
30.0
1070
   271
1070
     2
1070
    41
1040
4.0
1002
}
  0
DIMENSION
  5
203
330
1F
100
AcDbEntity
  8
7
  6
CONTINUOUS
 62
     4
100
AcDbDimension
  2
DIM2
 10
114.0014808089844
 20
166.2374275996836
 30
0.0
 11
379.0014808089844
 21
166.2374275996836
 31
0.0
 70
   160
  1
<>
  3
STANDARD
100
AcDbAlignedDimension
 13
644.0014808089863
 23
237.2374275996824
 33
0.0
 14
114.0014808089845
 24
237.2374275996824
 34
0.0
 50
179.9999999999998
100
AcDbRotatedDimension
1001
ACAD
1000
DSTYLE
1002
{
1070
   287
1070
     4
1070
     7
1000

1070
     6
1000

1070
   279
1070
     1
1070
   340
1005
1EF
1070
   140
1040
6.0
1070
    40
1040
1.0
1070
   147
1040
0.0
1070
    76
1070
     0
1070
    75
1070
     0
1070
   173
1070
     1
1070
   289
1070
     2
1070
   288
1070
     1
1070
    77
1070
     1
1070
   172
1070
     1
1070
   174
1070
     0
1070
    74
1070
     0
1070
    73
1070
     0
1070
   284
1070
     8
1070
    78
1070
     8
1070
    42
1040
2.0
1070
    44
1040
3.0
1070
    43
1040
30.0
1070
   271
1070
     2
1070
    41
1040
4.0
1002
}
  0
DIMENSION
  5
20D
330
1F
100
AcDbEntity
  8
7
  6
CONTINUOUS
 62
     4
100
AcDbDimension
  2
DIM3
 10
604.0014808089863
 20
198.2374275996836
 30
0.0
 11
547.7514808089863
 21
198.2374275996836
 31
0.0
 70
   160
  1
<>
  3
STANDARD
100
AcDbAlignedDimension
 13
491.5014808089863
 23
221.1374275996828
 33
0.0
 14
604.0014808089863
 24
221.1374275996828
 34
0.0
100
AcDbRotatedDimension
1001
ACAD
1000
DSTYLE
1002
{
1070
   287
1070
     4
1070
     7
1000

1070
     6
1000

1070
   279
1070
     1
1070
   340
1005
1EF
1070
   140
1040
6.0
1070
    40
1040
1.0
1070
   147
1040
0.0
1070
    76
1070
     0
1070
    75
1070
     0
1070
   173
1070
     1
1070
   289
1070
     2
1070
   288
1070
     1
1070
    77
1070
     1
1070
   172
1070
     1
1070
   174
1070
     0
1070
    74
1070
     0
1070
    73
1070
     0
1070
   284
1070
     8
1070
    78
1070
     8
1070
    42
1040
2.0
1070
    44
1040
3.0
1070
    43
1040
30.0
1070
   271
1070
     2
1070
    41
1040
4.0
1002
}
  0
DIMENSION
  5
217
330
1F
100
AcDbEntity
  8
7
  6
CONTINUOUS
 62
     4
100
AcDbDimension
  2
DIM4
 10
154.0014808089863
 20
198.2374275996836
 30
0.0
 11
210.2514808089863
 21
198.2374275996836
 31
0.0
 70
   160
  1
<>
  3
STANDARD
100
AcDbAlignedDimension
 13
266.5014808089863
 23
221.1374275996828
 33
0.0
 14
154.0014808089863
 24
221.1374275996828
 34
0.0
 50
179.9999999999998
100
AcDbRotatedDimension
1001
ACAD
1000
DSTYLE
1002
{
1070
   287
1070
     4
1070
     7
1000

1070
     6
1000

1070
   279
1070
     1
1070
   340
1005
1EF
1070
   140
1040
6.0
1070
    40
1040
1.0
1070
   147
1040
0.0
1070
    76
1070
     0
1070
    75
1070
     0
1070
   173
1070
     1
1070
   289
1070
     2
1070
   288
1070
     1
1070
    77
1070
     1
1070
   172
1070
     1
1070
   174
1070
     0
1070
    74
1070
     0
1070
    73
1070
     0
1070
   284
1070
     8
1070
    78
1070
     8
1070
    42
1040
2.0
1070
    44
1040
3.0
1070
    43
1040
30.0
1070
   271
1070
     2
1070
    41
1040
4.0
1002
}
  0
DIMENSION
  5
221
330
1F
100
AcDbEntity
  8
7
  6
CONTINUOUS
 62
     4
100
AcDbDimension
  2
DIM5
 10
785.7406123690433
 20
166.2374275996836
 30
0.0
 11
763.2406123690434
 21
166.2374275996836
 31
0.0
 70
   160
  1
<>
  3
STANDARD
100
AcDbAlignedDimension
 13
740.7406123690434
 23
237.2374275996842
 33
0.0
 14
785.7406123690434
 24
222.2374275996842
 34
0.0
100
AcDbRotatedDimension
1001
ACAD
1000
DSTYLE
1002
{
1070
   287
1070
     4
1070
     7
1000

1070
     6
1000

1070
   279
1070
     1
1070
   340
1005
1EF
1070
   140
1040
6.0
1070
    40
1040
1.0
1070
   147
1040
0.0
1070
    76
1070
     0
1070
    75
1070
     0
1070
   173
1070
     1
1070
   289
1070
     2
1070
   288
1070
     1
1070
    77
1070
     1
1070
   172
1070
     1
1070
   174
1070
     0
1070
    74
1070
     0
1070
    73
1070
     0
1070
   284
1070
     8
1070
    78
1070
     8
1070
    42
1040
2.0
1070
    44
1040
3.0
1070
    43
1040
30.0
1070
   271
1070
     2
1070
    41
1040
4.0
1002
}
  0
DIMENSION
  5
22B
330
1F
100
AcDbEntity
  8
7
  6
CONTINUOUS
 62
     4
100
AcDbDimension
  2
DIM6
 10
785.7406123690434
 20
198.2374275996836
 30
0.0
 11
796.7406123690434
 21
198.2374275996836
 31
0.0
 70
   160
  1
<>
  3
STANDARD
100
AcDbAlignedDimension
 13
784.7406123690434
 23
222.2374275996842
 33
0.0
 14
785.7406123690434
 24
222.2374275996842
 34
0.0
100
AcDbRotatedDimension
1001
ACAD
1000
DSTYLE
1002
{
1070
   287
1070
     4
1070
     7
1000

1070
     6
1000

1070
   279
1070
     1
1070
   340
1005
1EF
1070
   140
1040
6.0
1070
    40
1040
1.0
1070
   147
1040
0.0
1070
    76
1070
     0
1070
    75
1070
     0
1070
   173
1070
     1
1070
   289
1070
     2
1070
   288
1070
     1
1070
    77
1070
     1
1070
   172
1070
     1
1070
   174
1070
     0
1070
    74
1070
     0
1070
    73
1070
     0
1070
   284
1070
     8
1070
    78
1070
     8
1070
    42
1040
2.0
1070
    44
1040
3.0
1070
    43
1040
30.0
1070
   271
1070
     2
1070
    41
1040
4.0
1002
}
  0
DIMENSION
  5
235
330
1F
100
AcDbEntity
  8
7
  6
CONTINUOUS
 62
     4
100
AcDbDimension
  2
DIM7
 10
379.0014808089863
 20
198.2374275996836
 30
0.0
 11
322.7514808089863
 21
198.2374275996836
 31
0.0
 70
   160
  1
<>
  3
STANDARD
100
AcDbAlignedDimension
 13
266.5014808089863
 23
221.1374275996828
 33
0.0
 14
379.0014808089863
 24
212.2374275996835
 34
0.0
100
AcDbRotatedDimension
1001
ACAD
1000
DSTYLE
1002
{
1070
   287
1070
     4
1070
     7
1000

1070
     6
1000

1070
   279
1070
     1
1070
   340
1005
1EF
1070
   140
1040
6.0
1070
    40
1040
1.0
1070
   147
1040
0.0
1070
    76
1070
     0
1070
    75
1070
     0
1070
   173
1070
     1
1070
   289
1070
     2
1070
   288
1070
     1
1070
    77
1070
     1
1070
   172
1070
     1
1070
   174
1070
     0
1070
    74
1070
     0
1070
    73
1070
     0
1070
   284
1070
     8
1070
    78
1070
     8
1070
    42
1040
2.0
1070
    44
1040
3.0
1070
    43
1040
30.0
1070
   271
1070
     2
1070
    41
1040
4.0
1002
}
  0
DIMENSION
  5
23F
330
1F
100
AcDbEntity
  8
7
  6
CONTINUOUS
 62
     4
100
AcDbDimension
  2
DIM8
 10
98.00148080898452
 20
252.2374275996854
 30
0.0
 11
98.00148080898444
 21
302.2374275996824
 31
0.0
 70
   160
  1
<>
 53
89.99999999999991
  3
STANDARD
100
AcDbAlignedDimension
 13
129.0014808089763
 23
352.2374275996854
 33
0.0
 14
129.0014808089782
 24
252.2374275996854
 34
0.0
 50
-89.99999999999991
100
AcDbRotatedDimension
1001
ACAD
1000
DSTYLE
1002
{
1070
   287
1070
     4
1070
     7
1000

1070
     6
1000

1070
   279
1070
     1
1070
   340
1005
1EF
1070
   140
1040
6.0
1070
    40
1040
1.0
1070
   147
1040
0.0
1070
    76
1070
     0
1070
    75
1070
     0
1070
   173
1070
     1
1070
   289
1070
     2
1070
   288
1070
     1
1070
    77
1070
     1
1070
   172
1070
     1
1070
   174
1070
     0
1070
    74
1070
     0
1070
    73
1070
     0
1070
   284
1070
     8
1070
    78
1070
     8
1070
    42
1040
2.0
1070
    44
1040
3.0
1070
    43
1040
30.0
1070
   271
1070
     2
1070
    41
1040
4.0
1002
}
  0
DIMENSION
  5
249
330
1F
100
AcDbEntity
  8
7
  6
CONTINUOUS
 62
     4
100
AcDbDimension
  2
DIM9
 10
82.00148080898462
 20
237.2374275996854
 30
0.0
 11
82.00148080898452
 21
302.2374275996854
 31
0.0
 70
   160
  1
<>
 53
89.99999999999991
  3
STANDARD
100
AcDbAlignedDimension
 13
114.0014808089754
 23
367.2374275996854
 33
0.0
 14
114.0014808089772
 24
237.2374275996854
 34
0.0
 50
-89.99999999999991
100
AcDbRotatedDimension
1001
ACAD
1000
DSTYLE
1002
{
1070
   287
1070
     4
1070
     7
1000

1070
     6
1000

1070
   279
1070
     1
1070
   340
1005
1EF
1070
   140
1040
6.0
1070
    40
1040
1.0
1070
   147
1040
0.0
1070
    76
1070
     0
1070
    75
1070
     0
1070
   173
1070
     1
1070
   289
1070
     2
1070
   288
1070
     1
1070
    77
1070
     1
1070
   172
1070
     1
1070
   174
1070
     0
1070
    74
1070
     0
1070
    73
1070
     0
1070
   284
1070
     8
1070
    78
1070
     8
1070
    42
1040
2.0
1070
    44
1040
3.0
1070
    43
1040
30.0
1070
   271
1070
     2
1070
    41
1040
4.0
1002
}
  0
DIMENSION
  5
253
330
1F
100
AcDbEntity
  8
7
  6
CONTINUOUS
 62
     4
100
AcDbDimension
  2
DIM10
 10
50.00148080898474
 20
222.2374275996829
 30
0.0
 11
50.0014808089846
 21
302.2374275996854
 31
0.0
 70
   160
  1
<>
 53
89.99999999999991
  3
STANDARD
100
AcDbAlignedDimension
 13
134.0014808089845
 23
382.2374275996848
 33
0.0
 14
134.0014808089863
 24
222.2374275996829
 34
0.0
 50
-89.99999999999991
100
AcDbRotatedDimension
1001
ACAD
1000
DSTYLE
1002
{
1070
   287
1070
     4
1070
     7
1000

1070
     6
1000

1070
   279
1070
     1
1070
   340
1005
1EF
1070
   140
1040
6.0
1070
    40
1040
1.0
1070
   147
1040
0.0
1070
    76
1070
     0
1070
    75
1070
     0
1070
   173
1070
     1
1070
   289
1070
     2
1070
   288
1070
     1
1070
    77
1070
     1
1070
   172
1070
     1
1070
   174
1070
     0
1070
    74
1070
     0
1070
    73
1070
     0
1070
   284
1070
     8
1070
    78
1070
     8
1070
    42
1040
2.0
1070
    44
1040
3.0
1070
    43
1040
30.0
1070
   271
1070
     2
1070
    41
1040
4.0
1002
}
  0
DIMENSION
  5
25D
330
1F
100
AcDbEntity
  8
7
  6
CONTINUOUS
 62
     4
100
AcDbDimension
  2
DIM11
 10
491.5014808089862
 20
198.2374275996836
 30
0.0
 11
435.2514808089863
 21
198.2374275996836
 31
0.0
 70
   160
  1
<>
  3
STANDARD
100
AcDbAlignedDimension
 13
379.0014808089863
 23
212.2374275996835
 33
0.0
 14
491.5014808089863
 24
221.1374275996828
 34
0.0
100
AcDbRotatedDimension
1001
ACAD
1000
DSTYLE
1002
{
1070
   287
1070
     4
1070
     7
1000

1070
     6
1000

1070
   279
1070
     1
1070
   340
1005
1EF
1070
   140
1040
6.0
1070
    40
1040
1.0
1070
   147
1040
0.0
1070
    76
1070
     0
1070
    75
1070
     0
1070
   173
1070
     1
1070
   289
1070
     2
1070
   288
1070
     1
1070
    77
1070
     1
1070
   172
1070
     1
1070
   174
1070
     0
1070
    74
1070
     0
1070
    73
1070
     0
1070
   284
1070
     8
1070
    78
1070
     8
1070
    42
1040
2.0
1070
    44
1040
3.0
1070
    43
1040
30.0
1070
   271
1070
     2
1070
    41
1040
4.0
1002
}
  0
DIMENSION
  5
267
330
1F
100
AcDbEntity
  8
7
  6
CONTINUOUS
 62
     4
100
AcDbDimension
  2
DIM12
 10
66.0014808089847
 20
229.2374275996831
 30
0.0
 11
66.0014808089847
 21
302.2374275996824
 31
0.0
 70
   160
  1
<>
 53
89.99999999999991
  3
STANDARD
100
AcDbAlignedDimension
 13
145.9014808089863
 23
375.237427599682
 33
0.0
 14
145.9014808089863
 24
229.2374275996829
 34
0.0
 50
-89.99999999999991
100
AcDbRotatedDimension
1001
ACAD
1000
DSTYLE
1002
{
1070
   287
1070
     4
1070
     7
1000

1070
     6
1000

1070
   279
1070
     1
1070
   340
1005
1EF
1070
   140
1040
6.0
1070
    40
1040
1.0
1070
   147
1040
0.0
1070
    76
1070
     0
1070
    75
1070
     0
1070
   173
1070
     1
1070
   289
1070
     2
1070
   288
1070
     1
1070
    77
1070
     1
1070
   172
1070
     1
1070
   174
1070
     0
1070
    74
1070
     0
1070
    73
1070
     0
1070
   284
1070
     8
1070
    78
1070
     8
1070
    42
1040
2.0
1070
    44
1040
3.0
1070
    43
1040
30.0
1070
   271
1070
     2
1070
    41
1040
4.0
1002
}
  0
DIMENSION
  5
271
330
1F
100
AcDbEntity
  8
7
  6
CONTINUOUS
 62
     4
100
AcDbDimension
  2
DIM13
 10
765.3124091387598
 20
182.3071207519474
 30
0.0
 11
804.2406123690434
 21
182.3071207519474
 31
0.0
 70
   160
  1
(<>
  3
STANDARD
100
AcDbAlignedDimension
 13
785.7406123690434
 23
222.2374275996842
 33
0.0
 14
765.31240913876
 24
302.2374275996842
 34
0.0
 50
179.9999999999998
100
AcDbRotatedDimension
1001
ACAD
1000
DSTYLE
1002
{
1070
   287
1070
     4
1070
     7
1000

1070
     6
1000

1070
   279
1070
     1
1070
   340
1005
1EF
1070
   140
1040
6.0
1070
    40
1040
1.0
1070
   147
1040
0.0
1070
    76
1070
     0
1070
    75
1070
     0
1070
   173
1070
     1
1070
   289
1070
     2
1070
   288
1070
     1
1070
    77
1070
     1
1070
   172
1070
     1
1070
   174
1070
     0
1070
    74
1070
     0
1070
    73
1070
     0
1070
   284
1070
     8
1070
    78
1070
     8
1070
    42
1040
2.0
1070
    44
1040
3.0
1070
    43
1040
30.0
1070
   271
1070
     2
1070
    41
1040
4.0
1002
}
  0
DIMENSION
  5
27B
330
1F
100
AcDbEntity
  8
7
  6
CONTINUOUS
 62
     4
100
AcDbDimension
  2
DIM14
 10
644.0014808089862
 20
166.2374275996836
 30
0.0
 11
676.0014808089866
 21
166.2374275996836
 31
0.0
 70
   160
  1
(<>
  3
STANDARD
100
AcDbAlignedDimension
 13
662.0014808089863
 23
299.737427599682
 33
0.0
 14
644.0014808089863
 24
237.237427599682
 34
0.0
 50
179.9999999999998
100
AcDbRotatedDimension
1001
ACAD
1000
DSTYLE
1002
{
1070
   287
1070
     4
1070
     7
1000

1070
     6
1000

1070
   279
1070
     1
1070
   340
1005
1EF
1070
   140
1040
6.0
1070
    40
1040
1.0
1070
   147
1040
0.0
1070
    76
1070
     0
1070
    75
1070
     0
1070
   173
1070
     1
1070
   289
1070
     2
1070
   288
1070
     1
1070
    77
1070
     1
1070
   172
1070
     1
1070
   174
1070
     0
1070
    74
1070
     0
1070
    73
1070
     0
1070
   284
1070
     8
1070
    78
1070
     8
1070
    42
1040
2.0
1070
    44
1040
3.0
1070
    43
1040
30.0
1070
   271
1070
     2
1070
    41
1040
4.0
1002
}
  0
INSERT
  5
27C
330
1F
100
AcDbEntity
  8
7
  6
CONTINUOUS
 62
     4
100
AcDbBlockReference
  2
_OPEN
 10
155.5514808089864
 20
377.9221063514137
 30
0.0
 41
8.0
 42
8.0
 43
8.0
 50
239.3428155687824
  0
POLYLINE
  5
27D
330
1F
100
AcDbEntity
  8
7
  6
CONTINUOUS
 62
     4
100
AcDb2dPolyline
 66
     1
 10
0.0
 20
0.0
 30
0.0
  0
VERTEX
  5
27E
330
27D
100
AcDbEntity
  8
7
  6
CONTINUOUS
 62
     4
100
AcDbVertex
100
AcDb2dVertex
 10
155.5514808089864
 20
377.9221063514137
 30
0.0
  0
VERTEX
  5
27F
330
27D
100
AcDbEntity
  8
7
  6
CONTINUOUS
 62
     4
100
AcDbVertex
100
AcDb2dVertex
 10
169.4114808089864
 20
401.3047922535935
 30
0.0
  0
VERTEX
  5
280
330
27D
100
AcDbEntity
  8
7
  6
CONTINUOUS
 62
     4
100
AcDbVertex
100
AcDb2dVertex
 10
195.1314808089865
 20
401.3047922535935
 30
0.0
  0
SEQEND
  5
281
330
27D
100
AcDbEntity
  8
7
  6
CONTINUOUS
 62
     4
  0
MTEXT
  5
282
330
1F
100
AcDbEntity
  8
7
  6
CONTINUOUS
 62
     4
100
AcDbMText
 10
174.1314808089864
 20
401.3047922535935
 30
0.0
 40
6.0
 41
29.678826795
 71
     7
 72
     1
  1
{\fＭＳ ゴシック;\T0.777375;10-\U+00D86.2}
1001
ACAD
1000
ACAD_MTEXT_DEFINED_HEIGHT_BEGIN
1070
    46
1040
6.0
1000
ACAD_MTEXT_DEFINED_HEIGHT_END
  0
DIMENSION
  5
28A
330
1F
100
AcDbEntity
  8
7
  6
CONTINUOUS
 62
     4
100
AcDbDimension
  2
DIM15
 10
389.6304207242599
 20
271.5246348859371
 30
0.0
 11
343.37754699697
 21
412.0541641812277
 31
0.0
 70
   163
  1
\U+2205<>
  3
STANDARD
100
AcDbDiametricDimension
 15
368.3725408937136
 25
332.9502203134284
 35
0.0
 40
0.0
1001
ACAD
1000
DSTYLE
1002
{
1070
   287
1070
     2
1070
     7
1000

1070
     6
1000

1070
   340
1005
1EF
1070
   140
1040
4.5
1070
    40
1040
1.0
1070
   147
1040
0.0
1070
    76
1070
     0
1070
    75
1070
     0
1070
   173
1070
     1
1070
   289
1070
     2
1070
   288
1070
     1
1070
    77
1070
     1
1070
   172
1070
     1
1070
   174
1070
     0
1070
    74
1070
     0
1070
    73
1070
     0
1070
   284
1070
     8
1070
    78
1070
     8
1070
    42
1040
1.5
1070
    44
1040
2.25
1070
    43
1040
30.0
1070
   271
1070
     2
1070
    41
1040
3.0
1002
}
  0
DIMENSION
  5
292
330
1F
100
AcDbEntity
  8
7
  6
CONTINUOUS
 62
     4
100
AcDbDimension
  2
DIM16
 10
394.8917156416931
 20
279.793042177902
 30
0.0
 11
315.934771587297
 21
395.2107879438599
 31
0.0
 70
   163
  1
\U+2205<>
  3
STANDARD
100
AcDbDiametricDimension
 15
363.111245976279
 25
324.6818130214613
 35
0.0
 40
0.0
1001
ACAD
1000
DSTYLE
1002
{
1070
   287
1070
     2
1070
     7
1000

1070
     6
1000

1070
   340
1005
1EF
1070
   140
1040
4.5
1070
    40
1040
1.0
1070
   147
1040
0.0
1070
    76
1070
     0
1070
    75
1070
     0
1070
   173
1070
     1
1070
   289
1070
     2
1070
   288
1070
     1
1070
    77
1070
     1
1070
   172
1070
     1
1070
   174
1070
     0
1070
    74
1070
     0
1070
    73
1070
     0
1070
   284
1070
     8
1070
    78
1070
     8
1070
    42
1040
1.5
1070
    44
1040
2.25
1070
    43
1040
30.0
1070
   271
1070
     2
1070
    41
1040
3.0
1002
}
  0
MTEXT
  5
293
330
1F
100
AcDbEntity
  8
2
  6
CONTINUOUS
 62
   151
100
AcDbMText
 10
82.00003799999922
 20
66.26309844198659
 30
0.0
 40
4.0
 41
14.1499936208
 71
     4
 72
     1
  1
{\fＭＳ ゴシック;\T0.762970;Light}
1001
ACAD
1000
ACAD_MTEXT_DEFINED_HEIGHT_BEGIN
1070
    46
1040
4.0
1000
ACAD_MTEXT_DEFINED_HEIGHT_END
  0
MTEXT
  5
294
330
1F
100
AcDbEntity
  8
2
  6
CONTINUOUS
 62
   151
100
AcDbMText
 10
82.00003799999922
 20
56.26311844198653
 30
0.0
 40
4.0
 41
25.52732986687999
 71
     4
 72
     1
  1
{\fＭＳ ゴシック;\T0.757746;SMR-03V-B}
1001
ACAD
1000
ACAD_MTEXT_DEFINED_HEIGHT_BEGIN
1070
    46
1040
4.0
1000
ACAD_MTEXT_DEFINED_HEIGHT_END
  0
MTEXT
  5
295
330
1F
100
AcDbEntity
  8
2
  6
CONTINUOUS
 62
   151
100
AcDbMText
 10
82.00003799999922
 20
46.26311844198653
 30
0.0
 40
4.0
 41
36.85864398112
 71
     4
 72
     1
  1
{\fＭＳ ゴシック;\T0.765486;BYM-001T-P0.6}
1001
ACAD
1000
ACAD_MTEXT_DEFINED_HEIGHT_BEGIN
1070
    46
1040
4.0
1000
ACAD_MTEXT_DEFINED_HEIGHT_END
  0
MTEXT
  5
296
330
1F
100
AcDbEntity
  8
2
  6
CONTINUOUS
 62
   151
100
AcDbMText
 10
130.0000179999997
 20
56.26311844198653
 30
0.0
 40
4.0
 41
28.36553734692
 71
     4
 72
     1
  1
{\fＭＳ ゴシック;\T0.758093;SMP-03V-BC}
1001
ACAD
1000
ACAD_MTEXT_DEFINED_HEIGHT_BEGIN
1070
    46
1040
4.0
1000
ACAD_MTEXT_DEFINED_HEIGHT_END
  0
MTEXT
  5
297
330
1F
100
AcDbEntity
  8
2
  6
CONTINUOUS
 62
   151
100
AcDbMText
 10
130.0000179999997
 20
46.26311844198653
 30
0.0
 40
4.0
 41
39.70298692048001
 71
     4
 72
     1
  1
{\fＭＳ ゴシック;\T0.763956;BHF-001T-0.8SS}
1001
ACAD
1000
ACAD_MTEXT_DEFINED_HEIGHT_BEGIN
1070
    46
1040
4.0
1000
ACAD_MTEXT_DEFINED_HEIGHT_END
  0
MTEXT
  5
298
330
1F
100
AcDbEntity
  8
2
  6
CONTINUOUS
 62
   151
100
AcDbMText
 10
130.0000179999997
 20
66.26309844198659
 30
0.0
 40
4.0
 41
46.98988480707999
 71
     4
 72
     1
  1
{\fＭＳ ゴシック;\T0.992983;Power　Supply　}
1001
ACAD
1000
ACAD_MTEXT_DEFINED_HEIGHT_BEGIN
1070
    46
1040
4.0
1000
ACAD_MTEXT_DEFINED_HEIGHT_END
  0
MTEXT
  5
299
330
1F
100
AcDbEntity
  8
2
  6
CONTINUOUS
 62
   151
100
AcDbMText
 10
42.00001799999791
 20
56.26311844198653
 30
0.0
 40
4.0
 41
25.476877744
 71
     4
 72
     1
  1
{\fＭＳ ゴシック;\T0.773550;Connector}
1001
ACAD
1000
ACAD_MTEXT_DEFINED_HEIGHT_BEGIN
1070
    46
1040
4.0
1000
ACAD_MTEXT_DEFINED_HEIGHT_END
  0
MTEXT
  5
29A
330
1F
100
AcDbEntity
  8
2
  6
CONTINUOUS
 62
   151
100
AcDbMText
 10
42.00001799999791
 20
46.26311844198653
 30
0.0
 40
4.0
 41
19.83480595536
 71
     4
 72
     1
  1
{\fＭＳ ゴシック;\T0.761366;Contact}
1001
ACAD
1000
ACAD_MTEXT_DEFINED_HEIGHT_BEGIN
1070
    46
1040
4.0
1000
ACAD_MTEXT_DEFINED_HEIGHT_END
  0
VIEWPORT
  5
3F
330
1B
100
AcDbEntity
 67
     1
  8
0
100
AcDbViewport
 10
420.0
 20
297.0
 30
0.0
 40
840.0
 41
594.0
 68
     1
 69
     1
1001
ACAD
1000
MVIEW
1002
{
1070
    16
1010
0.0
1020
0.0
1030
0.0
1010
0.0
1020
0.0
1030
1.0
1040
0.0
1040
9.0
1040
420.0
1040
297.0
1040
50.0
1040
0.0
1040
0.0
1070
     0
1070
   100
1070
     0
1070
     3
1070
     0
1070
     0
1070
     0
1070
     0
1040
0.0
1040
0.0
1040
0.0
1040
0.5
1040
0.5
1040
0.5
1040
0.5
1070
     0
1002
{
1002
}
1002
}
  0
ENDSEC
  0
SECTION
  2
OBJECTS
  0
DICTIONARY
  5
C
330
0
100
AcDbDictionary
  3
ACAD_GROUP
350
D
  3
ACAD_LAYOUT
350
1A
  3
ACAD_MATERIAL
350
3B
  3
ACAD_MLEADERSTYLE
350
2BD
  3
ACAD_MLINESTYLE
350
17
  3
ACAD_PLOTSETTINGS
350
19
  3
ACAD_VISUALSTYLE
350
2A
  3
ACDBHEADERROUNDTRIPXREC
350
29B
  3
ACDBVARIABLEDICTIONARY
350
2BB
  0
DICTIONARY
  5
D
102
{ACAD_REACTORS
330
C
102
}
330
C
100
AcDbDictionary
  0
DICTIONARY
  5
1A
102
{ACAD_REACTORS
330
C
102
}
330
C
100
AcDbDictionary
  0
DICTIONARY
  5
3B
102
{ACAD_REACTORS
330
C
102
}
330
C
100
AcDbDictionary
  3
BYBLOCK
350
3D
  3
BYLAYER
350
3C
  3
GLOBAL
350
3E
  0
DICTIONARY
  5
2BD
102
{ACAD_REACTORS
330
C
102
}
330
C
100
AcDbDictionary
  0
DICTIONARY
  5
17
102
{ACAD_REACTORS
330
C
102
}
330
C
100
AcDbDictionary
  3
STANDARD
350
18
  0
DICTIONARY
  5
19
102
{ACAD_REACTORS
330
C
102
}
330
C
100
AcDbDictionary
  0
DICTIONARY
  5
2A
102
{ACAD_REACTORS
330
C
102
}
330
C
100
AcDbDictionary
  3
2DWIREFRAME
350
2F
  3
3D_HIDDEN
350
31
  3
3DWIREFRAME
350
30
  3
BASIC
350
32
  3
BRIGHTEN
350
36
  3
COLORCHANGE
350
3A
  3
CONCEPTUAL
350
34
  3
DIM
350
35
  3
FACEPATTERN
350
39
  3
FLAT
350
2B
  3
FLATWITHEDGES
350
2C
  3
GOURAUD
350
2D
  3
GOURAUDWITHEDGES
350
2E
  3
LINEPATTERN
350
38
  3
REALISTIC
350
33
  3
THICKEN
350
37
  0
DICTIONARY
  5
29B
102
{ACAD_REACTORS
330
C
102
}
330
C
100
AcDbDictionary
  3
CEPSNTYPE
350
2A4
  3
DIMSTYLEDATA
350
2BA
  3
FINGERPRINTGUID
350
2A5
  3
HYPERLINKBASE
350
29E
  3
INSUNITS
350
2A3
  3
LAYOUTDICT
350
2A0
  3
LWETCUNION
350
2A2
  3
PLOTSETDICT
350
2A1
  3
PSVPSCALE
350
2A7
  3
PUCSBASE
350
2AA
  3
PUCSORGBACK
350
2B0
  3
PUCSORGBOTTOM
350
2AC
  3
PUCSORGFRONT
350
2AF
  3
PUCSORGLEFT
350
2AD
  3
PUCSORGRIGHT
350
2AE
  3
PUCSORGTOP
350
2AB
  3
PUCSORTHOREF
350
2A8
  3
PUCSORTHOVIEW
350
2A9
  3
STYLESHEET
350
29F
  3
TSTACKALIGN
350
29C
  3
TSTACKSIZE
350
29D
  3
UCSBASE
350
2B3
  3
UCSORGBACK
350
2B9
  3
UCSORGBOTTOM
350
2B5
  3
UCSORGFRONT
350
2B8
  3
UCSORGLEFT
350
2B6
  3
UCSORGRIGHT
350
2B7
  3
UCSORGTOP
350
2B4
  3
UCSORTHOREF
350
2B1
  3
UCSORTHOVIEW
350
2B2
  3
VERSIONGUID
350
2A6
  0
DICTIONARY
  5
2BB
102
{ACAD_REACTORS
330
C
102
}
330
C
100
AcDbDictionary
  3
DIMASSOC
350
2BE
  3
HIDETEXT
350
2BF
  0
MATERIAL
  5
3D
102
{ACAD_REACTORS
330
3B
102
}
102
{ACAD_XDICTIONARY
360
2C2
102
}
330
3B
100
AcDbMaterial
  1
ByBlock
  0
MATERIAL
  5
3C
102
{ACAD_REACTORS
330
3B
102
}
102
{ACAD_XDICTIONARY
360
2C0
102
}
330
3B
100
AcDbMaterial
  1
ByLayer
  0
MATERIAL
  5
3E
102
{ACAD_REACTORS
330
3B
102
}
102
{ACAD_XDICTIONARY
360
2C4
102
}
330
3B
100
AcDbMaterial
  1
Global
  0
MLINESTYLE
  5
18
102
{ACAD_REACTORS
330
17
102
}
330
17
100
AcDbMlineStyle
  2
Standard
 70
     0
  3

 62
   256
 51
90.0
 52
90.0
 71
     2
 49
0.5
 62
   256
  6
BYLAYER
 49
-0.5
 62
   256
  6
BYLAYER
  0
ACAD_PROXY_OBJECT
  5
2F
102
{ACAD_REACTORS
330
2A
102
}
330
2A
100
AcDbProxyObject
 90
      499
 91
      501
 93
      436
310
42CC9915DA5C99599C985B595049028333333333333E3BF0000000000000FB0107901411070040501600405405064090741402480A0340
1001
ACAD
1000
AcDbSavedByObjectVersion
1070
     0
  0
ACAD_PROXY_OBJECT
  5
31
102
{ACAD_REACTORS
330
2A
102
}
330
2A
100
AcDbProxyObject
 90
      499
 91
      501
 93
      500
310
424CD108121A5919195B90640502408333333333333E3BF0000000000000FB01079024090700405020000000000001110200405405064090740C02480A0340
1001
ACAD
1000
AcDbSavedByObjectVersion
1070
     0
  0
ACAD_PROXY_OBJECT
  5
30
102
{ACAD_REACTORS
330
2A
102
}
330
2A
100
AcDbProxyObject
 90
      499
 91
      501
 93
      436
310
42CCD915DA5C99599C985B595059028333333333333E3BF0000000000000FB0107901411070040501600405405064090741402480A0340
1001
ACAD
1000
AcDbSavedByObjectVersion
1070
     0
  0
ACAD_PROXY_OBJECT
  5
32
102
{ACAD_REACTORS
330
2A
102
}
330
2A
100
AcDbProxyObject
 90
      499
 91
      501
 93
      388
310
4150985CDA58D07406404333333333333E3BF0000000000000FB0107A41107004050150841D405064090741402480A0350
1001
ACAD
1000
AcDbSavedByObjectVersion
1070
     0
  0
ACAD_PROXY_OBJECT
  5
36
102
{ACAD_REACTORS
330
2A
102
}
330
2A
100
AcDbProxyObject
 90
      499
 91
      501
 93
      428
310
42109C9A59DA1D195B90C409028333333333333E3BF0000000000000FB010790141107004050150841D405064090741402480A029950
1001
ACAD
1000
AcDbSavedByObjectVersion
1070
     0
  0
ACAD_PROXY_OBJECT
  5
3A
102
{ACAD_REACTORS
330
2A
102
}
330
2A
100
AcDbProxyObject
 90
      499
 91
      501
 93
      452
310
42D0DBDB1BDC90DA185B99D95104090240C333333333333E3BF0000000000000FB0108901411070040501508421405064090741402480A0350
1001
ACAD
1000
AcDbSavedByObjectVersion
1070
     0
  0
ACAD_PROXY_OBJECT
  5
34
102
{ACAD_REACTORS
330
2A
102
}
330
2A
100
AcDbProxyObject
 90
      499
 91
      501
 93
      500
310
4290DBDB98D95C1D1D585B10940D028333333333333E3BF0000000000000FB0107902409070040501000000000000111010841D405064090740C02480A0340
1001
ACAD
1000
AcDbSavedByObjectVersion
1070
     0
  0
ACAD_PROXY_OBJECT
  5
35
102
{ACAD_REACTORS
330
2A
102
}
330
2A
100
AcDbProxyObject
 90
      499
 91
      501
 93
      412
310
40D11A5B50B409028333333333333E3BF0000000000000FB010790141107004050150841D405064090741402480A02677FFFFFD0
1001
ACAD
1000
AcDbSavedByObjectVersion
1070
     0
  0
ACAD_PROXY_OBJECT
  5
39
102
{ACAD_REACTORS
330
2A
102
}
330
2A
100
AcDbProxyObject
 90
      499
 91
      501
 93
      444
310
42D19858D95C185D1D195C9B90F409028333333333333E3BF0000000000000FB010790141107004050150841D405064090741402480A0350
1001
ACAD
1000
AcDbSavedByObjectVersion
1070
     0
  0
ACAD_PROXY_OBJECT
  5
2B
102
{ACAD_REACTORS
330
2A
102
}
330
2A
100
AcDbProxyObject
 90
      499
 91
      501
 93
      388
310
41119B185D240901404333333333333E3BF0000000000000F9010740A41107004050150841D405064090741402480A1B50
1001
ACAD
1000
AcDbSavedByObjectVersion
1070
     0
  0
ACAD_PROXY_OBJECT
  5
2C
102
{ACAD_REACTORS
330
2A
102
}
330
2A
100
AcDbProxyObject
 90
      499
 91
      501
 93
      476
310
43519B185D15DA5D1A115919D95CD0140901404333333333333E3BF0000000000000F9010740901411070040501600405405064090741402480A1B50
1001
ACAD
1000
AcDbSavedByObjectVersion
1070
     0
  0
ACAD_PROXY_OBJECT
  5
2D
102
{ACAD_REACTORS
330
2A
102
}
330
2A
100
AcDbProxyObject
 90
      499
 91
      501
 93
      412
310
41D1DBDD5C985D5910240902404333333333333E3BF0000000000000F9010740A411070040501641D405064090741402480A1B50
1001
ACAD
1000
AcDbSavedByObjectVersion
1070
     0
  0
ACAD_PROXY_OBJECT
  5
2E
102
{ACAD_REACTORS
330
2A
102
}
330
2A
100
AcDbProxyObject
 90
      499
 91
      501
 93
      500
310
4411DBDD5C985D5915DA5D1A115919D95CD0340902404333333333333E3BF0000000000000F9010740901411070040501600405405064090741402480A1B50
1001
ACAD
1000
AcDbSavedByObjectVersion
1070
     0
  0
ACAD_PROXY_OBJECT
  5
38
102
{ACAD_REACTORS
330
2A
102
}
330
2A
100
AcDbProxyObject
 90
      499
 91
      501
 93
      444
310
42D31A5B995C185D1D195C9B90E409028333333333333E3BF0000000000000FB010790141107004050750841D405064090741402483A0350
1001
ACAD
1000
AcDbSavedByObjectVersion
1070
     0
  0
ACAD_PROXY_OBJECT
  5
33
102
{ACAD_REACTORS
330
2A
102
}
330
2A
100
AcDbProxyObject
 90
      499
 91
      501
 93
      420
310
425499585B1A5CDD1A58D08409028333333333333E3BF0000000000000FB01079019070040501508421405064090741402480A1B40
1001
ACAD
1000
AcDbSavedByObjectVersion
1070
     0
  0
ACAD_PROXY_OBJECT
  5
37
102
{ACAD_REACTORS
330
2A
102
}
330
2A
100
AcDbProxyObject
 90
      499
 91
      501
 93
      412
310
41D51A1A58DAD95B90D409028333333333333E3BF0000000000000FB010790141107004050150C41D405064090741402480A0350
1001
ACAD
1000
AcDbSavedByObjectVersion
1070
     0
  0
XRECORD
  5
2A4
102
{ACAD_REACTORS
330
29B
102
}
330
29B
100
AcDbXrecord
 90
        0
  0
XRECORD
  5
2BA
102
{ACAD_REACTORS
330
29B
102
}
330
29B
100
AcDbXrecord
1000
DSTYLE
1002
{
1070
   171
 70
     2
1070
   143
 40
25.4
1070
   274
 70
     2
1070
    41
 40
1.55291427
1070
   289
 70
     2
1070
   141
 40
0.09
1070
    43
 40
30.0
1070
   278
 70
    46
1070
    44
 40
2.0
1070
    42
 40
2.0
1070
   147
 40
0.09
1070
    77
 70
     3
1070
   272
 70
     4
1070
   146
 40
0.5
1070
   279
 70
     2
1070
   283
 70
     1
1070
   145
 40
0.7
1070
   340
340
11
1070
   140
 40
2.8
1070
   288
 70
     1
1002
}
  0
XRECORD
  5
2A5
102
{ACAD_REACTORS
330
29B
102
}
330
29B
100
AcDbXrecord
  1
{4EA1CD4B-C7E5-475F-AC44-FC87DC608E92}
  0
XRECORD
  5
29E
102
{ACAD_REACTORS
330
29B
102
}
330
29B
100
AcDbXrecord
  1

  0
XRECORD
  5
2A3
102
{ACAD_REACTORS
330
29B
102
}
330
29B
100
AcDbXrecord
 90
        4
  0
XRECORD
  5
2A0
102
{ACAD_REACTORS
330
29B
102
}
330
29B
100
AcDbXrecord
340
1A
  0
XRECORD
  5
2A2
102
{ACAD_REACTORS
330
29B
102
}
330
29B
100
AcDbXrecord
 90
    10781
  0
XRECORD
  5
2A1
102
{ACAD_REACTORS
330
29B
102
}
330
29B
100
AcDbXrecord
340
19
  0
XRECORD
  5
2A7
102
{ACAD_REACTORS
330
29B
102
}
330
29B
100
AcDbXrecord
 40
0.0
  0
XRECORD
  5
2AA
102
{ACAD_REACTORS
330
29B
102
}
330
29B
100
AcDbXrecord
340
0
  0
XRECORD
  5
2B0
102
{ACAD_REACTORS
330
29B
102
}
330
29B
100
AcDbXrecord
 10
0.0
 20
0.0
 30
0.0
  0
XRECORD
  5
2AC
102
{ACAD_REACTORS
330
29B
102
}
330
29B
100
AcDbXrecord
 10
0.0
 20
0.0
 30
0.0
  0
XRECORD
  5
2AF
102
{ACAD_REACTORS
330
29B
102
}
330
29B
100
AcDbXrecord
 10
0.0
 20
0.0
 30
0.0
  0
XRECORD
  5
2AD
102
{ACAD_REACTORS
330
29B
102
}
330
29B
100
AcDbXrecord
 10
0.0
 20
0.0
 30
0.0
  0
XRECORD
  5
2AE
102
{ACAD_REACTORS
330
29B
102
}
330
29B
100
AcDbXrecord
 10
0.0
 20
0.0
 30
0.0
  0
XRECORD
  5
2AB
102
{ACAD_REACTORS
330
29B
102
}
330
29B
100
AcDbXrecord
 10
0.0
 20
0.0
 30
0.0
  0
XRECORD
  5
2A8
102
{ACAD_REACTORS
330
29B
102
}
330
29B
100
AcDbXrecord
340
0
  0
XRECORD
  5
2A9
102
{ACAD_REACTORS
330
29B
102
}
330
29B
100
AcDbXrecord
 70
     0
  0
XRECORD
  5
29F
102
{ACAD_REACTORS
330
29B
102
}
330
29B
100
AcDbXrecord
  1

  0
XRECORD
  5
29C
102
{ACAD_REACTORS
330
29B
102
}
330
29B
100
AcDbXrecord
 90
        1
  0
XRECORD
  5
29D
102
{ACAD_REACTORS
330
29B
102
}
330
29B
100
AcDbXrecord
 90
       70
  0
XRECORD
  5
2B3
102
{ACAD_REACTORS
330
29B
102
}
330
29B
100
AcDbXrecord
340
0
  0
XRECORD
  5
2B9
102
{ACAD_REACTORS
330
29B
102
}
330
29B
100
AcDbXrecord
 10
0.0
 20
0.0
 30
0.0
  0
XRECORD
  5
2B5
102
{ACAD_REACTORS
330
29B
102
}
330
29B
100
AcDbXrecord
 10
0.0
 20
0.0
 30
0.0
  0
XRECORD
  5
2B8
102
{ACAD_REACTORS
330
29B
102
}
330
29B
100
AcDbXrecord
 10
0.0
 20
0.0
 30
0.0
  0
XRECORD
  5
2B6
102
{ACAD_REACTORS
330
29B
102
}
330
29B
100
AcDbXrecord
 10
0.0
 20
0.0
 30
0.0
  0
XRECORD
  5
2B7
102
{ACAD_REACTORS
330
29B
102
}
330
29B
100
AcDbXrecord
 10
0.0
 20
0.0
 30
0.0
  0
XRECORD
  5
2B4
102
{ACAD_REACTORS
330
29B
102
}
330
29B
100
AcDbXrecord
 10
0.0
 20
0.0
 30
0.0
  0
XRECORD
  5
2B1
102
{ACAD_REACTORS
330
29B
102
}
330
29B
100
AcDbXrecord
340
0
  0
XRECORD
  5
2B2
102
{ACAD_REACTORS
330
29B
102
}
330
29B
100
AcDbXrecord
 70
     0
  0
XRECORD
  5
2A6
102
{ACAD_REACTORS
330
29B
102
}
330
29B
100
AcDbXrecord
  1
{FAEB1C32-E019-11D5-929B-00C0DF256EC4}
  0
DICTIONARYVAR
  5
2BE
102
{ACAD_REACTORS
330
2BB
102
}
330
2BB
100
DictionaryVariables
280
     0
  1
1
  0
DICTIONARYVAR
  5
2BF
102
{ACAD_REACTORS
330
2BB
102
}
330
2BB
100
DictionaryVariables
280
     0
  1
1
  0
DICTIONARY
  5
2C2
330
3D
100
AcDbDictionary
280
     1
  3
ACAD_XREC_ROUNDTRIP
360
2C3
  0
DICTIONARY
  5
2C0
330
3C
100
AcDbDictionary
280
     1
  3
ACAD_XREC_ROUNDTRIP
360
2C1
  0
DICTIONARY
  5
2C4
330
3E
100
AcDbDictionary
280
     1
  3
ACAD_XREC_ROUNDTRIP
360
2C5
  0
XRECORD
  5
2C3
102
{ACAD_REACTORS
330
2C2
102
}
330
2C2
100
AcDbXrecord
102
MATERIAL
148
0.0
149
0.0
149
0.0
 93
        0
 94
      127
282
     0
 72
     1
 77
     1
171
     1
175
     1
179
     1
273
     0
  0
XRECORD
  5
2C1
102
{ACAD_REACTORS
330
2C0
102
}
330
2C0
100
AcDbXrecord
102
MATERIAL
148
0.0
149
0.0
149
0.0
 93
        0
 94
      127
282
     0
 72
     1
 77
     1
171
     1
175
     1
179
     1
273
     0
  0
XRECORD
  5
2C5
102
{ACAD_REACTORS
330
2C4
102
}
330
2C4
100
AcDbXrecord
102
MATERIAL
148
0.0
149
0.0
149
0.0
 93
        0
 94
      127
282
     0
 72
     1
 77
     1
171
     1
175
     1
179
     1
273
     0
  0
ENDSEC
  0
EOF
