  0
SECTION
  2
HEADER
  9
$ACADVER
  1
AC1014
  9
$ACADMAINTVER
 70
     9
  9
$DWGCODEPAGE
  3
ANSI_932
  9
$INSBASE
 10
0.0
 20
0.0
 30
0.0
  9
$EXTMIN
 10
48.83911462426843
 20
113.2374275996837
 30
0.0
  9
$EXTMAX
 10
789.8267737305471
 20
457.3047922535936
 30
0.0
  9
$LIMMIN
 10
0.0
 20
0.0
  9
$LIMMAX
 10
420.0
 20
297.0
  9
$ORTHOMODE
 70
     0
  9
$REGENMODE
 70
     1
  9
$FILLMODE
 70
     1
  9
$QTEXTMODE
 70
     0
  9
$MIRRTEXT
 70
     1
  9
$DRAGMODE
 70
     2
  9
$LTSCALE
 40
0.5
  9
$OSMODE
 70
    37
  9
$ATTMODE
 70
     1
  9
$TEXTSIZE
 40
5.6
  9
$TRACEWID
 40
0.05
  9
$TEXTSTYLE
  7
STANDARD
  9
$CLAYER
  8
0
  9
$CELTYPE
  6
BYLAYER
  9
$CECOLOR
 62
   256
  9
$CELTSCALE
 40
1.0
  9
$DELOBJ
 70
     1
  9
$DISPSILH
 70
     0
  9
$DIMSCALE
 40
1.0
  9
$DIMASZ
 40
1.55291427
  9
$DIMEXO
 40
2.0
  9
$DIMDLI
 40
30.0
  9
$DIMRND
 40
0.0
  9
$DIMDLE
 40
0.0
  9
$DIMEXE
 40
2.0
  9
$DIMTP
 40
0.0
  9
$DIMTM
 40
0.0
  9
$DIMTXT
 40
2.8
  9
$DIMCEN
 40
0.09
  9
$DIMTSZ
 40
0.0
  9
$DIMTOL
 70
     0
  9
$DIMLIM
 70
     0
  9
$DIMTIH
 70
     0
  9
$DIMTOH
 70
     0
  9
$DIMSE1
 70
     0
  9
$DIMSE2
 70
     0
  9
$DIMTAD
 70
     3
  9
$DIMZIN
 70
     8
  9
$DIMBLK
  1

  9
$DIMASO
 70
     1
  9
$DIMSHO
 70
     1
  9
$DIMPOST
  1

  9
$DIMAPOST
  1

  9
$DIMALT
 70
     0
  9
$DIMALTD
 70
     2
  9
$DIMALTF
 40
25.4
  9
$DIMLFAC
 40
1.0
  9
$DIMTOFL
 70
     1
  9
$DIMTVP
 40
0.7
  9
$DIMTIX
 70
     0
  9
$DIMSOXD
 70
     0
  9
$DIMSAH
 70
     0
  9
$DIMBLK1
  1

  9
$DIMBLK2
  1

  9
$DIMSTYLE
  2
STANDARD
  9
$DIMCLRD
 70
     0
  9
$DIMCLRE
 70
     0
  9
$DIMCLRT
 70
     0
  9
$DIMTFAC
 40
0.5
  9
$DIMGAP
 40
0.09
  9
$DIMJUST
 70
     0
  9
$DIMSD1
 70
     0
  9
$DIMSD2
 70
     0
  9
$DIMTOLJ
 70
     1
  9
$DIMTZIN
 70
     8
  9
$DIMALTZ
 70
     0
  9
$DIMALTTZ
 70
     0
  9
$DIMFIT
 70
     5
  9
$DIMUPT
 70
     1
  9
$DIMUNIT
 70
     2
  9
$DIMDEC
 70
     2
  9
$DIMTDEC
 70
     4
  9
$DIMALTU
 70
     2
  9
$DIMALTTD
 70
     2
  9
$DIMTXSTY
  7
STANDARD
  9
$DIMAUNIT
 70
     0
  9
$LUNITS
 70
     2
  9
$LUPREC
 70
     4
  9
$SKETCHINC
 40
0.1
  9
$FILLETRAD
 40
0.5
  9
$AUNITS
 70
     0
  9
$AUPREC
 70
     0
  9
$MENU
  1
.
  9
$ELEVATION
 40
0.0
  9
$PELEVATION
 40
0.0
  9
$THICKNESS
 40
0.0
  9
$LIMCHECK
 70
     0
  9
$CHAMFERA
 40
0.5
  9
$CHAMFERB
 40
0.5
  9
$CHAMFERC
 40
1.0
  9
$CHAMFERD
 40
0.0
  9
$SKPOLY
 70
     0
  9
$TDCREATE
 40
2460098.066006945
  9
$TDUPDATE
 40
2460097.69101441
  9
$TDINDWG
 40
0.0000000116
  9
$TDUSRTIMER
 40
0.0000000116
  9
$USRTIMER
 70
     1
  9
$ANGBASE
 50
0.0
  9
$ANGDIR
 70
     0
  9
$PDMODE
 70
     0
  9
$PDSIZE
 40
0.0
  9
$PLINEWID
 40
0.0
  9
$COORDS
 70
     1
  9
$SPLFRAME
 70
     0
  9
$SPLINETYPE
 70
     6
  9
$SPLINESEGS
 70
     8
  9
$ATTDIA
 70
     0
  9
$ATTREQ
 70
     1
  9
$HANDLING
 70
     1
  9
$HANDSEED
  5
254
  9
$SURFTAB1
 70
     6
  9
$SURFTAB2
 70
     6
  9
$SURFTYPE
 70
     6
  9
$SURFU
 70
     6
  9
$SURFV
 70
     6
  9
$UCSNAME
  2

  9
$UCSORG
 10
0.0
 20
0.0
 30
0.0
  9
$UCSXDIR
 10
1.0
 20
0.0
 30
0.0
  9
$UCSYDIR
 10
0.0
 20
1.0
 30
0.0
  9
$PUCSNAME
  2

  9
$PUCSORG
 10
0.0
 20
0.0
 30
0.0
  9
$PUCSXDIR
 10
1.0
 20
0.0
 30
0.0
  9
$PUCSYDIR
 10
0.0
 20
1.0
 30
0.0
  9
$USERI1
 70
     0
  9
$USERI2
 70
     0
  9
$USERI3
 70
     0
  9
$USERI4
 70
     0
  9
$USERI5
 70
     0
  9
$USERR1
 40
0.0
  9
$USERR2
 40
0.0
  9
$USERR3
 40
0.0
  9
$USERR4
 40
0.0
  9
$USERR5
 40
0.0
  9
$WORLDVIEW
 70
     1
  9
$SHADEDGE
 70
     3
  9
$SHADEDIF
 70
    70
  9
$TILEMODE
 70
     1
  9
$MAXACTVP
 70
    64
  9
$PINSBASE
 10
0.0
 20
0.0
 30
0.0
  9
$PLIMCHECK
 70
     0
  9
$PEXTMIN
 10
0.0
 20
0.0
 30
0.0
  9
$PEXTMAX
 10
420.0
 20
297.0
 30
0.0
  9
$PLIMMIN
 10
0.0
 20
0.0
  9
$PLIMMAX
 10
420.0
 20
297.0
  9
$UNITMODE
 70
     0
  9
$VISRETAIN
 70
     1
  9
$PLINEGEN
 70
     0
  9
$PSLTSCALE
 70
     1
  9
$TREEDEPTH
 70
  3020
  9
$PICKSTYLE
 70
     1
  9
$CMLSTYLE
  2
STANDARD
  9
$CMLJUST
 70
     0
  9
$CMLSCALE
 40
1.0
  9
$PROXYGRAPHICS
 70
     1
  9
$MEASUREMENT
 70
     1
  0
ENDSEC
  0
SECTION
  2
CLASSES
  0
CLASS
  1
ACDBDICTIONARYWDFLT
  2
AcDbDictionaryWithDefault
  3
ObjectDBX Classes
 90
        0
280
     0
281
     0
  0
CLASS
  1
VISUALSTYLE
  2
AcDbVisualStyle
  3
ObjectDBX Classes
 90
     4095
280
     0
281
     0
  0
CLASS
  1
MATERIAL
  2
AcDbMaterial
  3
ObjectDBX Classes
 90
     1153
280
     0
281
     0
  0
CLASS
  1
DICTIONARYVAR
  2
AcDbDictionaryVar
  3
ObjectDBX Classes
 90
        0
280
     0
281
     0
  0
CLASS
  1
XRECORD
  2
AcDbXrecord
  3
AutoCAD 2000
 90
        0
280
     0
281
     0
  0
CLASS
  1
LWPOLYLINE
  2
AcDbPolyline
  3
AutoCAD 2000
 90
        0
280
     0
281
     1
  0
CLASS
  1
HATCH
  2
AcDbHatch
  3
AutoCAD 2000
 90
        0
280
     0
281
     1
  0
CLASS
  1
ACDBPLACEHOLDER
  2
AcDbPlaceHolder
  3
ObjectDBX Classes
 90
        0
280
     0
281
     0
  0
CLASS
  1
LAYOUT
  2
AcDbLayout
  3
ObjectDBX Classes
 90
        0
280
     0
281
     0
  0
ENDSEC
  0
SECTION
  2
TABLES
  0
TABLE
  2
VPORT
  5
8
330
0
100
AcDbSymbolTable
 70
     1
  0
VPORT
  5
29
330
8
100
AcDbSymbolTableRecord
100
AcDbViewportTableRecord
  2
*ACTIVE
 70
     0
 10
0.0
 20
0.0
 11
1.0
 21
1.0
 12
10.42990654205607
 22
4.5
 13
0.0
 23
0.0
 14
0.5
 24
0.5
 15
0.5
 25
0.5
 16
0.0
 26
0.0
 36
1.0
 17
0.0
 27
0.0
 37
0.0
 40
9.0
 41
1.972972972850329
 42
50.0
 43
0.0
 44
0.0
 50
0.0
 51
0.0
 71
     0
 72
   100
 73
     1
 74
     3
 75
     0
 76
     0
 77
     0
 78
     0
  0
ENDTAB
  0
TABLE
  2
LTYPE
  5
5
330
0
100
AcDbSymbolTable
 70
     9
  0
LTYPE
  5
14
330
5
100
AcDbSymbolTableRecord
100
AcDbLinetypeTableRecord
  2
BYBLOCK
 70
     0
  3

 72
    65
 73
     0
 40
0.0
  0
LTYPE
  5
15
330
5
100
AcDbSymbolTableRecord
100
AcDbLinetypeTableRecord
  2
BYLAYER
 70
     0
  3

 72
    65
 73
     0
 40
0.0
  0
LTYPE
  5
16
330
5
100
AcDbSymbolTableRecord
100
AcDbLinetypeTableRecord
  2
CONTINUOUS
 70
     0
  3
Solid line
 72
    65
 73
     0
 40
0.0
  0
LTYPE
  5
8E
330
5
100
AcDbSymbolTableRecord
100
AcDbLinetypeTableRecord
  2
DOT
 70
     0
  3
DOT
 72
    65
 73
     2
 40
4.0
 49
6.0
 74
     0
 49
-2.0
 74
     0
  0
LTYPE
  5
8F
330
5
100
AcDbSymbolTableRecord
100
AcDbLinetypeTableRecord
  2
HIDDEN
 70
     0
  3
HIDDEN
 72
    65
 73
     2
 40
4.2
 49
8.4
 74
     0
 49
-4.2
 74
     0
  0
LTYPE
  5
90
330
5
100
AcDbSymbolTableRecord
100
AcDbLinetypeTableRecord
  2
DASHDOT
 70
     0
  3
DASHDOT
 72
    65
 73
     4
 40
14.5
 49
30.0
 74
     0
 49
-9.0
 74
     0
 49
2.5
 74
     0
 49
-9.0
 74
     0
  0
LTYPE
  5
91
330
5
100
AcDbSymbolTableRecord
100
AcDbLinetypeTableRecord
  2
PHANTOM
 70
     0
  3
PHANTOM
 72
    65
 73
     6
 40
12.0
 49
30.0
 74
     0
 49
-9.0
 74
     0
 49
2.5
 74
     0
 49
-5.0
 74
     0
 49
2.5
 74
     0
 49
-9.0
 74
     0
  0
LTYPE
  5
92
330
5
100
AcDbSymbolTableRecord
100
AcDbLinetypeTableRecord
  2
ACAD_ISO14W100
 70
     0
  3
ACAD_ISO14W100
 72
    65
 73
     8
 40
1.5
 49
12.0
 74
     0
 49
-3.0
 74
     0
 49
0.5
 74
     0
 49
-3.0
 74
     0
 49
0.5
 74
     0
 49
-3.0
 74
     0
 49
0.5
 74
     0
 49
-3.0
 74
     0
  0
LTYPE
  5
93
330
5
100
AcDbSymbolTableRecord
100
AcDbLinetypeTableRecord
  2
ACAD_ISO06W100
 70
     0
  3
ACAD_ISO06W100
 72
    65
 73
     8
 40
13.5
 49
24.0
 74
     0
 49
-3.0
 74
     0
 49
0.5
 74
     0
 49
-3.0
 74
     0
 49
0.5
 74
     0
 49
-3.0
 74
     0
 49
0.5
 74
     0
 49
-3.0
 74
     0
  0
LTYPE
  5
94
330
5
100
AcDbSymbolTableRecord
100
AcDbLinetypeTableRecord
  2
ACAD_ISO11W100
 70
     0
  3
ACAD_ISO11W100
 72
    65
 73
     6
 40
15.5
 49
12.0
 74
     0
 49
-3.0
 74
     0
 49
12.0
 74
     0
 49
-3.0
 74
     0
 49
0.5
 74
     0
 49
-3.0
 74
     0
  0
LTYPE
  5
95
330
5
100
AcDbSymbolTableRecord
100
AcDbLinetypeTableRecord
  2
ACAD_ISO13W100
 70
     0
  3
ACAD_ISO13W100
 72
    65
 73
     8
 40
13.0
 49
12.0
 74
     0
 49
-3.0
 74
     0
 49
12.0
 74
     0
 49
-3.0
 74
     0
 49
0.5
 74
     0
 49
-3.0
 74
     0
 49
0.5
 74
     0
 49
-3.0
 74
     0
  0
ENDTAB
  0
TABLE
  2
LAYER
  5
2
330
0
100
AcDbSymbolTable
 70
    12
  0
LAYER
  5
10
330
2
100
AcDbSymbolTableRecord
100
AcDbLayerTableRecord
  2
0
 70
     0
 62
     7
  6
CONTINUOUS
  0
LAYER
  5
96
330
2
100
AcDbSymbolTableRecord
100
AcDbLayerTableRecord
  2
1
 70
     0
 62
     7
  6
CONTINUOUS
  0
LAYER
  5
97
330
2
100
AcDbSymbolTableRecord
100
AcDbLayerTableRecord
  2
2
 70
     0
 62
   151
  6
CONTINUOUS
  0
LAYER
  5
98
330
2
100
AcDbSymbolTableRecord
100
AcDbLayerTableRecord
  2
3
 70
     0
 62
     1
  6
DASHDOT
  0
LAYER
  5
99
330
2
100
AcDbSymbolTableRecord
100
AcDbLayerTableRecord
  2
4
 70
     0
 62
     7
  6
CONTINUOUS
  0
LAYER
  5
9A
330
2
100
AcDbSymbolTableRecord
100
AcDbLayerTableRecord
  2
5
 70
     0
 62
     6
  6
CONTINUOUS
  0
LAYER
  5
9B
330
2
100
AcDbSymbolTableRecord
100
AcDbLayerTableRecord
  2
6
 70
     0
 62
     3
  6
CONTINUOUS
  0
LAYER
  5
9C
330
2
100
AcDbSymbolTableRecord
100
AcDbLayerTableRecord
  2
7
 70
     0
 62
     4
  6
CONTINUOUS
  0
LAYER
  5
9D
330
2
100
AcDbSymbolTableRecord
100
AcDbLayerTableRecord
  2
8
 70
     0
 62
     7
  6
CONTINUOUS
  0
LAYER
  5
9E
330
2
100
AcDbSymbolTableRecord
100
AcDbLayerTableRecord
  2
9
 70
     0
 62
     2
  6
CONTINUOUS
  0
LAYER
  5
9F
330
2
100
AcDbSymbolTableRecord
100
AcDbLayerTableRecord
  2
10
 70
     0
 62
     2
  6
CONTINUOUS
  0
LAYER
  5
A0
330
2
100
AcDbSymbolTableRecord
100
AcDbLayerTableRecord
  2
11
 70
     0
 62
     3
  6
HIDDEN
  0
ENDTAB
  0
TABLE
  2
STYLE
  5
3
330
0
100
AcDbSymbolTable
 70
     3
  0
STYLE
  5
11
330
3
100
AcDbSymbolTableRecord
100
AcDbTextStyleTableRecord
  2
STANDARD
 70
     0
 40
0.0
 41
1.0
 50
0.0
 71
     0
 42
5.6
  3
txt
  4
bigfont
  0
STYLE
  5
41
330
3
100
AcDbSymbolTableRecord
100
AcDbTextStyleTableRecord
  2
T_STANDARD
 70
     4
 40
10.0
 41
1.0
 50
0.0
 71
     0
 42
10.0
  3
txt
  4
bigfont
  0
STYLE
  5
185
330
3
100
AcDbSymbolTableRecord
100
AcDbTextStyleTableRecord
  2
ＭＳ_ゴシック
 70
     0
 40
0.0
 41
1.0
 50
0.0
 71
     0
 42
0.0
  3

  4

1001
ACAD
1000
ＭＳ ゴシック
1071
      256
  0
ENDTAB
  0
TABLE
  2
VIEW
  5
6
330
0
100
AcDbSymbolTable
 70
     0
  0
ENDTAB
  0
TABLE
  2
UCS
  5
7
330
0
100
AcDbSymbolTable
 70
     0
  0
ENDTAB
  0
TABLE
  2
APPID
  5
9
330
0
100
AcDbSymbolTable
 70
     2
  0
APPID
  5
12
330
9
100
AcDbSymbolTableRecord
100
AcDbRegAppTableRecord
  2
ACAD
 70
     0
  0
APPID
  5
40
330
9
100
AcDbSymbolTableRecord
100
AcDbRegAppTableRecord
  2
ODA
 70
     0
  0
ENDTAB
  0
TABLE
  2
DIMSTYLE
  5
A
330
0
100
AcDbSymbolTable
 70
     1
  0
DIMSTYLE
105
27
102
{ACAD_REACTORS
330
18F
330
199
330
1A3
330
1AD
330
1B7
330
1C1
330
1CB
330
1D5
330
1DF
330
1E9
330
1F3
330
1FD
330
207
330
211
330
220
330
228
102
}
330
A
100
AcDbSymbolTableRecord
100
AcDbDimStyleTableRecord
  2
STANDARD
 70
     0
  3

  4

  5

  6

  7

 40
1.0
 41
0.18
 42
0.0625
 43
0.38
 44
0.18
 45
0.0
 46
0.0
 47
0.0
 48
0.0
140
0.18
141
0.09
142
0.0
143
25.4
144
1.0
145
0.0
146
1.0
147
0.09
 71
     0
 72
     0
 73
     1
 74
     1
 75
     0
 76
     0
 77
     0
 78
     0
170
     0
171
     2
172
     0
173
     0
174
     0
175
     0
176
     0
177
     0
178
     0
270
     2
271
     4
272
     4
273
     2
274
     2
340
11
275
     0
280
     0
281
     0
282
     0
283
     1
284
     0
285
     0
286
     0
287
     3
288
     0
  0
ENDTAB
  0
TABLE
  2
BLOCK_RECORD
  5
1
330
0
100
AcDbSymbolTable
 70
    32
  0
BLOCK_RECORD
  5
1F
330
1
100
AcDbSymbolTableRecord
100
AcDbBlockTableRecord
  2
*MODEL_SPACE
  0
BLOCK_RECORD
  5
1B
330
1
100
AcDbSymbolTableRecord
100
AcDbBlockTableRecord
  2
*PAPER_SPACE
  0
BLOCK_RECORD
  5
42
330
1
100
AcDbSymbolTableRecord
100
AcDbBlockTableRecord
  2
_ORIGIN
  0
BLOCK_RECORD
  5
47
330
1
100
AcDbSymbolTableRecord
100
AcDbBlockTableRecord
  2
_DOTBLANK
  0
BLOCK_RECORD
  5
4C
330
1
100
AcDbSymbolTableRecord
100
AcDbBlockTableRecord
  2
_DOT
  0
BLOCK_RECORD
  5
51
330
1
100
AcDbSymbolTableRecord
100
AcDbBlockTableRecord
  2
_OPEN
  0
BLOCK_RECORD
  5
57
330
1
100
AcDbSymbolTableRecord
100
AcDbBlockTableRecord
  2
_CLOSED
  0
BLOCK_RECORD
  5
5E
330
1
100
AcDbSymbolTableRecord
100
AcDbBlockTableRecord
  2
_CLOSEDBLANK
  0
BLOCK_RECORD
  5
64
330
1
100
AcDbSymbolTableRecord
100
AcDbBlockTableRecord
  2
_ARROWFILLED
  0
BLOCK_RECORD
  5
68
330
1
100
AcDbSymbolTableRecord
100
AcDbBlockTableRecord
  2
_BOXBLANK
  0
BLOCK_RECORD
  5
70
330
1
100
AcDbSymbolTableRecord
100
AcDbBlockTableRecord
  2
_BOXFILLED
  0
BLOCK_RECORD
  5
75
330
1
100
AcDbSymbolTableRecord
100
AcDbBlockTableRecord
  2
_INTEGRAL
  0
BLOCK_RECORD
  5
7A
330
1
100
AcDbSymbolTableRecord
100
AcDbBlockTableRecord
  2
_OBLIQUE
  0
BLOCK_RECORD
  5
7E
330
1
100
AcDbSymbolTableRecord
100
AcDbBlockTableRecord
  2
_NONE
  0
BLOCK_RECORD
  5
81
330
1
100
AcDbSymbolTableRecord
100
AcDbBlockTableRecord
  2
MARK_OPEN
  0
BLOCK_RECORD
  5
86
330
1
100
AcDbSymbolTableRecord
100
AcDbBlockTableRecord
  2
MARK_ORIGIN
  0
BLOCK_RECORD
  5
8A
330
1
100
AcDbSymbolTableRecord
100
AcDbBlockTableRecord
  2
MARK_DOT
  0
BLOCK_RECORD
  5
186
330
1
100
AcDbSymbolTableRecord
100
AcDbBlockTableRecord
  2
DIM1
  0
BLOCK_RECORD
  5
190
330
1
100
AcDbSymbolTableRecord
100
AcDbBlockTableRecord
  2
DIM2
  0
BLOCK_RECORD
  5
19A
330
1
100
AcDbSymbolTableRecord
100
AcDbBlockTableRecord
  2
DIM3
  0
BLOCK_RECORD
  5
1A4
330
1
100
AcDbSymbolTableRecord
100
AcDbBlockTableRecord
  2
DIM4
  0
BLOCK_RECORD
  5
1AE
330
1
100
AcDbSymbolTableRecord
100
AcDbBlockTableRecord
  2
DIM5
  0
BLOCK_RECORD
  5
1B8
330
1
100
AcDbSymbolTableRecord
100
AcDbBlockTableRecord
  2
DIM6
  0
BLOCK_RECORD
  5
1C2
330
1
100
AcDbSymbolTableRecord
100
AcDbBlockTableRecord
  2
DIM7
  0
BLOCK_RECORD
  5
1CC
330
1
100
AcDbSymbolTableRecord
100
AcDbBlockTableRecord
  2
DIM8
  0
BLOCK_RECORD
  5
1D6
330
1
100
AcDbSymbolTableRecord
100
AcDbBlockTableRecord
  2
DIM9
  0
BLOCK_RECORD
  5
1E0
330
1
100
AcDbSymbolTableRecord
100
AcDbBlockTableRecord
  2
DIM10
  0
BLOCK_RECORD
  5
1EA
330
1
100
AcDbSymbolTableRecord
100
AcDbBlockTableRecord
  2
DIM11
  0
BLOCK_RECORD
  5
1F4
330
1
100
AcDbSymbolTableRecord
100
AcDbBlockTableRecord
  2
DIM12
  0
BLOCK_RECORD
  5
1FE
330
1
100
AcDbSymbolTableRecord
100
AcDbBlockTableRecord
  2
DIM13
  0
BLOCK_RECORD
  5
208
330
1
100
AcDbSymbolTableRecord
100
AcDbBlockTableRecord
  2
DIM14
  0
BLOCK_RECORD
  5
219
330
1
100
AcDbSymbolTableRecord
100
AcDbBlockTableRecord
  2
DIM15
  0
BLOCK_RECORD
  5
221
330
1
100
AcDbSymbolTableRecord
100
AcDbBlockTableRecord
  2
DIM16
  0
ENDTAB
  0
ENDSEC
  0
SECTION
  2
BLOCKS
  0
BLOCK
  5
20
330
1F
100
AcDbEntity
  8
0
100
AcDbBlockBegin
  2
*MODEL_SPACE
 70
     0
 10
0.0
 20
0.0
 30
0.0
  3
*MODEL_SPACE
  1

  0
ENDBLK
  5
21
330
1F
100
AcDbEntity
  8
0
100
AcDbBlockEnd
  0
BLOCK
  5
1C
330
1B
100
AcDbEntity
 67
     1
  8
0
100
AcDbBlockBegin
  2
*PAPER_SPACE
 70
     0
 10
0.0
 20
0.0
 30
0.0
  3
*PAPER_SPACE
  1

  0
ENDBLK
  5
1D
330
1B
100
AcDbEntity
 67
     1
  8
0
100
AcDbBlockEnd
  0
BLOCK
  5
45
330
42
100
AcDbEntity
  8
0
100
AcDbBlockBegin
  2
_ORIGIN
 70
     0
 10
0.0
 20
0.0
 30
0.0
  3
_ORIGIN
  1

  0
CIRCLE
  5
43
330
42
100
AcDbEntity
  8
0
 62
     0
100
AcDbCircle
 10
0.0
 20
0.0
 30
0.0
 40
0.5
  0
LINE
  5
44
330
42
100
AcDbEntity
  8
0
 62
     0
100
AcDbLine
 10
0.0
 20
0.0
 30
0.0
 11
-1.0
 21
0.0
 31
0.0
  0
ENDBLK
  5
46
330
42
100
AcDbEntity
  8
0
100
AcDbBlockEnd
  0
BLOCK
  5
4A
330
47
100
AcDbEntity
  8
0
100
AcDbBlockBegin
  2
_DOTBLANK
 70
     0
 10
0.0
 20
0.0
 30
0.0
  3
_DOTBLANK
  1

  0
CIRCLE
  5
48
330
47
100
AcDbEntity
  8
0
 62
     0
100
AcDbCircle
 10
0.0
 20
0.0
 30
0.0
 40
0.5
  0
LINE
  5
49
330
47
100
AcDbEntity
  8
0
 62
     0
100
AcDbLine
 10
-0.5
 20
0.0
 30
0.0
 11
-1.0
 21
0.0
 31
0.0
  0
ENDBLK
  5
4B
330
47
100
AcDbEntity
  8
0
100
AcDbBlockEnd
  0
BLOCK
  5
4F
330
4C
100
AcDbEntity
  8
0
100
AcDbBlockBegin
  2
_DOT
 70
     0
 10
0.0
 20
0.0
 30
0.0
  3
_DOT
  1

  0
LWPOLYLINE
  5
4D
330
4C
100
AcDbEntity
  8
0
 62
     0
100
AcDbPolyline
 90
        2
 70
     1
 43
0.5
 10
-0.25
 20
0.0
 42
1.0
 10
0.25
 20
0.0
 42
1.0
  0
LINE
  5
4E
330
4C
100
AcDbEntity
  8
0
 62
     0
100
AcDbLine
 10
-0.5
 20
0.0
 30
0.0
 11
-1.0
 21
0.0
 31
0.0
  0
ENDBLK
  5
50
330
4C
100
AcDbEntity
  8
0
100
AcDbBlockEnd
  0
BLOCK
  5
55
330
51
100
AcDbEntity
  8
0
100
AcDbBlockBegin
  2
_OPEN
 70
     0
 10
0.0
 20
0.0
 30
0.0
  3
_OPEN
  1

  0
LINE
  5
52
330
51
100
AcDbEntity
  8
0
 62
     0
100
AcDbLine
 10
0.0
 20
0.0
 30
0.0
 11
-1.0
 21
0.1666666666666667
 31
0.0
  0
LINE
  5
53
330
51
100
AcDbEntity
  8
0
 62
     0
100
AcDbLine
 10
0.0
 20
0.0
 30
0.0
 11
-1.0
 21
-0.1666666666666667
 31
0.0
  0
LINE
  5
54
330
51
100
AcDbEntity
  8
0
 62
     0
100
AcDbLine
 10
0.0
 20
0.0
 30
0.0
 11
-1.0
 21
0.0
 31
0.0
  0
ENDBLK
  5
56
330
51
100
AcDbEntity
  8
0
100
AcDbBlockEnd
  0
BLOCK
  5
5C
330
57
100
AcDbEntity
  8
0
100
AcDbBlockBegin
  2
_CLOSED
 70
     0
 10
0.0
 20
0.0
 30
0.0
  3
_CLOSED
  1

  0
LINE
  5
58
330
57
100
AcDbEntity
  8
0
 62
     0
100
AcDbLine
 10
0.0
 20
0.0
 30
0.0
 11
-1.0
 21
0.1666666666666667
 31
0.0
  0
LINE
  5
59
330
57
100
AcDbEntity
  8
0
 62
     0
100
AcDbLine
 10
0.0
 20
0.0
 30
0.0
 11
-1.0
 21
-0.1666666666666667
 31
0.0
  0
LINE
  5
5A
330
57
100
AcDbEntity
  8
0
 62
     0
100
AcDbLine
 10
-1.0
 20
0.1666666666666667
 30
0.0
 11
-1.0
 21
-0.1666666666666667
 31
0.0
  0
LINE
  5
5B
330
57
100
AcDbEntity
  8
0
 62
     0
100
AcDbLine
 10
0.0
 20
0.0
 30
0.0
 11
-1.0
 21
0.0
 31
0.0
  0
ENDBLK
  5
5D
330
57
100
AcDbEntity
  8
0
100
AcDbBlockEnd
  0
BLOCK
  5
62
330
5E
100
AcDbEntity
  8
0
100
AcDbBlockBegin
  2
_CLOSEDBLANK
 70
     0
 10
0.0
 20
0.0
 30
0.0
  3
_CLOSEDBLANK
  1

  0
LINE
  5
5F
330
5E
100
AcDbEntity
  8
0
 62
     0
100
AcDbLine
 10
0.0
 20
0.0
 30
0.0
 11
-1.0
 21
0.1666666666666667
 31
0.0
  0
LINE
  5
60
330
5E
100
AcDbEntity
  8
0
 62
     0
100
AcDbLine
 10
0.0
 20
0.0
 30
0.0
 11
-1.0
 21
-0.1666666666666667
 31
0.0
  0
LINE
  5
61
330
5E
100
AcDbEntity
  8
0
 62
     0
100
AcDbLine
 10
-1.0
 20
0.1666666666666667
 30
0.0
 11
-1.0
 21
-0.1666666666666667
 31
0.0
  0
ENDBLK
  5
63
330
5E
100
AcDbEntity
  8
0
100
AcDbBlockEnd
  0
BLOCK
  5
66
330
64
100
AcDbEntity
  8
0
100
AcDbBlockBegin
  2
_ARROWFILLED
 70
     0
 10
0.0
 20
0.0
 30
0.0
  3
_ARROWFILLED
  1

  0
SOLID
  5
65
330
64
100
AcDbEntity
  8
0
 62
     0
100
AcDbTrace
 10
0.0
 20
0.0
 30
0.0
 11
-1.0
 21
-0.1666666666666667
 31
0.0
 12
-1.0
 22
0.1666666666666667
 32
0.0
 13
0.0
 23
0.0
 33
0.0
  0
ENDBLK
  5
67
330
64
100
AcDbEntity
  8
0
100
AcDbBlockEnd
  0
BLOCK
  5
6E
330
68
100
AcDbEntity
  8
0
100
AcDbBlockBegin
  2
_BOXBLANK
 70
     0
 10
0.0
 20
0.0
 30
0.0
  3
_BOXBLANK
  1

  0
LINE
  5
69
330
68
100
AcDbEntity
  8
0
 62
     0
100
AcDbLine
 10
-0.5
 20
-0.5
 30
0.0
 11
0.5
 21
-0.5
 31
0.0
  0
LINE
  5
6A
330
68
100
AcDbEntity
  8
0
 62
     0
100
AcDbLine
 10
0.5
 20
-0.5
 30
0.0
 11
0.5
 21
0.5
 31
0.0
  0
LINE
  5
6B
330
68
100
AcDbEntity
  8
0
 62
     0
100
AcDbLine
 10
0.5
 20
0.5
 30
0.0
 11
-0.5
 21
0.5
 31
0.0
  0
LINE
  5
6C
330
68
100
AcDbEntity
  8
0
 62
     0
100
AcDbLine
 10
-0.5
 20
0.5
 30
0.0
 11
-0.5
 21
-0.5
 31
0.0
  0
LINE
  5
6D
330
68
100
AcDbEntity
  8
0
 62
     0
100
AcDbLine
 10
-0.5
 20
0.0
 30
0.0
 11
-1.0
 21
0.0
 31
0.0
  0
ENDBLK
  5
6F
330
68
100
AcDbEntity
  8
0
100
AcDbBlockEnd
  0
BLOCK
  5
73
330
70
100
AcDbEntity
  8
0
100
AcDbBlockBegin
  2
_BOXFILLED
 70
     0
 10
0.0
 20
0.0
 30
0.0
  3
_BOXFILLED
  1

  0
SOLID
  5
71
330
70
100
AcDbEntity
  8
0
 62
     0
100
AcDbTrace
 10
-0.5
 20
0.5
 30
0.0
 11
0.5
 21
0.5
 31
0.0
 12
-0.5
 22
-0.5
 32
0.0
 13
0.5
 23
-0.5
 33
0.0
  0
LINE
  5
72
330
70
100
AcDbEntity
  8
0
 62
     0
100
AcDbLine
 10
-0.5
 20
0.0
 30
0.0
 11
-1.0
 21
0.0
 31
0.0
  0
ENDBLK
  5
74
330
70
100
AcDbEntity
  8
0
100
AcDbBlockEnd
  0
BLOCK
  5
78
330
75
100
AcDbEntity
  8
0
100
AcDbBlockBegin
  2
_INTEGRAL
 70
     0
 10
0.0
 20
0.0
 30
0.0
  3
_INTEGRAL
  1

  0
ARC
  5
76
330
75
100
AcDbEntity
  8
0
 62
     0
100
AcDbCircle
 10
0.444888
 20
-0.0913346
 30
0.0
 40
0.4541666
100
AcDbArc
 50
101.9999999999999
 51
167.9999999999998
  0
ARC
  5
77
330
75
100
AcDbEntity
  8
0
 62
     0
100
AcDbCircle
 10
-0.444888
 20
0.0913346
 30
0.0
 40
0.4541666
100
AcDbArc
 50
281.9999999999997
 51
347.9999999999997
  0
ENDBLK
  5
79
330
75
100
AcDbEntity
  8
0
100
AcDbBlockEnd
  0
BLOCK
  5
7C
330
7A
100
AcDbEntity
  8
0
100
AcDbBlockBegin
  2
_OBLIQUE
 70
     0
 10
0.0
 20
0.0
 30
0.0
  3
_OBLIQUE
  1

  0
LINE
  5
7B
330
7A
100
AcDbEntity
  8
0
 62
     0
100
AcDbLine
 10
-0.5
 20
-0.5
 30
0.0
 11
0.5
 21
0.5
 31
0.0
  0
ENDBLK
  5
7D
330
7A
100
AcDbEntity
  8
0
100
AcDbBlockEnd
  0
BLOCK
  5
7F
330
7E
100
AcDbEntity
  8
0
100
AcDbBlockBegin
  2
_NONE
 70
     0
 10
0.0
 20
0.0
 30
0.0
  3
_NONE
  1

  0
ENDBLK
  5
80
330
7E
100
AcDbEntity
  8
0
100
AcDbBlockEnd
  0
BLOCK
  5
84
330
81
100
AcDbEntity
  8
0
100
AcDbBlockBegin
  2
MARK_OPEN
 70
     0
 10
0.0
 20
0.0
 30
0.0
  3
MARK_OPEN
  1

  0
LINE
  5
82
330
81
100
AcDbEntity
  8
0
 62
     0
100
AcDbLine
 10
0.0
 20
0.0
 30
0.0
 11
-1.0
 21
0.1666666666666667
 31
0.0
  0
LINE
  5
83
330
81
100
AcDbEntity
  8
0
 62
     0
100
AcDbLine
 10
0.0
 20
0.0
 30
0.0
 11
-1.0
 21
-0.1666666666666667
 31
0.0
  0
ENDBLK
  5
85
330
81
100
AcDbEntity
  8
0
100
AcDbBlockEnd
  0
BLOCK
  5
88
330
86
100
AcDbEntity
  8
0
100
AcDbBlockBegin
  2
MARK_ORIGIN
 70
     0
 10
0.0
 20
0.0
 30
0.0
  3
MARK_ORIGIN
  1

  0
CIRCLE
  5
87
330
86
100
AcDbEntity
  8
0
 62
     0
100
AcDbCircle
 10
0.0
 20
0.0
 30
0.0
 40
0.5
  0
ENDBLK
  5
89
330
86
100
AcDbEntity
  8
0
100
AcDbBlockEnd
  0
BLOCK
  5
8C
330
8A
100
AcDbEntity
  8
0
100
AcDbBlockBegin
  2
MARK_DOT
 70
     0
 10
0.0
 20
0.0
 30
0.0
  3
MARK_DOT
  1

  0
LWPOLYLINE
  5
8B
330
8A
100
AcDbEntity
  8
0
 62
     0
100
AcDbPolyline
 90
        2
 70
     1
 43
0.5
 10
-0.25
 20
0.0
 42
1.0
 10
0.25
 20
0.0
 42
1.0
  0
ENDBLK
  5
8D
330
8A
100
AcDbEntity
  8
0
100
AcDbBlockEnd
  0
BLOCK
  5
187
330
186
100
AcDbEntity
  8
0
100
AcDbBlockBegin
  2
DIM1
 70
     0
 10
0.0
 20
0.0
 30
0.0
  3
DIM1
  1

  0
LINE
  5
189
330
186
100
AcDbEntity
  8
7
  6
CONTINUOUS
 62
     4
100
AcDbLine
 10
633.8391146242702
 20
200.2374275996825
 30
0.0
 11
633.8391146242701
 21
129.2374275996837
 31
0.0
  0
LINE
  5
18A
330
186
100
AcDbEntity
  8
7
  6
CONTINUOUS
 62
     4
100
AcDbLine
 10
133.8391146242703
 20
200.2374275996825
 30
0.0
 11
133.8391146242702
 21
129.2374275996837
 31
0.0
  0
LINE
  5
18B
330
186
100
AcDbEntity
  8
7
  6
CONTINUOUS
 62
     4
100
AcDbLine
 10
633.8391146242701
 20
132.2374275996837
 30
0.0
 11
133.8391146242702
 21
132.2374275996837
 31
0.0
  0
MTEXT
  5
18C
330
186
100
AcDbEntity
  8
7
  6
CONTINUOUS
 62
     4
100
AcDbMText
 10
383.8391146242703
 20
132.2374275996837
 30
0.0
 40
6.0
 41
77.14285714285714
 71
     8
 72
     1
  1
500
  7
ＭＳ_ゴシック
1001
ACAD
1000
ACAD_MTEXT_DEFINED_HEIGHT_BEGIN
1070
    46
1040
6.0
1000
ACAD_MTEXT_DEFINED_HEIGHT_END
  0
INSERT
  5
18D
330
186
100
AcDbEntity
  8
7
  6
CONTINUOUS
 62
     4
100
AcDbBlockReference
  2
_ARROWFILLED
 10
633.8391146242701
 20
132.2374275996837
 30
0.0
 41
4.0
 42
4.0
 43
4.0
 50
359.9999999999997
  0
INSERT
  5
18E
330
186
100
AcDbEntity
  8
7
  6
CONTINUOUS
 62
     4
100
AcDbBlockReference
  2
_ARROWFILLED
 10
133.8391146242702
 20
132.2374275996837
 30
0.0
 41
4.0
 42
4.0
 43
4.0
 50
179.9999999999998
  0
ENDBLK
  5
188
330
186
100
AcDbEntity
  8
0
100
AcDbBlockEnd
  0
BLOCK
  5
191
330
190
100
AcDbEntity
  8
0
100
AcDbBlockBegin
  2
DIM2
 70
     0
 10
0.0
 20
0.0
 30
0.0
  3
DIM2
  1

  0
LINE
  5
193
330
190
100
AcDbEntity
  8
7
  6
CONTINUOUS
 62
     4
100
AcDbLine
 10
648.8391146242702
 20
185.2374275996825
 30
0.0
 11
648.8391146242701
 21
113.2374275996837
 31
0.0
  0
LINE
  5
194
330
190
100
AcDbEntity
  8
7
  6
CONTINUOUS
 62
     4
100
AcDbLine
 10
118.8391146242684
 20
185.2374275996825
 30
0.0
 11
118.8391146242683
 21
113.2374275996837
 31
0.0
  0
LINE
  5
195
330
190
100
AcDbEntity
  8
7
  6
CONTINUOUS
 62
     4
100
AcDbLine
 10
648.8391146242701
 20
116.2374275996837
 30
0.0
 11
118.8391146242683
 21
116.2374275996837
 31
0.0
  0
MTEXT
  5
196
330
190
100
AcDbEntity
  8
7
  6
CONTINUOUS
 62
     4
100
AcDbMText
 10
383.8391146242684
 20
116.2374275996837
 30
0.0
 40
6.0
 41
77.14285714285714
 71
     8
 72
     1
  1
530
  7
ＭＳ_ゴシック
1001
ACAD
1000
ACAD_MTEXT_DEFINED_HEIGHT_BEGIN
1070
    46
1040
6.0
1000
ACAD_MTEXT_DEFINED_HEIGHT_END
  0
INSERT
  5
197
330
190
100
AcDbEntity
  8
7
  6
CONTINUOUS
 62
     4
100
AcDbBlockReference
  2
_ARROWFILLED
 10
648.8391146242701
 20
116.2374275996837
 30
0.0
 41
4.0
 42
4.0
 43
4.0
 50
359.9999999999997
  0
INSERT
  5
198
330
190
100
AcDbEntity
  8
7
  6
CONTINUOUS
 62
     4
100
AcDbBlockReference
  2
_ARROWFILLED
 10
118.8391146242683
 20
116.2374275996837
 30
0.0
 41
4.0
 42
4.0
 43
4.0
 50
179.9999999999998
  0
ENDBLK
  5
192
330
190
100
AcDbEntity
  8
0
100
AcDbBlockEnd
  0
BLOCK
  5
19B
330
19A
100
AcDbEntity
  8
0
100
AcDbBlockBegin
  2
DIM3
 70
     0
 10
0.0
 20
0.0
 30
0.0
  3
DIM3
  1

  0
LINE
  5
19D
330
19A
100
AcDbEntity
  8
7
  6
CONTINUOUS
 62
     4
100
AcDbLine
 10
683.8391146242702
 20
277.2374275996838
 30
0.0
 11
683.83911462427
 21
113.2374275996837
 31
0.0
  0
LINE
  5
19E
330
19A
100
AcDbEntity
  8
7
  6
CONTINUOUS
 62
     4
100
AcDbLine
 10
648.8391146242702
 20
185.2374275996825
 30
0.0
 11
648.8391146242701
 21
113.2374275996837
 31
0.0
  0
LINE
  5
19F
330
19A
100
AcDbEntity
  8
7
  6
CONTINUOUS
 62
     4
100
AcDbLine
 10
683.83911462427
 20
116.2374275996837
 30
0.0
 11
648.8391146242701
 21
116.2374275996837
 31
0.0
  0
MTEXT
  5
1A0
330
19A
100
AcDbEntity
  8
7
  6
CONTINUOUS
 62
     4
100
AcDbMText
 10
666.3391146242702
 20
116.2374275996837
 30
0.0
 40
6.0
 41
48.57142857142856
 71
     8
 72
     1
  1
35
  7
ＭＳ_ゴシック
1001
ACAD
1000
ACAD_MTEXT_DEFINED_HEIGHT_BEGIN
1070
    46
1040
6.0
1000
ACAD_MTEXT_DEFINED_HEIGHT_END
  0
INSERT
  5
1A1
330
19A
100
AcDbEntity
  8
7
  6
CONTINUOUS
 62
     4
100
AcDbBlockReference
  2
_ARROWFILLED
 10
683.83911462427
 20
116.2374275996837
 30
0.0
 41
4.0
 42
4.0
 43
4.0
 50
359.9999999999997
  0
INSERT
  5
1A2
330
19A
100
AcDbEntity
  8
7
  6
CONTINUOUS
 62
     4
100
AcDbBlockReference
  2
_ARROWFILLED
 10
648.8391146242701
 20
116.2374275996837
 30
0.0
 41
4.0
 42
4.0
 43
4.0
 50
179.9999999999998
  0
ENDBLK
  5
19C
330
19A
100
AcDbEntity
  8
0
100
AcDbBlockEnd
  0
BLOCK
  5
1A5
330
1A4
100
AcDbEntity
  8
0
100
AcDbBlockBegin
  2
DIM4
 70
     0
 10
0.0
 20
0.0
 30
0.0
  3
DIM4
  1

  0
LINE
  5
1A7
330
1A4
100
AcDbEntity
  8
7
  6
CONTINUOUS
 62
     4
100
AcDbLine
 10
496.3391146242702
 20
169.1374275996829
 30
0.0
 11
496.3391146242702
 21
145.2374275996837
 31
0.0
  0
LINE
  5
1A8
330
1A4
100
AcDbEntity
  8
7
  6
CONTINUOUS
 62
     4
100
AcDbLine
 10
608.8391146242702
 20
169.1374275996829
 30
0.0
 11
608.8391146242702
 21
145.2374275996837
 31
0.0
  0
LINE
  5
1A9
330
1A4
100
AcDbEntity
  8
7
  6
CONTINUOUS
 62
     4
100
AcDbLine
 10
496.3391146242702
 20
148.2374275996837
 30
0.0
 11
608.8391146242702
 21
148.2374275996837
 31
0.0
  0
MTEXT
  5
1AA
330
1A4
100
AcDbEntity
  8
7
  6
CONTINUOUS
 62
     4
100
AcDbMText
 10
552.5891146242702
 20
148.2374275996837
 30
0.0
 40
6.0
 41
115.7142857142857
 71
     8
 72
     1
  1
112.5
  7
ＭＳ_ゴシック
1001
ACAD
1000
ACAD_MTEXT_DEFINED_HEIGHT_BEGIN
1070
    46
1040
6.0
1000
ACAD_MTEXT_DEFINED_HEIGHT_END
  0
INSERT
  5
1AB
330
1A4
100
AcDbEntity
  8
7
  6
CONTINUOUS
 62
     4
100
AcDbBlockReference
  2
_ARROWFILLED
 10
496.3391146242702
 20
148.2374275996837
 30
0.0
 41
4.0
 42
4.0
 43
4.0
 50
179.9999999999998
  0
INSERT
  5
1AC
330
1A4
100
AcDbEntity
  8
7
  6
CONTINUOUS
 62
     4
100
AcDbBlockReference
  2
_ARROWFILLED
 10
608.8391146242702
 20
148.2374275996837
 30
0.0
 41
4.0
 42
4.0
 43
4.0
 50
359.9999999999997
  0
ENDBLK
  5
1A6
330
1A4
100
AcDbEntity
  8
0
100
AcDbBlockEnd
  0
BLOCK
  5
1AF
330
1AE
100
AcDbEntity
  8
0
100
AcDbBlockBegin
  2
DIM5
 70
     0
 10
0.0
 20
0.0
 30
0.0
  3
DIM5
  1

  0
LINE
  5
1B1
330
1AE
100
AcDbEntity
  8
7
  6
CONTINUOUS
 62
     4
100
AcDbLine
 10
271.3391146242702
 20
169.1374275996829
 30
0.0
 11
271.3391146242702
 21
145.2374275996837
 31
0.0
  0
LINE
  5
1B2
330
1AE
100
AcDbEntity
  8
7
  6
CONTINUOUS
 62
     4
100
AcDbLine
 10
158.8391146242703
 20
169.1374275996829
 30
0.0
 11
158.8391146242703
 21
145.2374275996837
 31
0.0
  0
LINE
  5
1B3
330
1AE
100
AcDbEntity
  8
7
  6
CONTINUOUS
 62
     4
100
AcDbLine
 10
271.3391146242702
 20
148.2374275996837
 30
0.0
 11
158.8391146242703
 21
148.2374275996837
 31
0.0
  0
MTEXT
  5
1B4
330
1AE
100
AcDbEntity
  8
7
  6
CONTINUOUS
 62
     4
100
AcDbMText
 10
215.0891146242702
 20
148.2374275996837
 30
0.0
 40
6.0
 41
115.7142857142857
 71
     8
 72
     1
  1
112.5
  7
ＭＳ_ゴシック
1001
ACAD
1000
ACAD_MTEXT_DEFINED_HEIGHT_BEGIN
1070
    46
1040
6.0
1000
ACAD_MTEXT_DEFINED_HEIGHT_END
  0
INSERT
  5
1B5
330
1AE
100
AcDbEntity
  8
7
  6
CONTINUOUS
 62
     4
100
AcDbBlockReference
  2
_ARROWFILLED
 10
271.3391146242702
 20
148.2374275996837
 30
0.0
 41
4.0
 42
4.0
 43
4.0
 50
359.9999999999997
  0
INSERT
  5
1B6
330
1AE
100
AcDbEntity
  8
7
  6
CONTINUOUS
 62
     4
100
AcDbBlockReference
  2
_ARROWFILLED
 10
158.8391146242703
 20
148.2374275996837
 30
0.0
 41
4.0
 42
4.0
 43
4.0
 50
179.9999999999998
  0
ENDBLK
  5
1B0
330
1AE
100
AcDbEntity
  8
0
100
AcDbBlockEnd
  0
BLOCK
  5
1B9
330
1B8
100
AcDbEntity
  8
0
100
AcDbBlockBegin
  2
DIM6
 70
     0
 10
0.0
 20
0.0
 30
0.0
  3
DIM6
  1

  0
LINE
  5
1BB
330
1B8
100
AcDbEntity
  8
7
  6
CONTINUOUS
 62
     4
100
AcDbLine
 10
732.3267737305471
 20
185.2374275996843
 30
0.0
 11
732.326773730547
 21
113.2374275996837
 31
0.0
  0
LINE
  5
1BC
330
1B8
100
AcDbEntity
  8
7
  6
CONTINUOUS
 62
     4
100
AcDbLine
 10
777.3267737305471
 20
170.2374275996843
 30
0.0
 11
777.326773730547
 21
113.2374275996837
 31
0.0
  0
LINE
  5
1BD
330
1B8
100
AcDbEntity
  8
7
  6
CONTINUOUS
 62
     4
100
AcDbLine
 10
732.326773730547
 20
116.2374275996837
 30
0.0
 11
777.326773730547
 21
116.2374275996837
 31
0.0
  0
MTEXT
  5
1BE
330
1B8
100
AcDbEntity
  8
7
  6
CONTINUOUS
 62
     4
100
AcDbMText
 10
754.8267737305471
 20
116.2374275996837
 30
0.0
 40
6.0
 41
48.57142857142856
 71
     8
 72
     1
  1
45
  7
ＭＳ_ゴシック
1001
ACAD
1000
ACAD_MTEXT_DEFINED_HEIGHT_BEGIN
1070
    46
1040
6.0
1000
ACAD_MTEXT_DEFINED_HEIGHT_END
  0
INSERT
  5
1BF
330
1B8
100
AcDbEntity
  8
7
  6
CONTINUOUS
 62
     4
100
AcDbBlockReference
  2
_ARROWFILLED
 10
732.326773730547
 20
116.2374275996837
 30
0.0
 41
4.0
 42
4.0
 43
4.0
 50
179.9999999999998
  0
INSERT
  5
1C0
330
1B8
100
AcDbEntity
  8
7
  6
CONTINUOUS
 62
     4
100
AcDbBlockReference
  2
_ARROWFILLED
 10
777.326773730547
 20
116.2374275996837
 30
0.0
 41
4.0
 42
4.0
 43
4.0
 50
359.9999999999997
  0
ENDBLK
  5
1BA
330
1B8
100
AcDbEntity
  8
0
100
AcDbBlockEnd
  0
BLOCK
  5
1C3
330
1C2
100
AcDbEntity
  8
0
100
AcDbBlockBegin
  2
DIM7
 70
     0
 10
0.0
 20
0.0
 30
0.0
  3
DIM7
  1

  0
LINE
  5
1C5
330
1C2
100
AcDbEntity
  8
7
  6
CONTINUOUS
 62
     4
100
AcDbLine
 10
776.3267737305471
 20
170.2374275996843
 30
0.0
 11
776.3267737305471
 21
145.2374275996837
 31
0.0
  0
LINE
  5
1C6
330
1C2
100
AcDbEntity
  8
7
  6
CONTINUOUS
 62
     4
100
AcDbLine
 10
777.3267737305471
 20
170.2374275996843
 30
0.0
 11
777.3267737305471
 21
145.2374275996837
 31
0.0
  0
LINE
  5
1C7
330
1C2
100
AcDbEntity
  8
7
  6
CONTINUOUS
 62
     4
100
AcDbLine
 10
768.3267737305471
 20
148.2374275996837
 30
0.0
 11
789.8267737305471
 21
148.2374275996837
 31
0.0
  0
MTEXT
  5
1C8
330
1C2
100
AcDbEntity
  8
7
  6
CONTINUOUS
 62
     4
100
AcDbMText
 10
786.8267737305471
 20
148.2374275996837
 30
0.0
 40
6.0
 41
7.142857142857143
 71
     7
 72
     1
  1
1
  7
ＭＳ_ゴシック
1001
ACAD
1000
ACAD_MTEXT_DEFINED_HEIGHT_BEGIN
1070
    46
1040
6.0
1000
ACAD_MTEXT_DEFINED_HEIGHT_END
  0
INSERT
  5
1C9
330
1C2
100
AcDbEntity
  8
7
  6
CONTINUOUS
 62
     4
100
AcDbBlockReference
  2
_ARROWFILLED
 10
776.3267737305471
 20
148.2374275996837
 30
0.0
 41
4.0
 42
4.0
 43
4.0
 50
359.9999999999997
  0
INSERT
  5
1CA
330
1C2
100
AcDbEntity
  8
7
  6
CONTINUOUS
 62
     4
100
AcDbBlockReference
  2
_ARROWFILLED
 10
777.3267737305471
 20
148.2374275996837
 30
0.0
 41
4.0
 42
4.0
 43
4.0
 50
179.9999999999995
  0
ENDBLK
  5
1C4
330
1C2
100
AcDbEntity
  8
0
100
AcDbBlockEnd
  0
BLOCK
  5
1CD
330
1CC
100
AcDbEntity
  8
0
100
AcDbBlockBegin
  2
DIM8
 70
     0
 10
0.0
 20
0.0
 30
0.0
  3
DIM8
  1

  0
LINE
  5
1CF
330
1CC
100
AcDbEntity
  8
7
  6
CONTINUOUS
 62
     4
100
AcDbLine
 10
777.3267737305471
 20
170.2374275996843
 30
0.0
 11
777.326773730547
 21
129.2374275996837
 31
0.0
  0
LINE
  5
1D0
330
1CC
100
AcDbEntity
  8
7
  6
CONTINUOUS
 62
     4
100
AcDbLine
 10
743.8267737305471
 20
277.2374275996843
 30
0.0
 11
743.8267737305468
 21
129.2374275996837
 31
0.0
  0
LINE
  5
1D1
330
1CC
100
AcDbEntity
  8
7
  6
CONTINUOUS
 62
     4
100
AcDbLine
 10
777.326773730547
 20
132.2374275996837
 30
0.0
 11
743.8267737305468
 21
132.2374275996837
 31
0.0
  0
MTEXT
  5
1D2
330
1CC
100
AcDbEntity
  8
7
  6
CONTINUOUS
 62
     4
100
AcDbMText
 10
760.5767737305471
 20
132.2374275996837
 30
0.0
 40
6.0
 41
91.42857142857142
 71
     8
 72
     1
  1
33.5
  7
ＭＳ_ゴシック
1001
ACAD
1000
ACAD_MTEXT_DEFINED_HEIGHT_BEGIN
1070
    46
1040
6.0
1000
ACAD_MTEXT_DEFINED_HEIGHT_END
  0
INSERT
  5
1D3
330
1CC
100
AcDbEntity
  8
7
  6
CONTINUOUS
 62
     4
100
AcDbBlockReference
  2
_ARROWFILLED
 10
777.326773730547
 20
132.2374275996837
 30
0.0
 41
4.0
 42
4.0
 43
4.0
 50
359.9999999999997
  0
INSERT
  5
1D4
330
1CC
100
AcDbEntity
  8
7
  6
CONTINUOUS
 62
     4
100
AcDbBlockReference
  2
_ARROWFILLED
 10
743.8267737305468
 20
132.2374275996837
 30
0.0
 41
4.0
 42
4.0
 43
4.0
 50
179.9999999999998
  0
ENDBLK
  5
1CE
330
1CC
100
AcDbEntity
  8
0
100
AcDbBlockEnd
  0
BLOCK
  5
1D7
330
1D6
100
AcDbEntity
  8
0
100
AcDbBlockBegin
  2
DIM9
 70
     0
 10
0.0
 20
0.0
 30
0.0
  3
DIM9
  1

  0
LINE
  5
1D9
330
1D6
100
AcDbEntity
  8
7
  6
CONTINUOUS
 62
     4
100
AcDbLine
 10
271.3391146242702
 20
169.1374275996829
 30
0.0
 11
271.3391146242702
 21
145.2374275996837
 31
0.0
  0
LINE
  5
1DA
330
1D6
100
AcDbEntity
  8
7
  6
CONTINUOUS
 62
     4
100
AcDbLine
 10
383.8391146242702
 20
160.2374275996836
 30
0.0
 11
383.8391146242702
 21
145.2374275996837
 31
0.0
  0
LINE
  5
1DB
330
1D6
100
AcDbEntity
  8
7
  6
CONTINUOUS
 62
     4
100
AcDbLine
 10
271.3391146242702
 20
148.2374275996837
 30
0.0
 11
383.8391146242702
 21
148.2374275996837
 31
0.0
  0
MTEXT
  5
1DC
330
1D6
100
AcDbEntity
  8
7
  6
CONTINUOUS
 62
     4
100
AcDbMText
 10
327.5891146242702
 20
148.2374275996837
 30
0.0
 40
6.0
 41
115.7142857142857
 71
     8
 72
     1
  1
112.5
  7
ＭＳ_ゴシック
1001
ACAD
1000
ACAD_MTEXT_DEFINED_HEIGHT_BEGIN
1070
    46
1040
6.0
1000
ACAD_MTEXT_DEFINED_HEIGHT_END
  0
INSERT
  5
1DD
330
1D6
100
AcDbEntity
  8
7
  6
CONTINUOUS
 62
     4
100
AcDbBlockReference
  2
_ARROWFILLED
 10
271.3391146242702
 20
148.2374275996837
 30
0.0
 41
4.0
 42
4.0
 43
4.0
 50
179.9999999999998
  0
INSERT
  5
1DE
330
1D6
100
AcDbEntity
  8
7
  6
CONTINUOUS
 62
     4
100
AcDbBlockReference
  2
_ARROWFILLED
 10
383.8391146242702
 20
148.2374275996837
 30
0.0
 41
4.0
 42
4.0
 43
4.0
 50
359.9999999999997
  0
ENDBLK
  5
1D8
330
1D6
100
AcDbEntity
  8
0
100
AcDbBlockEnd
  0
BLOCK
  5
1E1
330
1E0
100
AcDbEntity
  8
0
100
AcDbBlockBegin
  2
DIM10
 70
     0
 10
0.0
 20
0.0
 30
0.0
  3
DIM10
  1

  0
LINE
  5
1E3
330
1E0
100
AcDbEntity
  8
7
  6
CONTINUOUS
 62
     4
100
AcDbLine
 10
131.8391146242602
 20
402.2374275996854
 30
0.0
 11
99.83911462426808
 21
402.2374275996854
 31
0.0
  0
LINE
  5
1E4
330
1E0
100
AcDbEntity
  8
7
  6
CONTINUOUS
 62
     4
100
AcDbLine
 10
131.8391146242621
 20
202.2374275996854
 30
0.0
 11
99.8391146242684
 21
202.2374275996854
 31
0.0
  0
LINE
  5
1E5
330
1E0
100
AcDbEntity
  8
7
  6
CONTINUOUS
 62
     4
100
AcDbLine
 10
102.8391146242681
 20
402.2374275996854
 30
0.0
 11
102.8391146242684
 21
202.2374275996854
 31
0.0
  0
MTEXT
  5
1E6
330
1E0
100
AcDbEntity
  8
7
  6
CONTINUOUS
 62
     4
100
AcDbMText
 10
102.8391146242682
 20
302.2374275996825
 30
0.0
 40
6.0
 41
77.14285714285714
 71
     8
 72
     1
  1
200
  7
ＭＳ_ゴシック
 11
1.615544574432587E-15
 21
1.0
 31
0.0
1001
ACAD
1000
ACAD_MTEXT_DEFINED_HEIGHT_BEGIN
1070
    46
1040
6.0
1000
ACAD_MTEXT_DEFINED_HEIGHT_END
  0
INSERT
  5
1E7
330
1E0
100
AcDbEntity
  8
7
  6
CONTINUOUS
 62
     4
100
AcDbBlockReference
  2
_ARROWFILLED
 10
102.8391146242681
 20
402.2374275996854
 30
0.0
 41
4.0
 42
4.0
 43
4.0
 50
89.99999999999991
  0
INSERT
  5
1E8
330
1E0
100
AcDbEntity
  8
7
  6
CONTINUOUS
 62
     4
100
AcDbBlockReference
  2
_ARROWFILLED
 10
102.8391146242684
 20
202.2374275996854
 30
0.0
 41
4.0
 42
4.0
 43
4.0
 50
269.9999999999999
  0
ENDBLK
  5
1E2
330
1E0
100
AcDbEntity
  8
0
100
AcDbBlockEnd
  0
BLOCK
  5
1EB
330
1EA
100
AcDbEntity
  8
0
100
AcDbBlockBegin
  2
DIM11
 70
     0
 10
0.0
 20
0.0
 30
0.0
  3
DIM11
  1

  0
LINE
  5
1ED
330
1EA
100
AcDbEntity
  8
7
  6
CONTINUOUS
 62
     4
100
AcDbLine
 10
116.8391146242593
 20
417.2374275996854
 30
0.0
 11
83.83911462426815
 21
417.2374275996854
 31
0.0
  0
LINE
  5
1EE
330
1EA
100
AcDbEntity
  8
7
  6
CONTINUOUS
 62
     4
100
AcDbLine
 10
116.8391146242612
 20
187.2374275996854
 30
0.0
 11
83.83911462426852
 21
187.2374275996854
 31
0.0
  0
LINE
  5
1EF
330
1EA
100
AcDbEntity
  8
7
  6
CONTINUOUS
 62
     4
100
AcDbLine
 10
86.83911462426815
 20
417.2374275996854
 30
0.0
 11
86.83911462426852
 21
187.2374275996854
 31
0.0
  0
MTEXT
  5
1F0
330
1EA
100
AcDbEntity
  8
7
  6
CONTINUOUS
 62
     4
100
AcDbMText
 10
86.83911462426833
 20
302.2374275996854
 30
0.0
 40
6.0
 41
77.14285714285714
 71
     8
 72
     1
  1
230
  7
ＭＳ_ゴシック
 11
1.615544574432587E-15
 21
1.0
 31
0.0
1001
ACAD
1000
ACAD_MTEXT_DEFINED_HEIGHT_BEGIN
1070
    46
1040
6.0
1000
ACAD_MTEXT_DEFINED_HEIGHT_END
  0
INSERT
  5
1F1
330
1EA
100
AcDbEntity
  8
7
  6
CONTINUOUS
 62
     4
100
AcDbBlockReference
  2
_ARROWFILLED
 10
86.83911462426815
 20
417.2374275996854
 30
0.0
 41
4.0
 42
4.0
 43
4.0
 50
89.99999999999991
  0
INSERT
  5
1F2
330
1EA
100
AcDbEntity
  8
7
  6
CONTINUOUS
 62
     4
100
AcDbBlockReference
  2
_ARROWFILLED
 10
86.83911462426852
 20
187.2374275996854
 30
0.0
 41
4.0
 42
4.0
 43
4.0
 50
269.9999999999999
  0
ENDBLK
  5
1EC
330
1EA
100
AcDbEntity
  8
0
100
AcDbBlockEnd
  0
BLOCK
  5
1F5
330
1F4
100
AcDbEntity
  8
0
100
AcDbBlockBegin
  2
DIM12
 70
     0
 10
0.0
 20
0.0
 30
0.0
  3
DIM12
  1

  0
LINE
  5
1F7
330
1F4
100
AcDbEntity
  8
7
  6
CONTINUOUS
 62
     4
100
AcDbLine
 10
136.8391146242684
 20
432.2374275996848
 30
0.0
 11
51.83911462426823
 21
432.2374275996848
 31
0.0
  0
LINE
  5
1F8
330
1F4
100
AcDbEntity
  8
7
  6
CONTINUOUS
 62
     4
100
AcDbLine
 10
136.8391146242703
 20
172.2374275996829
 30
0.0
 11
51.83911462426865
 21
172.2374275996829
 31
0.0
  0
LINE
  5
1F9
330
1F4
100
AcDbEntity
  8
7
  6
CONTINUOUS
 62
     4
100
AcDbLine
 10
54.83911462426823
 20
432.2374275996848
 30
0.0
 11
54.83911462426865
 21
172.2374275996829
 31
0.0
  0
MTEXT
  5
1FA
330
1F4
100
AcDbEntity
  8
7
  6
CONTINUOUS
 62
     4
100
AcDbMText
 10
54.83911462426844
 20
302.2374275996854
 30
0.0
 40
6.0
 41
77.14285714285714
 71
     8
 72
     1
  1
260
  7
ＭＳ_ゴシック
 11
1.615544574432587E-15
 21
1.0
 31
0.0
1001
ACAD
1000
ACAD_MTEXT_DEFINED_HEIGHT_BEGIN
1070
    46
1040
6.0
1000
ACAD_MTEXT_DEFINED_HEIGHT_END
  0
INSERT
  5
1FB
330
1F4
100
AcDbEntity
  8
7
  6
CONTINUOUS
 62
     4
100
AcDbBlockReference
  2
_ARROWFILLED
 10
54.83911462426823
 20
432.2374275996848
 30
0.0
 41
4.0
 42
4.0
 43
4.0
 50
89.99999999999991
  0
INSERT
  5
1FC
330
1F4
100
AcDbEntity
  8
7
  6
CONTINUOUS
 62
     4
100
AcDbBlockReference
  2
_ARROWFILLED
 10
54.83911462426865
 20
172.2374275996829
 30
0.0
 41
4.0
 42
4.0
 43
4.0
 50
269.9999999999999
  0
ENDBLK
  5
1F6
330
1F4
100
AcDbEntity
  8
0
100
AcDbBlockEnd
  0
BLOCK
  5
1FF
330
1FE
100
AcDbEntity
  8
0
100
AcDbBlockBegin
  2
DIM13
 70
     0
 10
0.0
 20
0.0
 30
0.0
  3
DIM13
  1

  0
LINE
  5
201
330
1FE
100
AcDbEntity
  8
7
  6
CONTINUOUS
 62
     4
100
AcDbLine
 10
383.8391146242702
 20
160.2374275996836
 30
0.0
 11
383.8391146242702
 21
145.2374275996837
 31
0.0
  0
LINE
  5
202
330
1FE
100
AcDbEntity
  8
7
  6
CONTINUOUS
 62
     4
100
AcDbLine
 10
496.3391146242702
 20
169.1374275996829
 30
0.0
 11
496.3391146242702
 21
145.2374275996837
 31
0.0
  0
LINE
  5
203
330
1FE
100
AcDbEntity
  8
7
  6
CONTINUOUS
 62
     4
100
AcDbLine
 10
383.8391146242702
 20
148.2374275996837
 30
0.0
 11
496.3391146242702
 21
148.2374275996837
 31
0.0
  0
MTEXT
  5
204
330
1FE
100
AcDbEntity
  8
7
  6
CONTINUOUS
 62
     4
100
AcDbMText
 10
440.0891146242703
 20
148.2374275996837
 30
0.0
 40
6.0
 41
115.7142857142857
 71
     8
 72
     1
  1
112.5
  7
ＭＳ_ゴシック
1001
ACAD
1000
ACAD_MTEXT_DEFINED_HEIGHT_BEGIN
1070
    46
1040
6.0
1000
ACAD_MTEXT_DEFINED_HEIGHT_END
  0
INSERT
  5
205
330
1FE
100
AcDbEntity
  8
7
  6
CONTINUOUS
 62
     4
100
AcDbBlockReference
  2
_ARROWFILLED
 10
383.8391146242702
 20
148.2374275996837
 30
0.0
 41
4.0
 42
4.0
 43
4.0
 50
179.9999999999998
  0
INSERT
  5
206
330
1FE
100
AcDbEntity
  8
7
  6
CONTINUOUS
 62
     4
100
AcDbBlockReference
  2
_ARROWFILLED
 10
496.3391146242702
 20
148.2374275996837
 30
0.0
 41
4.0
 42
4.0
 43
4.0
 50
359.9999999999997
  0
ENDBLK
  5
200
330
1FE
100
AcDbEntity
  8
0
100
AcDbBlockEnd
  0
BLOCK
  5
209
330
208
100
AcDbEntity
  8
0
100
AcDbBlockBegin
  2
DIM14
 70
     0
 10
0.0
 20
0.0
 30
0.0
  3
DIM14
  1

  0
LINE
  5
20B
330
208
100
AcDbEntity
  8
7
  6
CONTINUOUS
 62
     4
100
AcDbLine
 10
148.7391146242702
 20
425.237427599682
 30
0.0
 11
67.8391146242686
 21
425.2374275996823
 31
0.0
  0
LINE
  5
20C
330
208
100
AcDbEntity
  8
7
  6
CONTINUOUS
 62
     4
100
AcDbLine
 10
148.7391146242702
 20
179.2374275996829
 30
0.0
 11
67.8391146242686
 21
179.2374275996831
 31
0.0
  0
LINE
  5
20D
330
208
100
AcDbEntity
  8
7
  6
CONTINUOUS
 62
     4
100
AcDbLine
 10
70.8391146242686
 20
425.2374275996823
 30
0.0
 11
70.8391146242686
 21
179.2374275996831
 31
0.0
  0
MTEXT
  5
20E
330
208
100
AcDbEntity
  8
7
  6
CONTINUOUS
 62
     4
100
AcDbMText
 10
70.8391146242686
 20
302.2374275996825
 30
0.0
 40
6.0
 41
77.14285714285714
 71
     8
 72
     1
  1
246
  7
ＭＳ_ゴシック
 11
1.615544574432587E-15
 21
1.0
 31
0.0
1001
ACAD
1000
ACAD_MTEXT_DEFINED_HEIGHT_BEGIN
1070
    46
1040
6.0
1000
ACAD_MTEXT_DEFINED_HEIGHT_END
  0
INSERT
  5
20F
330
208
100
AcDbEntity
  8
7
  6
CONTINUOUS
 62
     4
100
AcDbBlockReference
  2
_ARROWFILLED
 10
70.8391146242686
 20
425.2374275996823
 30
0.0
 41
4.0
 42
4.0
 43
4.0
 50
89.99999999999991
  0
INSERT
  5
210
330
208
100
AcDbEntity
  8
7
  6
CONTINUOUS
 62
     4
100
AcDbBlockReference
  2
_ARROWFILLED
 10
70.8391146242686
 20
179.2374275996831
 30
0.0
 41
4.0
 42
4.0
 43
4.0
 50
269.9999999999998
  0
ENDBLK
  5
20A
330
208
100
AcDbEntity
  8
0
100
AcDbBlockEnd
  0
BLOCK
  5
21A
330
219
100
AcDbEntity
  8
0
100
AcDbBlockBegin
  2
DIM15
 70
     0
 10
0.0
 20
0.0
 30
0.0
  3
DIM15
  1

  0
LINE
  5
21C
330
219
100
AcDbEntity
  8
7
  6
CONTINUOUS
 62
     4
100
AcDbLine
 10
373.3979656911024
 20
288.1934819661794
 30
0.0
 11
492.4103582506713
 21
448.2719926275713
 31
0.0
  0
MTEXT
  5
21D
330
219
100
AcDbEntity
  8
7
  6
CONTINUOUS
 62
     4
100
AcDbMText
 10
487.0406245136192
 20
441.0493920160766
 30
0.0
 40
6.0
 41
75.71428571428571
 71
     7
 72
     1
  1
\U+220535
  7
ＭＳ_ゴシック
 11
0.5966370818949758
 21
0.8025111790547519
 31
0.0
1001
ACAD
1000
ACAD_MTEXT_DEFINED_HEIGHT_BEGIN
1070
    46
1040
6.0
1000
ACAD_MTEXT_DEFINED_HEIGHT_END
  0
INSERT
  5
21E
330
219
100
AcDbEntity
  8
7
  6
CONTINUOUS
 62
     4
100
AcDbBlockReference
  2
_ARROWFILLED
 10
373.3979656911024
 20
288.1934819661794
 30
0.0
 41
4.0
 42
4.0
 43
4.0
 50
233.3705758484321
  0
INSERT
  5
21F
330
219
100
AcDbEntity
  8
7
  6
CONTINUOUS
 62
     4
100
AcDbBlockReference
  2
_ARROWFILLED
 10
394.2802635574257
 20
316.2813732330945
 30
0.0
 41
4.0
 42
4.0
 43
4.0
 50
53.37057584843205
  0
ENDBLK
  5
21B
330
219
100
AcDbEntity
  8
0
100
AcDbBlockEnd
  0
BLOCK
  5
222
330
221
100
AcDbEntity
  8
0
100
AcDbBlockBegin
  2
DIM16
 70
     0
 10
0.0
 20
0.0
 30
0.0
  3
DIM16
  1

  0
LINE
  5
224
330
221
100
AcDbEntity
  8
7
  6
CONTINUOUS
 62
     4
100
AcDbLine
 10
375.7593272656096
 20
281.2382124657565
 30
0.0
 11
442.2267945479209
 21
453.9859077837409
 31
0.0
  0
MTEXT
  5
225
330
221
100
AcDbEntity
  8
7
  6
CONTINUOUS
 62
     4
100
AcDbMText
 10
438.9948796044676
 20
445.5862217301861
 30
0.0
 40
6.0
 41
75.71428571428571
 71
     7
 72
     1
  1
\U+220545
  7
ＭＳ_ゴシック
 11
0.3591016603842769
 21
0.9332984503947575
 31
0.0
1001
ACAD
1000
ACAD_MTEXT_DEFINED_HEIGHT_BEGIN
1070
    46
1040
6.0
1000
ACAD_MTEXT_DEFINED_HEIGHT_END
  0
INSERT
  5
226
330
221
100
AcDbEntity
  8
7
  6
CONTINUOUS
 62
     4
100
AcDbBlockReference
  2
_ARROWFILLED
 10
375.7593272656096
 20
281.2382124657565
 30
0.0
 41
4.0
 42
4.0
 43
4.0
 50
248.9549638352949
  0
INSERT
  5
227
330
221
100
AcDbEntity
  8
7
  6
CONTINUOUS
 62
     4
100
AcDbBlockReference
  2
_ARROWFILLED
 10
391.9189019829021
 20
323.2366427335206
 30
0.0
 41
4.0
 42
4.0
 43
4.0
 50
68.9549638352949
  0
ENDBLK
  5
223
330
221
100
AcDbEntity
  8
0
100
AcDbBlockEnd
  0
ENDSEC
  0
SECTION
  2
ENTITIES
  0
POLYLINE
  5
A1
330
1F
100
AcDbEntity
  8
8
  6
CONTINUOUS
 62
     7
100
AcDb2dPolyline
 66
     1
 10
0.0
 20
0.0
 30
0.0
  0
VERTEX
  5
A2
330
A1
100
AcDbEntity
  8
8
  6
CONTINUOUS
 62
     7
100
AcDbVertex
100
AcDb2dVertex
 10
133.8391146242703
 20
202.2374275996825
 30
0.0
  0
VERTEX
  5
A3
330
A1
100
AcDbEntity
  8
8
  6
CONTINUOUS
 62
     7
100
AcDbVertex
100
AcDb2dVertex
 10
633.8391146242702
 20
202.2374275996825
 30
0.0
  0
VERTEX
  5
A4
330
A1
100
AcDbEntity
  8
8
  6
CONTINUOUS
 62
     7
100
AcDbVertex
100
AcDb2dVertex
 10
633.8391146242702
 20
402.2374275996825
 30
0.0
  0
VERTEX
  5
A5
330
A1
100
AcDbEntity
  8
8
  6
CONTINUOUS
 62
     7
100
AcDbVertex
100
AcDb2dVertex
 10
133.8391146242703
 20
402.2374275996825
 30
0.0
  0
VERTEX
  5
A6
330
A1
100
AcDbEntity
  8
8
  6
CONTINUOUS
 62
     7
100
AcDbVertex
100
AcDb2dVertex
 10
133.8391146242703
 20
202.2374275996825
 30
0.0
  0
SEQEND
  5
A7
330
A1
100
AcDbEntity
  8
8
  6
CONTINUOUS
 62
     7
  0
LINE
  5
A8
330
1F
100
AcDbEntity
  8
8
  6
CONTINUOUS
 62
     7
100
AcDbLine
 10
648.8391146242702
 20
187.2374275996825
 30
0.0
 11
118.8391146242684
 21
187.2374275996825
 31
0.0
  0
LINE
  5
A9
330
1F
100
AcDbEntity
  8
8
  6
CONTINUOUS
 62
     7
100
AcDbLine
 10
118.8391146242684
 20
187.2374275996825
 30
0.0
 11
118.8391146242684
 21
417.2374275996825
 31
0.0
  0
LINE
  5
AA
330
1F
100
AcDbEntity
  8
8
  6
CONTINUOUS
 62
     7
100
AcDbLine
 10
648.8391146242702
 20
187.2374275996825
 30
0.0
 11
648.8391146242702
 21
417.2374275996825
 31
0.0
  0
LINE
  5
AB
330
1F
100
AcDbEntity
  8
8
  6
CONTINUOUS
 62
     7
100
AcDbLine
 10
648.8391146242702
 20
417.2374275996825
 30
0.0
 11
118.8391146242684
 21
417.2374275996825
 31
0.0
  0
LINE
  5
AC
330
1F
100
AcDbEntity
  8
8
  6
CONTINUOUS
 62
     7
100
AcDbLine
 10
683.8391146242702
 20
279.2374275996838
 30
0.0
 11
683.8391146242702
 21
325.2374275996838
 31
0.0
  0
LINE
  5
AD
330
1F
100
AcDbEntity
  8
8
  6
CONTINUOUS
 62
     7
100
AcDbLine
 10
683.8391146242702
 20
323.7374275996838
 30
0.0
 11
648.8391146242684
 21
323.7374275996838
 31
0.0
  0
LINE
  5
AE
330
1F
100
AcDbEntity
  8
8
  6
CONTINUOUS
 62
     7
100
AcDbLine
 10
683.8391146242702
 20
325.2374275996838
 30
0.0
 11
648.8391146242702
 21
325.2374275996838
 31
0.0
  0
LINE
  5
AF
330
1F
100
AcDbEntity
  8
8
  6
CONTINUOUS
 62
     7
100
AcDbLine
 10
683.8391146242702
 20
280.7374275996838
 30
0.0
 11
648.8391146242684
 21
280.7374275996838
 31
0.0
  0
LINE
  5
B0
330
1F
100
AcDbEntity
  8
8
  6
CONTINUOUS
 62
     7
100
AcDbLine
 10
683.8391146242702
 20
279.2374275996838
 30
0.0
 11
648.8391146242702
 21
279.2374275996838
 31
0.0
  0
LINE
  5
B1
330
1F
100
AcDbEntity
  8
8
  6
CONTINUOUS
 62
     7
100
AcDbLine
 10
676.6891146242688
 20
274.9714209602128
 30
0.0
 11
676.6891146242688
 21
267.737427599682
 31
0.0
  0
LINE
  5
B2
330
1F
100
AcDbEntity
  8
10
  6
CONTINUOUS
 62
     2
100
AcDbLine
 10
676.1506530858078
 20
272.4374275996818
 30
0.0
 11
676.6891146242688
 21
273.3700703422194
 31
0.0
  0
LINE
  5
B3
330
1F
100
AcDbEntity
  8
8
  6
CONTINUOUS
 62
     7
100
AcDbLine
 10
675.8891146242695
 20
266.9374275996818
 30
0.0
 11
676.6891146242688
 21
267.737427599682
 31
0.0
  0
LINE
  5
B4
330
1F
100
AcDbEntity
  8
10
  6
CONTINUOUS
 62
     2
100
AcDbLine
 10
676.1506530858078
 20
272.4374275996818
 30
0.0
 11
676.1506530858078
 21
267.1989660612201
 31
0.0
  0
LINE
  5
B5
330
1F
100
AcDbEntity
  8
8
  6
CONTINUOUS
 62
     7
100
AcDbLine
 10
680.3391146242702
 20
276.9374275996818
 30
0.0
 11
680.3391146242702
 21
279.237427599682
 31
0.0
  0
LINE
  5
B6
330
1F
100
AcDbEntity
  8
8
  6
CONTINUOUS
 62
     7
100
AcDbLine
 10
651.3391146242702
 20
276.9374275996818
 30
0.0
 11
651.3391146242702
 21
279.237427599682
 31
0.0
  0
LINE
  5
B7
330
1F
100
AcDbEntity
  8
10
  6
CONTINUOUS
 62
     2
100
AcDbLine
 10
655.5275761627308
 20
272.4374275996818
 30
0.0
 11
654.9891146242699
 21
273.3700703422194
 31
0.0
  0
LINE
  5
B8
330
1F
100
AcDbEntity
  8
8
  6
CONTINUOUS
 62
     7
100
AcDbLine
 10
680.3391146242702
 20
276.9374275996818
 30
0.0
 11
651.3391146242702
 21
276.9374275996818
 31
0.0
  0
LINE
  5
B9
330
1F
100
AcDbEntity
  8
8
  6
CONTINUOUS
 62
     7
100
AcDbLine
 10
654.9891146242699
 20
272.4374275996818
 30
0.0
 11
676.6891146242688
 21
272.4374275996818
 31
0.0
  0
LINE
  5
BA
330
1F
100
AcDbEntity
  8
8
  6
CONTINUOUS
 62
     7
100
AcDbLine
 10
655.7891146242691
 20
266.9374275996818
 30
0.0
 11
654.9891146242699
 21
267.737427599682
 31
0.0
  0
LINE
  5
BB
330
1F
100
AcDbEntity
  8
8
  6
CONTINUOUS
 62
     7
100
AcDbLine
 10
654.9891146242699
 20
267.737427599682
 30
0.0
 11
676.6891146242688
 21
267.737427599682
 31
0.0
  0
LINE
  5
BC
330
1F
100
AcDbEntity
  8
8
  6
CONTINUOUS
 62
     7
100
AcDbLine
 10
654.9891146242699
 20
274.9641424308932
 30
0.0
 11
654.9891146242699
 21
267.737427599682
 31
0.0
  0
LINE
  5
BD
330
1F
100
AcDbEntity
  8
10
  6
CONTINUOUS
 62
     2
100
AcDbLine
 10
655.5275761627308
 20
272.4374275996818
 30
0.0
 11
655.5275761627308
 21
267.1989660612201
 31
0.0
  0
LINE
  5
BE
330
1F
100
AcDbEntity
  8
8
  6
CONTINUOUS
 62
     7
100
AcDbLine
 10
655.7891146242691
 20
266.9374275996818
 30
0.0
 11
675.8891146242695
 21
266.9374275996818
 31
0.0
  0
LINE
  5
BF
330
1F
100
AcDbEntity
  8
8
  6
CONTINUOUS
 62
     7
100
AcDbLine
 10
680.1281367566189
 20
276.9374275996818
 30
0.0
 11
674.6281367566189
 21
276.9374275996818
 31
0.0
  0
ARC
  5
C0
330
1F
100
AcDbEntity
  8
8
  6
CONTINUOUS
 62
     7
100
AcDbCircle
 10
677.3781367566189
 20
281.9374275996818
 30
0.0
 40
7.0
100
AcDbArc
 50
253.4486440000086
 51
286.5513559999907
  0
LINE
  5
C1
330
1F
100
AcDbEntity
  8
8
  6
CONTINUOUS
 62
     7
100
AcDbLine
 10
680.1281367566189
 20
276.9374275996818
 30
0.0
 11
680.08601475662
 21
276.1337025996821
 31
0.0
  0
ARC
  5
C2
330
1F
100
AcDbEntity
  8
8
  6
CONTINUOUS
 62
     7
100
AcDbCircle
 10
679.0873847566181
 20
276.1860385996818
 30
0.0
 40
1.0
100
AcDbArc
 50
286.5513559999903
 51
356.9999999999939
  0
LINE
  5
C3
330
1F
100
AcDbEntity
  8
8
  6
CONTINUOUS
 62
     7
100
AcDbLine
 10
674.6281367566189
 20
276.9374275996818
 30
0.0
 11
674.6702587566197
 21
276.1337025996821
 31
0.0
  0
ARC
  5
C4
330
1F
100
AcDbEntity
  8
8
  6
CONTINUOUS
 62
     7
100
AcDbCircle
 10
675.6688887566197
 20
276.1860385996818
 30
0.0
 40
1.0
100
AcDbArc
 50
183.0000000000054
 51
253.448644000009
  0
LINE
  5
C5
330
1F
100
AcDbEntity
  8
8
  6
CONTINUOUS
 62
     7
100
AcDbLine
 10
657.1281367566189
 20
276.9374275996818
 30
0.0
 11
651.6281367566189
 21
276.9374275996818
 31
0.0
  0
ARC
  5
C6
330
1F
100
AcDbEntity
  8
8
  6
CONTINUOUS
 62
     7
100
AcDbCircle
 10
654.3781367566189
 20
281.9374275996818
 30
0.0
 40
7.0
100
AcDbArc
 50
253.4486440000086
 51
286.5513559999907
  0
LINE
  5
C7
330
1F
100
AcDbEntity
  8
8
  6
CONTINUOUS
 62
     7
100
AcDbLine
 10
657.1281367566189
 20
276.9374275996818
 30
0.0
 11
657.08601475662
 21
276.1337025996821
 31
0.0
  0
ARC
  5
C8
330
1F
100
AcDbEntity
  8
8
  6
CONTINUOUS
 62
     7
100
AcDbCircle
 10
656.0873847566181
 20
276.1860385996818
 30
0.0
 40
1.0
100
AcDbArc
 50
286.5513559999903
 51
356.9999999999939
  0
LINE
  5
C9
330
1F
100
AcDbEntity
  8
8
  6
CONTINUOUS
 62
     7
100
AcDbLine
 10
651.6281367566189
 20
276.9374275996818
 30
0.0
 11
651.6702587566197
 21
276.1337025996821
 31
0.0
  0
ARC
  5
CA
330
1F
100
AcDbEntity
  8
8
  6
CONTINUOUS
 62
     7
100
AcDbCircle
 10
652.6688887566197
 20
276.1860385996818
 30
0.0
 40
1.0
100
AcDbArc
 50
183.0000000000054
 51
253.448644000009
  0
LINE
  5
CB
330
1F
100
AcDbEntity
  8
8
  6
CONTINUOUS
 62
     7
100
AcDbLine
 10
132.289114624271
 20
417.5540942663495
 30
0.0
 11
125.3891146242713
 21
417.5540942663495
 31
0.0
  0
ARC
  5
CC
330
1F
100
AcDbEntity
  8
8
  6
CONTINUOUS
 62
     7
100
AcDbCircle
 10
128.8391146242721
 20
414.5870767224899
 30
0.0
 40
4.550350877192983
100
AcDbArc
 50
40.6956985254205
 51
139.3043014745795
  0
LINE
  5
CD
330
1F
100
AcDbEntity
  8
8
  6
CONTINUOUS
 62
     7
100
AcDbLine
 10
132.289114624271
 20
417.2374275996829
 30
0.0
 11
132.289114624271
 21
417.5540942663495
 31
0.0
  0
LINE
  5
CE
330
1F
100
AcDbEntity
  8
8
  6
CONTINUOUS
 62
     7
100
AcDbLine
 10
125.3891146242713
 20
417.2374275996829
 30
0.0
 11
125.3891146242713
 21
417.5540942663495
 31
0.0
  0
LINE
  5
CF
330
1F
100
AcDbEntity
  8
8
  6
CONTINUOUS
 62
     7
100
AcDbLine
 10
153.789114624271
 20
417.5540942663495
 30
0.0
 11
146.8891146242713
 21
417.5540942663495
 31
0.0
  0
ARC
  5
D0
330
1F
100
AcDbEntity
  8
8
  6
CONTINUOUS
 62
     7
100
AcDbCircle
 10
150.3391146242721
 20
414.5870767224899
 30
0.0
 40
4.550350877192983
100
AcDbArc
 50
40.6956985254205
 51
139.3043014745795
  0
LINE
  5
D1
330
1F
100
AcDbEntity
  8
8
  6
CONTINUOUS
 62
     7
100
AcDbLine
 10
153.789114624271
 20
417.2374275996829
 30
0.0
 11
153.789114624271
 21
417.5540942663495
 31
0.0
  0
LINE
  5
D2
330
1F
100
AcDbEntity
  8
8
  6
CONTINUOUS
 62
     7
100
AcDbLine
 10
146.8891146242713
 20
417.2374275996829
 30
0.0
 11
146.8891146242713
 21
417.5540942663495
 31
0.0
  0
LINE
  5
D3
330
1F
100
AcDbEntity
  8
8
  6
CONTINUOUS
 62
     7
100
AcDbLine
 10
649.1557812909377
 20
336.7874275996826
 30
0.0
 11
649.1557812909377
 21
343.6874275996832
 31
0.0
  0
ARC
  5
D4
330
1F
100
AcDbEntity
  8
8
  6
CONTINUOUS
 62
     7
100
AcDbCircle
 10
646.1887637470772
 20
340.2374275996825
 30
0.0
 40
4.550350877192955
100
AcDbArc
 50
310.6956985254009
 51
49.30430147459875
  0
LINE
  5
D5
330
1F
100
AcDbEntity
  8
8
  6
CONTINUOUS
 62
     7
100
AcDbLine
 10
648.8391146242702
 20
336.7874275996826
 30
0.0
 11
649.1557812909377
 21
336.7874275996826
 31
0.0
  0
LINE
  5
D6
330
1F
100
AcDbEntity
  8
8
  6
CONTINUOUS
 62
     7
100
AcDbLine
 10
648.8391146242702
 20
343.6874275996832
 30
0.0
 11
649.1557812909377
 21
343.6874275996832
 31
0.0
  0
LINE
  5
D7
330
1F
100
AcDbEntity
  8
8
  6
CONTINUOUS
 62
     7
100
AcDbLine
 10
649.1557812909377
 20
267.6874275996818
 30
0.0
 11
649.1557812909377
 21
260.7874275996813
 31
0.0
  0
ARC
  5
D8
330
1F
100
AcDbEntity
  8
8
  6
CONTINUOUS
 62
     7
100
AcDbCircle
 10
646.1887637470772
 20
264.237427599682
 30
0.0
 40
4.550350877192955
100
AcDbArc
 50
310.6956985254009
 51
49.30430147459875
  0
LINE
  5
D9
330
1F
100
AcDbEntity
  8
8
  6
CONTINUOUS
 62
     7
100
AcDbLine
 10
648.8391146242702
 20
267.6874275996818
 30
0.0
 11
649.1557812909377
 21
267.6874275996818
 31
0.0
  0
LINE
  5
DA
330
1F
100
AcDbEntity
  8
8
  6
CONTINUOUS
 62
     7
100
AcDbLine
 10
648.8391146242702
 20
260.7874275996813
 30
0.0
 11
649.1557812909377
 21
260.7874275996813
 31
0.0
  0
LINE
  5
DB
330
1F
100
AcDbEntity
  8
3
  6
DASHDOT
 62
     1
100
AcDbLine
 10
658.8391146242702
 20
302.237427599682
 30
0.0
 11
108.8391146242684
 21
302.2374275996825
 31
0.0
  0
LINE
  5
DC
330
1F
100
AcDbEntity
  8
3
  6
DASHDOT
 62
     1
100
AcDbLine
 10
383.8391146242702
 20
442.2374275996813
 30
0.0
 11
383.8391146242702
 21
162.2374275996836
 31
0.0
  0
LINE
  5
DD
330
1F
100
AcDbEntity
  8
8
  6
CONTINUOUS
 62
     7
100
AcDbLine
 10
633.8391146242702
 20
177.2374275996829
 30
0.0
 11
633.8391146242702
 21
187.2374275996829
 31
0.0
  0
ARC
  5
DE
330
1F
100
AcDbEntity
  8
8
  6
CONTINUOUS
 62
     7
100
AcDbCircle
 10
628.8391146242702
 20
177.2374275996829
 30
0.0
 40
5.0
100
AcDbArc
 50
269.9999999999998
 51
0.0
  0
LINE
  5
DF
330
1F
100
AcDbEntity
  8
8
  6
CONTINUOUS
 62
     7
100
AcDbLine
 10
138.8391146242703
 20
172.2374275996829
 30
0.0
 11
628.8391146242702
 21
172.2374275996843
 31
0.0
  0
LINE
  5
E0
330
1F
100
AcDbEntity
  8
8
  6
CONTINUOUS
 62
     7
100
AcDbLine
 10
133.8391146242703
 20
177.2374275996829
 30
0.0
 11
133.8391146242703
 21
187.2374275996829
 31
0.0
  0
ARC
  5
E1
330
1F
100
AcDbEntity
  8
8
  6
CONTINUOUS
 62
     7
100
AcDbCircle
 10
138.8391146242684
 20
177.2374275996829
 30
0.0
 40
5.0
100
AcDbArc
 50
179.9999999999998
 51
269.9999999999998
  0
CIRCLE
  5
E2
330
1F
100
AcDbEntity
  8
8
  6
CONTINUOUS
 62
     7
100
AcDbCircle
 10
608.8391146242702
 20
179.2374275996829
 30
0.0
 40
3.100000000000023
  0
CIRCLE
  5
E3
330
1F
100
AcDbEntity
  8
8
  6
CONTINUOUS
 62
     7
100
AcDbCircle
 10
496.3391146242702
 20
179.2374275996829
 30
0.0
 40
3.100000000000023
  0
CIRCLE
  5
E4
330
1F
100
AcDbEntity
  8
8
  6
CONTINUOUS
 62
     7
100
AcDbCircle
 10
271.3391146242702
 20
179.2374275996829
 30
0.0
 40
3.100000000000023
  0
CIRCLE
  5
E5
330
1F
100
AcDbEntity
  8
8
  6
CONTINUOUS
 62
     7
100
AcDbCircle
 10
158.8391146242703
 20
179.2374275996829
 30
0.0
 40
3.099999999999994
  0
LINE
  5
E6
330
1F
100
AcDbEntity
  8
8
  6
CONTINUOUS
 62
     7
100
AcDbLine
 10
633.8391146242702
 20
427.237427599682
 30
0.0
 11
633.8391146242702
 21
417.237427599682
 31
0.0
  0
ARC
  5
E7
330
1F
100
AcDbEntity
  8
8
  6
CONTINUOUS
 62
     7
100
AcDbCircle
 10
628.8391146242702
 20
427.237427599682
 30
0.0
 40
5.0
100
AcDbArc
 50
0.0
 51
89.99999999999991
  0
LINE
  5
E8
330
1F
100
AcDbEntity
  8
8
  6
CONTINUOUS
 62
     7
100
AcDbLine
 10
138.8391146242703
 20
432.237427599682
 30
0.0
 11
628.8391146242702
 21
432.2374275996806
 31
0.0
  0
LINE
  5
E9
330
1F
100
AcDbEntity
  8
8
  6
CONTINUOUS
 62
     7
100
AcDbLine
 10
133.8391146242703
 20
427.237427599682
 30
0.0
 11
133.8391146242703
 21
417.237427599682
 31
0.0
  0
ARC
  5
EA
330
1F
100
AcDbEntity
  8
8
  6
CONTINUOUS
 62
     7
100
AcDbCircle
 10
138.8391146242684
 20
427.237427599682
 30
0.0
 40
5.0
100
AcDbArc
 50
89.99999999999991
 51
179.9999999999998
  0
CIRCLE
  5
EB
330
1F
100
AcDbEntity
  8
8
  6
CONTINUOUS
 62
     7
100
AcDbCircle
 10
608.8391146242702
 20
425.237427599682
 30
0.0
 40
3.100000000000023
  0
CIRCLE
  5
EC
330
1F
100
AcDbEntity
  8
8
  6
CONTINUOUS
 62
     7
100
AcDbCircle
 10
496.3391146242702
 20
425.237427599682
 30
0.0
 40
3.100000000000023
  0
CIRCLE
  5
ED
330
1F
100
AcDbEntity
  8
8
  6
CONTINUOUS
 62
     7
100
AcDbCircle
 10
271.3391146242702
 20
425.237427599682
 30
0.0
 40
3.100000000000023
  0
CIRCLE
  5
EE
330
1F
100
AcDbEntity
  8
8
  6
CONTINUOUS
 62
     7
100
AcDbCircle
 10
158.8391146242703
 20
425.237427599682
 30
0.0
 40
3.099999999999994
  0
LINE
  5
EF
330
1F
100
AcDbEntity
  8
8
  6
CONTINUOUS
 62
     7
100
AcDbLine
 10
770.7767737305478
 20
186.9207609330186
 30
0.0
 11
763.8767737305463
 21
186.9207609330186
 31
0.0
  0
ARC
  5
F0
330
1F
100
AcDbEntity
  8
8
  6
CONTINUOUS
 62
     7
100
AcDbCircle
 10
767.3267737305471
 20
189.8877784768773
 30
0.0
 40
4.550350877192955
100
AcDbArc
 50
220.6956985253453
 51
319.3043014746538
  0
LINE
  5
F1
330
1F
100
AcDbEntity
  8
8
  6
CONTINUOUS
 62
     7
100
AcDbLine
 10
770.7767737305478
 20
187.2374275996843
 30
0.0
 11
770.7767737305478
 21
186.9207609330186
 31
0.0
  0
LINE
  5
F2
330
1F
100
AcDbEntity
  8
8
  6
CONTINUOUS
 62
     7
100
AcDbLine
 10
763.8767737305463
 20
187.2374275996843
 30
0.0
 11
763.8767737305463
 21
186.9207609330186
 31
0.0
  0
LINE
  5
F3
330
1F
100
AcDbEntity
  8
8
  6
CONTINUOUS
 62
     7
100
AcDbLine
 10
732.3267737305471
 20
417.2374275996843
 30
0.0
 11
732.3267737305471
 21
187.2374275996843
 31
0.0
  0
LINE
  5
F4
330
1F
100
AcDbEntity
  8
8
  6
CONTINUOUS
 62
     7
100
AcDbLine
 10
777.3267737305471
 20
432.2374275996843
 30
0.0
 11
777.3267737305471
 21
172.2374275996843
 31
0.0
  0
LINE
  5
F5
330
1F
100
AcDbEntity
  8
8
  6
CONTINUOUS
 62
     7
100
AcDbLine
 10
776.3267737305471
 20
432.2374275996843
 30
0.0
 11
776.3267737305471
 21
172.2374275996843
 31
0.0
  0
LINE
  5
F6
330
1F
100
AcDbEntity
  8
8
  6
CONTINUOUS
 62
     7
100
AcDbLine
 10
732.3267737305471
 20
417.2374275996843
 30
0.0
 11
776.3267737305471
 21
417.2374275996825
 31
0.0
  0
LINE
  5
F7
330
1F
100
AcDbEntity
  8
8
  6
CONTINUOUS
 62
     7
100
AcDbLine
 10
776.3267737305471
 20
416.2374275996825
 30
0.0
 11
777.3267737305471
 21
416.2374275996825
 31
0.0
  0
LINE
  5
F8
330
1F
100
AcDbEntity
  8
8
  6
CONTINUOUS
 62
     7
100
AcDbLine
 10
776.3267737305471
 20
432.2374275996843
 30
0.0
 11
777.3267737305471
 21
432.2374275996843
 31
0.0
  0
LINE
  5
F9
330
1F
100
AcDbEntity
  8
8
  6
CONTINUOUS
 62
     7
100
AcDbLine
 10
732.3267737305471
 20
187.2374275996843
 30
0.0
 11
776.3267737305471
 21
187.2374275996843
 31
0.0
  0
LINE
  5
FA
330
1F
100
AcDbEntity
  8
8
  6
CONTINUOUS
 62
     7
100
AcDbLine
 10
776.3267737305471
 20
188.2374275996843
 30
0.0
 11
777.3267737305471
 21
188.2374275996843
 31
0.0
  0
LINE
  5
FB
330
1F
100
AcDbEntity
  8
8
  6
CONTINUOUS
 62
     7
100
AcDbLine
 10
776.3267737305471
 20
172.2374275996843
 30
0.0
 11
777.3267737305471
 21
172.2374275996843
 31
0.0
  0
LINE
  5
FC
330
1F
100
AcDbEntity
  8
8
  6
CONTINUOUS
 62
     7
100
AcDbLine
 10
743.8267737305471
 20
325.2374275996843
 30
0.0
 11
776.3267737305471
 21
325.2374275996843
 31
0.0
  0
LINE
  5
FD
330
1F
100
AcDbEntity
  8
8
  6
CONTINUOUS
 62
     7
100
AcDbLine
 10
743.8267737305471
 20
325.2374275996843
 30
0.0
 11
743.8267737305471
 21
279.2374275996843
 31
0.0
  0
LINE
  5
FE
330
1F
100
AcDbEntity
  8
8
  6
CONTINUOUS
 62
     7
100
AcDbLine
 10
743.8267737305471
 20
279.2374275996843
 30
0.0
 11
776.3267737305471
 21
279.2374275996843
 31
0.0
  0
LINE
  5
FF
330
1F
100
AcDbEntity
  8
8
  6
CONTINUOUS
 62
     7
100
AcDbLine
 10
770.6767737305493
 20
274.9714209602133
 30
0.0
 11
770.6767737305493
 21
267.7374275996825
 31
0.0
  0
LINE
  5
100
330
1F
100
AcDbEntity
  8
10
  6
CONTINUOUS
 62
     2
100
AcDbLine
 10
770.1383121920865
 20
272.4374275996814
 30
0.0
 11
770.6767737305474
 21
273.3700703422199
 31
0.0
  0
LINE
  5
101
330
1F
100
AcDbEntity
  8
8
  6
CONTINUOUS
 62
     7
100
AcDbLine
 10
769.8767737305482
 20
266.9374275996814
 30
0.0
 11
770.6767737305493
 21
267.7374275996825
 31
0.0
  0
LINE
  5
102
330
1F
100
AcDbEntity
  8
10
  6
CONTINUOUS
 62
     2
100
AcDbLine
 10
770.1383121920865
 20
272.4374275996814
 30
0.0
 11
770.1383121920865
 21
267.1989660612197
 31
0.0
  0
LINE
  5
103
330
1F
100
AcDbEntity
  8
8
  6
CONTINUOUS
 62
     7
100
AcDbLine
 10
774.3267737305489
 20
276.9374275996814
 30
0.0
 11
774.3267737305489
 21
279.2374275996825
 31
0.0
  0
LINE
  5
104
330
1F
100
AcDbEntity
  8
8
  6
CONTINUOUS
 62
     7
100
AcDbLine
 10
745.3267737305489
 20
276.9374275996814
 30
0.0
 11
745.3267737305489
 21
279.2374275996825
 31
0.0
  0
LINE
  5
105
330
1F
100
AcDbEntity
  8
10
  6
CONTINUOUS
 62
     2
100
AcDbLine
 10
749.5152352690095
 20
272.4374275996814
 30
0.0
 11
748.9767737305485
 21
273.3700703422199
 31
0.0
  0
LINE
  5
106
330
1F
100
AcDbEntity
  8
8
  6
CONTINUOUS
 62
     7
100
AcDbLine
 10
774.3267737305489
 20
276.9374275996814
 30
0.0
 11
745.3267737305489
 21
276.9374275996814
 31
0.0
  0
LINE
  5
107
330
1F
100
AcDbEntity
  8
8
  6
CONTINUOUS
 62
     7
100
AcDbLine
 10
748.9767737305485
 20
272.4374275996814
 30
0.0
 11
770.6767737305493
 21
272.4374275996814
 31
0.0
  0
LINE
  5
108
330
1F
100
AcDbEntity
  8
8
  6
CONTINUOUS
 62
     7
100
AcDbLine
 10
749.7767737305478
 20
266.9374275996814
 30
0.0
 11
748.9767737305485
 21
267.7374275996825
 31
0.0
  0
LINE
  5
109
330
1F
100
AcDbEntity
  8
8
  6
CONTINUOUS
 62
     7
100
AcDbLine
 10
748.9767737305485
 20
267.7374275996825
 30
0.0
 11
770.6767737305493
 21
267.7374275996825
 31
0.0
  0
LINE
  5
10A
330
1F
100
AcDbEntity
  8
8
  6
CONTINUOUS
 62
     7
100
AcDbLine
 10
748.9767737305485
 20
274.9641424308937
 30
0.0
 11
748.9767737305485
 21
267.7374275996825
 31
0.0
  0
LINE
  5
10B
330
1F
100
AcDbEntity
  8
10
  6
CONTINUOUS
 62
     2
100
AcDbLine
 10
749.5152352690095
 20
272.4374275996814
 30
0.0
 11
749.5152352690095
 21
267.1989660612197
 31
0.0
  0
LINE
  5
10C
330
1F
100
AcDbEntity
  8
8
  6
CONTINUOUS
 62
     7
100
AcDbLine
 10
749.7767737305478
 20
266.9374275996814
 30
0.0
 11
769.8767737305482
 21
266.9374275996814
 31
0.0
  0
LINE
  5
10D
330
1F
100
AcDbEntity
  8
8
  6
CONTINUOUS
 62
     7
100
AcDbLine
 10
774.1157958628994
 20
276.9374275996814
 30
0.0
 11
768.6157958628994
 21
276.9374275996814
 31
0.0
  0
ARC
  5
10E
330
1F
100
AcDbEntity
  8
8
  6
CONTINUOUS
 62
     7
100
AcDbCircle
 10
771.3657958628994
 20
281.9374275996814
 30
0.0
 40
7.0
100
AcDbArc
 50
253.448644000063
 51
286.5513559998819
  0
LINE
  5
10F
330
1F
100
AcDbEntity
  8
8
  6
CONTINUOUS
 62
     7
100
AcDbLine
 10
774.1157958628994
 20
276.9374275996814
 30
0.0
 11
774.0736738628987
 21
276.1337025996816
 31
0.0
  0
ARC
  5
110
330
1F
100
AcDbEntity
  8
8
  6
CONTINUOUS
 62
     7
100
AcDbCircle
 10
773.0750438628986
 20
276.1860385996823
 30
0.0
 40
1.0
100
AcDbArc
 50
286.551355999882
 51
356.9999999999939
  0
LINE
  5
111
330
1F
100
AcDbEntity
  8
8
  6
CONTINUOUS
 62
     7
100
AcDbLine
 10
768.6157958628994
 20
276.9374275996814
 30
0.0
 11
768.6579178628983
 21
276.1337025996816
 31
0.0
  0
ARC
  5
112
330
1F
100
AcDbEntity
  8
8
  6
CONTINUOUS
 62
     7
100
AcDbCircle
 10
769.6565478628984
 20
276.1860385996823
 30
0.0
 40
1.0
100
AcDbArc
 50
183.0000000000054
 51
253.4486440000627
  0
LINE
  5
113
330
1F
100
AcDbEntity
  8
8
  6
CONTINUOUS
 62
     7
100
AcDbLine
 10
751.1157958628994
 20
276.9374275996814
 30
0.0
 11
745.6157958628994
 21
276.9374275996814
 31
0.0
  0
ARC
  5
114
330
1F
100
AcDbEntity
  8
8
  6
CONTINUOUS
 62
     7
100
AcDbCircle
 10
748.3657958628994
 20
281.9374275996814
 30
0.0
 40
7.0
100
AcDbArc
 50
253.448644000063
 51
286.5513559998819
  0
LINE
  5
115
330
1F
100
AcDbEntity
  8
8
  6
CONTINUOUS
 62
     7
100
AcDbLine
 10
751.1157958628994
 20
276.9374275996814
 30
0.0
 11
751.0736738628987
 21
276.1337025996816
 31
0.0
  0
ARC
  5
116
330
1F
100
AcDbEntity
  8
8
  6
CONTINUOUS
 62
     7
100
AcDbCircle
 10
750.0750438628986
 20
276.1860385996823
 30
0.0
 40
1.0
100
AcDbArc
 50
286.551355999882
 51
356.9999999999939
  0
LINE
  5
117
330
1F
100
AcDbEntity
  8
8
  6
CONTINUOUS
 62
     7
100
AcDbLine
 10
745.6157958628994
 20
276.9374275996814
 30
0.0
 11
745.6579178628983
 21
276.1337025996816
 31
0.0
  0
ARC
  5
118
330
1F
100
AcDbEntity
  8
8
  6
CONTINUOUS
 62
     7
100
AcDbCircle
 10
746.6565478628984
 20
276.1860385996823
 30
0.0
 40
1.0
100
AcDbArc
 50
183.0000000000054
 51
253.4486440000627
  0
ARC
  5
119
330
1F
100
AcDbEntity
  8
8
  6
CONTINUOUS
 62
     7
100
AcDbCircle
 10
766.5267737305478
 20
339.4374275996832
 30
0.0
 40
0.5
100
AcDbArc
 50
0.0
 51
89.99999999999991
  0
ARC
  5
11A
330
1F
100
AcDbEntity
  8
8
  6
CONTINUOUS
 62
     7
100
AcDbCircle
 10
768.1267737305482
 20
339.4374275996832
 30
0.0
 40
0.5
100
AcDbArc
 50
89.99999999999991
 51
179.9999999999998
  0
CIRCLE
  5
11B
330
1F
100
AcDbEntity
  8
8
  6
CONTINUOUS
 62
     7
100
AcDbCircle
 10
767.3267737305471
 20
340.2374275996825
 30
0.0
 40
3.450000000000045
  0
LINE
  5
11C
330
1F
100
AcDbEntity
  8
8
  6
CONTINUOUS
 62
     7
100
AcDbLine
 10
767.0267737305478
 20
339.4374275996832
 30
0.0
 11
767.0267737305478
 21
338.7874275996817
 31
0.0
  0
LINE
  5
11D
330
1F
100
AcDbEntity
  8
8
  6
CONTINUOUS
 62
     7
100
AcDbLine
 10
767.6267737305482
 20
339.4374275996832
 30
0.0
 11
767.6267737305482
 21
338.7874275996817
 31
0.0
  0
LINE
  5
11E
330
1F
100
AcDbEntity
  8
8
  6
CONTINUOUS
 62
     7
100
AcDbLine
 10
767.0267737305478
 20
338.7874275996817
 30
0.0
 11
767.6267737305482
 21
338.7874275996817
 31
0.0
  0
LINE
  5
11F
330
1F
100
AcDbEntity
  8
8
  6
CONTINUOUS
 62
     7
100
AcDbLine
 10
766.5267737305478
 20
340.5374275996817
 30
0.0
 11
765.8767737305482
 21
340.5374275996817
 31
0.0
  0
LINE
  5
120
330
1F
100
AcDbEntity
  8
8
  6
CONTINUOUS
 62
     7
100
AcDbLine
 10
766.5267737305478
 20
339.9374275996832
 30
0.0
 11
765.8767737305482
 21
339.9374275996832
 31
0.0
  0
ARC
  5
121
330
1F
100
AcDbEntity
  8
8
  6
CONTINUOUS
 62
     7
100
AcDbCircle
 10
768.1267737305482
 20
341.0374275996817
 30
0.0
 40
0.5
100
AcDbArc
 50
179.9999999999998
 51
269.9999999999998
  0
ARC
  5
122
330
1F
100
AcDbEntity
  8
8
  6
CONTINUOUS
 62
     7
100
AcDbCircle
 10
766.5267737305478
 20
341.0374275996817
 30
0.0
 40
0.5
100
AcDbArc
 50
269.9999999999998
 51
0.0
  0
LINE
  5
123
330
1F
100
AcDbEntity
  8
8
  6
CONTINUOUS
 62
     7
100
AcDbLine
 10
767.6267737305482
 20
341.0374275996817
 30
0.0
 11
767.6267737305482
 21
341.6874275996832
 31
0.0
  0
LINE
  5
124
330
1F
100
AcDbEntity
  8
8
  6
CONTINUOUS
 62
     7
100
AcDbLine
 10
767.0267737305478
 20
341.0374275996817
 30
0.0
 11
767.0267737305478
 21
341.6874275996832
 31
0.0
  0
LINE
  5
125
330
1F
100
AcDbEntity
  8
8
  6
CONTINUOUS
 62
     7
100
AcDbLine
 10
768.1267737305482
 20
340.5374275996817
 30
0.0
 11
768.7767737305478
 21
340.5374275996817
 31
0.0
  0
LINE
  5
126
330
1F
100
AcDbEntity
  8
8
  6
CONTINUOUS
 62
     7
100
AcDbLine
 10
768.1267737305482
 20
339.9374275996832
 30
0.0
 11
768.7767737305478
 21
339.9374275996832
 31
0.0
  0
LINE
  5
127
330
1F
100
AcDbEntity
  8
8
  6
CONTINUOUS
 62
     7
100
AcDbLine
 10
768.7767737305478
 20
339.9374275996832
 30
0.0
 11
768.7767737305478
 21
340.5374275996817
 31
0.0
  0
LINE
  5
128
330
1F
100
AcDbEntity
  8
8
  6
CONTINUOUS
 62
     7
100
AcDbLine
 10
767.6267737305482
 20
341.6874275996832
 30
0.0
 11
767.0267737305478
 21
341.6874275996832
 31
0.0
  0
LINE
  5
129
330
1F
100
AcDbEntity
  8
8
  6
CONTINUOUS
 62
     7
100
AcDbLine
 10
765.8767737305482
 20
340.5374275996817
 30
0.0
 11
765.8767737305482
 21
339.9374275996832
 31
0.0
  0
ARC
  5
12A
330
1F
100
AcDbEntity
  8
8
  6
CONTINUOUS
 62
     7
100
AcDbCircle
 10
766.5267737305478
 20
263.4374275996832
 30
0.0
 40
0.5
100
AcDbArc
 50
0.0
 51
89.99999999999991
  0
ARC
  5
12B
330
1F
100
AcDbEntity
  8
8
  6
CONTINUOUS
 62
     7
100
AcDbCircle
 10
768.1267737305482
 20
263.4374275996832
 30
0.0
 40
0.5
100
AcDbArc
 50
89.99999999999991
 51
179.9999999999998
  0
ARC
  5
12C
330
1F
100
AcDbEntity
  8
8
  6
CONTINUOUS
 62
     7
100
AcDbCircle
 10
767.3267737305471
 20
264.2374275996825
 30
0.0
 40
3.450000000000045
100
AcDbArc
 50
128.4999504092861
 51
51.50004959071395
  0
LINE
  5
12D
330
1F
100
AcDbEntity
  8
8
  6
CONTINUOUS
 62
     7
100
AcDbLine
 10
767.0267737305478
 20
263.4374275996832
 30
0.0
 11
767.0267737305478
 21
262.7874275996817
 31
0.0
  0
LINE
  5
12E
330
1F
100
AcDbEntity
  8
8
  6
CONTINUOUS
 62
     7
100
AcDbLine
 10
767.6267737305482
 20
263.4374275996832
 30
0.0
 11
767.6267737305482
 21
262.7874275996817
 31
0.0
  0
LINE
  5
12F
330
1F
100
AcDbEntity
  8
8
  6
CONTINUOUS
 62
     7
100
AcDbLine
 10
767.0267737305478
 20
262.7874275996817
 30
0.0
 11
767.6267737305482
 21
262.7874275996817
 31
0.0
  0
LINE
  5
130
330
1F
100
AcDbEntity
  8
8
  6
CONTINUOUS
 62
     7
100
AcDbLine
 10
766.5267737305478
 20
264.5374275996817
 30
0.0
 11
765.8767737305482
 21
264.5374275996817
 31
0.0
  0
LINE
  5
131
330
1F
100
AcDbEntity
  8
8
  6
CONTINUOUS
 62
     7
100
AcDbLine
 10
766.5267737305478
 20
263.9374275996832
 30
0.0
 11
765.8767737305482
 21
263.9374275996832
 31
0.0
  0
ARC
  5
132
330
1F
100
AcDbEntity
  8
8
  6
CONTINUOUS
 62
     7
100
AcDbCircle
 10
768.1267737305482
 20
265.0374275996817
 30
0.0
 40
0.5
100
AcDbArc
 50
179.9999999999998
 51
269.9999999999998
  0
ARC
  5
133
330
1F
100
AcDbEntity
  8
8
  6
CONTINUOUS
 62
     7
100
AcDbCircle
 10
766.5267737305478
 20
265.0374275996817
 30
0.0
 40
0.5
100
AcDbArc
 50
269.9999999999998
 51
0.0
  0
LINE
  5
134
330
1F
100
AcDbEntity
  8
8
  6
CONTINUOUS
 62
     7
100
AcDbLine
 10
767.6267737305482
 20
265.0374275996817
 30
0.0
 11
767.6267737305482
 21
265.6874275996832
 31
0.0
  0
LINE
  5
135
330
1F
100
AcDbEntity
  8
8
  6
CONTINUOUS
 62
     7
100
AcDbLine
 10
767.0267737305478
 20
265.0374275996817
 30
0.0
 11
767.0267737305478
 21
265.6874275996832
 31
0.0
  0
LINE
  5
136
330
1F
100
AcDbEntity
  8
8
  6
CONTINUOUS
 62
     7
100
AcDbLine
 10
768.1267737305482
 20
264.5374275996817
 30
0.0
 11
768.7767737305478
 21
264.5374275996817
 31
0.0
  0
LINE
  5
137
330
1F
100
AcDbEntity
  8
8
  6
CONTINUOUS
 62
     7
100
AcDbLine
 10
768.1267737305482
 20
263.9374275996832
 30
0.0
 11
768.7767737305478
 21
263.9374275996832
 31
0.0
  0
LINE
  5
138
330
1F
100
AcDbEntity
  8
8
  6
CONTINUOUS
 62
     7
100
AcDbLine
 10
768.7767737305478
 20
263.9374275996832
 30
0.0
 11
768.7767737305478
 21
264.5374275996817
 31
0.0
  0
LINE
  5
139
330
1F
100
AcDbEntity
  8
8
  6
CONTINUOUS
 62
     7
100
AcDbLine
 10
767.6267737305482
 20
265.6874275996832
 30
0.0
 11
767.0267737305478
 21
265.6874275996832
 31
0.0
  0
LINE
  5
13A
330
1F
100
AcDbEntity
  8
8
  6
CONTINUOUS
 62
     7
100
AcDbLine
 10
765.8767737305482
 20
264.5374275996817
 30
0.0
 11
765.8767737305482
 21
263.9374275996832
 31
0.0
  0
LINE
  5
13B
330
1F
100
AcDbEntity
  8
8
  6
CONTINUOUS
 62
     7
100
AcDbLine
 10
770.7767737305478
 20
417.55409426635
 30
0.0
 11
763.8767737305463
 21
417.55409426635
 31
0.0
  0
ARC
  5
13C
330
1F
100
AcDbEntity
  8
8
  6
CONTINUOUS
 62
     7
100
AcDbCircle
 10
767.3267737305471
 20
414.5870767224913
 30
0.0
 40
4.550350877192955
100
AcDbArc
 50
40.69569852534186
 51
139.3043014746581
  0
LINE
  5
13D
330
1F
100
AcDbEntity
  8
8
  6
CONTINUOUS
 62
     7
100
AcDbLine
 10
770.7767737305478
 20
417.2374275996843
 30
0.0
 11
770.7767737305478
 21
417.55409426635
 31
0.0
  0
LINE
  5
13E
330
1F
100
AcDbEntity
  8
8
  6
CONTINUOUS
 62
     7
100
AcDbLine
 10
763.8767737305463
 20
417.2374275996843
 30
0.0
 11
763.8767737305463
 21
417.55409426635
 31
0.0
  0
LINE
  5
13F
330
1F
100
AcDbEntity
  8
8
  6
CONTINUOUS
 62
     7
100
AcDbLine
 10
635.3891146242695
 20
417.5540942663495
 30
0.0
 11
642.2891146242691
 21
417.5540942663495
 31
0.0
  0
ARC
  5
140
330
1F
100
AcDbEntity
  8
8
  6
CONTINUOUS
 62
     7
100
AcDbCircle
 10
638.8391146242684
 20
414.5870767224899
 30
0.0
 40
4.550350877192955
100
AcDbArc
 50
40.6956985254205
 51
139.3043014745795
  0
LINE
  5
141
330
1F
100
AcDbEntity
  8
8
  6
CONTINUOUS
 62
     7
100
AcDbLine
 10
635.3891146242695
 20
417.2374275996829
 30
0.0
 11
635.3891146242695
 21
417.5540942663495
 31
0.0
  0
LINE
  5
142
330
1F
100
AcDbEntity
  8
8
  6
CONTINUOUS
 62
     7
100
AcDbLine
 10
642.2891146242691
 20
417.2374275996829
 30
0.0
 11
642.2891146242691
 21
417.5540942663495
 31
0.0
  0
LINE
  5
143
330
1F
100
AcDbEntity
  8
8
  6
CONTINUOUS
 62
     7
100
AcDbLine
 10
613.8891146242695
 20
417.5540942663495
 30
0.0
 11
620.7891146242691
 21
417.5540942663495
 31
0.0
  0
ARC
  5
144
330
1F
100
AcDbEntity
  8
8
  6
CONTINUOUS
 62
     7
100
AcDbCircle
 10
617.3391146242684
 20
414.5870767224899
 30
0.0
 40
4.550350877192955
100
AcDbArc
 50
40.6956985254205
 51
139.3043014745795
  0
LINE
  5
145
330
1F
100
AcDbEntity
  8
8
  6
CONTINUOUS
 62
     7
100
AcDbLine
 10
613.8891146242695
 20
417.2374275996829
 30
0.0
 11
613.8891146242695
 21
417.5540942663495
 31
0.0
  0
LINE
  5
146
330
1F
100
AcDbEntity
  8
8
  6
CONTINUOUS
 62
     7
100
AcDbLine
 10
620.7891146242691
 20
417.2374275996829
 30
0.0
 11
620.7891146242691
 21
417.5540942663495
 31
0.0
  0
LINE
  5
147
330
1F
100
AcDbEntity
  8
8
  6
CONTINUOUS
 62
     7
100
AcDbLine
 10
118.5224479576027
 20
305.6874275996823
 30
0.0
 11
118.5224479576027
 21
298.7874275996826
 31
0.0
  0
ARC
  5
148
330
1F
100
AcDbEntity
  8
8
  6
CONTINUOUS
 62
     7
100
AcDbCircle
 10
121.4894655014614
 20
302.2374275996834
 30
0.0
 40
4.550350877192983
100
AcDbArc
 50
130.6956985254007
 51
229.304301474599
  0
LINE
  5
149
330
1F
100
AcDbEntity
  8
8
  6
CONTINUOUS
 62
     7
100
AcDbLine
 10
118.8391146242684
 20
305.6874275996823
 30
0.0
 11
118.5224479576027
 21
305.6874275996823
 31
0.0
  0
LINE
  5
14A
330
1F
100
AcDbEntity
  8
8
  6
CONTINUOUS
 62
     7
100
AcDbLine
 10
118.8391146242684
 20
298.7874275996826
 30
0.0
 11
118.5224479576027
 21
298.7874275996826
 31
0.0
  0
LINE
  5
14B
330
1F
100
AcDbEntity
  8
8
  6
CONTINUOUS
 62
     7
100
AcDbLine
 10
132.289114624271
 20
186.9207609330154
 30
0.0
 11
125.3891146242713
 21
186.9207609330154
 31
0.0
  0
ARC
  5
14C
330
1F
100
AcDbEntity
  8
8
  6
CONTINUOUS
 62
     7
100
AcDbCircle
 10
128.8391146242721
 20
189.887778476875
 30
0.0
 40
4.550350877192983
100
AcDbArc
 50
220.6956985254212
 51
319.3043014745781
  0
LINE
  5
14D
330
1F
100
AcDbEntity
  8
8
  6
CONTINUOUS
 62
     7
100
AcDbLine
 10
132.289114624271
 20
187.237427599682
 30
0.0
 11
132.289114624271
 21
186.9207609330154
 31
0.0
  0
LINE
  5
14E
330
1F
100
AcDbEntity
  8
8
  6
CONTINUOUS
 62
     7
100
AcDbLine
 10
125.3891146242713
 20
187.237427599682
 30
0.0
 11
125.3891146242713
 21
186.9207609330154
 31
0.0
  0
LINE
  5
14F
330
1F
100
AcDbEntity
  8
8
  6
CONTINUOUS
 62
     7
100
AcDbLine
 10
153.789114624271
 20
186.9207609330154
 30
0.0
 11
146.8891146242713
 21
186.9207609330154
 31
0.0
  0
ARC
  5
150
330
1F
100
AcDbEntity
  8
8
  6
CONTINUOUS
 62
     7
100
AcDbCircle
 10
150.3391146242721
 20
189.887778476875
 30
0.0
 40
4.550350877192983
100
AcDbArc
 50
220.6956985254212
 51
319.3043014745781
  0
LINE
  5
151
330
1F
100
AcDbEntity
  8
8
  6
CONTINUOUS
 62
     7
100
AcDbLine
 10
153.789114624271
 20
187.237427599682
 30
0.0
 11
153.789114624271
 21
186.9207609330154
 31
0.0
  0
LINE
  5
152
330
1F
100
AcDbEntity
  8
8
  6
CONTINUOUS
 62
     7
100
AcDbLine
 10
146.8891146242713
 20
187.237427599682
 30
0.0
 11
146.8891146242713
 21
186.9207609330154
 31
0.0
  0
LINE
  5
153
330
1F
100
AcDbEntity
  8
8
  6
CONTINUOUS
 62
     7
100
AcDbLine
 10
635.3891146242695
 20
186.9207609330154
 30
0.0
 11
642.2891146242691
 21
186.9207609330154
 31
0.0
  0
ARC
  5
154
330
1F
100
AcDbEntity
  8
8
  6
CONTINUOUS
 62
     7
100
AcDbCircle
 10
638.8391146242684
 20
189.887778476875
 30
0.0
 40
4.550350877192955
100
AcDbArc
 50
220.6956985254204
 51
319.3043014745789
  0
LINE
  5
155
330
1F
100
AcDbEntity
  8
8
  6
CONTINUOUS
 62
     7
100
AcDbLine
 10
635.3891146242695
 20
187.237427599682
 30
0.0
 11
635.3891146242695
 21
186.9207609330154
 31
0.0
  0
LINE
  5
156
330
1F
100
AcDbEntity
  8
8
  6
CONTINUOUS
 62
     7
100
AcDbLine
 10
642.2891146242691
 20
187.237427599682
 30
0.0
 11
642.2891146242691
 21
186.9207609330154
 31
0.0
  0
LINE
  5
157
330
1F
100
AcDbEntity
  8
8
  6
CONTINUOUS
 62
     7
100
AcDbLine
 10
613.8891146242695
 20
186.9207609330154
 30
0.0
 11
620.7891146242691
 21
186.9207609330154
 31
0.0
  0
ARC
  5
158
330
1F
100
AcDbEntity
  8
8
  6
CONTINUOUS
 62
     7
100
AcDbCircle
 10
617.3391146242684
 20
189.887778476875
 30
0.0
 40
4.550350877192955
100
AcDbArc
 50
220.6956985254204
 51
319.3043014745789
  0
LINE
  5
159
330
1F
100
AcDbEntity
  8
8
  6
CONTINUOUS
 62
     7
100
AcDbLine
 10
613.8891146242695
 20
187.237427599682
 30
0.0
 11
613.8891146242695
 21
186.9207609330154
 31
0.0
  0
LINE
  5
15A
330
1F
100
AcDbEntity
  8
8
  6
CONTINUOUS
 62
     7
100
AcDbLine
 10
620.7891146242691
 20
187.237427599682
 30
0.0
 11
620.7891146242691
 21
186.9207609330154
 31
0.0
  0
CIRCLE
  5
15B
330
1F
100
AcDbEntity
  8
8
  6
CONTINUOUS
 62
     7
100
AcDbCircle
 10
383.8391146242702
 20
179.2374275996829
 30
0.0
 40
3.100000000000023
  0
CIRCLE
  5
15C
330
1F
100
AcDbEntity
  8
8
  6
CONTINUOUS
 62
     7
100
AcDbCircle
 10
383.8391146242702
 20
425.237427599682
 30
0.0
 40
3.100000000000023
  0
LINE
  5
15D
330
1F
100
AcDbEntity
  8
8
  6
CONTINUOUS
 62
     7
100
AcDbLine
 10
455.3891146242713
 20
417.5540942663495
 30
0.0
 11
462.2891146242691
 21
417.5540942663495
 31
0.0
  0
ARC
  5
15E
330
1F
100
AcDbEntity
  8
8
  6
CONTINUOUS
 62
     7
100
AcDbCircle
 10
458.8391146242684
 20
414.5870767224899
 30
0.0
 40
4.550350877192955
100
AcDbArc
 50
40.6956985254205
 51
139.3043014745795
  0
LINE
  5
15F
330
1F
100
AcDbEntity
  8
8
  6
CONTINUOUS
 62
     7
100
AcDbLine
 10
455.3891146242713
 20
417.2374275996829
 30
0.0
 11
455.3891146242713
 21
417.5540942663495
 31
0.0
  0
LINE
  5
160
330
1F
100
AcDbEntity
  8
8
  6
CONTINUOUS
 62
     7
100
AcDbLine
 10
462.2891146242691
 20
417.2374275996829
 30
0.0
 11
462.2891146242691
 21
417.5540942663495
 31
0.0
  0
LINE
  5
161
330
1F
100
AcDbEntity
  8
8
  6
CONTINUOUS
 62
     7
100
AcDbLine
 10
305.3891146242695
 20
417.5540942663495
 30
0.0
 11
312.2891146242691
 21
417.5540942663495
 31
0.0
  0
ARC
  5
162
330
1F
100
AcDbEntity
  8
8
  6
CONTINUOUS
 62
     7
100
AcDbCircle
 10
308.8391146242684
 20
414.5870767224899
 30
0.0
 40
4.550350877192955
100
AcDbArc
 50
40.6956985254205
 51
139.3043014745795
  0
LINE
  5
163
330
1F
100
AcDbEntity
  8
8
  6
CONTINUOUS
 62
     7
100
AcDbLine
 10
305.3891146242695
 20
417.2374275996829
 30
0.0
 11
305.3891146242695
 21
417.5540942663495
 31
0.0
  0
LINE
  5
164
330
1F
100
AcDbEntity
  8
8
  6
CONTINUOUS
 62
     7
100
AcDbLine
 10
312.2891146242691
 20
417.2374275996829
 30
0.0
 11
312.2891146242691
 21
417.5540942663495
 31
0.0
  0
LINE
  5
165
330
1F
100
AcDbEntity
  8
8
  6
CONTINUOUS
 62
     7
100
AcDbLine
 10
312.2891146242691
 20
186.9207609330154
 30
0.0
 11
305.3891146242695
 21
186.9207609330154
 31
0.0
  0
ARC
  5
166
330
1F
100
AcDbEntity
  8
8
  6
CONTINUOUS
 62
     7
100
AcDbCircle
 10
308.8391146242702
 20
189.887778476875
 30
0.0
 40
4.550350877192955
100
AcDbArc
 50
220.6956985254212
 51
319.3043014745781
  0
LINE
  5
167
330
1F
100
AcDbEntity
  8
8
  6
CONTINUOUS
 62
     7
100
AcDbLine
 10
312.2891146242691
 20
187.237427599682
 30
0.0
 11
312.2891146242691
 21
186.9207609330154
 31
0.0
  0
LINE
  5
168
330
1F
100
AcDbEntity
  8
8
  6
CONTINUOUS
 62
     7
100
AcDbLine
 10
305.3891146242695
 20
187.237427599682
 30
0.0
 11
305.3891146242695
 21
186.9207609330154
 31
0.0
  0
LINE
  5
169
330
1F
100
AcDbEntity
  8
8
  6
CONTINUOUS
 62
     7
100
AcDbLine
 10
462.2891146242691
 20
186.9207609330154
 30
0.0
 11
455.3891146242695
 21
186.9207609330154
 31
0.0
  0
ARC
  5
16A
330
1F
100
AcDbEntity
  8
8
  6
CONTINUOUS
 62
     7
100
AcDbCircle
 10
458.8391146242702
 20
189.887778476875
 30
0.0
 40
4.550350877192955
100
AcDbArc
 50
220.6956985254212
 51
319.3043014745781
  0
LINE
  5
16B
330
1F
100
AcDbEntity
  8
8
  6
CONTINUOUS
 62
     7
100
AcDbLine
 10
462.2891146242691
 20
187.237427599682
 30
0.0
 11
462.2891146242691
 21
186.9207609330154
 31
0.0
  0
LINE
  5
16C
330
1F
100
AcDbEntity
  8
8
  6
CONTINUOUS
 62
     7
100
AcDbLine
 10
455.3891146242695
 20
187.237427599682
 30
0.0
 11
455.3891146242695
 21
186.9207609330154
 31
0.0
  0
LINE
  5
16D
330
1F
100
AcDbEntity
  8
3
  6
DASHDOT
 62
     1
100
AcDbLine
 10
263.2391146242702
 20
425.237427599682
 30
0.0
 11
279.4391146242702
 21
425.237427599682
 31
0.0
  0
LINE
  5
16E
330
1F
100
AcDbEntity
  8
3
  6
DASHDOT
 62
     1
100
AcDbLine
 10
271.3391146242702
 20
433.337427599682
 30
0.0
 11
271.3391146242702
 21
417.137427599682
 31
0.0
  0
LINE
  5
16F
330
1F
100
AcDbEntity
  8
3
  6
DASHDOT
 62
     1
100
AcDbLine
 10
150.7391146242702
 20
425.237427599682
 30
0.0
 11
166.9391146242703
 21
425.237427599682
 31
0.0
  0
LINE
  5
170
330
1F
100
AcDbEntity
  8
3
  6
DASHDOT
 62
     1
100
AcDbLine
 10
158.8391146242703
 20
433.337427599682
 30
0.0
 11
158.8391146242703
 21
417.137427599682
 31
0.0
  0
LINE
  5
171
330
1F
100
AcDbEntity
  8
3
  6
DASHDOT
 62
     1
100
AcDbLine
 10
375.7391146242702
 20
425.237427599682
 30
0.0
 11
391.9391146242702
 21
425.237427599682
 31
0.0
  0
LINE
  5
172
330
1F
100
AcDbEntity
  8
3
  6
DASHDOT
 62
     1
100
AcDbLine
 10
488.2391146242702
 20
425.237427599682
 30
0.0
 11
504.4391146242702
 21
425.237427599682
 31
0.0
  0
LINE
  5
173
330
1F
100
AcDbEntity
  8
3
  6
DASHDOT
 62
     1
100
AcDbLine
 10
496.3391146242702
 20
433.337427599682
 30
0.0
 11
496.3391146242702
 21
417.137427599682
 31
0.0
  0
LINE
  5
174
330
1F
100
AcDbEntity
  8
3
  6
DASHDOT
 62
     1
100
AcDbLine
 10
600.7391146242703
 20
425.237427599682
 30
0.0
 11
616.9391146242701
 21
425.237427599682
 31
0.0
  0
LINE
  5
175
330
1F
100
AcDbEntity
  8
3
  6
DASHDOT
 62
     1
100
AcDbLine
 10
608.8391146242702
 20
433.337427599682
 30
0.0
 11
608.8391146242702
 21
417.137427599682
 31
0.0
  0
LINE
  5
176
330
1F
100
AcDbEntity
  8
3
  6
DASHDOT
 62
     1
100
AcDbLine
 10
600.7391146242703
 20
179.2374275996829
 30
0.0
 11
616.9391146242701
 21
179.2374275996829
 31
0.0
  0
LINE
  5
177
330
1F
100
AcDbEntity
  8
3
  6
DASHDOT
 62
     1
100
AcDbLine
 10
608.8391146242702
 20
187.3374275996829
 30
0.0
 11
608.8391146242702
 21
171.1374275996829
 31
0.0
  0
LINE
  5
178
330
1F
100
AcDbEntity
  8
3
  6
DASHDOT
 62
     1
100
AcDbLine
 10
488.2391146242702
 20
179.2374275996829
 30
0.0
 11
504.4391146242702
 21
179.2374275996829
 31
0.0
  0
LINE
  5
179
330
1F
100
AcDbEntity
  8
3
  6
DASHDOT
 62
     1
100
AcDbLine
 10
496.3391146242702
 20
187.3374275996829
 30
0.0
 11
496.3391146242702
 21
171.1374275996829
 31
0.0
  0
LINE
  5
17A
330
1F
100
AcDbEntity
  8
3
  6
DASHDOT
 62
     1
100
AcDbLine
 10
375.7391146242702
 20
179.2374275996829
 30
0.0
 11
391.9391146242702
 21
179.2374275996829
 31
0.0
  0
LINE
  5
17B
330
1F
100
AcDbEntity
  8
3
  6
DASHDOT
 62
     1
100
AcDbLine
 10
263.2391146242702
 20
179.2374275996829
 30
0.0
 11
279.4391146242702
 21
179.2374275996829
 31
0.0
  0
LINE
  5
17C
330
1F
100
AcDbEntity
  8
3
  6
DASHDOT
 62
     1
100
AcDbLine
 10
271.3391146242702
 20
187.3374275996829
 30
0.0
 11
271.3391146242702
 21
171.1374275996829
 31
0.0
  0
LINE
  5
17D
330
1F
100
AcDbEntity
  8
3
  6
DASHDOT
 62
     1
100
AcDbLine
 10
150.7391146242702
 20
179.2374275996829
 30
0.0
 11
166.9391146242703
 21
179.2374275996829
 31
0.0
  0
LINE
  5
17E
330
1F
100
AcDbEntity
  8
3
  6
DASHDOT
 62
     1
100
AcDbLine
 10
158.8391146242703
 20
187.3374275996829
 30
0.0
 11
158.8391146242703
 21
171.1374275996829
 31
0.0
  0
LINE
  5
17F
330
1F
100
AcDbEntity
  8
3
  6
DASHDOT
 62
     1
100
AcDbLine
 10
771.3267737305471
 20
425.237427599682
 30
0.0
 11
782.3267737305471
 21
425.237427599682
 31
0.0
  0
LINE
  5
180
330
1F
100
AcDbEntity
  8
3
  6
DASHDOT
 62
     1
100
AcDbLine
 10
771.3267737305468
 20
179.2475902013089
 30
0.0
 11
782.3267737305468
 21
179.2475902013089
 31
0.0
  0
LINE
  5
181
330
1F
100
AcDbEntity
  8
3
  6
DASHDOT
 62
     1
100
AcDbLine
 10
722.3267737305471
 20
302.237427599682
 30
0.0
 11
787.3267737305471
 21
302.237427599682
 31
0.0
  0
CIRCLE
  5
182
330
1F
100
AcDbEntity
  8
8
  6
CONTINUOUS
 62
     7
100
AcDbCircle
 10
383.8391146242582
 20
302.2374275996375
 30
0.0
 40
17.5
  0
CIRCLE
  5
183
330
1F
100
AcDbEntity
  8
11
  6
HIDDEN
 62
     3
100
AcDbCircle
 10
383.8391146242582
 20
302.2374275996375
 30
0.0
 40
22.5
  0
HATCH
  5
184
330
1F
100
AcDbEntity
  8
9
  6
CONTINUOUS
 62
     2
100
AcDbHatch
 10
0.0
 20
0.0
 30
0.0
210
0.0
220
0.0
230
1.0
  2

 70
     0
 71
     0
 91
        4
 92
        0
 93
       40
 72
     1
 10
383.8391146242587
 20
324.7374275996381
 11
382.8576784085386
 21
324.7160125852299
 72
     1
 10
382.8576784085386
 20
324.7160125852299
 11
381.8781104124363
 21
324.6518083067023
 72
     1
 10
381.8781104124363
 20
324.6518083067023
 11
380.9022752993075
 21
324.5449369805488
 72
     1
 10
380.9022752993075
 20
324.5449369805488
 11
379.9320306267526
 21
324.3956020424127
 72
     1
 10
379.9320306267526
 20
324.3956020424127
 11
378.9692233106513
 21
324.2040877598366
 72
     1
 10
378.9692233106513
 20
324.2040877598366
 11
378.0156861094518
 21
323.9707586911421
 72
     1
 10
378.0156861094518
 20
323.9707586911421
 11
377.0732341354124
 21
323.6960589914731
 72
     1
 10
377.0732341354124
 20
323.6960589914731
 11
376.143661399431
 21
323.380511567321
 72
     1
 10
376.143661399431
 20
323.380511567321
 11
375.228737396044
 21
323.024717081142
 72
     1
 10
375.228737396044
 20
323.024717081142
 11
374.3302037350927
 21
322.6293528079627
 72
     1
 10
374.3302037350927
 20
322.6293528079627
 11
373.4497708264702
 21
322.195171346148
 72
     1
 10
373.4497708264702
 20
322.195171346148
 11
372.5891146242585
 21
321.7229991847879
 72
     1
 10
372.5891146242585
 20
321.7229991847879
 11
371.7498734364549
 21
321.2137351304279
 72
     1
 10
371.7498734364549
 20
321.2137351304279
 11
370.9336448063599
 21
320.6683485961403
 72
     1
 10
370.9336448063599
 20
320.6683485961403
 11
370.1419824715622
 21
320.0878777561908
 72
     1
 10
370.1419824715622
 20
320.0878777561908
 11
369.3763934063113
 21
319.473427569815
 72
     1
 10
369.3763934063113
 20
319.473427569815
 11
368.638334952906
 21
318.8261676778658
 72
     1
 10
368.638334952906
 20
318.8261676778658
 11
367.929212047561
 21
318.1473301763353
 72
     1
 10
367.929212047561
 20
318.1473301763353
 11
367.2503745460305
 21
317.4382072709903
 72
     1
 10
367.2503745460305
 20
317.4382072709903
 11
366.6031146540813
 21
316.7001488175851
 72
     1
 10
366.6031146540813
 20
316.7001488175851
 11
365.9886644677055
 21
315.9345597523342
 72
     1
 10
365.9886644677055
 20
315.9345597523342
 11
365.408193627756
 21
315.1428974175365
 72
     1
 10
365.408193627756
 20
315.1428974175365
 11
364.8628070934683
 21
314.3266687874415
 72
     1
 10
364.8628070934683
 20
314.3266687874415
 11
364.3535430391084
 21
313.4874275996379
 72
     1
 10
364.3535430391084
 20
313.4874275996379
 11
363.8813708777483
 21
312.6267713974261
 72
     1
 10
363.8813708777483
 20
312.6267713974261
 11
363.4471894159336
 21
311.7463384888036
 72
     1
 10
363.4471894159336
 20
311.7463384888036
 11
363.0518251427543
 21
310.8478048278524
 72
     1
 10
363.0518251427543
 20
310.8478048278524
 11
362.6960306565753
 21
309.9328808244654
 72
     1
 10
362.6960306565753
 20
309.9328808244654
 11
362.3804832324231
 21
309.0033080884839
 72
     1
 10
362.3804832324231
 20
309.0033080884839
 11
362.1057835327542
 21
308.0608561144445
 72
     1
 10
362.1057835327542
 20
308.0608561144445
 11
361.8724544640597
 21
307.1073189132451
 72
     1
 10
361.8724544640597
 20
307.1073189132451
 11
361.6809401814835
 21
306.1445115971437
 72
     1
 10
361.6809401814835
 20
306.1445115971437
 11
361.5316052433474
 21
305.1742669245889
 72
     1
 10
361.5316052433474
 20
305.1742669245889
 11
361.4247339171939
 21
304.19843181146
 72
     1
 10
361.4247339171939
 20
304.19843181146
 11
361.3605296386664
 21
303.2188638153577
 72
     1
 10
361.3605296386664
 20
303.2188638153577
 11
361.3391146242582
 21
302.2374275996377
 72
     1
 10
361.3391146242582
 20
302.2374275996823
 11
133.8391146242703
 21
302.2374275996824
 72
     1
 10
133.8391146242703
 20
302.2374275996824
 11
133.8391146242703
 21
402.2374275996825
 72
     1
 10
133.8391146242703
 20
402.2374275996825
 11
383.8391146242702
 21
402.2374275996825
 72
     1
 10
383.8391146242702
 20
402.2374275996825
 11
383.8391146242702
 21
324.7374275996375
 97
        0
 92
        0
 93
       40
 72
     1
 10
406.3391146242582
 20
302.2374275996593
 11
406.31769960985
 21
303.2188638153784
 72
     1
 10
406.31769960985
 20
303.2188638153784
 11
406.2534953313226
 21
304.1984318114797
 72
     1
 10
406.2534953313226
 20
304.1984318114797
 11
406.1466240051691
 21
305.1742669246076
 72
     1
 10
406.1466240051691
 20
305.1742669246076
 11
405.9972890670333
 21
306.1445115971614
 72
     1
 10
405.9972890670333
 20
306.1445115971614
 11
405.8057747844572
 21
307.1073189132618
 72
     1
 10
405.8057747844572
 20
307.1073189132618
 11
405.572445715763
 21
308.0608561144604
 72
     1
 10
405.572445715763
 20
308.0608561144604
 11
405.2977460160943
 21
309.0033080884988
 72
     1
 10
405.2977460160943
 20
309.0033080884988
 11
404.9821985919425
 21
309.9328808244794
 72
     1
 10
404.9821985919425
 20
309.9328808244794
 11
404.6264041057639
 21
310.8478048278654
 72
     1
 10
404.6264041057639
 20
310.8478048278654
 11
404.2310398325849
 21
311.7463384888158
 72
     1
 10
404.2310398325849
 20
311.7463384888158
 11
403.7968583707707
 21
312.6267713974375
 72
     1
 10
403.7968583707707
 20
312.6267713974375
 11
403.324686209411
 21
313.4874275996484
 72
     1
 10
403.324686209411
 20
313.4874275996484
 11
402.8154221550516
 21
314.3266687874511
 72
     1
 10
402.8154221550516
 20
314.3266687874511
 11
402.2700356207645
 21
315.1428974175453
 72
     1
 10
402.2700356207645
 20
315.1428974175453
 11
401.6895647808155
 21
315.9345597523422
 72
     1
 10
401.6895647808155
 20
315.9345597523422
 11
401.0751145944403
 21
316.7001488175924
 72
     1
 10
401.0751145944403
 20
316.7001488175924
 11
400.4278547024917
 21
317.4382072709969
 72
     1
 10
400.4278547024917
 20
317.4382072709969
 11
399.7490172009619
 21
318.1473301763412
 72
     1
 10
399.7490172009619
 20
318.1473301763412
 11
399.0398942956177
 21
318.826167677871
 72
     1
 10
399.0398942956177
 20
318.826167677871
 11
398.3018358422132
 21
319.4734275698196
 72
     1
 10
398.3018358422132
 20
319.4734275698196
 11
397.536246776963
 21
320.0878777561948
 72
     1
 10
397.536246776963
 20
320.0878777561948
 11
396.7445844421661
 21
320.6683485961437
 72
     1
 10
396.7445844421661
 20
320.6683485961437
 11
395.9283558120719
 21
321.2137351304308
 72
     1
 10
395.9283558120719
 20
321.2137351304308
 11
395.0891146242691
 21
321.7229991847903
 72
     1
 10
395.0891146242691
 20
321.7229991847903
 11
394.2284584220582
 21
322.1951713461499
 72
     1
 10
394.2284584220582
 20
322.1951713461499
 11
393.3480255134365
 21
322.6293528079642
 72
     1
 10
393.3480255134365
 20
322.6293528079642
 11
392.4494918524862
 21
323.0247170811431
 72
     1
 10
392.4494918524862
 20
323.0247170811431
 11
391.5345678491001
 21
323.3805115673217
 72
     1
 10
391.5345678491001
 20
323.3805115673217
 11
390.6049951131196
 21
323.6960589914736
 72
     1
 10
390.6049951131196
 20
323.6960589914736
 11
389.6625431390811
 21
323.9707586911423
 72
     1
 10
389.6625431390811
 20
323.9707586911423
 11
388.7090059378826
 21
324.2040877598365
 72
     1
 10
388.7090059378826
 20
324.2040877598365
 11
387.7461986217822
 21
324.3956020424125
 72
     1
 10
387.7461986217822
 20
324.3956020424125
 11
386.7759539492283
 21
324.5449369805484
 72
     1
 10
386.7759539492283
 20
324.5449369805484
 11
385.8001188361005
 21
324.6518083067019
 72
     1
 10
385.8001188361005
 20
324.6518083067019
 11
384.8205508399992
 21
324.7160125852293
 72
     1
 10
384.8205508399992
 20
324.7160125852293
 11
383.8391146242801
 21
324.7374275996375
 72
     1
 10
383.8391146242702
 20
324.7374275996375
 11
383.8391146242702
 21
402.2374275996825
 72
     1
 10
383.8391146242702
 20
402.2374275996825
 11
633.8391146242702
 21
402.2374275996825
 72
     1
 10
633.8391146242702
 20
402.2374275996825
 11
633.8391146242702
 21
302.237427599682
 72
     1
 10
633.8391146242702
 20
302.237427599682
 11
406.3391146242582
 21
302.2374275996822
 97
        0
 92
        0
 93
       40
 72
     1
 10
383.8391146242703
 20
202.2374275996825
 11
633.8391146242702
 21
202.2374275996825
 72
     1
 10
633.8391146242702
 20
202.2374275996825
 11
633.8391146242702
 21
302.237427599682
 72
     1
 10
633.8391146242702
 20
302.237427599682
 11
406.3391146242582
 21
302.2374275996375
 72
     1
 10
406.3391146242582
 20
302.2374275996374
 11
406.31769960985
 21
301.2559913839173
 72
     1
 10
406.31769960985
 20
301.2559913839173
 11
406.2534953313224
 21
300.276423387815
 72
     1
 10
406.2534953313224
 20
300.276423387815
 11
406.1466240051689
 21
299.3005882746862
 72
     1
 10
406.1466240051689
 20
299.3005882746862
 11
405.9972890670328
 21
298.3303436021313
 72
     1
 10
405.9972890670328
 20
298.3303436021313
 11
405.8057747844566
 21
297.3675362860299
 72
     1
 10
405.8057747844566
 20
297.3675362860299
 11
405.5724457157621
 21
296.4139990848305
 72
     1
 10
405.5724457157621
 20
296.4139990848305
 11
405.2977460160932
 21
295.4715471107911
 72
     1
 10
405.2977460160932
 20
295.4715471107911
 11
404.982198591941
 21
294.5419743748096
 72
     1
 10
404.982198591941
 20
294.5419743748096
 11
404.626404105762
 21
293.6270503714226
 72
     1
 10
404.626404105762
 20
293.6270503714226
 11
404.2310398325827
 21
292.7285167104714
 72
     1
 10
404.2310398325827
 20
292.7285167104714
 11
403.796858370768
 21
291.8480838018488
 72
     1
 10
403.796858370768
 20
291.8480838018488
 11
403.3246862094078
 21
290.987427599637
 72
     1
 10
403.3246862094078
 20
290.987427599637
 11
402.8154221550479
 21
290.1481864118334
 72
     1
 10
402.8154221550479
 20
290.1481864118334
 11
402.2700356207603
 21
289.3319577817384
 72
     1
 10
402.2700356207603
 20
289.3319577817384
 11
401.6895647808107
 21
288.5402954469407
 72
     1
 10
401.6895647808107
 20
288.5402954469407
 11
401.0751145944349
 21
287.7747063816898
 72
     1
 10
401.0751145944349
 20
287.7747063816898
 11
400.4278547024857
 21
287.0366479282845
 72
     1
 10
400.4278547024857
 20
287.0366479282845
 11
399.7490172009552
 21
286.3275250229395
 72
     1
 10
399.7490172009552
 20
286.3275250229395
 11
399.0398942956102
 21
285.648687521409
 72
     1
 10
399.0398942956102
 20
285.648687521409
 11
398.3018358422049
 21
285.0014276294598
 72
     1
 10
398.3018358422049
 20
285.0014276294598
 11
397.5362467769539
 21
284.386977443084
 72
     1
 10
397.5362467769539
 20
284.386977443084
 11
396.7445844421562
 21
283.8065066031345
 72
     1
 10
396.7445844421562
 20
283.8065066031345
 11
395.9283558120612
 21
283.2611200688468
 72
     1
 10
395.9283558120612
 20
283.2611200688468
 11
395.0891146242577
 21
282.7518560144869
 72
     1
 10
395.0891146242577
 20
282.7518560144869
 11
394.2284584220459
 21
282.2796838531268
 72
     1
 10
394.2284584220459
 20
282.2796838531268
 11
393.3480255134233
 21
281.8455023913121
 72
     1
 10
393.3480255134233
 20
281.8455023913121
 11
392.4494918524721
 21
281.4501381181328
 72
     1
 10
392.4494918524721
 20
281.4501381181328
 11
391.5345678490851
 21
281.0943436319538
 72
     1
 10
391.5345678490851
 20
281.0943436319538
 11
390.6049951131036
 21
280.7787962078016
 72
     1
 10
390.6049951131036
 20
280.7787962078016
 11
389.6625431390642
 21
280.5040965081326
 72
     1
 10
389.6625431390642
 20
280.5040965081326
 11
388.7090059378647
 21
280.2707674394382
 72
     1
 10
388.7090059378647
 20
280.2707674394382
 11
387.7461986217633
 21
280.079253156862
 72
     1
 10
387.7461986217633
 20
280.079253156862
 11
386.7759539492085
 21
279.929918218726
 72
     1
 10
386.7759539492085
 20
279.929918218726
 11
385.8001188360796
 21
279.8230468925724
 72
     1
 10
385.8001188360796
 20
279.8230468925724
 11
384.8205508399773
 21
279.7588426140449
 72
     1
 10
384.8205508399773
 20
279.7588426140449
 11
383.8391146242572
 21
279.7374275996367
 72
     1
 10
383.8391146242702
 20
279.7374275996375
 11
383.8391146242703
 21
202.2374275996825
 97
        0
 92
        0
 93
       40
 72
     1
 10
133.8391146242703
 20
202.2374275996825
 11
383.8391146242702
 21
202.2374275996825
 72
     1
 10
383.8391146242702
 20
202.2374275996825
 11
383.8391146242702
 21
279.7374275996375
 72
     1
 10
383.8391146242583
 20
279.7374275996375
 11
382.8576784085382
 21
279.7588426140457
 72
     1
 10
382.8576784085382
 20
279.7588426140457
 11
381.878110412436
 21
279.8230468925732
 72
     1
 10
381.878110412436
 20
279.8230468925732
 11
380.9022752993072
 21
279.9299182187268
 72
     1
 10
380.9022752993072
 20
279.9299182187268
 11
379.9320306267524
 21
280.0792531568628
 72
     1
 10
379.9320306267524
 20
280.0792531568628
 11
378.969223310651
 21
280.270767439439
 72
     1
 10
378.969223310651
 20
280.270767439439
 11
378.0156861094516
 21
280.5040965081335
 72
     1
 10
378.0156861094516
 20
280.5040965081335
 11
377.0732341354122
 21
280.7787962078024
 72
     1
 10
377.0732341354122
 20
280.7787962078024
 11
376.1436613994309
 21
281.0943436319546
 72
     1
 10
376.1436613994309
 20
281.0943436319546
 11
375.2287373960439
 21
281.4501381181336
 72
     1
 10
375.2287373960439
 20
281.4501381181336
 11
374.3302037350927
 21
281.8455023913129
 72
     1
 10
374.3302037350927
 20
281.8455023913129
 11
373.4497708264702
 21
282.2796838531276
 72
     1
 10
373.4497708264702
 20
282.2796838531276
 11
372.5891146242585
 21
282.7518560144877
 72
     1
 10
372.5891146242585
 20
282.7518560144877
 11
371.7498734364549
 21
283.2611200688476
 72
     1
 10
371.7498734364549
 20
283.2611200688476
 11
370.9336448063599
 21
283.8065066031352
 72
     1
 10
370.9336448063599
 20
283.8065066031352
 11
370.1419824715622
 21
284.3869774430847
 72
     1
 10
370.1419824715622
 20
284.3869774430847
 11
369.3763934063114
 21
285.0014276294605
 72
     1
 10
369.3763934063114
 20
285.0014276294605
 11
368.6383349529061
 21
285.6486875214097
 72
     1
 10
368.6383349529061
 20
285.6486875214097
 11
367.9292120475612
 21
286.3275250229402
 72
     1
 10
367.9292120475612
 20
286.3275250229402
 11
367.2503745460307
 21
287.0366479282852
 72
     1
 10
367.2503745460307
 20
287.0366479282852
 11
366.6031146540815
 21
287.7747063816904
 72
     1
 10
366.6031146540815
 20
287.7747063816904
 11
365.9886644677057
 21
288.5402954469413
 72
     1
 10
365.9886644677057
 20
288.5402954469413
 11
365.4081936277562
 21
289.3319577817389
 72
     1
 10
365.4081936277562
 20
289.3319577817389
 11
364.8628070934686
 21
290.1481864118339
 72
     1
 10
364.8628070934686
 20
290.1481864118339
 11
364.3535430391087
 21
290.9874275996374
 72
     1
 10
364.3535430391087
 20
290.9874275996374
 11
363.8813708777486
 21
291.8480838018492
 72
     1
 10
363.8813708777486
 20
291.8480838018492
 11
363.447189415934
 21
292.7285167104717
 72
     1
 10
363.447189415934
 20
292.7285167104717
 11
363.0518251427546
 21
293.6270503714229
 72
     1
 10
363.0518251427546
 20
293.6270503714229
 11
362.6960306565757
 21
294.5419743748099
 72
     1
 10
362.6960306565757
 20
294.5419743748099
 11
362.3804832324235
 21
295.4715471107913
 72
     1
 10
362.3804832324235
 20
295.4715471107913
 11
362.1057835327546
 21
296.4139990848307
 72
     1
 10
362.1057835327546
 20
296.4139990848307
 11
361.8724544640601
 21
297.3675362860301
 72
     1
 10
361.8724544640601
 20
297.3675362860301
 11
361.6809401814839
 21
298.3303436021314
 72
     1
 10
361.6809401814839
 20
298.3303436021314
 11
361.5316052433479
 21
299.3005882746862
 72
     1
 10
361.5316052433479
 20
299.3005882746862
 11
361.4247339171943
 21
300.276423387815
 72
     1
 10
361.4247339171943
 20
300.276423387815
 11
361.3605296386668
 21
301.2559913839173
 72
     1
 10
361.3605296386668
 20
301.2559913839173
 11
361.3391146242586
 21
302.2374275996373
 72
     1
 10
361.3391146242582
 20
302.2374275996822
 11
133.8391146242703
 21
302.2374275996825
 72
     1
 10
133.8391146242703
 20
302.2374275996825
 11
133.8391146242703
 21
202.2374275996825
 97
        0
 75
     0
 76
     2
 52
0.0
 41
0.5
 77
     0
 78
     2
 53
315.0
 43
-1223.141131923345
 44
-220.0487246799783
 45
6.735192090801775
 46
6.73519209080186
 79
     0
 53
45.0
 43
-1223.141131923345
 44
-220.0487246799783
 45
-6.735192090801775
 46
6.735192090801803
 79
     0
 98
        0
  0
DIMENSION
  5
18F
330
1F
100
AcDbEntity
  8
7
  6
CONTINUOUS
 62
     4
100
AcDbDimension
  2
DIM1
 10
133.8391146242702
 20
132.2374275996837
 30
0.0
 11
383.8391146242703
 21
132.2374275996837
 31
0.0
 70
   160
  1
<>
  3
STANDARD
100
AcDbAlignedDimension
 13
633.8391146242702
 23
202.2374275996825
 33
0.0
 14
133.8391146242703
 24
202.2374275996825
 34
0.0
 50
179.9999999999998
100
AcDbRotatedDimension
1001
ACAD
1000
DSTYLE
1002
{
1070
   287
1070
     4
1070
     7
1000

1070
     6
1000

1070
   279
1070
     1
1070
   340
1005
185
1070
   140
1040
6.0
1070
    40
1040
1.0
1070
   147
1040
0.0
1070
    76
1070
     0
1070
    75
1070
     0
1070
   173
1070
     1
1070
   289
1070
     2
1070
   288
1070
     1
1070
    77
1070
     1
1070
   172
1070
     1
1070
   174
1070
     0
1070
    74
1070
     0
1070
    73
1070
     0
1070
   284
1070
     8
1070
    78
1070
     8
1070
    42
1040
2.0
1070
    44
1040
3.0
1070
    43
1040
30.0
1070
   271
1070
     2
1070
    41
1040
4.0
1002
}
  0
DIMENSION
  5
199
330
1F
100
AcDbEntity
  8
7
  6
CONTINUOUS
 62
     4
100
AcDbDimension
  2
DIM2
 10
118.8391146242683
 20
116.2374275996837
 30
0.0
 11
383.8391146242684
 21
116.2374275996837
 31
0.0
 70
   160
  1
<>
  3
STANDARD
100
AcDbAlignedDimension
 13
648.8391146242702
 23
187.2374275996825
 33
0.0
 14
118.8391146242684
 24
187.2374275996825
 34
0.0
 50
179.9999999999998
100
AcDbRotatedDimension
1001
ACAD
1000
DSTYLE
1002
{
1070
   287
1070
     4
1070
     7
1000

1070
     6
1000

1070
   279
1070
     1
1070
   340
1005
185
1070
   140
1040
6.0
1070
    40
1040
1.0
1070
   147
1040
0.0
1070
    76
1070
     0
1070
    75
1070
     0
1070
   173
1070
     1
1070
   289
1070
     2
1070
   288
1070
     1
1070
    77
1070
     1
1070
   172
1070
     1
1070
   174
1070
     0
1070
    74
1070
     0
1070
    73
1070
     0
1070
   284
1070
     8
1070
    78
1070
     8
1070
    42
1040
2.0
1070
    44
1040
3.0
1070
    43
1040
30.0
1070
   271
1070
     2
1070
    41
1040
4.0
1002
}
  0
DIMENSION
  5
1A3
330
1F
100
AcDbEntity
  8
7
  6
CONTINUOUS
 62
     4
100
AcDbDimension
  2
DIM3
 10
648.8391146242701
 20
116.2374275996837
 30
0.0
 11
666.3391146242702
 21
116.2374275996837
 31
0.0
 70
   160
  1
<>
  3
STANDARD
100
AcDbAlignedDimension
 13
683.8391146242702
 23
279.2374275996838
 33
0.0
 14
648.8391146242702
 24
187.2374275996825
 34
0.0
 50
179.9999999999998
100
AcDbRotatedDimension
1001
ACAD
1000
DSTYLE
1002
{
1070
   287
1070
     4
1070
     7
1000

1070
     6
1000

1070
   279
1070
     1
1070
   340
1005
185
1070
   140
1040
6.0
1070
    40
1040
1.0
1070
   147
1040
0.0
1070
    76
1070
     0
1070
    75
1070
     0
1070
   173
1070
     1
1070
   289
1070
     2
1070
   288
1070
     1
1070
    77
1070
     1
1070
   172
1070
     1
1070
   174
1070
     0
1070
    74
1070
     0
1070
    73
1070
     0
1070
   284
1070
     8
1070
    78
1070
     8
1070
    42
1040
2.0
1070
    44
1040
3.0
1070
    43
1040
30.0
1070
   271
1070
     2
1070
    41
1040
4.0
1002
}
  0
DIMENSION
  5
1AD
330
1F
100
AcDbEntity
  8
7
  6
CONTINUOUS
 62
     4
100
AcDbDimension
  2
DIM4
 10
608.8391146242702
 20
148.2374275996837
 30
0.0
 11
552.5891146242702
 21
148.2374275996837
 31
0.0
 70
   160
  1
<>
  3
STANDARD
100
AcDbAlignedDimension
 13
496.3391146242702
 23
171.1374275996829
 33
0.0
 14
608.8391146242702
 24
171.1374275996829
 34
0.0
100
AcDbRotatedDimension
1001
ACAD
1000
DSTYLE
1002
{
1070
   287
1070
     4
1070
     7
1000

1070
     6
1000

1070
   279
1070
     1
1070
   340
1005
185
1070
   140
1040
6.0
1070
    40
1040
1.0
1070
   147
1040
0.0
1070
    76
1070
     0
1070
    75
1070
     0
1070
   173
1070
     1
1070
   289
1070
     2
1070
   288
1070
     1
1070
    77
1070
     1
1070
   172
1070
     1
1070
   174
1070
     0
1070
    74
1070
     0
1070
    73
1070
     0
1070
   284
1070
     8
1070
    78
1070
     8
1070
    42
1040
2.0
1070
    44
1040
3.0
1070
    43
1040
30.0
1070
   271
1070
     2
1070
    41
1040
4.0
1002
}
  0
DIMENSION
  5
1B7
330
1F
100
AcDbEntity
  8
7
  6
CONTINUOUS
 62
     4
100
AcDbDimension
  2
DIM5
 10
158.8391146242703
 20
148.2374275996837
 30
0.0
 11
215.0891146242702
 21
148.2374275996837
 31
0.0
 70
   160
  1
<>
  3
STANDARD
100
AcDbAlignedDimension
 13
271.3391146242702
 23
171.1374275996829
 33
0.0
 14
158.8391146242703
 24
171.1374275996829
 34
0.0
 50
179.9999999999998
100
AcDbRotatedDimension
1001
ACAD
1000
DSTYLE
1002
{
1070
   287
1070
     4
1070
     7
1000

1070
     6
1000

1070
   279
1070
     1
1070
   340
1005
185
1070
   140
1040
6.0
1070
    40
1040
1.0
1070
   147
1040
0.0
1070
    76
1070
     0
1070
    75
1070
     0
1070
   173
1070
     1
1070
   289
1070
     2
1070
   288
1070
     1
1070
    77
1070
     1
1070
   172
1070
     1
1070
   174
1070
     0
1070
    74
1070
     0
1070
    73
1070
     0
1070
   284
1070
     8
1070
    78
1070
     8
1070
    42
1040
2.0
1070
    44
1040
3.0
1070
    43
1040
30.0
1070
   271
1070
     2
1070
    41
1040
4.0
1002
}
  0
DIMENSION
  5
1C1
330
1F
100
AcDbEntity
  8
7
  6
CONTINUOUS
 62
     4
100
AcDbDimension
  2
DIM6
 10
777.326773730547
 20
116.2374275996837
 30
0.0
 11
754.8267737305471
 21
116.2374275996837
 31
0.0
 70
   160
  1
<>
  3
STANDARD
100
AcDbAlignedDimension
 13
732.3267737305471
 23
187.2374275996843
 33
0.0
 14
777.3267737305471
 24
172.2374275996843
 34
0.0
100
AcDbRotatedDimension
1001
ACAD
1000
DSTYLE
1002
{
1070
   287
1070
     4
1070
     7
1000

1070
     6
1000

1070
   279
1070
     1
1070
   340
1005
185
1070
   140
1040
6.0
1070
    40
1040
1.0
1070
   147
1040
0.0
1070
    76
1070
     0
1070
    75
1070
     0
1070
   173
1070
     1
1070
   289
1070
     2
1070
   288
1070
     1
1070
    77
1070
     1
1070
   172
1070
     1
1070
   174
1070
     0
1070
    74
1070
     0
1070
    73
1070
     0
1070
   284
1070
     8
1070
    78
1070
     8
1070
    42
1040
2.0
1070
    44
1040
3.0
1070
    43
1040
30.0
1070
   271
1070
     2
1070
    41
1040
4.0
1002
}
  0
DIMENSION
  5
1CB
330
1F
100
AcDbEntity
  8
7
  6
CONTINUOUS
 62
     4
100
AcDbDimension
  2
DIM7
 10
777.3267737305471
 20
148.2374275996837
 30
0.0
 11
788.3267737305471
 21
148.2374275996837
 31
0.0
 70
   160
  1
<>
  3
STANDARD
100
AcDbAlignedDimension
 13
776.3267737305471
 23
172.2374275996843
 33
0.0
 14
777.3267737305471
 24
172.2374275996843
 34
0.0
100
AcDbRotatedDimension
1001
ACAD
1000
DSTYLE
1002
{
1070
   287
1070
     4
1070
     7
1000

1070
     6
1000

1070
   279
1070
     1
1070
   340
1005
185
1070
   140
1040
6.0
1070
    40
1040
1.0
1070
   147
1040
0.0
1070
    76
1070
     0
1070
    75
1070
     0
1070
   173
1070
     1
1070
   289
1070
     2
1070
   288
1070
     1
1070
    77
1070
     1
1070
   172
1070
     1
1070
   174
1070
     0
1070
    74
1070
     0
1070
    73
1070
     0
1070
   284
1070
     8
1070
    78
1070
     8
1070
    42
1040
2.0
1070
    44
1040
3.0
1070
    43
1040
30.0
1070
   271
1070
     2
1070
    41
1040
4.0
1002
}
  0
DIMENSION
  5
1D5
330
1F
100
AcDbEntity
  8
7
  6
CONTINUOUS
 62
     4
100
AcDbDimension
  2
DIM8
 10
743.8267737305468
 20
132.2374275996837
 30
0.0
 11
760.5767737305471
 21
132.2374275996837
 31
0.0
 70
   160
  1
<>
  3
STANDARD
100
AcDbAlignedDimension
 13
777.3267737305471
 23
172.2374275996843
 33
0.0
 14
743.8267737305471
 24
279.2374275996843
 34
0.0
 50
179.9999999999998
100
AcDbRotatedDimension
1001
ACAD
1000
DSTYLE
1002
{
1070
   287
1070
     4
1070
     7
1000

1070
     6
1000

1070
   279
1070
     1
1070
   340
1005
185
1070
   140
1040
6.0
1070
    40
1040
1.0
1070
   147
1040
0.0
1070
    76
1070
     0
1070
    75
1070
     0
1070
   173
1070
     1
1070
   289
1070
     2
1070
   288
1070
     1
1070
    77
1070
     1
1070
   172
1070
     1
1070
   174
1070
     0
1070
    74
1070
     0
1070
    73
1070
     0
1070
   284
1070
     8
1070
    78
1070
     8
1070
    42
1040
2.0
1070
    44
1040
3.0
1070
    43
1040
30.0
1070
   271
1070
     2
1070
    41
1040
4.0
1002
}
  0
DIMENSION
  5
1DF
330
1F
100
AcDbEntity
  8
7
  6
CONTINUOUS
 62
     4
100
AcDbDimension
  2
DIM9
 10
383.8391146242702
 20
148.2374275996837
 30
0.0
 11
327.5891146242702
 21
148.2374275996837
 31
0.0
 70
   160
  1
<>
  3
STANDARD
100
AcDbAlignedDimension
 13
271.3391146242702
 23
171.1374275996829
 33
0.0
 14
383.8391146242702
 24
162.2374275996836
 34
0.0
100
AcDbRotatedDimension
1001
ACAD
1000
DSTYLE
1002
{
1070
   287
1070
     4
1070
     7
1000

1070
     6
1000

1070
   279
1070
     1
1070
   340
1005
185
1070
   140
1040
6.0
1070
    40
1040
1.0
1070
   147
1040
0.0
1070
    76
1070
     0
1070
    75
1070
     0
1070
   173
1070
     1
1070
   289
1070
     2
1070
   288
1070
     1
1070
    77
1070
     1
1070
   172
1070
     1
1070
   174
1070
     0
1070
    74
1070
     0
1070
    73
1070
     0
1070
   284
1070
     8
1070
    78
1070
     8
1070
    42
1040
2.0
1070
    44
1040
3.0
1070
    43
1040
30.0
1070
   271
1070
     2
1070
    41
1040
4.0
1002
}
  0
DIMENSION
  5
1E9
330
1F
100
AcDbEntity
  8
7
  6
CONTINUOUS
 62
     4
100
AcDbDimension
  2
DIM10
 10
102.8391146242684
 20
202.2374275996854
 30
0.0
 11
102.8391146242682
 21
302.2374275996825
 31
0.0
 70
   160
  1
<>
 53
89.99999999999991
  3
STANDARD
100
AcDbAlignedDimension
 13
133.8391146242602
 23
402.2374275996854
 33
0.0
 14
133.8391146242621
 24
202.2374275996854
 34
0.0
 50
-89.99999999999991
100
AcDbRotatedDimension
1001
ACAD
1000
DSTYLE
1002
{
1070
   287
1070
     4
1070
     7
1000

1070
     6
1000

1070
   279
1070
     1
1070
   340
1005
185
1070
   140
1040
6.0
1070
    40
1040
1.0
1070
   147
1040
0.0
1070
    76
1070
     0
1070
    75
1070
     0
1070
   173
1070
     1
1070
   289
1070
     2
1070
   288
1070
     1
1070
    77
1070
     1
1070
   172
1070
     1
1070
   174
1070
     0
1070
    74
1070
     0
1070
    73
1070
     0
1070
   284
1070
     8
1070
    78
1070
     8
1070
    42
1040
2.0
1070
    44
1040
3.0
1070
    43
1040
30.0
1070
   271
1070
     2
1070
    41
1040
4.0
1002
}
  0
DIMENSION
  5
1F3
330
1F
100
AcDbEntity
  8
7
  6
CONTINUOUS
 62
     4
100
AcDbDimension
  2
DIM11
 10
86.83911462426852
 20
187.2374275996854
 30
0.0
 11
86.83911462426833
 21
302.2374275996854
 31
0.0
 70
   160
  1
<>
 53
89.99999999999991
  3
STANDARD
100
AcDbAlignedDimension
 13
118.8391146242593
 23
417.2374275996854
 33
0.0
 14
118.8391146242612
 24
187.2374275996854
 34
0.0
 50
-89.99999999999991
100
AcDbRotatedDimension
1001
ACAD
1000
DSTYLE
1002
{
1070
   287
1070
     4
1070
     7
1000

1070
     6
1000

1070
   279
1070
     1
1070
   340
1005
185
1070
   140
1040
6.0
1070
    40
1040
1.0
1070
   147
1040
0.0
1070
    76
1070
     0
1070
    75
1070
     0
1070
   173
1070
     1
1070
   289
1070
     2
1070
   288
1070
     1
1070
    77
1070
     1
1070
   172
1070
     1
1070
   174
1070
     0
1070
    74
1070
     0
1070
    73
1070
     0
1070
   284
1070
     8
1070
    78
1070
     8
1070
    42
1040
2.0
1070
    44
1040
3.0
1070
    43
1040
30.0
1070
   271
1070
     2
1070
    41
1040
4.0
1002
}
  0
DIMENSION
  5
1FD
330
1F
100
AcDbEntity
  8
7
  6
CONTINUOUS
 62
     4
100
AcDbDimension
  2
DIM12
 10
54.83911462426865
 20
172.2374275996829
 30
0.0
 11
54.83911462426844
 21
302.2374275996854
 31
0.0
 70
   160
  1
<>
 53
89.99999999999991
  3
STANDARD
100
AcDbAlignedDimension
 13
138.8391146242684
 23
432.2374275996848
 33
0.0
 14
138.8391146242703
 24
172.2374275996829
 34
0.0
 50
-89.99999999999991
100
AcDbRotatedDimension
1001
ACAD
1000
DSTYLE
1002
{
1070
   287
1070
     4
1070
     7
1000

1070
     6
1000

1070
   279
1070
     1
1070
   340
1005
185
1070
   140
1040
6.0
1070
    40
1040
1.0
1070
   147
1040
0.0
1070
    76
1070
     0
1070
    75
1070
     0
1070
   173
1070
     1
1070
   289
1070
     2
1070
   288
1070
     1
1070
    77
1070
     1
1070
   172
1070
     1
1070
   174
1070
     0
1070
    74
1070
     0
1070
    73
1070
     0
1070
   284
1070
     8
1070
    78
1070
     8
1070
    42
1040
2.0
1070
    44
1040
3.0
1070
    43
1040
30.0
1070
   271
1070
     2
1070
    41
1040
4.0
1002
}
  0
DIMENSION
  5
207
330
1F
100
AcDbEntity
  8
7
  6
CONTINUOUS
 62
     4
100
AcDbDimension
  2
DIM13
 10
496.3391146242702
 20
148.2374275996837
 30
0.0
 11
440.0891146242703
 21
148.2374275996837
 31
0.0
 70
   160
  1
<>
  3
STANDARD
100
AcDbAlignedDimension
 13
383.8391146242702
 23
162.2374275996836
 33
0.0
 14
496.3391146242702
 24
171.1374275996829
 34
0.0
100
AcDbRotatedDimension
1001
ACAD
1000
DSTYLE
1002
{
1070
   287
1070
     4
1070
     7
1000

1070
     6
1000

1070
   279
1070
     1
1070
   340
1005
185
1070
   140
1040
6.0
1070
    40
1040
1.0
1070
   147
1040
0.0
1070
    76
1070
     0
1070
    75
1070
     0
1070
   173
1070
     1
1070
   289
1070
     2
1070
   288
1070
     1
1070
    77
1070
     1
1070
   172
1070
     1
1070
   174
1070
     0
1070
    74
1070
     0
1070
    73
1070
     0
1070
   284
1070
     8
1070
    78
1070
     8
1070
    42
1040
2.0
1070
    44
1040
3.0
1070
    43
1040
30.0
1070
   271
1070
     2
1070
    41
1040
4.0
1002
}
  0
DIMENSION
  5
211
330
1F
100
AcDbEntity
  8
7
  6
CONTINUOUS
 62
     4
100
AcDbDimension
  2
DIM14
 10
70.8391146242686
 20
179.2374275996831
 30
0.0
 11
70.8391146242686
 21
302.2374275996825
 31
0.0
 70
   160
  1
<>
 53
89.99999999999991
  3
STANDARD
100
AcDbAlignedDimension
 13
150.7391146242702
 23
425.237427599682
 33
0.0
 14
150.7391146242702
 24
179.2374275996829
 34
0.0
 50
-89.99999999999991
100
AcDbRotatedDimension
1001
ACAD
1000
DSTYLE
1002
{
1070
   287
1070
     4
1070
     7
1000

1070
     6
1000

1070
   279
1070
     1
1070
   340
1005
185
1070
   140
1040
6.0
1070
    40
1040
1.0
1070
   147
1040
0.0
1070
    76
1070
     0
1070
    75
1070
     0
1070
   173
1070
     1
1070
   289
1070
     2
1070
   288
1070
     1
1070
    77
1070
     1
1070
   172
1070
     1
1070
   174
1070
     0
1070
    74
1070
     0
1070
    73
1070
     0
1070
   284
1070
     8
1070
    78
1070
     8
1070
    42
1040
2.0
1070
    44
1040
3.0
1070
    43
1040
30.0
1070
   271
1070
     2
1070
    41
1040
4.0
1002
}
  0
INSERT
  5
212
330
1F
100
AcDbEntity
  8
7
  6
CONTINUOUS
 62
     4
100
AcDbBlockReference
  2
_OPEN
 10
160.3891146242703
 20
427.9221063514137
 30
0.0
 41
8.0
 42
8.0
 43
8.0
 50
239.9999999999999
  0
POLYLINE
  5
213
330
1F
100
AcDbEntity
  8
7
  6
CONTINUOUS
 62
     4
100
AcDb2dPolyline
 66
     1
 10
0.0
 20
0.0
 30
0.0
  0
VERTEX
  5
214
330
213
100
AcDbEntity
  8
7
  6
CONTINUOUS
 62
     4
100
AcDbVertex
100
AcDb2dVertex
 10
160.3891146242703
 20
427.9221063514137
 30
0.0
  0
VERTEX
  5
215
330
213
100
AcDbEntity
  8
7
  6
CONTINUOUS
 62
     4
100
AcDbVertex
100
AcDb2dVertex
 10
173.8891146242703
 20
451.3047922535936
 30
0.0
  0
VERTEX
  5
216
330
213
100
AcDbEntity
  8
7
  6
CONTINUOUS
 62
     4
100
AcDbVertex
100
AcDb2dVertex
 10
199.6091146242703
 20
451.3047922535936
 30
0.0
  0
SEQEND
  5
217
330
213
100
AcDbEntity
  8
7
  6
CONTINUOUS
 62
     4
  0
MTEXT
  5
218
330
1F
100
AcDbEntity
  8
7
  6
CONTINUOUS
 62
     4
100
AcDbMText
 10
178.6091146242703
 20
451.3047922535936
 30
0.0
 40
6.0
 41
29.678826795
 71
     7
 72
     1
  1
{\fＭＳ ゴシック;\T0.777375;10-\U+00D86.2}
1001
ACAD
1000
ACAD_MTEXT_DEFINED_HEIGHT_BEGIN
1070
    46
1040
6.0
1000
ACAD_MTEXT_DEFINED_HEIGHT_END
  0
DIMENSION
  5
220
330
1F
100
AcDbEntity
  8
7
  6
CONTINUOUS
 62
     4
100
AcDbDimension
  2
DIM15
 10
373.3979656911024
 20
288.1934819661794
 30
0.0
 11
487.3179578449823
 21
446.4506035675079
 31
0.0
 70
   163
  1
\U+2205<>
  3
STANDARD
100
AcDbDiametricDimension
 15
394.2802635574257
 25
316.2813732330945
 35
0.0
 40
0.0
1001
ACAD
1000
DSTYLE
1002
{
1070
   287
1070
     2
1070
     7
1000

1070
     6
1000

1070
   340
1005
185
1070
   140
1040
6.0
1070
    40
1040
1.0
1070
   147
1040
0.0
1070
    76
1070
     0
1070
    75
1070
     0
1070
   173
1070
     1
1070
   289
1070
     2
1070
   288
1070
     1
1070
    77
1070
     1
1070
   172
1070
     1
1070
   174
1070
     0
1070
    74
1070
     0
1070
    73
1070
     0
1070
   284
1070
     8
1070
    78
1070
     8
1070
    42
1040
2.0
1070
    44
1040
3.0
1070
    43
1040
30.0
1070
   271
1070
     2
1070
    41
1040
4.0
1002
}
  0
DIMENSION
  5
228
330
1F
100
AcDbEntity
  8
7
  6
CONTINUOUS
 62
     4
100
AcDbDimension
  2
DIM16
 10
375.7593272656096
 20
281.2382124657565
 30
0.0
 11
437.8109417250126
 21
450.8633697381153
 31
0.0
 70
   163
  1
\U+2205<>
  3
STANDARD
100
AcDbDiametricDimension
 15
391.9189019829021
 25
323.2366427335206
 35
0.0
 40
0.0
1001
ACAD
1000
DSTYLE
1002
{
1070
   287
1070
     2
1070
     7
1000

1070
     6
1000

1070
   340
1005
185
1070
   140
1040
6.0
1070
    40
1040
1.0
1070
   147
1040
0.0
1070
    76
1070
     0
1070
    75
1070
     0
1070
   173
1070
     1
1070
   289
1070
     2
1070
   288
1070
     1
1070
    77
1070
     1
1070
   172
1070
     1
1070
   174
1070
     0
1070
    74
1070
     0
1070
    73
1070
     0
1070
   284
1070
     8
1070
    78
1070
     8
1070
    42
1040
2.0
1070
    44
1040
3.0
1070
    43
1040
30.0
1070
   271
1070
     2
1070
    41
1040
4.0
1002
}
  0
VIEWPORT
  5
3F
330
1B
100
AcDbEntity
 67
     1
  8
0
100
AcDbViewport
 10
420.0
 20
297.0
 30
0.0
 40
840.0
 41
594.0
 68
     1
 69
     1
1001
ACAD
1000
MVIEW
1002
{
1070
    16
1010
0.0
1020
0.0
1030
0.0
1010
0.0
1020
0.0
1030
1.0
1040
0.0
1040
9.0
1040
420.0
1040
297.0
1040
50.0
1040
0.0
1040
0.0
1070
     0
1070
   100
1070
     0
1070
     3
1070
     0
1070
     0
1070
     0
1070
     0
1040
0.0
1040
0.0
1040
0.0
1040
0.5
1040
0.5
1040
0.5
1040
0.5
1070
     0
1002
{
1002
}
1002
}
  0
ENDSEC
  0
SECTION
  2
OBJECTS
  0
DICTIONARY
  5
C
330
0
100
AcDbDictionary
  3
ACAD_GROUP
350
D
  3
ACAD_LAYOUT
350
1A
  3
ACAD_MATERIAL
350
3B
  3
ACAD_MLEADERSTYLE
350
24B
  3
ACAD_MLINESTYLE
350
17
  3
ACAD_PLOTSETTINGS
350
19
  3
ACAD_VISUALSTYLE
350
2A
  3
ACDBHEADERROUNDTRIPXREC
350
229
  3
ACDBVARIABLEDICTIONARY
350
249
  0
DICTIONARY
  5
D
102
{ACAD_REACTORS
330
C
102
}
330
C
100
AcDbDictionary
  0
DICTIONARY
  5
1A
102
{ACAD_REACTORS
330
C
102
}
330
C
100
AcDbDictionary
  0
DICTIONARY
  5
3B
102
{ACAD_REACTORS
330
C
102
}
330
C
100
AcDbDictionary
  3
BYBLOCK
350
3D
  3
BYLAYER
350
3C
  3
GLOBAL
350
3E
  0
DICTIONARY
  5
24B
102
{ACAD_REACTORS
330
C
102
}
330
C
100
AcDbDictionary
  0
DICTIONARY
  5
17
102
{ACAD_REACTORS
330
C
102
}
330
C
100
AcDbDictionary
  3
STANDARD
350
18
  0
DICTIONARY
  5
19
102
{ACAD_REACTORS
330
C
102
}
330
C
100
AcDbDictionary
  0
DICTIONARY
  5
2A
102
{ACAD_REACTORS
330
C
102
}
330
C
100
AcDbDictionary
  3
2DWIREFRAME
350
2F
  3
3D_HIDDEN
350
31
  3
3DWIREFRAME
350
30
  3
BASIC
350
32
  3
BRIGHTEN
350
36
  3
COLORCHANGE
350
3A
  3
CONCEPTUAL
350
34
  3
DIM
350
35
  3
FACEPATTERN
350
39
  3
FLAT
350
2B
  3
FLATWITHEDGES
350
2C
  3
GOURAUD
350
2D
  3
GOURAUDWITHEDGES
350
2E
  3
LINEPATTERN
350
38
  3
REALISTIC
350
33
  3
THICKEN
350
37
  0
DICTIONARY
  5
229
102
{ACAD_REACTORS
330
C
102
}
330
C
100
AcDbDictionary
  3
CEPSNTYPE
350
232
  3
DIMSTYLEDATA
350
248
  3
FINGERPRINTGUID
350
233
  3
HYPERLINKBASE
350
22C
  3
INSUNITS
350
231
  3
LAYOUTDICT
350
22E
  3
LWETCUNION
350
230
  3
PLOTSETDICT
350
22F
  3
PSVPSCALE
350
235
  3
PUCSBASE
350
238
  3
PUCSORGBACK
350
23E
  3
PUCSORGBOTTOM
350
23A
  3
PUCSORGFRONT
350
23D
  3
PUCSORGLEFT
350
23B
  3
PUCSORGRIGHT
350
23C
  3
PUCSORGTOP
350
239
  3
PUCSORTHOREF
350
236
  3
PUCSORTHOVIEW
350
237
  3
STYLESHEET
350
22D
  3
TSTACKALIGN
350
22A
  3
TSTACKSIZE
350
22B
  3
UCSBASE
350
241
  3
UCSORGBACK
350
247
  3
UCSORGBOTTOM
350
243
  3
UCSORGFRONT
350
246
  3
UCSORGLEFT
350
244
  3
UCSORGRIGHT
350
245
  3
UCSORGTOP
350
242
  3
UCSORTHOREF
350
23F
  3
UCSORTHOVIEW
350
240
  3
VERSIONGUID
350
234
  0
DICTIONARY
  5
249
102
{ACAD_REACTORS
330
C
102
}
330
C
100
AcDbDictionary
  3
DIMASSOC
350
24C
  3
HIDETEXT
350
24D
  0
MATERIAL
  5
3D
102
{ACAD_REACTORS
330
3B
102
}
102
{ACAD_XDICTIONARY
360
250
102
}
330
3B
100
AcDbMaterial
  1
ByBlock
  0
MATERIAL
  5
3C
102
{ACAD_REACTORS
330
3B
102
}
102
{ACAD_XDICTIONARY
360
24E
102
}
330
3B
100
AcDbMaterial
  1
ByLayer
  0
MATERIAL
  5
3E
102
{ACAD_REACTORS
330
3B
102
}
102
{ACAD_XDICTIONARY
360
252
102
}
330
3B
100
AcDbMaterial
  1
Global
  0
MLINESTYLE
  5
18
102
{ACAD_REACTORS
330
17
102
}
330
17
100
AcDbMlineStyle
  2
Standard
 70
     0
  3

 62
   256
 51
90.0
 52
90.0
 71
     2
 49
0.5
 62
   256
  6
BYLAYER
 49
-0.5
 62
   256
  6
BYLAYER
  0
ACAD_PROXY_OBJECT
  5
2F
102
{ACAD_REACTORS
330
2A
102
}
330
2A
100
AcDbProxyObject
 90
      499
 91
      501
 93
      436
310
42CC9915DA5C99599C985B595049028333333333333E3BF0000000000000FB0107901411070040501600405405064090741402480A0340
1001
ACAD
1000
AcDbSavedByObjectVersion
1070
     0
  0
ACAD_PROXY_OBJECT
  5
31
102
{ACAD_REACTORS
330
2A
102
}
330
2A
100
AcDbProxyObject
 90
      499
 91
      501
 93
      500
310
424CD108121A5919195B90640502408333333333333E3BF0000000000000FB01079024090700405020000000000001110200405405064090740C02480A0340
1001
ACAD
1000
AcDbSavedByObjectVersion
1070
     0
  0
ACAD_PROXY_OBJECT
  5
30
102
{ACAD_REACTORS
330
2A
102
}
330
2A
100
AcDbProxyObject
 90
      499
 91
      501
 93
      436
310
42CCD915DA5C99599C985B595059028333333333333E3BF0000000000000FB0107901411070040501600405405064090741402480A0340
1001
ACAD
1000
AcDbSavedByObjectVersion
1070
     0
  0
ACAD_PROXY_OBJECT
  5
32
102
{ACAD_REACTORS
330
2A
102
}
330
2A
100
AcDbProxyObject
 90
      499
 91
      501
 93
      388
310
4150985CDA58D07406404333333333333E3BF0000000000000FB0107A41107004050150841D405064090741402480A0350
1001
ACAD
1000
AcDbSavedByObjectVersion
1070
     0
  0
ACAD_PROXY_OBJECT
  5
36
102
{ACAD_REACTORS
330
2A
102
}
330
2A
100
AcDbProxyObject
 90
      499
 91
      501
 93
      428
310
42109C9A59DA1D195B90C409028333333333333E3BF0000000000000FB010790141107004050150841D405064090741402480A029950
1001
ACAD
1000
AcDbSavedByObjectVersion
1070
     0
  0
ACAD_PROXY_OBJECT
  5
3A
102
{ACAD_REACTORS
330
2A
102
}
330
2A
100
AcDbProxyObject
 90
      499
 91
      501
 93
      452
310
42D0DBDB1BDC90DA185B99D95104090240C333333333333E3BF0000000000000FB0108901411070040501508421405064090741402480A0350
1001
ACAD
1000
AcDbSavedByObjectVersion
1070
     0
  0
ACAD_PROXY_OBJECT
  5
34
102
{ACAD_REACTORS
330
2A
102
}
330
2A
100
AcDbProxyObject
 90
      499
 91
      501
 93
      500
310
4290DBDB98D95C1D1D585B10940D028333333333333E3BF0000000000000FB0107902409070040501000000000000111010841D405064090740C02480A0340
1001
ACAD
1000
AcDbSavedByObjectVersion
1070
     0
  0
ACAD_PROXY_OBJECT
  5
35
102
{ACAD_REACTORS
330
2A
102
}
330
2A
100
AcDbProxyObject
 90
      499
 91
      501
 93
      412
310
40D11A5B50B409028333333333333E3BF0000000000000FB010790141107004050150841D405064090741402480A02677FFFFFD0
1001
ACAD
1000
AcDbSavedByObjectVersion
1070
     0
  0
ACAD_PROXY_OBJECT
  5
39
102
{ACAD_REACTORS
330
2A
102
}
330
2A
100
AcDbProxyObject
 90
      499
 91
      501
 93
      444
310
42D19858D95C185D1D195C9B90F409028333333333333E3BF0000000000000FB010790141107004050150841D405064090741402480A0350
1001
ACAD
1000
AcDbSavedByObjectVersion
1070
     0
  0
ACAD_PROXY_OBJECT
  5
2B
102
{ACAD_REACTORS
330
2A
102
}
330
2A
100
AcDbProxyObject
 90
      499
 91
      501
 93
      388
310
41119B185D240901404333333333333E3BF0000000000000F9010740A41107004050150841D405064090741402480A1B50
1001
ACAD
1000
AcDbSavedByObjectVersion
1070
     0
  0
ACAD_PROXY_OBJECT
  5
2C
102
{ACAD_REACTORS
330
2A
102
}
330
2A
100
AcDbProxyObject
 90
      499
 91
      501
 93
      476
310
43519B185D15DA5D1A115919D95CD0140901404333333333333E3BF0000000000000F9010740901411070040501600405405064090741402480A1B50
1001
ACAD
1000
AcDbSavedByObjectVersion
1070
     0
  0
ACAD_PROXY_OBJECT
  5
2D
102
{ACAD_REACTORS
330
2A
102
}
330
2A
100
AcDbProxyObject
 90
      499
 91
      501
 93
      412
310
41D1DBDD5C985D5910240902404333333333333E3BF0000000000000F9010740A411070040501641D405064090741402480A1B50
1001
ACAD
1000
AcDbSavedByObjectVersion
1070
     0
  0
ACAD_PROXY_OBJECT
  5
2E
102
{ACAD_REACTORS
330
2A
102
}
330
2A
100
AcDbProxyObject
 90
      499
 91
      501
 93
      500
310
4411DBDD5C985D5915DA5D1A115919D95CD0340902404333333333333E3BF0000000000000F9010740901411070040501600405405064090741402480A1B50
1001
ACAD
1000
AcDbSavedByObjectVersion
1070
     0
  0
ACAD_PROXY_OBJECT
  5
38
102
{ACAD_REACTORS
330
2A
102
}
330
2A
100
AcDbProxyObject
 90
      499
 91
      501
 93
      444
310
42D31A5B995C185D1D195C9B90E409028333333333333E3BF0000000000000FB010790141107004050750841D405064090741402483A0350
1001
ACAD
1000
AcDbSavedByObjectVersion
1070
     0
  0
ACAD_PROXY_OBJECT
  5
33
102
{ACAD_REACTORS
330
2A
102
}
330
2A
100
AcDbProxyObject
 90
      499
 91
      501
 93
      420
310
425499585B1A5CDD1A58D08409028333333333333E3BF0000000000000FB01079019070040501508421405064090741402480A1B40
1001
ACAD
1000
AcDbSavedByObjectVersion
1070
     0
  0
ACAD_PROXY_OBJECT
  5
37
102
{ACAD_REACTORS
330
2A
102
}
330
2A
100
AcDbProxyObject
 90
      499
 91
      501
 93
      412
310
41D51A1A58DAD95B90D409028333333333333E3BF0000000000000FB010790141107004050150C41D405064090741402480A0350
1001
ACAD
1000
AcDbSavedByObjectVersion
1070
     0
  0
XRECORD
  5
232
102
{ACAD_REACTORS
330
229
102
}
330
229
100
AcDbXrecord
 90
        0
  0
XRECORD
  5
248
102
{ACAD_REACTORS
330
229
102
}
330
229
100
AcDbXrecord
1000
DSTYLE
1002
{
1070
   171
 70
     2
1070
   143
 40
25.4
1070
   274
 70
     2
1070
    41
 40
1.55291427
1070
   289
 70
     2
1070
   141
 40
0.09
1070
    43
 40
30.0
1070
   278
 70
    46
1070
    44
 40
2.0
1070
    42
 40
2.0
1070
   147
 40
0.09
1070
    77
 70
     3
1070
   272
 70
     4
1070
   146
 40
0.5
1070
   279
 70
     2
1070
   283
 70
     1
1070
   145
 40
0.7
1070
   340
340
11
1070
   140
 40
2.8
1070
   288
 70
     1
1002
}
  0
XRECORD
  5
233
102
{ACAD_REACTORS
330
229
102
}
330
229
100
AcDbXrecord
  1
{DD5FB0D5-E8B2-4F4A-9483-8512B4B81A9E}
  0
XRECORD
  5
22C
102
{ACAD_REACTORS
330
229
102
}
330
229
100
AcDbXrecord
  1

  0
XRECORD
  5
231
102
{ACAD_REACTORS
330
229
102
}
330
229
100
AcDbXrecord
 90
        4
  0
XRECORD
  5
22E
102
{ACAD_REACTORS
330
229
102
}
330
229
100
AcDbXrecord
340
1A
  0
XRECORD
  5
230
102
{ACAD_REACTORS
330
229
102
}
330
229
100
AcDbXrecord
 90
    10781
  0
XRECORD
  5
22F
102
{ACAD_REACTORS
330
229
102
}
330
229
100
AcDbXrecord
340
19
  0
XRECORD
  5
235
102
{ACAD_REACTORS
330
229
102
}
330
229
100
AcDbXrecord
 40
0.0
  0
XRECORD
  5
238
102
{ACAD_REACTORS
330
229
102
}
330
229
100
AcDbXrecord
340
0
  0
XRECORD
  5
23E
102
{ACAD_REACTORS
330
229
102
}
330
229
100
AcDbXrecord
 10
0.0
 20
0.0
 30
0.0
  0
XRECORD
  5
23A
102
{ACAD_REACTORS
330
229
102
}
330
229
100
AcDbXrecord
 10
0.0
 20
0.0
 30
0.0
  0
XRECORD
  5
23D
102
{ACAD_REACTORS
330
229
102
}
330
229
100
AcDbXrecord
 10
0.0
 20
0.0
 30
0.0
  0
XRECORD
  5
23B
102
{ACAD_REACTORS
330
229
102
}
330
229
100
AcDbXrecord
 10
0.0
 20
0.0
 30
0.0
  0
XRECORD
  5
23C
102
{ACAD_REACTORS
330
229
102
}
330
229
100
AcDbXrecord
 10
0.0
 20
0.0
 30
0.0
  0
XRECORD
  5
239
102
{ACAD_REACTORS
330
229
102
}
330
229
100
AcDbXrecord
 10
0.0
 20
0.0
 30
0.0
  0
XRECORD
  5
236
102
{ACAD_REACTORS
330
229
102
}
330
229
100
AcDbXrecord
340
0
  0
XRECORD
  5
237
102
{ACAD_REACTORS
330
229
102
}
330
229
100
AcDbXrecord
 70
     0
  0
XRECORD
  5
22D
102
{ACAD_REACTORS
330
229
102
}
330
229
100
AcDbXrecord
  1

  0
XRECORD
  5
22A
102
{ACAD_REACTORS
330
229
102
}
330
229
100
AcDbXrecord
 90
        1
  0
XRECORD
  5
22B
102
{ACAD_REACTORS
330
229
102
}
330
229
100
AcDbXrecord
 90
       70
  0
XRECORD
  5
241
102
{ACAD_REACTORS
330
229
102
}
330
229
100
AcDbXrecord
340
0
  0
XRECORD
  5
247
102
{ACAD_REACTORS
330
229
102
}
330
229
100
AcDbXrecord
 10
0.0
 20
0.0
 30
0.0
  0
XRECORD
  5
243
102
{ACAD_REACTORS
330
229
102
}
330
229
100
AcDbXrecord
 10
0.0
 20
0.0
 30
0.0
  0
XRECORD
  5
246
102
{ACAD_REACTORS
330
229
102
}
330
229
100
AcDbXrecord
 10
0.0
 20
0.0
 30
0.0
  0
XRECORD
  5
244
102
{ACAD_REACTORS
330
229
102
}
330
229
100
AcDbXrecord
 10
0.0
 20
0.0
 30
0.0
  0
XRECORD
  5
245
102
{ACAD_REACTORS
330
229
102
}
330
229
100
AcDbXrecord
 10
0.0
 20
0.0
 30
0.0
  0
XRECORD
  5
242
102
{ACAD_REACTORS
330
229
102
}
330
229
100
AcDbXrecord
 10
0.0
 20
0.0
 30
0.0
  0
XRECORD
  5
23F
102
{ACAD_REACTORS
330
229
102
}
330
229
100
AcDbXrecord
340
0
  0
XRECORD
  5
240
102
{ACAD_REACTORS
330
229
102
}
330
229
100
AcDbXrecord
 70
     0
  0
XRECORD
  5
234
102
{ACAD_REACTORS
330
229
102
}
330
229
100
AcDbXrecord
  1
{FAEB1C32-E019-11D5-929B-00C0DF256EC4}
  0
DICTIONARYVAR
  5
24C
102
{ACAD_REACTORS
330
249
102
}
330
249
100
DictionaryVariables
280
     0
  1
1
  0
DICTIONARYVAR
  5
24D
102
{ACAD_REACTORS
330
249
102
}
330
249
100
DictionaryVariables
280
     0
  1
1
  0
DICTIONARY
  5
250
330
3D
100
AcDbDictionary
280
     1
  3
ACAD_XREC_ROUNDTRIP
360
251
  0
DICTIONARY
  5
24E
330
3C
100
AcDbDictionary
280
     1
  3
ACAD_XREC_ROUNDTRIP
360
24F
  0
DICTIONARY
  5
252
330
3E
100
AcDbDictionary
280
     1
  3
ACAD_XREC_ROUNDTRIP
360
253
  0
XRECORD
  5
251
102
{ACAD_REACTORS
330
250
102
}
330
250
100
AcDbXrecord
102
MATERIAL
148
0.0
149
0.0
149
0.0
 93
        0
 94
      127
282
     0
 72
     1
 77
     1
171
     1
175
     1
179
     1
273
     0
  0
XRECORD
  5
24F
102
{ACAD_REACTORS
330
24E
102
}
330
24E
100
AcDbXrecord
102
MATERIAL
148
0.0
149
0.0
149
0.0
 93
        0
 94
      127
282
     0
 72
     1
 77
     1
171
     1
175
     1
179
     1
273
     0
  0
XRECORD
  5
253
102
{ACAD_REACTORS
330
252
102
}
330
252
100
AcDbXrecord
102
MATERIAL
148
0.0
149
0.0
149
0.0
 93
        0
 94
      127
282
     0
 72
     1
 77
     1
171
     1
175
     1
179
     1
273
     0
  0
ENDSEC
  0
EOF
