  0
SECTION
  2
HEADER
  9
$ACADVER
  1
AC1014
  9
$ACADMAINTVER
 70
     9
  9
$DWGCODEPAGE
  3
ANSI_932
  9
$INSBASE
 10
0.0
 20
0.0
 30
0.0
  9
$EXTMIN
 10
43.48680967035563
 20
113.2374275996837
 30
0.0
  9
$EXTMAX
 10
790.4562465960619
 20
457.3047922535936
 30
0.0
  9
$LIMMIN
 10
0.0
 20
0.0
  9
$LIMMAX
 10
420.0
 20
297.0
  9
$ORTHOMODE
 70
     0
  9
$REGENMODE
 70
     1
  9
$FILLMODE
 70
     1
  9
$QTEXTMODE
 70
     0
  9
$MIRRTEXT
 70
     1
  9
$DRAGMODE
 70
     2
  9
$LTSCALE
 40
0.5
  9
$OSMODE
 70
    37
  9
$ATTMODE
 70
     1
  9
$TEXTSIZE
 40
5.6
  9
$TRACEWID
 40
0.05
  9
$TEXTSTYLE
  7
STANDARD
  9
$CLAYER
  8
0
  9
$CELTYPE
  6
BYLAYER
  9
$CECOLOR
 62
   256
  9
$CELTSCALE
 40
1.0
  9
$DELOBJ
 70
     1
  9
$DISPSILH
 70
     0
  9
$DIMSCALE
 40
1.0
  9
$DIMASZ
 40
1.55291427
  9
$DIMEXO
 40
2.0
  9
$DIMDLI
 40
30.0
  9
$DIMRND
 40
0.0
  9
$DIMDLE
 40
0.0
  9
$DIMEXE
 40
2.0
  9
$DIMTP
 40
0.0
  9
$DIMTM
 40
0.0
  9
$DIMTXT
 40
2.8
  9
$DIMCEN
 40
0.09
  9
$DIMTSZ
 40
0.0
  9
$DIMTOL
 70
     0
  9
$DIMLIM
 70
     0
  9
$DIMTIH
 70
     0
  9
$DIMTOH
 70
     0
  9
$DIMSE1
 70
     0
  9
$DIMSE2
 70
     0
  9
$DIMTAD
 70
     3
  9
$DIMZIN
 70
     8
  9
$DIMBLK
  1

  9
$DIMASO
 70
     1
  9
$DIMSHO
 70
     1
  9
$DIMPOST
  1

  9
$DIMAPOST
  1

  9
$DIMALT
 70
     0
  9
$DIMALTD
 70
     2
  9
$DIMALTF
 40
25.4
  9
$DIMLFAC
 40
1.0
  9
$DIMTOFL
 70
     1
  9
$DIMTVP
 40
0.7
  9
$DIMTIX
 70
     0
  9
$DIMSOXD
 70
     0
  9
$DIMSAH
 70
     0
  9
$DIMBLK1
  1

  9
$DIMBLK2
  1

  9
$DIMSTYLE
  2
STANDARD
  9
$DIMCLRD
 70
     0
  9
$DIMCLRE
 70
     0
  9
$DIMCLRT
 70
     0
  9
$DIMTFAC
 40
0.5
  9
$DIMGAP
 40
0.09
  9
$DIMJUST
 70
     0
  9
$DIMSD1
 70
     0
  9
$DIMSD2
 70
     0
  9
$DIMTOLJ
 70
     1
  9
$DIMTZIN
 70
     8
  9
$DIMALTZ
 70
     0
  9
$DIMALTTZ
 70
     0
  9
$DIMFIT
 70
     5
  9
$DIMUPT
 70
     1
  9
$DIMUNIT
 70
     2
  9
$DIMDEC
 70
     2
  9
$DIMTDEC
 70
     4
  9
$DIMALTU
 70
     2
  9
$DIMALTTD
 70
     2
  9
$DIMTXSTY
  7
STANDARD
  9
$DIMAUNIT
 70
     0
  9
$LUNITS
 70
     2
  9
$LUPREC
 70
     4
  9
$SKETCHINC
 40
0.1
  9
$FILLETRAD
 40
0.5
  9
$AUNITS
 70
     0
  9
$AUPREC
 70
     0
  9
$MENU
  1
.
  9
$ELEVATION
 40
0.0
  9
$PELEVATION
 40
0.0
  9
$THICKNESS
 40
0.0
  9
$LIMCHECK
 70
     0
  9
$CHAMFERA
 40
0.5
  9
$CHAMFERB
 40
0.5
  9
$CHAMFERC
 40
1.0
  9
$CHAMFERD
 40
0.0
  9
$SKPOLY
 70
     0
  9
$TDCREATE
 40
2460098.069375
  9
$TDUPDATE
 40
2460097.694385648
  9
$TDINDWG
 40
0.0000000116
  9
$TDUSRTIMER
 40
0.0000000116
  9
$USRTIMER
 70
     1
  9
$ANGBASE
 50
0.0
  9
$ANGDIR
 70
     0
  9
$PDMODE
 70
     0
  9
$PDSIZE
 40
0.0
  9
$PLINEWID
 40
0.0
  9
$COORDS
 70
     1
  9
$SPLFRAME
 70
     0
  9
$SPLINETYPE
 70
     6
  9
$SPLINESEGS
 70
     8
  9
$ATTDIA
 70
     0
  9
$ATTREQ
 70
     1
  9
$HANDLING
 70
     1
  9
$HANDSEED
  5
254
  9
$SURFTAB1
 70
     6
  9
$SURFTAB2
 70
     6
  9
$SURFTYPE
 70
     6
  9
$SURFU
 70
     6
  9
$SURFV
 70
     6
  9
$UCSNAME
  2

  9
$UCSORG
 10
0.0
 20
0.0
 30
0.0
  9
$UCSXDIR
 10
1.0
 20
0.0
 30
0.0
  9
$UCSYDIR
 10
0.0
 20
1.0
 30
0.0
  9
$PUCSNAME
  2

  9
$PUCSORG
 10
0.0
 20
0.0
 30
0.0
  9
$PUCSXDIR
 10
1.0
 20
0.0
 30
0.0
  9
$PUCSYDIR
 10
0.0
 20
1.0
 30
0.0
  9
$USERI1
 70
     0
  9
$USERI2
 70
     0
  9
$USERI3
 70
     0
  9
$USERI4
 70
     0
  9
$USERI5
 70
     0
  9
$USERR1
 40
0.0
  9
$USERR2
 40
0.0
  9
$USERR3
 40
0.0
  9
$USERR4
 40
0.0
  9
$USERR5
 40
0.0
  9
$WORLDVIEW
 70
     1
  9
$SHADEDGE
 70
     3
  9
$SHADEDIF
 70
    70
  9
$TILEMODE
 70
     1
  9
$MAXACTVP
 70
    64
  9
$PINSBASE
 10
0.0
 20
0.0
 30
0.0
  9
$PLIMCHECK
 70
     0
  9
$PEXTMIN
 10
0.0
 20
0.0
 30
0.0
  9
$PEXTMAX
 10
420.0
 20
297.0
 30
0.0
  9
$PLIMMIN
 10
0.0
 20
0.0
  9
$PLIMMAX
 10
420.0
 20
297.0
  9
$UNITMODE
 70
     0
  9
$VISRETAIN
 70
     1
  9
$PLINEGEN
 70
     0
  9
$PSLTSCALE
 70
     1
  9
$TREEDEPTH
 70
  3020
  9
$PICKSTYLE
 70
     1
  9
$CMLSTYLE
  2
STANDARD
  9
$CMLJUST
 70
     0
  9
$CMLSCALE
 40
1.0
  9
$PROXYGRAPHICS
 70
     1
  9
$MEASUREMENT
 70
     1
  0
ENDSEC
  0
SECTION
  2
CLASSES
  0
CLASS
  1
ACDBDICTIONARYWDFLT
  2
AcDbDictionaryWithDefault
  3
ObjectDBX Classes
 90
        0
280
     0
281
     0
  0
CLASS
  1
VISUALSTYLE
  2
AcDbVisualStyle
  3
ObjectDBX Classes
 90
     4095
280
     0
281
     0
  0
CLASS
  1
MATERIAL
  2
AcDbMaterial
  3
ObjectDBX Classes
 90
     1153
280
     0
281
     0
  0
CLASS
  1
DICTIONARYVAR
  2
AcDbDictionaryVar
  3
ObjectDBX Classes
 90
        0
280
     0
281
     0
  0
CLASS
  1
XRECORD
  2
AcDbXrecord
  3
AutoCAD 2000
 90
        0
280
     0
281
     0
  0
CLASS
  1
LWPOLYLINE
  2
AcDbPolyline
  3
AutoCAD 2000
 90
        0
280
     0
281
     1
  0
CLASS
  1
HATCH
  2
AcDbHatch
  3
AutoCAD 2000
 90
        0
280
     0
281
     1
  0
CLASS
  1
ACDBPLACEHOLDER
  2
AcDbPlaceHolder
  3
ObjectDBX Classes
 90
        0
280
     0
281
     0
  0
CLASS
  1
LAYOUT
  2
AcDbLayout
  3
ObjectDBX Classes
 90
        0
280
     0
281
     0
  0
ENDSEC
  0
SECTION
  2
TABLES
  0
TABLE
  2
VPORT
  5
8
330
0
100
AcDbSymbolTable
 70
     1
  0
VPORT
  5
29
330
8
100
AcDbSymbolTableRecord
100
AcDbViewportTableRecord
  2
*ACTIVE
 70
     0
 10
0.0
 20
0.0
 11
1.0
 21
1.0
 12
10.42990654205607
 22
4.5
 13
0.0
 23
0.0
 14
0.5
 24
0.5
 15
0.5
 25
0.5
 16
0.0
 26
0.0
 36
1.0
 17
0.0
 27
0.0
 37
0.0
 40
9.0
 41
1.972972972850329
 42
50.0
 43
0.0
 44
0.0
 50
0.0
 51
0.0
 71
     0
 72
   100
 73
     1
 74
     3
 75
     0
 76
     0
 77
     0
 78
     0
  0
ENDTAB
  0
TABLE
  2
LTYPE
  5
5
330
0
100
AcDbSymbolTable
 70
     9
  0
LTYPE
  5
14
330
5
100
AcDbSymbolTableRecord
100
AcDbLinetypeTableRecord
  2
BYBLOCK
 70
     0
  3

 72
    65
 73
     0
 40
0.0
  0
LTYPE
  5
15
330
5
100
AcDbSymbolTableRecord
100
AcDbLinetypeTableRecord
  2
BYLAYER
 70
     0
  3

 72
    65
 73
     0
 40
0.0
  0
LTYPE
  5
16
330
5
100
AcDbSymbolTableRecord
100
AcDbLinetypeTableRecord
  2
CONTINUOUS
 70
     0
  3
Solid line
 72
    65
 73
     0
 40
0.0
  0
LTYPE
  5
8E
330
5
100
AcDbSymbolTableRecord
100
AcDbLinetypeTableRecord
  2
DOT
 70
     0
  3
DOT
 72
    65
 73
     2
 40
4.0
 49
6.0
 74
     0
 49
-2.0
 74
     0
  0
LTYPE
  5
8F
330
5
100
AcDbSymbolTableRecord
100
AcDbLinetypeTableRecord
  2
HIDDEN
 70
     0
  3
HIDDEN
 72
    65
 73
     2
 40
4.2
 49
8.4
 74
     0
 49
-4.2
 74
     0
  0
LTYPE
  5
90
330
5
100
AcDbSymbolTableRecord
100
AcDbLinetypeTableRecord
  2
DASHDOT
 70
     0
  3
DASHDOT
 72
    65
 73
     4
 40
14.5
 49
30.0
 74
     0
 49
-9.0
 74
     0
 49
2.5
 74
     0
 49
-9.0
 74
     0
  0
LTYPE
  5
91
330
5
100
AcDbSymbolTableRecord
100
AcDbLinetypeTableRecord
  2
PHANTOM
 70
     0
  3
PHANTOM
 72
    65
 73
     6
 40
12.0
 49
30.0
 74
     0
 49
-9.0
 74
     0
 49
2.5
 74
     0
 49
-5.0
 74
     0
 49
2.5
 74
     0
 49
-9.0
 74
     0
  0
LTYPE
  5
92
330
5
100
AcDbSymbolTableRecord
100
AcDbLinetypeTableRecord
  2
ACAD_ISO14W100
 70
     0
  3
ACAD_ISO14W100
 72
    65
 73
     8
 40
1.5
 49
12.0
 74
     0
 49
-3.0
 74
     0
 49
0.5
 74
     0
 49
-3.0
 74
     0
 49
0.5
 74
     0
 49
-3.0
 74
     0
 49
0.5
 74
     0
 49
-3.0
 74
     0
  0
LTYPE
  5
93
330
5
100
AcDbSymbolTableRecord
100
AcDbLinetypeTableRecord
  2
ACAD_ISO06W100
 70
     0
  3
ACAD_ISO06W100
 72
    65
 73
     8
 40
13.5
 49
24.0
 74
     0
 49
-3.0
 74
     0
 49
0.5
 74
     0
 49
-3.0
 74
     0
 49
0.5
 74
     0
 49
-3.0
 74
     0
 49
0.5
 74
     0
 49
-3.0
 74
     0
  0
LTYPE
  5
94
330
5
100
AcDbSymbolTableRecord
100
AcDbLinetypeTableRecord
  2
ACAD_ISO11W100
 70
     0
  3
ACAD_ISO11W100
 72
    65
 73
     6
 40
15.5
 49
12.0
 74
     0
 49
-3.0
 74
     0
 49
12.0
 74
     0
 49
-3.0
 74
     0
 49
0.5
 74
     0
 49
-3.0
 74
     0
  0
LTYPE
  5
95
330
5
100
AcDbSymbolTableRecord
100
AcDbLinetypeTableRecord
  2
ACAD_ISO13W100
 70
     0
  3
ACAD_ISO13W100
 72
    65
 73
     8
 40
13.0
 49
12.0
 74
     0
 49
-3.0
 74
     0
 49
12.0
 74
     0
 49
-3.0
 74
     0
 49
0.5
 74
     0
 49
-3.0
 74
     0
 49
0.5
 74
     0
 49
-3.0
 74
     0
  0
ENDTAB
  0
TABLE
  2
LAYER
  5
2
330
0
100
AcDbSymbolTable
 70
    12
  0
LAYER
  5
10
330
2
100
AcDbSymbolTableRecord
100
AcDbLayerTableRecord
  2
0
 70
     0
 62
     7
  6
CONTINUOUS
  0
LAYER
  5
96
330
2
100
AcDbSymbolTableRecord
100
AcDbLayerTableRecord
  2
1
 70
     0
 62
     7
  6
CONTINUOUS
  0
LAYER
  5
97
330
2
100
AcDbSymbolTableRecord
100
AcDbLayerTableRecord
  2
2
 70
     0
 62
   151
  6
CONTINUOUS
  0
LAYER
  5
98
330
2
100
AcDbSymbolTableRecord
100
AcDbLayerTableRecord
  2
3
 70
     0
 62
     1
  6
DASHDOT
  0
LAYER
  5
99
330
2
100
AcDbSymbolTableRecord
100
AcDbLayerTableRecord
  2
4
 70
     0
 62
     7
  6
CONTINUOUS
  0
LAYER
  5
9A
330
2
100
AcDbSymbolTableRecord
100
AcDbLayerTableRecord
  2
5
 70
     0
 62
     6
  6
CONTINUOUS
  0
LAYER
  5
9B
330
2
100
AcDbSymbolTableRecord
100
AcDbLayerTableRecord
  2
6
 70
     0
 62
     3
  6
CONTINUOUS
  0
LAYER
  5
9C
330
2
100
AcDbSymbolTableRecord
100
AcDbLayerTableRecord
  2
7
 70
     0
 62
     4
  6
CONTINUOUS
  0
LAYER
  5
9D
330
2
100
AcDbSymbolTableRecord
100
AcDbLayerTableRecord
  2
8
 70
     0
 62
     7
  6
CONTINUOUS
  0
LAYER
  5
9E
330
2
100
AcDbSymbolTableRecord
100
AcDbLayerTableRecord
  2
9
 70
     0
 62
     2
  6
CONTINUOUS
  0
LAYER
  5
9F
330
2
100
AcDbSymbolTableRecord
100
AcDbLayerTableRecord
  2
10
 70
     0
 62
     2
  6
CONTINUOUS
  0
LAYER
  5
A0
330
2
100
AcDbSymbolTableRecord
100
AcDbLayerTableRecord
  2
11
 70
     0
 62
     3
  6
HIDDEN
  0
ENDTAB
  0
TABLE
  2
STYLE
  5
3
330
0
100
AcDbSymbolTable
 70
     3
  0
STYLE
  5
11
330
3
100
AcDbSymbolTableRecord
100
AcDbTextStyleTableRecord
  2
STANDARD
 70
     0
 40
0.0
 41
1.0
 50
0.0
 71
     0
 42
5.6
  3
txt
  4
bigfont
  0
STYLE
  5
41
330
3
100
AcDbSymbolTableRecord
100
AcDbTextStyleTableRecord
  2
T_STANDARD
 70
     4
 40
10.0
 41
1.0
 50
0.0
 71
     0
 42
10.0
  3
txt
  4
bigfont
  0
STYLE
  5
185
330
3
100
AcDbSymbolTableRecord
100
AcDbTextStyleTableRecord
  2
ＭＳ_ゴシック
 70
     0
 40
0.0
 41
1.0
 50
0.0
 71
     0
 42
0.0
  3

  4

1001
ACAD
1000
ＭＳ ゴシック
1071
      256
  0
ENDTAB
  0
TABLE
  2
VIEW
  5
6
330
0
100
AcDbSymbolTable
 70
     0
  0
ENDTAB
  0
TABLE
  2
UCS
  5
7
330
0
100
AcDbSymbolTable
 70
     0
  0
ENDTAB
  0
TABLE
  2
APPID
  5
9
330
0
100
AcDbSymbolTable
 70
     2
  0
APPID
  5
12
330
9
100
AcDbSymbolTableRecord
100
AcDbRegAppTableRecord
  2
ACAD
 70
     0
  0
APPID
  5
40
330
9
100
AcDbSymbolTableRecord
100
AcDbRegAppTableRecord
  2
ODA
 70
     0
  0
ENDTAB
  0
TABLE
  2
DIMSTYLE
  5
A
330
0
100
AcDbSymbolTable
 70
     1
  0
DIMSTYLE
105
27
102
{ACAD_REACTORS
330
18F
330
199
330
1A3
330
1AD
330
1B7
330
1C1
330
1CB
330
1D5
330
1DF
330
1E9
330
1F3
330
1FD
330
207
330
211
330
219
330
221
102
}
330
A
100
AcDbSymbolTableRecord
100
AcDbDimStyleTableRecord
  2
STANDARD
 70
     0
  3

  4

  5

  6

  7

 40
1.0
 41
0.18
 42
0.0625
 43
0.38
 44
0.18
 45
0.0
 46
0.0
 47
0.0
 48
0.0
140
0.18
141
0.09
142
0.0
143
25.4
144
1.0
145
0.0
146
1.0
147
0.09
 71
     0
 72
     0
 73
     1
 74
     1
 75
     0
 76
     0
 77
     0
 78
     0
170
     0
171
     2
172
     0
173
     0
174
     0
175
     0
176
     0
177
     0
178
     0
270
     2
271
     4
272
     4
273
     2
274
     2
340
11
275
     0
280
     0
281
     0
282
     0
283
     1
284
     0
285
     0
286
     0
287
     3
288
     0
  0
ENDTAB
  0
TABLE
  2
BLOCK_RECORD
  5
1
330
0
100
AcDbSymbolTable
 70
    32
  0
BLOCK_RECORD
  5
1F
330
1
100
AcDbSymbolTableRecord
100
AcDbBlockTableRecord
  2
*MODEL_SPACE
  0
BLOCK_RECORD
  5
1B
330
1
100
AcDbSymbolTableRecord
100
AcDbBlockTableRecord
  2
*PAPER_SPACE
  0
BLOCK_RECORD
  5
42
330
1
100
AcDbSymbolTableRecord
100
AcDbBlockTableRecord
  2
_ORIGIN
  0
BLOCK_RECORD
  5
47
330
1
100
AcDbSymbolTableRecord
100
AcDbBlockTableRecord
  2
_DOTBLANK
  0
BLOCK_RECORD
  5
4C
330
1
100
AcDbSymbolTableRecord
100
AcDbBlockTableRecord
  2
_DOT
  0
BLOCK_RECORD
  5
51
330
1
100
AcDbSymbolTableRecord
100
AcDbBlockTableRecord
  2
_OPEN
  0
BLOCK_RECORD
  5
57
330
1
100
AcDbSymbolTableRecord
100
AcDbBlockTableRecord
  2
_CLOSED
  0
BLOCK_RECORD
  5
5E
330
1
100
AcDbSymbolTableRecord
100
AcDbBlockTableRecord
  2
_CLOSEDBLANK
  0
BLOCK_RECORD
  5
64
330
1
100
AcDbSymbolTableRecord
100
AcDbBlockTableRecord
  2
_ARROWFILLED
  0
BLOCK_RECORD
  5
68
330
1
100
AcDbSymbolTableRecord
100
AcDbBlockTableRecord
  2
_BOXBLANK
  0
BLOCK_RECORD
  5
70
330
1
100
AcDbSymbolTableRecord
100
AcDbBlockTableRecord
  2
_BOXFILLED
  0
BLOCK_RECORD
  5
75
330
1
100
AcDbSymbolTableRecord
100
AcDbBlockTableRecord
  2
_INTEGRAL
  0
BLOCK_RECORD
  5
7A
330
1
100
AcDbSymbolTableRecord
100
AcDbBlockTableRecord
  2
_OBLIQUE
  0
BLOCK_RECORD
  5
7E
330
1
100
AcDbSymbolTableRecord
100
AcDbBlockTableRecord
  2
_NONE
  0
BLOCK_RECORD
  5
81
330
1
100
AcDbSymbolTableRecord
100
AcDbBlockTableRecord
  2
MARK_OPEN
  0
BLOCK_RECORD
  5
86
330
1
100
AcDbSymbolTableRecord
100
AcDbBlockTableRecord
  2
MARK_ORIGIN
  0
BLOCK_RECORD
  5
8A
330
1
100
AcDbSymbolTableRecord
100
AcDbBlockTableRecord
  2
MARK_DOT
  0
BLOCK_RECORD
  5
186
330
1
100
AcDbSymbolTableRecord
100
AcDbBlockTableRecord
  2
DIM1
  0
BLOCK_RECORD
  5
190
330
1
100
AcDbSymbolTableRecord
100
AcDbBlockTableRecord
  2
DIM2
  0
BLOCK_RECORD
  5
19A
330
1
100
AcDbSymbolTableRecord
100
AcDbBlockTableRecord
  2
DIM3
  0
BLOCK_RECORD
  5
1A4
330
1
100
AcDbSymbolTableRecord
100
AcDbBlockTableRecord
  2
DIM4
  0
BLOCK_RECORD
  5
1AE
330
1
100
AcDbSymbolTableRecord
100
AcDbBlockTableRecord
  2
DIM5
  0
BLOCK_RECORD
  5
1B8
330
1
100
AcDbSymbolTableRecord
100
AcDbBlockTableRecord
  2
DIM6
  0
BLOCK_RECORD
  5
1C2
330
1
100
AcDbSymbolTableRecord
100
AcDbBlockTableRecord
  2
DIM7
  0
BLOCK_RECORD
  5
1CC
330
1
100
AcDbSymbolTableRecord
100
AcDbBlockTableRecord
  2
DIM8
  0
BLOCK_RECORD
  5
1D6
330
1
100
AcDbSymbolTableRecord
100
AcDbBlockTableRecord
  2
DIM9
  0
BLOCK_RECORD
  5
1E0
330
1
100
AcDbSymbolTableRecord
100
AcDbBlockTableRecord
  2
DIM10
  0
BLOCK_RECORD
  5
1EA
330
1
100
AcDbSymbolTableRecord
100
AcDbBlockTableRecord
  2
DIM11
  0
BLOCK_RECORD
  5
1F4
330
1
100
AcDbSymbolTableRecord
100
AcDbBlockTableRecord
  2
DIM12
  0
BLOCK_RECORD
  5
1FE
330
1
100
AcDbSymbolTableRecord
100
AcDbBlockTableRecord
  2
DIM13
  0
BLOCK_RECORD
  5
208
330
1
100
AcDbSymbolTableRecord
100
AcDbBlockTableRecord
  2
DIM14
  0
BLOCK_RECORD
  5
212
330
1
100
AcDbSymbolTableRecord
100
AcDbBlockTableRecord
  2
DIM15
  0
BLOCK_RECORD
  5
21A
330
1
100
AcDbSymbolTableRecord
100
AcDbBlockTableRecord
  2
DIM16
  0
ENDTAB
  0
ENDSEC
  0
SECTION
  2
BLOCKS
  0
BLOCK
  5
20
330
1F
100
AcDbEntity
  8
0
100
AcDbBlockBegin
  2
*MODEL_SPACE
 70
     0
 10
0.0
 20
0.0
 30
0.0
  3
*MODEL_SPACE
  1

  0
ENDBLK
  5
21
330
1F
100
AcDbEntity
  8
0
100
AcDbBlockEnd
  0
BLOCK
  5
1C
330
1B
100
AcDbEntity
 67
     1
  8
0
100
AcDbBlockBegin
  2
*PAPER_SPACE
 70
     0
 10
0.0
 20
0.0
 30
0.0
  3
*PAPER_SPACE
  1

  0
ENDBLK
  5
1D
330
1B
100
AcDbEntity
 67
     1
  8
0
100
AcDbBlockEnd
  0
BLOCK
  5
45
330
42
100
AcDbEntity
  8
0
100
AcDbBlockBegin
  2
_ORIGIN
 70
     0
 10
0.0
 20
0.0
 30
0.0
  3
_ORIGIN
  1

  0
CIRCLE
  5
43
330
42
100
AcDbEntity
  8
0
 62
     0
100
AcDbCircle
 10
0.0
 20
0.0
 30
0.0
 40
0.5
  0
LINE
  5
44
330
42
100
AcDbEntity
  8
0
 62
     0
100
AcDbLine
 10
0.0
 20
0.0
 30
0.0
 11
-1.0
 21
0.0
 31
0.0
  0
ENDBLK
  5
46
330
42
100
AcDbEntity
  8
0
100
AcDbBlockEnd
  0
BLOCK
  5
4A
330
47
100
AcDbEntity
  8
0
100
AcDbBlockBegin
  2
_DOTBLANK
 70
     0
 10
0.0
 20
0.0
 30
0.0
  3
_DOTBLANK
  1

  0
CIRCLE
  5
48
330
47
100
AcDbEntity
  8
0
 62
     0
100
AcDbCircle
 10
0.0
 20
0.0
 30
0.0
 40
0.5
  0
LINE
  5
49
330
47
100
AcDbEntity
  8
0
 62
     0
100
AcDbLine
 10
-0.5
 20
0.0
 30
0.0
 11
-1.0
 21
0.0
 31
0.0
  0
ENDBLK
  5
4B
330
47
100
AcDbEntity
  8
0
100
AcDbBlockEnd
  0
BLOCK
  5
4F
330
4C
100
AcDbEntity
  8
0
100
AcDbBlockBegin
  2
_DOT
 70
     0
 10
0.0
 20
0.0
 30
0.0
  3
_DOT
  1

  0
LWPOLYLINE
  5
4D
330
4C
100
AcDbEntity
  8
0
 62
     0
100
AcDbPolyline
 90
        2
 70
     1
 43
0.5
 10
-0.25
 20
0.0
 42
1.0
 10
0.25
 20
0.0
 42
1.0
  0
LINE
  5
4E
330
4C
100
AcDbEntity
  8
0
 62
     0
100
AcDbLine
 10
-0.5
 20
0.0
 30
0.0
 11
-1.0
 21
0.0
 31
0.0
  0
ENDBLK
  5
50
330
4C
100
AcDbEntity
  8
0
100
AcDbBlockEnd
  0
BLOCK
  5
55
330
51
100
AcDbEntity
  8
0
100
AcDbBlockBegin
  2
_OPEN
 70
     0
 10
0.0
 20
0.0
 30
0.0
  3
_OPEN
  1

  0
LINE
  5
52
330
51
100
AcDbEntity
  8
0
 62
     0
100
AcDbLine
 10
0.0
 20
0.0
 30
0.0
 11
-1.0
 21
0.1666666666666667
 31
0.0
  0
LINE
  5
53
330
51
100
AcDbEntity
  8
0
 62
     0
100
AcDbLine
 10
0.0
 20
0.0
 30
0.0
 11
-1.0
 21
-0.1666666666666667
 31
0.0
  0
LINE
  5
54
330
51
100
AcDbEntity
  8
0
 62
     0
100
AcDbLine
 10
0.0
 20
0.0
 30
0.0
 11
-1.0
 21
0.0
 31
0.0
  0
ENDBLK
  5
56
330
51
100
AcDbEntity
  8
0
100
AcDbBlockEnd
  0
BLOCK
  5
5C
330
57
100
AcDbEntity
  8
0
100
AcDbBlockBegin
  2
_CLOSED
 70
     0
 10
0.0
 20
0.0
 30
0.0
  3
_CLOSED
  1

  0
LINE
  5
58
330
57
100
AcDbEntity
  8
0
 62
     0
100
AcDbLine
 10
0.0
 20
0.0
 30
0.0
 11
-1.0
 21
0.1666666666666667
 31
0.0
  0
LINE
  5
59
330
57
100
AcDbEntity
  8
0
 62
     0
100
AcDbLine
 10
0.0
 20
0.0
 30
0.0
 11
-1.0
 21
-0.1666666666666667
 31
0.0
  0
LINE
  5
5A
330
57
100
AcDbEntity
  8
0
 62
     0
100
AcDbLine
 10
-1.0
 20
0.1666666666666667
 30
0.0
 11
-1.0
 21
-0.1666666666666667
 31
0.0
  0
LINE
  5
5B
330
57
100
AcDbEntity
  8
0
 62
     0
100
AcDbLine
 10
0.0
 20
0.0
 30
0.0
 11
-1.0
 21
0.0
 31
0.0
  0
ENDBLK
  5
5D
330
57
100
AcDbEntity
  8
0
100
AcDbBlockEnd
  0
BLOCK
  5
62
330
5E
100
AcDbEntity
  8
0
100
AcDbBlockBegin
  2
_CLOSEDBLANK
 70
     0
 10
0.0
 20
0.0
 30
0.0
  3
_CLOSEDBLANK
  1

  0
LINE
  5
5F
330
5E
100
AcDbEntity
  8
0
 62
     0
100
AcDbLine
 10
0.0
 20
0.0
 30
0.0
 11
-1.0
 21
0.1666666666666667
 31
0.0
  0
LINE
  5
60
330
5E
100
AcDbEntity
  8
0
 62
     0
100
AcDbLine
 10
0.0
 20
0.0
 30
0.0
 11
-1.0
 21
-0.1666666666666667
 31
0.0
  0
LINE
  5
61
330
5E
100
AcDbEntity
  8
0
 62
     0
100
AcDbLine
 10
-1.0
 20
0.1666666666666667
 30
0.0
 11
-1.0
 21
-0.1666666666666667
 31
0.0
  0
ENDBLK
  5
63
330
5E
100
AcDbEntity
  8
0
100
AcDbBlockEnd
  0
BLOCK
  5
66
330
64
100
AcDbEntity
  8
0
100
AcDbBlockBegin
  2
_ARROWFILLED
 70
     0
 10
0.0
 20
0.0
 30
0.0
  3
_ARROWFILLED
  1

  0
SOLID
  5
65
330
64
100
AcDbEntity
  8
0
 62
     0
100
AcDbTrace
 10
0.0
 20
0.0
 30
0.0
 11
-1.0
 21
-0.1666666666666667
 31
0.0
 12
-1.0
 22
0.1666666666666667
 32
0.0
 13
0.0
 23
0.0
 33
0.0
  0
ENDBLK
  5
67
330
64
100
AcDbEntity
  8
0
100
AcDbBlockEnd
  0
BLOCK
  5
6E
330
68
100
AcDbEntity
  8
0
100
AcDbBlockBegin
  2
_BOXBLANK
 70
     0
 10
0.0
 20
0.0
 30
0.0
  3
_BOXBLANK
  1

  0
LINE
  5
69
330
68
100
AcDbEntity
  8
0
 62
     0
100
AcDbLine
 10
-0.5
 20
-0.5
 30
0.0
 11
0.5
 21
-0.5
 31
0.0
  0
LINE
  5
6A
330
68
100
AcDbEntity
  8
0
 62
     0
100
AcDbLine
 10
0.5
 20
-0.5
 30
0.0
 11
0.5
 21
0.5
 31
0.0
  0
LINE
  5
6B
330
68
100
AcDbEntity
  8
0
 62
     0
100
AcDbLine
 10
0.5
 20
0.5
 30
0.0
 11
-0.5
 21
0.5
 31
0.0
  0
LINE
  5
6C
330
68
100
AcDbEntity
  8
0
 62
     0
100
AcDbLine
 10
-0.5
 20
0.5
 30
0.0
 11
-0.5
 21
-0.5
 31
0.0
  0
LINE
  5
6D
330
68
100
AcDbEntity
  8
0
 62
     0
100
AcDbLine
 10
-0.5
 20
0.0
 30
0.0
 11
-1.0
 21
0.0
 31
0.0
  0
ENDBLK
  5
6F
330
68
100
AcDbEntity
  8
0
100
AcDbBlockEnd
  0
BLOCK
  5
73
330
70
100
AcDbEntity
  8
0
100
AcDbBlockBegin
  2
_BOXFILLED
 70
     0
 10
0.0
 20
0.0
 30
0.0
  3
_BOXFILLED
  1

  0
SOLID
  5
71
330
70
100
AcDbEntity
  8
0
 62
     0
100
AcDbTrace
 10
-0.5
 20
0.5
 30
0.0
 11
0.5
 21
0.5
 31
0.0
 12
-0.5
 22
-0.5
 32
0.0
 13
0.5
 23
-0.5
 33
0.0
  0
LINE
  5
72
330
70
100
AcDbEntity
  8
0
 62
     0
100
AcDbLine
 10
-0.5
 20
0.0
 30
0.0
 11
-1.0
 21
0.0
 31
0.0
  0
ENDBLK
  5
74
330
70
100
AcDbEntity
  8
0
100
AcDbBlockEnd
  0
BLOCK
  5
78
330
75
100
AcDbEntity
  8
0
100
AcDbBlockBegin
  2
_INTEGRAL
 70
     0
 10
0.0
 20
0.0
 30
0.0
  3
_INTEGRAL
  1

  0
ARC
  5
76
330
75
100
AcDbEntity
  8
0
 62
     0
100
AcDbCircle
 10
0.444888
 20
-0.0913346
 30
0.0
 40
0.4541666
100
AcDbArc
 50
101.9999999999999
 51
167.9999999999998
  0
ARC
  5
77
330
75
100
AcDbEntity
  8
0
 62
     0
100
AcDbCircle
 10
-0.444888
 20
0.0913346
 30
0.0
 40
0.4541666
100
AcDbArc
 50
281.9999999999997
 51
347.9999999999997
  0
ENDBLK
  5
79
330
75
100
AcDbEntity
  8
0
100
AcDbBlockEnd
  0
BLOCK
  5
7C
330
7A
100
AcDbEntity
  8
0
100
AcDbBlockBegin
  2
_OBLIQUE
 70
     0
 10
0.0
 20
0.0
 30
0.0
  3
_OBLIQUE
  1

  0
LINE
  5
7B
330
7A
100
AcDbEntity
  8
0
 62
     0
100
AcDbLine
 10
-0.5
 20
-0.5
 30
0.0
 11
0.5
 21
0.5
 31
0.0
  0
ENDBLK
  5
7D
330
7A
100
AcDbEntity
  8
0
100
AcDbBlockEnd
  0
BLOCK
  5
7F
330
7E
100
AcDbEntity
  8
0
100
AcDbBlockBegin
  2
_NONE
 70
     0
 10
0.0
 20
0.0
 30
0.0
  3
_NONE
  1

  0
ENDBLK
  5
80
330
7E
100
AcDbEntity
  8
0
100
AcDbBlockEnd
  0
BLOCK
  5
84
330
81
100
AcDbEntity
  8
0
100
AcDbBlockBegin
  2
MARK_OPEN
 70
     0
 10
0.0
 20
0.0
 30
0.0
  3
MARK_OPEN
  1

  0
LINE
  5
82
330
81
100
AcDbEntity
  8
0
 62
     0
100
AcDbLine
 10
0.0
 20
0.0
 30
0.0
 11
-1.0
 21
0.1666666666666667
 31
0.0
  0
LINE
  5
83
330
81
100
AcDbEntity
  8
0
 62
     0
100
AcDbLine
 10
0.0
 20
0.0
 30
0.0
 11
-1.0
 21
-0.1666666666666667
 31
0.0
  0
ENDBLK
  5
85
330
81
100
AcDbEntity
  8
0
100
AcDbBlockEnd
  0
BLOCK
  5
88
330
86
100
AcDbEntity
  8
0
100
AcDbBlockBegin
  2
MARK_ORIGIN
 70
     0
 10
0.0
 20
0.0
 30
0.0
  3
MARK_ORIGIN
  1

  0
CIRCLE
  5
87
330
86
100
AcDbEntity
  8
0
 62
     0
100
AcDbCircle
 10
0.0
 20
0.0
 30
0.0
 40
0.5
  0
ENDBLK
  5
89
330
86
100
AcDbEntity
  8
0
100
AcDbBlockEnd
  0
BLOCK
  5
8C
330
8A
100
AcDbEntity
  8
0
100
AcDbBlockBegin
  2
MARK_DOT
 70
     0
 10
0.0
 20
0.0
 30
0.0
  3
MARK_DOT
  1

  0
LWPOLYLINE
  5
8B
330
8A
100
AcDbEntity
  8
0
 62
     0
100
AcDbPolyline
 90
        2
 70
     1
 43
0.5
 10
-0.25
 20
0.0
 42
1.0
 10
0.25
 20
0.0
 42
1.0
  0
ENDBLK
  5
8D
330
8A
100
AcDbEntity
  8
0
100
AcDbBlockEnd
  0
BLOCK
  5
187
330
186
100
AcDbEntity
  8
0
100
AcDbBlockBegin
  2
DIM1
 70
     0
 10
0.0
 20
0.0
 30
0.0
  3
DIM1
  1

  0
LINE
  5
189
330
186
100
AcDbEntity
  8
7
  6
CONTINUOUS
 62
     4
100
AcDbLine
 10
628.4868096703575
 20
200.2374275996825
 30
0.0
 11
628.4868096703574
 21
129.2374275996837
 31
0.0
  0
LINE
  5
18A
330
186
100
AcDbEntity
  8
7
  6
CONTINUOUS
 62
     4
100
AcDbLine
 10
128.4868096703574
 20
200.2374275996825
 30
0.0
 11
128.4868096703573
 21
129.2374275996837
 31
0.0
  0
LINE
  5
18B
330
186
100
AcDbEntity
  8
7
  6
CONTINUOUS
 62
     4
100
AcDbLine
 10
628.4868096703574
 20
132.2374275996837
 30
0.0
 11
128.4868096703573
 21
132.2374275996837
 31
0.0
  0
MTEXT
  5
18C
330
186
100
AcDbEntity
  8
7
  6
CONTINUOUS
 62
     4
100
AcDbMText
 10
378.4868096703575
 20
132.2374275996837
 30
0.0
 40
6.0
 41
77.14285714285714
 71
     8
 72
     1
  1
500
  7
ＭＳ_ゴシック
1001
ACAD
1000
ACAD_MTEXT_DEFINED_HEIGHT_BEGIN
1070
    46
1040
6.0
1000
ACAD_MTEXT_DEFINED_HEIGHT_END
  0
INSERT
  5
18D
330
186
100
AcDbEntity
  8
7
  6
CONTINUOUS
 62
     4
100
AcDbBlockReference
  2
_ARROWFILLED
 10
628.4868096703574
 20
132.2374275996837
 30
0.0
 41
4.0
 42
4.0
 43
4.0
 50
359.9999999999997
  0
INSERT
  5
18E
330
186
100
AcDbEntity
  8
7
  6
CONTINUOUS
 62
     4
100
AcDbBlockReference
  2
_ARROWFILLED
 10
128.4868096703573
 20
132.2374275996837
 30
0.0
 41
4.0
 42
4.0
 43
4.0
 50
179.9999999999998
  0
ENDBLK
  5
188
330
186
100
AcDbEntity
  8
0
100
AcDbBlockEnd
  0
BLOCK
  5
191
330
190
100
AcDbEntity
  8
0
100
AcDbBlockBegin
  2
DIM2
 70
     0
 10
0.0
 20
0.0
 30
0.0
  3
DIM2
  1

  0
LINE
  5
193
330
190
100
AcDbEntity
  8
7
  6
CONTINUOUS
 62
     4
100
AcDbLine
 10
643.4868096703575
 20
185.2374275996825
 30
0.0
 11
643.4868096703574
 21
113.2374275996837
 31
0.0
  0
LINE
  5
194
330
190
100
AcDbEntity
  8
7
  6
CONTINUOUS
 62
     4
100
AcDbLine
 10
113.4868096703556
 20
185.2374275996825
 30
0.0
 11
113.4868096703555
 21
113.2374275996837
 31
0.0
  0
LINE
  5
195
330
190
100
AcDbEntity
  8
7
  6
CONTINUOUS
 62
     4
100
AcDbLine
 10
643.4868096703574
 20
116.2374275996837
 30
0.0
 11
113.4868096703555
 21
116.2374275996837
 31
0.0
  0
MTEXT
  5
196
330
190
100
AcDbEntity
  8
7
  6
CONTINUOUS
 62
     4
100
AcDbMText
 10
378.4868096703557
 20
116.2374275996837
 30
0.0
 40
6.0
 41
77.14285714285714
 71
     8
 72
     1
  1
530
  7
ＭＳ_ゴシック
1001
ACAD
1000
ACAD_MTEXT_DEFINED_HEIGHT_BEGIN
1070
    46
1040
6.0
1000
ACAD_MTEXT_DEFINED_HEIGHT_END
  0
INSERT
  5
197
330
190
100
AcDbEntity
  8
7
  6
CONTINUOUS
 62
     4
100
AcDbBlockReference
  2
_ARROWFILLED
 10
643.4868096703574
 20
116.2374275996837
 30
0.0
 41
4.0
 42
4.0
 43
4.0
 50
359.9999999999997
  0
INSERT
  5
198
330
190
100
AcDbEntity
  8
7
  6
CONTINUOUS
 62
     4
100
AcDbBlockReference
  2
_ARROWFILLED
 10
113.4868096703555
 20
116.2374275996837
 30
0.0
 41
4.0
 42
4.0
 43
4.0
 50
179.9999999999998
  0
ENDBLK
  5
192
330
190
100
AcDbEntity
  8
0
100
AcDbBlockEnd
  0
BLOCK
  5
19B
330
19A
100
AcDbEntity
  8
0
100
AcDbBlockBegin
  2
DIM3
 70
     0
 10
0.0
 20
0.0
 30
0.0
  3
DIM3
  1

  0
LINE
  5
19D
330
19A
100
AcDbEntity
  8
7
  6
CONTINUOUS
 62
     4
100
AcDbLine
 10
678.4868096703575
 20
277.2374275996839
 30
0.0
 11
678.4868096703573
 21
113.2374275996837
 31
0.0
  0
LINE
  5
19E
330
19A
100
AcDbEntity
  8
7
  6
CONTINUOUS
 62
     4
100
AcDbLine
 10
643.4868096703575
 20
185.2374275996825
 30
0.0
 11
643.4868096703574
 21
113.2374275996837
 31
0.0
  0
LINE
  5
19F
330
19A
100
AcDbEntity
  8
7
  6
CONTINUOUS
 62
     4
100
AcDbLine
 10
678.4868096703573
 20
116.2374275996837
 30
0.0
 11
643.4868096703574
 21
116.2374275996837
 31
0.0
  0
MTEXT
  5
1A0
330
19A
100
AcDbEntity
  8
7
  6
CONTINUOUS
 62
     4
100
AcDbMText
 10
660.9868096703575
 20
116.2374275996837
 30
0.0
 40
6.0
 41
48.57142857142856
 71
     8
 72
     1
  1
35
  7
ＭＳ_ゴシック
1001
ACAD
1000
ACAD_MTEXT_DEFINED_HEIGHT_BEGIN
1070
    46
1040
6.0
1000
ACAD_MTEXT_DEFINED_HEIGHT_END
  0
INSERT
  5
1A1
330
19A
100
AcDbEntity
  8
7
  6
CONTINUOUS
 62
     4
100
AcDbBlockReference
  2
_ARROWFILLED
 10
678.4868096703573
 20
116.2374275996837
 30
0.0
 41
4.0
 42
4.0
 43
4.0
 50
359.9999999999997
  0
INSERT
  5
1A2
330
19A
100
AcDbEntity
  8
7
  6
CONTINUOUS
 62
     4
100
AcDbBlockReference
  2
_ARROWFILLED
 10
643.4868096703574
 20
116.2374275996837
 30
0.0
 41
4.0
 42
4.0
 43
4.0
 50
179.9999999999998
  0
ENDBLK
  5
19C
330
19A
100
AcDbEntity
  8
0
100
AcDbBlockEnd
  0
BLOCK
  5
1A5
330
1A4
100
AcDbEntity
  8
0
100
AcDbBlockBegin
  2
DIM4
 70
     0
 10
0.0
 20
0.0
 30
0.0
  3
DIM4
  1

  0
LINE
  5
1A7
330
1A4
100
AcDbEntity
  8
7
  6
CONTINUOUS
 62
     4
100
AcDbLine
 10
490.9868096703575
 20
169.137427599683
 30
0.0
 11
490.9868096703574
 21
145.2374275996837
 31
0.0
  0
LINE
  5
1A8
330
1A4
100
AcDbEntity
  8
7
  6
CONTINUOUS
 62
     4
100
AcDbLine
 10
603.4868096703575
 20
169.137427599683
 30
0.0
 11
603.4868096703575
 21
145.2374275996837
 31
0.0
  0
LINE
  5
1A9
330
1A4
100
AcDbEntity
  8
7
  6
CONTINUOUS
 62
     4
100
AcDbLine
 10
490.9868096703574
 20
148.2374275996837
 30
0.0
 11
603.4868096703575
 21
148.2374275996837
 31
0.0
  0
MTEXT
  5
1AA
330
1A4
100
AcDbEntity
  8
7
  6
CONTINUOUS
 62
     4
100
AcDbMText
 10
547.2368096703574
 20
148.2374275996837
 30
0.0
 40
6.0
 41
115.7142857142857
 71
     8
 72
     1
  1
112.5
  7
ＭＳ_ゴシック
1001
ACAD
1000
ACAD_MTEXT_DEFINED_HEIGHT_BEGIN
1070
    46
1040
6.0
1000
ACAD_MTEXT_DEFINED_HEIGHT_END
  0
INSERT
  5
1AB
330
1A4
100
AcDbEntity
  8
7
  6
CONTINUOUS
 62
     4
100
AcDbBlockReference
  2
_ARROWFILLED
 10
490.9868096703574
 20
148.2374275996837
 30
0.0
 41
4.0
 42
4.0
 43
4.0
 50
179.9999999999998
  0
INSERT
  5
1AC
330
1A4
100
AcDbEntity
  8
7
  6
CONTINUOUS
 62
     4
100
AcDbBlockReference
  2
_ARROWFILLED
 10
603.4868096703575
 20
148.2374275996837
 30
0.0
 41
4.0
 42
4.0
 43
4.0
 50
359.9999999999997
  0
ENDBLK
  5
1A6
330
1A4
100
AcDbEntity
  8
0
100
AcDbBlockEnd
  0
BLOCK
  5
1AF
330
1AE
100
AcDbEntity
  8
0
100
AcDbBlockBegin
  2
DIM5
 70
     0
 10
0.0
 20
0.0
 30
0.0
  3
DIM5
  1

  0
LINE
  5
1B1
330
1AE
100
AcDbEntity
  8
7
  6
CONTINUOUS
 62
     4
100
AcDbLine
 10
265.9868096703575
 20
169.137427599683
 30
0.0
 11
265.9868096703574
 21
145.2374275996837
 31
0.0
  0
LINE
  5
1B2
330
1AE
100
AcDbEntity
  8
7
  6
CONTINUOUS
 62
     4
100
AcDbLine
 10
153.4868096703574
 20
169.137427599683
 30
0.0
 11
153.4868096703574
 21
145.2374275996837
 31
0.0
  0
LINE
  5
1B3
330
1AE
100
AcDbEntity
  8
7
  6
CONTINUOUS
 62
     4
100
AcDbLine
 10
265.9868096703574
 20
148.2374275996837
 30
0.0
 11
153.4868096703574
 21
148.2374275996837
 31
0.0
  0
MTEXT
  5
1B4
330
1AE
100
AcDbEntity
  8
7
  6
CONTINUOUS
 62
     4
100
AcDbMText
 10
209.7368096703575
 20
148.2374275996837
 30
0.0
 40
6.0
 41
115.7142857142857
 71
     8
 72
     1
  1
112.5
  7
ＭＳ_ゴシック
1001
ACAD
1000
ACAD_MTEXT_DEFINED_HEIGHT_BEGIN
1070
    46
1040
6.0
1000
ACAD_MTEXT_DEFINED_HEIGHT_END
  0
INSERT
  5
1B5
330
1AE
100
AcDbEntity
  8
7
  6
CONTINUOUS
 62
     4
100
AcDbBlockReference
  2
_ARROWFILLED
 10
265.9868096703574
 20
148.2374275996837
 30
0.0
 41
4.0
 42
4.0
 43
4.0
 50
359.9999999999997
  0
INSERT
  5
1B6
330
1AE
100
AcDbEntity
  8
7
  6
CONTINUOUS
 62
     4
100
AcDbBlockReference
  2
_ARROWFILLED
 10
153.4868096703574
 20
148.2374275996837
 30
0.0
 41
4.0
 42
4.0
 43
4.0
 50
179.9999999999998
  0
ENDBLK
  5
1B0
330
1AE
100
AcDbEntity
  8
0
100
AcDbBlockEnd
  0
BLOCK
  5
1B9
330
1B8
100
AcDbEntity
  8
0
100
AcDbBlockBegin
  2
DIM6
 70
     0
 10
0.0
 20
0.0
 30
0.0
  3
DIM6
  1

  0
LINE
  5
1BB
330
1B8
100
AcDbEntity
  8
7
  6
CONTINUOUS
 62
     4
100
AcDbLine
 10
732.956246596062
 20
185.2374275996843
 30
0.0
 11
732.9562465960619
 21
113.2374275996837
 31
0.0
  0
LINE
  5
1BC
330
1B8
100
AcDbEntity
  8
7
  6
CONTINUOUS
 62
     4
100
AcDbLine
 10
777.956246596062
 20
170.2374275996843
 30
0.0
 11
777.9562465960619
 21
113.2374275996837
 31
0.0
  0
LINE
  5
1BD
330
1B8
100
AcDbEntity
  8
7
  6
CONTINUOUS
 62
     4
100
AcDbLine
 10
732.9562465960619
 20
116.2374275996837
 30
0.0
 11
777.9562465960619
 21
116.2374275996837
 31
0.0
  0
MTEXT
  5
1BE
330
1B8
100
AcDbEntity
  8
7
  6
CONTINUOUS
 62
     4
100
AcDbMText
 10
755.456246596062
 20
116.2374275996837
 30
0.0
 40
6.0
 41
48.57142857142856
 71
     8
 72
     1
  1
45
  7
ＭＳ_ゴシック
1001
ACAD
1000
ACAD_MTEXT_DEFINED_HEIGHT_BEGIN
1070
    46
1040
6.0
1000
ACAD_MTEXT_DEFINED_HEIGHT_END
  0
INSERT
  5
1BF
330
1B8
100
AcDbEntity
  8
7
  6
CONTINUOUS
 62
     4
100
AcDbBlockReference
  2
_ARROWFILLED
 10
732.9562465960619
 20
116.2374275996837
 30
0.0
 41
4.0
 42
4.0
 43
4.0
 50
179.9999999999998
  0
INSERT
  5
1C0
330
1B8
100
AcDbEntity
  8
7
  6
CONTINUOUS
 62
     4
100
AcDbBlockReference
  2
_ARROWFILLED
 10
777.9562465960619
 20
116.2374275996837
 30
0.0
 41
4.0
 42
4.0
 43
4.0
 50
359.9999999999997
  0
ENDBLK
  5
1BA
330
1B8
100
AcDbEntity
  8
0
100
AcDbBlockEnd
  0
BLOCK
  5
1C3
330
1C2
100
AcDbEntity
  8
0
100
AcDbBlockBegin
  2
DIM7
 70
     0
 10
0.0
 20
0.0
 30
0.0
  3
DIM7
  1

  0
LINE
  5
1C5
330
1C2
100
AcDbEntity
  8
7
  6
CONTINUOUS
 62
     4
100
AcDbLine
 10
776.956246596062
 20
170.2374275996843
 30
0.0
 11
776.956246596062
 21
145.2374275996837
 31
0.0
  0
LINE
  5
1C6
330
1C2
100
AcDbEntity
  8
7
  6
CONTINUOUS
 62
     4
100
AcDbLine
 10
777.956246596062
 20
170.2374275996843
 30
0.0
 11
777.956246596062
 21
145.2374275996837
 31
0.0
  0
LINE
  5
1C7
330
1C2
100
AcDbEntity
  8
7
  6
CONTINUOUS
 62
     4
100
AcDbLine
 10
768.956246596062
 20
148.2374275996837
 30
0.0
 11
790.4562465960619
 21
148.2374275996837
 31
0.0
  0
MTEXT
  5
1C8
330
1C2
100
AcDbEntity
  8
7
  6
CONTINUOUS
 62
     4
100
AcDbMText
 10
787.4562465960619
 20
148.2374275996837
 30
0.0
 40
6.0
 41
7.142857142857143
 71
     7
 72
     1
  1
1
  7
ＭＳ_ゴシック
1001
ACAD
1000
ACAD_MTEXT_DEFINED_HEIGHT_BEGIN
1070
    46
1040
6.0
1000
ACAD_MTEXT_DEFINED_HEIGHT_END
  0
INSERT
  5
1C9
330
1C2
100
AcDbEntity
  8
7
  6
CONTINUOUS
 62
     4
100
AcDbBlockReference
  2
_ARROWFILLED
 10
776.956246596062
 20
148.2374275996837
 30
0.0
 41
4.0
 42
4.0
 43
4.0
 50
359.9999999999997
  0
INSERT
  5
1CA
330
1C2
100
AcDbEntity
  8
7
  6
CONTINUOUS
 62
     4
100
AcDbBlockReference
  2
_ARROWFILLED
 10
777.956246596062
 20
148.2374275996837
 30
0.0
 41
4.0
 42
4.0
 43
4.0
 50
179.9999999999995
  0
ENDBLK
  5
1C4
330
1C2
100
AcDbEntity
  8
0
100
AcDbBlockEnd
  0
BLOCK
  5
1CD
330
1CC
100
AcDbEntity
  8
0
100
AcDbBlockBegin
  2
DIM8
 70
     0
 10
0.0
 20
0.0
 30
0.0
  3
DIM8
  1

  0
LINE
  5
1CF
330
1CC
100
AcDbEntity
  8
7
  6
CONTINUOUS
 62
     4
100
AcDbLine
 10
777.956246596062
 20
170.2374275996843
 30
0.0
 11
777.9562465960619
 21
129.2374275996837
 31
0.0
  0
LINE
  5
1D0
330
1CC
100
AcDbEntity
  8
7
  6
CONTINUOUS
 62
     4
100
AcDbLine
 10
744.456246596062
 20
277.2374275996843
 30
0.0
 11
744.4562465960618
 21
129.2374275996837
 31
0.0
  0
LINE
  5
1D1
330
1CC
100
AcDbEntity
  8
7
  6
CONTINUOUS
 62
     4
100
AcDbLine
 10
777.9562465960619
 20
132.2374275996837
 30
0.0
 11
744.4562465960618
 21
132.2374275996837
 31
0.0
  0
MTEXT
  5
1D2
330
1CC
100
AcDbEntity
  8
7
  6
CONTINUOUS
 62
     4
100
AcDbMText
 10
761.2062465960619
 20
132.2374275996837
 30
0.0
 40
6.0
 41
91.42857142857142
 71
     8
 72
     1
  1
33.5
  7
ＭＳ_ゴシック
1001
ACAD
1000
ACAD_MTEXT_DEFINED_HEIGHT_BEGIN
1070
    46
1040
6.0
1000
ACAD_MTEXT_DEFINED_HEIGHT_END
  0
INSERT
  5
1D3
330
1CC
100
AcDbEntity
  8
7
  6
CONTINUOUS
 62
     4
100
AcDbBlockReference
  2
_ARROWFILLED
 10
777.9562465960619
 20
132.2374275996837
 30
0.0
 41
4.0
 42
4.0
 43
4.0
 50
359.9999999999997
  0
INSERT
  5
1D4
330
1CC
100
AcDbEntity
  8
7
  6
CONTINUOUS
 62
     4
100
AcDbBlockReference
  2
_ARROWFILLED
 10
744.4562465960618
 20
132.2374275996837
 30
0.0
 41
4.0
 42
4.0
 43
4.0
 50
179.9999999999998
  0
ENDBLK
  5
1CE
330
1CC
100
AcDbEntity
  8
0
100
AcDbBlockEnd
  0
BLOCK
  5
1D7
330
1D6
100
AcDbEntity
  8
0
100
AcDbBlockBegin
  2
DIM9
 70
     0
 10
0.0
 20
0.0
 30
0.0
  3
DIM9
  1

  0
LINE
  5
1D9
330
1D6
100
AcDbEntity
  8
7
  6
CONTINUOUS
 62
     4
100
AcDbLine
 10
265.9868096703575
 20
169.137427599683
 30
0.0
 11
265.9868096703574
 21
145.2374275996837
 31
0.0
  0
LINE
  5
1DA
330
1D6
100
AcDbEntity
  8
7
  6
CONTINUOUS
 62
     4
100
AcDbLine
 10
378.4868096703575
 20
160.2374275996837
 30
0.0
 11
378.4868096703575
 21
145.2374275996837
 31
0.0
  0
LINE
  5
1DB
330
1D6
100
AcDbEntity
  8
7
  6
CONTINUOUS
 62
     4
100
AcDbLine
 10
265.9868096703574
 20
148.2374275996837
 30
0.0
 11
378.4868096703575
 21
148.2374275996837
 31
0.0
  0
MTEXT
  5
1DC
330
1D6
100
AcDbEntity
  8
7
  6
CONTINUOUS
 62
     4
100
AcDbMText
 10
322.2368096703575
 20
148.2374275996837
 30
0.0
 40
6.0
 41
115.7142857142857
 71
     8
 72
     1
  1
112.5
  7
ＭＳ_ゴシック
1001
ACAD
1000
ACAD_MTEXT_DEFINED_HEIGHT_BEGIN
1070
    46
1040
6.0
1000
ACAD_MTEXT_DEFINED_HEIGHT_END
  0
INSERT
  5
1DD
330
1D6
100
AcDbEntity
  8
7
  6
CONTINUOUS
 62
     4
100
AcDbBlockReference
  2
_ARROWFILLED
 10
265.9868096703574
 20
148.2374275996837
 30
0.0
 41
4.0
 42
4.0
 43
4.0
 50
179.9999999999998
  0
INSERT
  5
1DE
330
1D6
100
AcDbEntity
  8
7
  6
CONTINUOUS
 62
     4
100
AcDbBlockReference
  2
_ARROWFILLED
 10
378.4868096703575
 20
148.2374275996837
 30
0.0
 41
4.0
 42
4.0
 43
4.0
 50
359.9999999999997
  0
ENDBLK
  5
1D8
330
1D6
100
AcDbEntity
  8
0
100
AcDbBlockEnd
  0
BLOCK
  5
1E1
330
1E0
100
AcDbEntity
  8
0
100
AcDbBlockBegin
  2
DIM10
 70
     0
 10
0.0
 20
0.0
 30
0.0
  3
DIM10
  1

  0
LINE
  5
1E3
330
1E0
100
AcDbEntity
  8
7
  6
CONTINUOUS
 62
     4
100
AcDbLine
 10
126.4868096703474
 20
402.2374275996855
 30
0.0
 11
94.4868096703553
 21
402.2374275996855
 31
0.0
  0
LINE
  5
1E4
330
1E0
100
AcDbEntity
  8
7
  6
CONTINUOUS
 62
     4
100
AcDbLine
 10
126.4868096703493
 20
202.2374275996855
 30
0.0
 11
94.48680967035563
 21
202.2374275996855
 31
0.0
  0
LINE
  5
1E5
330
1E0
100
AcDbEntity
  8
7
  6
CONTINUOUS
 62
     4
100
AcDbLine
 10
97.4868096703553
 20
402.2374275996855
 30
0.0
 11
97.48680967035563
 21
202.2374275996855
 31
0.0
  0
MTEXT
  5
1E6
330
1E0
100
AcDbEntity
  8
7
  6
CONTINUOUS
 62
     4
100
AcDbMText
 10
97.48680967035547
 20
302.2374275996825
 30
0.0
 40
6.0
 41
77.14285714285714
 71
     8
 72
     1
  1
200
  7
ＭＳ_ゴシック
 11
1.615544574432587E-15
 21
1.0
 31
0.0
1001
ACAD
1000
ACAD_MTEXT_DEFINED_HEIGHT_BEGIN
1070
    46
1040
6.0
1000
ACAD_MTEXT_DEFINED_HEIGHT_END
  0
INSERT
  5
1E7
330
1E0
100
AcDbEntity
  8
7
  6
CONTINUOUS
 62
     4
100
AcDbBlockReference
  2
_ARROWFILLED
 10
97.4868096703553
 20
402.2374275996855
 30
0.0
 41
4.0
 42
4.0
 43
4.0
 50
89.99999999999991
  0
INSERT
  5
1E8
330
1E0
100
AcDbEntity
  8
7
  6
CONTINUOUS
 62
     4
100
AcDbBlockReference
  2
_ARROWFILLED
 10
97.48680967035563
 20
202.2374275996855
 30
0.0
 41
4.0
 42
4.0
 43
4.0
 50
269.9999999999999
  0
ENDBLK
  5
1E2
330
1E0
100
AcDbEntity
  8
0
100
AcDbBlockEnd
  0
BLOCK
  5
1EB
330
1EA
100
AcDbEntity
  8
0
100
AcDbBlockBegin
  2
DIM11
 70
     0
 10
0.0
 20
0.0
 30
0.0
  3
DIM11
  1

  0
LINE
  5
1ED
330
1EA
100
AcDbEntity
  8
7
  6
CONTINUOUS
 62
     4
100
AcDbLine
 10
111.4868096703465
 20
417.2374275996855
 30
0.0
 11
78.48680967035534
 21
417.2374275996855
 31
0.0
  0
LINE
  5
1EE
330
1EA
100
AcDbEntity
  8
7
  6
CONTINUOUS
 62
     4
100
AcDbLine
 10
111.4868096703484
 20
187.2374275996855
 30
0.0
 11
78.48680967035573
 21
187.2374275996855
 31
0.0
  0
LINE
  5
1EF
330
1EA
100
AcDbEntity
  8
7
  6
CONTINUOUS
 62
     4
100
AcDbLine
 10
81.48680967035534
 20
417.2374275996855
 30
0.0
 11
81.48680967035573
 21
187.2374275996855
 31
0.0
  0
MTEXT
  5
1F0
330
1EA
100
AcDbEntity
  8
7
  6
CONTINUOUS
 62
     4
100
AcDbMText
 10
81.48680967035554
 20
302.2374275996855
 30
0.0
 40
6.0
 41
77.14285714285714
 71
     8
 72
     1
  1
230
  7
ＭＳ_ゴシック
 11
1.615544574432587E-15
 21
1.0
 31
0.0
1001
ACAD
1000
ACAD_MTEXT_DEFINED_HEIGHT_BEGIN
1070
    46
1040
6.0
1000
ACAD_MTEXT_DEFINED_HEIGHT_END
  0
INSERT
  5
1F1
330
1EA
100
AcDbEntity
  8
7
  6
CONTINUOUS
 62
     4
100
AcDbBlockReference
  2
_ARROWFILLED
 10
81.48680967035534
 20
417.2374275996855
 30
0.0
 41
4.0
 42
4.0
 43
4.0
 50
89.99999999999991
  0
INSERT
  5
1F2
330
1EA
100
AcDbEntity
  8
7
  6
CONTINUOUS
 62
     4
100
AcDbBlockReference
  2
_ARROWFILLED
 10
81.48680967035573
 20
187.2374275996855
 30
0.0
 41
4.0
 42
4.0
 43
4.0
 50
269.9999999999999
  0
ENDBLK
  5
1EC
330
1EA
100
AcDbEntity
  8
0
100
AcDbBlockEnd
  0
BLOCK
  5
1F5
330
1F4
100
AcDbEntity
  8
0
100
AcDbBlockBegin
  2
DIM12
 70
     0
 10
0.0
 20
0.0
 30
0.0
  3
DIM12
  1

  0
LINE
  5
1F7
330
1F4
100
AcDbEntity
  8
7
  6
CONTINUOUS
 62
     4
100
AcDbLine
 10
131.4868096703556
 20
432.2374275996849
 30
0.0
 11
46.48680967035543
 21
432.2374275996849
 31
0.0
  0
LINE
  5
1F8
330
1F4
100
AcDbEntity
  8
7
  6
CONTINUOUS
 62
     4
100
AcDbLine
 10
131.4868096703574
 20
172.237427599683
 30
0.0
 11
46.48680967035585
 21
172.237427599683
 31
0.0
  0
LINE
  5
1F9
330
1F4
100
AcDbEntity
  8
7
  6
CONTINUOUS
 62
     4
100
AcDbLine
 10
49.48680967035543
 20
432.2374275996849
 30
0.0
 11
49.48680967035585
 21
172.237427599683
 31
0.0
  0
MTEXT
  5
1FA
330
1F4
100
AcDbEntity
  8
7
  6
CONTINUOUS
 62
     4
100
AcDbMText
 10
49.48680967035564
 20
302.2374275996855
 30
0.0
 40
6.0
 41
77.14285714285714
 71
     8
 72
     1
  1
260
  7
ＭＳ_ゴシック
 11
1.615544574432587E-15
 21
1.0
 31
0.0
1001
ACAD
1000
ACAD_MTEXT_DEFINED_HEIGHT_BEGIN
1070
    46
1040
6.0
1000
ACAD_MTEXT_DEFINED_HEIGHT_END
  0
INSERT
  5
1FB
330
1F4
100
AcDbEntity
  8
7
  6
CONTINUOUS
 62
     4
100
AcDbBlockReference
  2
_ARROWFILLED
 10
49.48680967035543
 20
432.2374275996849
 30
0.0
 41
4.0
 42
4.0
 43
4.0
 50
89.99999999999991
  0
INSERT
  5
1FC
330
1F4
100
AcDbEntity
  8
7
  6
CONTINUOUS
 62
     4
100
AcDbBlockReference
  2
_ARROWFILLED
 10
49.48680967035585
 20
172.237427599683
 30
0.0
 41
4.0
 42
4.0
 43
4.0
 50
269.9999999999999
  0
ENDBLK
  5
1F6
330
1F4
100
AcDbEntity
  8
0
100
AcDbBlockEnd
  0
BLOCK
  5
1FF
330
1FE
100
AcDbEntity
  8
0
100
AcDbBlockBegin
  2
DIM13
 70
     0
 10
0.0
 20
0.0
 30
0.0
  3
DIM13
  1

  0
LINE
  5
201
330
1FE
100
AcDbEntity
  8
7
  6
CONTINUOUS
 62
     4
100
AcDbLine
 10
378.4868096703575
 20
160.2374275996837
 30
0.0
 11
378.4868096703575
 21
145.2374275996837
 31
0.0
  0
LINE
  5
202
330
1FE
100
AcDbEntity
  8
7
  6
CONTINUOUS
 62
     4
100
AcDbLine
 10
490.9868096703575
 20
169.137427599683
 30
0.0
 11
490.9868096703574
 21
145.2374275996837
 31
0.0
  0
LINE
  5
203
330
1FE
100
AcDbEntity
  8
7
  6
CONTINUOUS
 62
     4
100
AcDbLine
 10
378.4868096703575
 20
148.2374275996837
 30
0.0
 11
490.9868096703574
 21
148.2374275996837
 31
0.0
  0
MTEXT
  5
204
330
1FE
100
AcDbEntity
  8
7
  6
CONTINUOUS
 62
     4
100
AcDbMText
 10
434.7368096703574
 20
148.2374275996837
 30
0.0
 40
6.0
 41
115.7142857142857
 71
     8
 72
     1
  1
112.5
  7
ＭＳ_ゴシック
1001
ACAD
1000
ACAD_MTEXT_DEFINED_HEIGHT_BEGIN
1070
    46
1040
6.0
1000
ACAD_MTEXT_DEFINED_HEIGHT_END
  0
INSERT
  5
205
330
1FE
100
AcDbEntity
  8
7
  6
CONTINUOUS
 62
     4
100
AcDbBlockReference
  2
_ARROWFILLED
 10
378.4868096703575
 20
148.2374275996837
 30
0.0
 41
4.0
 42
4.0
 43
4.0
 50
179.9999999999998
  0
INSERT
  5
206
330
1FE
100
AcDbEntity
  8
7
  6
CONTINUOUS
 62
     4
100
AcDbBlockReference
  2
_ARROWFILLED
 10
490.9868096703574
 20
148.2374275996837
 30
0.0
 41
4.0
 42
4.0
 43
4.0
 50
359.9999999999997
  0
ENDBLK
  5
200
330
1FE
100
AcDbEntity
  8
0
100
AcDbBlockEnd
  0
BLOCK
  5
209
330
208
100
AcDbEntity
  8
0
100
AcDbBlockBegin
  2
DIM14
 70
     0
 10
0.0
 20
0.0
 30
0.0
  3
DIM14
  1

  0
LINE
  5
20B
330
208
100
AcDbEntity
  8
7
  6
CONTINUOUS
 62
     4
100
AcDbLine
 10
143.3868096703574
 20
425.2374275996821
 30
0.0
 11
62.4868096703558
 21
425.2374275996824
 31
0.0
  0
LINE
  5
20C
330
208
100
AcDbEntity
  8
7
  6
CONTINUOUS
 62
     4
100
AcDbLine
 10
143.3868096703574
 20
179.237427599683
 30
0.0
 11
62.4868096703558
 21
179.2374275996833
 31
0.0
  0
LINE
  5
20D
330
208
100
AcDbEntity
  8
7
  6
CONTINUOUS
 62
     4
100
AcDbLine
 10
65.4868096703558
 20
425.2374275996824
 30
0.0
 11
65.4868096703558
 21
179.2374275996833
 31
0.0
  0
MTEXT
  5
20E
330
208
100
AcDbEntity
  8
7
  6
CONTINUOUS
 62
     4
100
AcDbMText
 10
65.4868096703558
 20
302.2374275996825
 30
0.0
 40
6.0
 41
77.14285714285714
 71
     8
 72
     1
  1
246
  7
ＭＳ_ゴシック
 11
1.615544574432587E-15
 21
1.0
 31
0.0
1001
ACAD
1000
ACAD_MTEXT_DEFINED_HEIGHT_BEGIN
1070
    46
1040
6.0
1000
ACAD_MTEXT_DEFINED_HEIGHT_END
  0
INSERT
  5
20F
330
208
100
AcDbEntity
  8
7
  6
CONTINUOUS
 62
     4
100
AcDbBlockReference
  2
_ARROWFILLED
 10
65.4868096703558
 20
425.2374275996824
 30
0.0
 41
4.0
 42
4.0
 43
4.0
 50
89.99999999999991
  0
INSERT
  5
210
330
208
100
AcDbEntity
  8
7
  6
CONTINUOUS
 62
     4
100
AcDbBlockReference
  2
_ARROWFILLED
 10
65.4868096703558
 20
179.2374275996833
 30
0.0
 41
4.0
 42
4.0
 43
4.0
 50
269.9999999999998
  0
ENDBLK
  5
20A
330
208
100
AcDbEntity
  8
0
100
AcDbBlockEnd
  0
BLOCK
  5
213
330
212
100
AcDbEntity
  8
0
100
AcDbBlockBegin
  2
DIM15
 70
     0
 10
0.0
 20
0.0
 30
0.0
  3
DIM15
  1

  0
LINE
  5
215
330
212
100
AcDbEntity
  8
7
  6
CONTINUOUS
 62
     4
100
AcDbLine
 10
389.2316272834989
 20
271.5649824010944
 30
0.0
 11
328.4737093555013
 21
445.0061682009698
 31
0.0
  0
MTEXT
  5
216
330
212
100
AcDbEntity
  8
7
  6
CONTINUOUS
 62
     4
100
AcDbMText
 10
330.7053253213028
 20
438.6357372751077
 30
0.0
 40
4.5
 41
56.78571428571429
 71
     9
 72
     1
  1
\U+220565
  7
ＭＳ_ゴシック
 11
0.3306097727120655
 21
-0.9437675445719016
 31
0.0
1001
ACAD
1000
ACAD_MTEXT_DEFINED_HEIGHT_BEGIN
1070
    46
1040
4.5
1000
ACAD_MTEXT_DEFINED_HEIGHT_END
  0
INSERT
  5
217
330
212
100
AcDbEntity
  8
7
  6
CONTINUOUS
 62
     4
100
AcDbBlockReference
  2
_ARROWFILLED
 10
389.2316272834989
 20
271.5649824010944
 30
0.0
 41
3.0
 42
3.0
 43
3.0
 50
289.3057903820601
  0
INSERT
  5
218
330
212
100
AcDbEntity
  8
7
  6
CONTINUOUS
 62
     4
100
AcDbBlockReference
  2
_ARROWFILLED
 10
367.7419920572149
 20
332.9098727982678
 30
0.0
 41
3.0
 42
3.0
 43
3.0
 50
109.3057903820601
  0
ENDBLK
  5
214
330
212
100
AcDbEntity
  8
0
100
AcDbBlockEnd
  0
BLOCK
  5
21B
330
21A
100
AcDbEntity
  8
0
100
AcDbBlockBegin
  2
DIM16
 70
     0
 10
0.0
 20
0.0
 30
0.0
  3
DIM16
  1

  0
LINE
  5
21D
330
21A
100
AcDbEntity
  8
7
  6
CONTINUOUS
 62
     4
100
AcDbLine
 10
392.4214357610579
 20
278.5292814108215
 30
0.0
 11
294.2123572995455
 21
445.6206101686604
 31
0.0
  0
MTEXT
  5
21E
330
21A
100
AcDbEntity
  8
7
  6
CONTINUOUS
 62
     4
100
AcDbMText
 10
297.6326746127135
 20
439.8013379223013
 30
0.0
 40
4.5
 41
56.78571428571429
 71
     9
 72
     1
  1
\U+220555
  7
ＭＳ_ゴシック
 11
0.5067136760254729
 21
-0.8621144068676454
 31
0.0
1001
ACAD
1000
ACAD_MTEXT_DEFINED_HEIGHT_BEGIN
1070
    46
1040
4.5
1000
ACAD_MTEXT_DEFINED_HEIGHT_END
  0
INSERT
  5
21F
330
21A
100
AcDbEntity
  8
7
  6
CONTINUOUS
 62
     4
100
AcDbBlockReference
  2
_ARROWFILLED
 10
392.4214357610579
 20
278.5292814108215
 30
0.0
 41
3.0
 42
3.0
 43
3.0
 50
300.445176210546
  0
INSERT
  5
220
330
21A
100
AcDbEntity
  8
7
  6
CONTINUOUS
 62
     4
100
AcDbBlockReference
  2
_ARROWFILLED
 10
364.5521835796577
 20
325.945573788541
 30
0.0
 41
3.0
 42
3.0
 43
3.0
 50
120.4451762105459
  0
ENDBLK
  5
21C
330
21A
100
AcDbEntity
  8
0
100
AcDbBlockEnd
  0
ENDSEC
  0
SECTION
  2
ENTITIES
  0
POLYLINE
  5
A1
330
1F
100
AcDbEntity
  8
8
  6
CONTINUOUS
 62
     7
100
AcDb2dPolyline
 66
     1
 10
0.0
 20
0.0
 30
0.0
  0
VERTEX
  5
A2
330
A1
100
AcDbEntity
  8
8
  6
CONTINUOUS
 62
     7
100
AcDbVertex
100
AcDb2dVertex
 10
128.4868096703574
 20
202.2374275996825
 30
0.0
  0
VERTEX
  5
A3
330
A1
100
AcDbEntity
  8
8
  6
CONTINUOUS
 62
     7
100
AcDbVertex
100
AcDb2dVertex
 10
628.4868096703575
 20
202.2374275996825
 30
0.0
  0
VERTEX
  5
A4
330
A1
100
AcDbEntity
  8
8
  6
CONTINUOUS
 62
     7
100
AcDbVertex
100
AcDb2dVertex
 10
628.4868096703575
 20
402.2374275996825
 30
0.0
  0
VERTEX
  5
A5
330
A1
100
AcDbEntity
  8
8
  6
CONTINUOUS
 62
     7
100
AcDbVertex
100
AcDb2dVertex
 10
128.4868096703574
 20
402.2374275996825
 30
0.0
  0
VERTEX
  5
A6
330
A1
100
AcDbEntity
  8
8
  6
CONTINUOUS
 62
     7
100
AcDbVertex
100
AcDb2dVertex
 10
128.4868096703574
 20
202.2374275996825
 30
0.0
  0
SEQEND
  5
A7
330
A1
100
AcDbEntity
  8
8
  6
CONTINUOUS
 62
     7
  0
LINE
  5
A8
330
1F
100
AcDbEntity
  8
8
  6
CONTINUOUS
 62
     7
100
AcDbLine
 10
643.4868096703575
 20
187.2374275996825
 30
0.0
 11
113.4868096703556
 21
187.2374275996825
 31
0.0
  0
LINE
  5
A9
330
1F
100
AcDbEntity
  8
8
  6
CONTINUOUS
 62
     7
100
AcDbLine
 10
113.4868096703556
 20
187.2374275996825
 30
0.0
 11
113.4868096703556
 21
417.2374275996825
 31
0.0
  0
LINE
  5
AA
330
1F
100
AcDbEntity
  8
8
  6
CONTINUOUS
 62
     7
100
AcDbLine
 10
643.4868096703575
 20
187.2374275996825
 30
0.0
 11
643.4868096703575
 21
417.2374275996825
 31
0.0
  0
LINE
  5
AB
330
1F
100
AcDbEntity
  8
8
  6
CONTINUOUS
 62
     7
100
AcDbLine
 10
643.4868096703575
 20
417.2374275996825
 30
0.0
 11
113.4868096703556
 21
417.2374275996825
 31
0.0
  0
LINE
  5
AC
330
1F
100
AcDbEntity
  8
8
  6
CONTINUOUS
 62
     7
100
AcDbLine
 10
678.4868096703575
 20
279.2374275996839
 30
0.0
 11
678.4868096703575
 21
325.2374275996839
 31
0.0
  0
LINE
  5
AD
330
1F
100
AcDbEntity
  8
8
  6
CONTINUOUS
 62
     7
100
AcDbLine
 10
678.4868096703575
 20
323.7374275996839
 30
0.0
 11
643.4868096703557
 21
323.7374275996839
 31
0.0
  0
LINE
  5
AE
330
1F
100
AcDbEntity
  8
8
  6
CONTINUOUS
 62
     7
100
AcDbLine
 10
678.4868096703575
 20
325.2374275996839
 30
0.0
 11
643.4868096703575
 21
325.2374275996839
 31
0.0
  0
LINE
  5
AF
330
1F
100
AcDbEntity
  8
8
  6
CONTINUOUS
 62
     7
100
AcDbLine
 10
678.4868096703575
 20
280.7374275996839
 30
0.0
 11
643.4868096703557
 21
280.7374275996839
 31
0.0
  0
LINE
  5
B0
330
1F
100
AcDbEntity
  8
8
  6
CONTINUOUS
 62
     7
100
AcDbLine
 10
678.4868096703575
 20
279.2374275996839
 30
0.0
 11
643.4868096703575
 21
279.2374275996839
 31
0.0
  0
LINE
  5
B1
330
1F
100
AcDbEntity
  8
8
  6
CONTINUOUS
 62
     7
100
AcDbLine
 10
671.336809670356
 20
274.9714209602129
 30
0.0
 11
671.336809670356
 21
267.7374275996821
 31
0.0
  0
LINE
  5
B2
330
1F
100
AcDbEntity
  8
10
  6
CONTINUOUS
 62
     2
100
AcDbLine
 10
670.7983481318951
 20
272.4374275996819
 30
0.0
 11
671.336809670356
 21
273.3700703422195
 31
0.0
  0
LINE
  5
B3
330
1F
100
AcDbEntity
  8
8
  6
CONTINUOUS
 62
     7
100
AcDbLine
 10
670.5368096703568
 20
266.9374275996819
 30
0.0
 11
671.336809670356
 21
267.7374275996821
 31
0.0
  0
LINE
  5
B4
330
1F
100
AcDbEntity
  8
10
  6
CONTINUOUS
 62
     2
100
AcDbLine
 10
670.7983481318951
 20
272.4374275996819
 30
0.0
 11
670.7983481318951
 21
267.1989660612202
 31
0.0
  0
LINE
  5
B5
330
1F
100
AcDbEntity
  8
8
  6
CONTINUOUS
 62
     7
100
AcDbLine
 10
674.9868096703575
 20
276.9374275996819
 30
0.0
 11
674.9868096703575
 21
279.2374275996821
 31
0.0
  0
LINE
  5
B6
330
1F
100
AcDbEntity
  8
8
  6
CONTINUOUS
 62
     7
100
AcDbLine
 10
645.9868096703575
 20
276.9374275996819
 30
0.0
 11
645.9868096703575
 21
279.2374275996821
 31
0.0
  0
LINE
  5
B7
330
1F
100
AcDbEntity
  8
10
  6
CONTINUOUS
 62
     2
100
AcDbLine
 10
650.1752712088181
 20
272.4374275996819
 30
0.0
 11
649.6368096703571
 21
273.3700703422195
 31
0.0
  0
LINE
  5
B8
330
1F
100
AcDbEntity
  8
8
  6
CONTINUOUS
 62
     7
100
AcDbLine
 10
674.9868096703575
 20
276.9374275996819
 30
0.0
 11
645.9868096703575
 21
276.9374275996819
 31
0.0
  0
LINE
  5
B9
330
1F
100
AcDbEntity
  8
8
  6
CONTINUOUS
 62
     7
100
AcDbLine
 10
649.6368096703571
 20
272.4374275996819
 30
0.0
 11
671.336809670356
 21
272.4374275996819
 31
0.0
  0
LINE
  5
BA
330
1F
100
AcDbEntity
  8
8
  6
CONTINUOUS
 62
     7
100
AcDbLine
 10
650.4368096703564
 20
266.9374275996819
 30
0.0
 11
649.6368096703571
 21
267.7374275996821
 31
0.0
  0
LINE
  5
BB
330
1F
100
AcDbEntity
  8
8
  6
CONTINUOUS
 62
     7
100
AcDbLine
 10
649.6368096703571
 20
267.7374275996821
 30
0.0
 11
671.336809670356
 21
267.7374275996821
 31
0.0
  0
LINE
  5
BC
330
1F
100
AcDbEntity
  8
8
  6
CONTINUOUS
 62
     7
100
AcDbLine
 10
649.6368096703571
 20
274.9641424308933
 30
0.0
 11
649.6368096703571
 21
267.7374275996821
 31
0.0
  0
LINE
  5
BD
330
1F
100
AcDbEntity
  8
10
  6
CONTINUOUS
 62
     2
100
AcDbLine
 10
650.1752712088181
 20
272.4374275996819
 30
0.0
 11
650.1752712088181
 21
267.1989660612202
 31
0.0
  0
LINE
  5
BE
330
1F
100
AcDbEntity
  8
8
  6
CONTINUOUS
 62
     7
100
AcDbLine
 10
650.4368096703564
 20
266.9374275996819
 30
0.0
 11
670.5368096703568
 21
266.9374275996819
 31
0.0
  0
LINE
  5
BF
330
1F
100
AcDbEntity
  8
8
  6
CONTINUOUS
 62
     7
100
AcDbLine
 10
674.7758318027062
 20
276.9374275996819
 30
0.0
 11
669.2758318027062
 21
276.9374275996819
 31
0.0
  0
ARC
  5
C0
330
1F
100
AcDbEntity
  8
8
  6
CONTINUOUS
 62
     7
100
AcDbCircle
 10
672.0258318027062
 20
281.9374275996819
 30
0.0
 40
7.0
100
AcDbArc
 50
253.4486440000086
 51
286.5513559999907
  0
LINE
  5
C1
330
1F
100
AcDbEntity
  8
8
  6
CONTINUOUS
 62
     7
100
AcDbLine
 10
674.7758318027062
 20
276.9374275996819
 30
0.0
 11
674.7337098027073
 21
276.1337025996821
 31
0.0
  0
ARC
  5
C2
330
1F
100
AcDbEntity
  8
8
  6
CONTINUOUS
 62
     7
100
AcDbCircle
 10
673.7350798027054
 20
276.1860385996819
 30
0.0
 40
1.0
100
AcDbArc
 50
286.5513559999903
 51
356.9999999999939
  0
LINE
  5
C3
330
1F
100
AcDbEntity
  8
8
  6
CONTINUOUS
 62
     7
100
AcDbLine
 10
669.2758318027062
 20
276.9374275996819
 30
0.0
 11
669.3179538027069
 21
276.1337025996821
 31
0.0
  0
ARC
  5
C4
330
1F
100
AcDbEntity
  8
8
  6
CONTINUOUS
 62
     7
100
AcDbCircle
 10
670.316583802707
 20
276.1860385996819
 30
0.0
 40
1.0
100
AcDbArc
 50
183.0000000000054
 51
253.448644000009
  0
LINE
  5
C5
330
1F
100
AcDbEntity
  8
8
  6
CONTINUOUS
 62
     7
100
AcDbLine
 10
651.7758318027062
 20
276.9374275996819
 30
0.0
 11
646.2758318027062
 21
276.9374275996819
 31
0.0
  0
ARC
  5
C6
330
1F
100
AcDbEntity
  8
8
  6
CONTINUOUS
 62
     7
100
AcDbCircle
 10
649.0258318027062
 20
281.9374275996819
 30
0.0
 40
7.0
100
AcDbArc
 50
253.4486440000086
 51
286.5513559999907
  0
LINE
  5
C7
330
1F
100
AcDbEntity
  8
8
  6
CONTINUOUS
 62
     7
100
AcDbLine
 10
651.7758318027062
 20
276.9374275996819
 30
0.0
 11
651.7337098027073
 21
276.1337025996821
 31
0.0
  0
ARC
  5
C8
330
1F
100
AcDbEntity
  8
8
  6
CONTINUOUS
 62
     7
100
AcDbCircle
 10
650.7350798027054
 20
276.1860385996819
 30
0.0
 40
1.0
100
AcDbArc
 50
286.5513559999903
 51
356.9999999999939
  0
LINE
  5
C9
330
1F
100
AcDbEntity
  8
8
  6
CONTINUOUS
 62
     7
100
AcDbLine
 10
646.2758318027062
 20
276.9374275996819
 30
0.0
 11
646.3179538027069
 21
276.1337025996821
 31
0.0
  0
ARC
  5
CA
330
1F
100
AcDbEntity
  8
8
  6
CONTINUOUS
 62
     7
100
AcDbCircle
 10
647.316583802707
 20
276.1860385996819
 30
0.0
 40
1.0
100
AcDbArc
 50
183.0000000000054
 51
253.448644000009
  0
LINE
  5
CB
330
1F
100
AcDbEntity
  8
8
  6
CONTINUOUS
 62
     7
100
AcDbLine
 10
126.9368096703582
 20
417.5540942663496
 30
0.0
 11
120.0368096703586
 21
417.5540942663496
 31
0.0
  0
ARC
  5
CC
330
1F
100
AcDbEntity
  8
8
  6
CONTINUOUS
 62
     7
100
AcDbCircle
 10
123.4868096703593
 20
414.58707672249
 30
0.0
 40
4.550350877192969
100
AcDbArc
 50
40.6956985254205
 51
139.3043014745795
  0
LINE
  5
CD
330
1F
100
AcDbEntity
  8
8
  6
CONTINUOUS
 62
     7
100
AcDbLine
 10
126.9368096703582
 20
417.237427599683
 30
0.0
 11
126.9368096703582
 21
417.5540942663496
 31
0.0
  0
LINE
  5
CE
330
1F
100
AcDbEntity
  8
8
  6
CONTINUOUS
 62
     7
100
AcDbLine
 10
120.0368096703586
 20
417.237427599683
 30
0.0
 11
120.0368096703586
 21
417.5540942663496
 31
0.0
  0
LINE
  5
CF
330
1F
100
AcDbEntity
  8
8
  6
CONTINUOUS
 62
     7
100
AcDbLine
 10
148.4368096703582
 20
417.5540942663496
 30
0.0
 11
141.5368096703585
 21
417.5540942663496
 31
0.0
  0
ARC
  5
D0
330
1F
100
AcDbEntity
  8
8
  6
CONTINUOUS
 62
     7
100
AcDbCircle
 10
144.9868096703593
 20
414.58707672249
 30
0.0
 40
4.550350877192983
100
AcDbArc
 50
40.6956985254205
 51
139.3043014745795
  0
LINE
  5
D1
330
1F
100
AcDbEntity
  8
8
  6
CONTINUOUS
 62
     7
100
AcDbLine
 10
148.4368096703582
 20
417.237427599683
 30
0.0
 11
148.4368096703582
 21
417.5540942663496
 31
0.0
  0
LINE
  5
D2
330
1F
100
AcDbEntity
  8
8
  6
CONTINUOUS
 62
     7
100
AcDbLine
 10
141.5368096703585
 20
417.237427599683
 30
0.0
 11
141.5368096703585
 21
417.5540942663496
 31
0.0
  0
LINE
  5
D3
330
1F
100
AcDbEntity
  8
8
  6
CONTINUOUS
 62
     7
100
AcDbLine
 10
643.803476337025
 20
336.7874275996827
 30
0.0
 11
643.803476337025
 21
343.6874275996832
 31
0.0
  0
ARC
  5
D4
330
1F
100
AcDbEntity
  8
8
  6
CONTINUOUS
 62
     7
100
AcDbCircle
 10
640.8364587931645
 20
340.2374275996825
 30
0.0
 40
4.550350877192955
100
AcDbArc
 50
310.6956985254009
 51
49.30430147459875
  0
LINE
  5
D5
330
1F
100
AcDbEntity
  8
8
  6
CONTINUOUS
 62
     7
100
AcDbLine
 10
643.4868096703575
 20
336.7874275996827
 30
0.0
 11
643.803476337025
 21
336.7874275996827
 31
0.0
  0
LINE
  5
D6
330
1F
100
AcDbEntity
  8
8
  6
CONTINUOUS
 62
     7
100
AcDbLine
 10
643.4868096703575
 20
343.6874275996832
 30
0.0
 11
643.803476337025
 21
343.6874275996832
 31
0.0
  0
LINE
  5
D7
330
1F
100
AcDbEntity
  8
8
  6
CONTINUOUS
 62
     7
100
AcDbLine
 10
643.803476337025
 20
267.6874275996819
 30
0.0
 11
643.803476337025
 21
260.7874275996813
 31
0.0
  0
ARC
  5
D8
330
1F
100
AcDbEntity
  8
8
  6
CONTINUOUS
 62
     7
100
AcDbCircle
 10
640.8364587931645
 20
264.2374275996821
 30
0.0
 40
4.550350877192955
100
AcDbArc
 50
310.6956985254009
 51
49.30430147459875
  0
LINE
  5
D9
330
1F
100
AcDbEntity
  8
8
  6
CONTINUOUS
 62
     7
100
AcDbLine
 10
643.4868096703575
 20
267.6874275996819
 30
0.0
 11
643.803476337025
 21
267.6874275996819
 31
0.0
  0
LINE
  5
DA
330
1F
100
AcDbEntity
  8
8
  6
CONTINUOUS
 62
     7
100
AcDbLine
 10
643.4868096703575
 20
260.7874275996813
 30
0.0
 11
643.803476337025
 21
260.7874275996813
 31
0.0
  0
LINE
  5
DB
330
1F
100
AcDbEntity
  8
3
  6
DASHDOT
 62
     1
100
AcDbLine
 10
653.4868096703575
 20
302.2374275996821
 30
0.0
 11
103.4868096703556
 21
302.2374275996825
 31
0.0
  0
LINE
  5
DC
330
1F
100
AcDbEntity
  8
3
  6
DASHDOT
 62
     1
100
AcDbLine
 10
378.4868096703575
 20
442.2374275996814
 30
0.0
 11
378.4868096703575
 21
162.2374275996837
 31
0.0
  0
LINE
  5
DD
330
1F
100
AcDbEntity
  8
8
  6
CONTINUOUS
 62
     7
100
AcDbLine
 10
628.4868096703575
 20
177.237427599683
 30
0.0
 11
628.4868096703575
 21
187.237427599683
 31
0.0
  0
ARC
  5
DE
330
1F
100
AcDbEntity
  8
8
  6
CONTINUOUS
 62
     7
100
AcDbCircle
 10
623.4868096703575
 20
177.237427599683
 30
0.0
 40
5.0
100
AcDbArc
 50
269.9999999999998
 51
0.0
  0
LINE
  5
DF
330
1F
100
AcDbEntity
  8
8
  6
CONTINUOUS
 62
     7
100
AcDbLine
 10
133.4868096703574
 20
172.237427599683
 30
0.0
 11
623.4868096703575
 21
172.2374275996843
 31
0.0
  0
LINE
  5
E0
330
1F
100
AcDbEntity
  8
8
  6
CONTINUOUS
 62
     7
100
AcDbLine
 10
128.4868096703574
 20
177.237427599683
 30
0.0
 11
128.4868096703574
 21
187.237427599683
 31
0.0
  0
ARC
  5
E1
330
1F
100
AcDbEntity
  8
8
  6
CONTINUOUS
 62
     7
100
AcDbCircle
 10
133.4868096703556
 20
177.237427599683
 30
0.0
 40
5.0
100
AcDbArc
 50
179.9999999999998
 51
269.9999999999998
  0
CIRCLE
  5
E2
330
1F
100
AcDbEntity
  8
8
  6
CONTINUOUS
 62
     7
100
AcDbCircle
 10
603.4868096703575
 20
179.237427599683
 30
0.0
 40
3.100000000000023
  0
CIRCLE
  5
E3
330
1F
100
AcDbEntity
  8
8
  6
CONTINUOUS
 62
     7
100
AcDbCircle
 10
490.9868096703575
 20
179.237427599683
 30
0.0
 40
3.100000000000023
  0
CIRCLE
  5
E4
330
1F
100
AcDbEntity
  8
8
  6
CONTINUOUS
 62
     7
100
AcDbCircle
 10
265.9868096703575
 20
179.237427599683
 30
0.0
 40
3.100000000000023
  0
CIRCLE
  5
E5
330
1F
100
AcDbEntity
  8
8
  6
CONTINUOUS
 62
     7
100
AcDbCircle
 10
153.4868096703574
 20
179.237427599683
 30
0.0
 40
3.099999999999994
  0
LINE
  5
E6
330
1F
100
AcDbEntity
  8
8
  6
CONTINUOUS
 62
     7
100
AcDbLine
 10
628.4868096703575
 20
427.2374275996821
 30
0.0
 11
628.4868096703575
 21
417.2374275996821
 31
0.0
  0
ARC
  5
E7
330
1F
100
AcDbEntity
  8
8
  6
CONTINUOUS
 62
     7
100
AcDbCircle
 10
623.4868096703575
 20
427.2374275996821
 30
0.0
 40
5.0
100
AcDbArc
 50
0.0
 51
89.99999999999991
  0
LINE
  5
E8
330
1F
100
AcDbEntity
  8
8
  6
CONTINUOUS
 62
     7
100
AcDbLine
 10
133.4868096703574
 20
432.2374275996821
 30
0.0
 11
623.4868096703575
 21
432.2374275996807
 31
0.0
  0
LINE
  5
E9
330
1F
100
AcDbEntity
  8
8
  6
CONTINUOUS
 62
     7
100
AcDbLine
 10
128.4868096703574
 20
427.2374275996821
 30
0.0
 11
128.4868096703574
 21
417.2374275996821
 31
0.0
  0
ARC
  5
EA
330
1F
100
AcDbEntity
  8
8
  6
CONTINUOUS
 62
     7
100
AcDbCircle
 10
133.4868096703556
 20
427.2374275996821
 30
0.0
 40
5.0
100
AcDbArc
 50
89.99999999999991
 51
179.9999999999998
  0
CIRCLE
  5
EB
330
1F
100
AcDbEntity
  8
8
  6
CONTINUOUS
 62
     7
100
AcDbCircle
 10
603.4868096703575
 20
425.2374275996821
 30
0.0
 40
3.100000000000023
  0
CIRCLE
  5
EC
330
1F
100
AcDbEntity
  8
8
  6
CONTINUOUS
 62
     7
100
AcDbCircle
 10
490.9868096703575
 20
425.2374275996821
 30
0.0
 40
3.100000000000023
  0
CIRCLE
  5
ED
330
1F
100
AcDbEntity
  8
8
  6
CONTINUOUS
 62
     7
100
AcDbCircle
 10
265.9868096703575
 20
425.2374275996821
 30
0.0
 40
3.100000000000023
  0
CIRCLE
  5
EE
330
1F
100
AcDbEntity
  8
8
  6
CONTINUOUS
 62
     7
100
AcDbCircle
 10
153.4868096703574
 20
425.2374275996821
 30
0.0
 40
3.099999999999994
  0
LINE
  5
EF
330
1F
100
AcDbEntity
  8
8
  6
CONTINUOUS
 62
     7
100
AcDbLine
 10
771.4062465960627
 20
186.9207609330186
 30
0.0
 11
764.5062465960613
 21
186.9207609330186
 31
0.0
  0
ARC
  5
F0
330
1F
100
AcDbEntity
  8
8
  6
CONTINUOUS
 62
     7
100
AcDbCircle
 10
767.956246596062
 20
189.8877784768773
 30
0.0
 40
4.550350877192955
100
AcDbArc
 50
220.6956985253453
 51
319.3043014746538
  0
LINE
  5
F1
330
1F
100
AcDbEntity
  8
8
  6
CONTINUOUS
 62
     7
100
AcDbLine
 10
771.4062465960627
 20
187.2374275996843
 30
0.0
 11
771.4062465960627
 21
186.9207609330186
 31
0.0
  0
LINE
  5
F2
330
1F
100
AcDbEntity
  8
8
  6
CONTINUOUS
 62
     7
100
AcDbLine
 10
764.5062465960613
 20
187.2374275996843
 30
0.0
 11
764.5062465960613
 21
186.9207609330186
 31
0.0
  0
LINE
  5
F3
330
1F
100
AcDbEntity
  8
8
  6
CONTINUOUS
 62
     7
100
AcDbLine
 10
732.956246596062
 20
417.2374275996843
 30
0.0
 11
732.956246596062
 21
187.2374275996843
 31
0.0
  0
LINE
  5
F4
330
1F
100
AcDbEntity
  8
8
  6
CONTINUOUS
 62
     7
100
AcDbLine
 10
777.956246596062
 20
432.2374275996843
 30
0.0
 11
777.956246596062
 21
172.2374275996843
 31
0.0
  0
LINE
  5
F5
330
1F
100
AcDbEntity
  8
8
  6
CONTINUOUS
 62
     7
100
AcDbLine
 10
776.956246596062
 20
432.2374275996843
 30
0.0
 11
776.956246596062
 21
172.2374275996843
 31
0.0
  0
LINE
  5
F6
330
1F
100
AcDbEntity
  8
8
  6
CONTINUOUS
 62
     7
100
AcDbLine
 10
732.956246596062
 20
417.2374275996843
 30
0.0
 11
776.956246596062
 21
417.2374275996825
 31
0.0
  0
LINE
  5
F7
330
1F
100
AcDbEntity
  8
8
  6
CONTINUOUS
 62
     7
100
AcDbLine
 10
776.956246596062
 20
416.2374275996825
 30
0.0
 11
777.956246596062
 21
416.2374275996825
 31
0.0
  0
LINE
  5
F8
330
1F
100
AcDbEntity
  8
8
  6
CONTINUOUS
 62
     7
100
AcDbLine
 10
776.956246596062
 20
432.2374275996843
 30
0.0
 11
777.956246596062
 21
432.2374275996843
 31
0.0
  0
LINE
  5
F9
330
1F
100
AcDbEntity
  8
8
  6
CONTINUOUS
 62
     7
100
AcDbLine
 10
732.956246596062
 20
187.2374275996843
 30
0.0
 11
776.956246596062
 21
187.2374275996843
 31
0.0
  0
LINE
  5
FA
330
1F
100
AcDbEntity
  8
8
  6
CONTINUOUS
 62
     7
100
AcDbLine
 10
776.956246596062
 20
188.2374275996843
 30
0.0
 11
777.956246596062
 21
188.2374275996843
 31
0.0
  0
LINE
  5
FB
330
1F
100
AcDbEntity
  8
8
  6
CONTINUOUS
 62
     7
100
AcDbLine
 10
776.956246596062
 20
172.2374275996843
 30
0.0
 11
777.956246596062
 21
172.2374275996843
 31
0.0
  0
LINE
  5
FC
330
1F
100
AcDbEntity
  8
8
  6
CONTINUOUS
 62
     7
100
AcDbLine
 10
744.456246596062
 20
325.2374275996843
 30
0.0
 11
776.956246596062
 21
325.2374275996843
 31
0.0
  0
LINE
  5
FD
330
1F
100
AcDbEntity
  8
8
  6
CONTINUOUS
 62
     7
100
AcDbLine
 10
744.456246596062
 20
325.2374275996843
 30
0.0
 11
744.456246596062
 21
279.2374275996843
 31
0.0
  0
LINE
  5
FE
330
1F
100
AcDbEntity
  8
8
  6
CONTINUOUS
 62
     7
100
AcDbLine
 10
744.456246596062
 20
279.2374275996843
 30
0.0
 11
776.956246596062
 21
279.2374275996843
 31
0.0
  0
LINE
  5
FF
330
1F
100
AcDbEntity
  8
8
  6
CONTINUOUS
 62
     7
100
AcDbLine
 10
771.3062465960642
 20
274.9714209602133
 30
0.0
 11
771.3062465960642
 21
267.7374275996825
 31
0.0
  0
LINE
  5
100
330
1F
100
AcDbEntity
  8
10
  6
CONTINUOUS
 62
     2
100
AcDbLine
 10
770.7677850576014
 20
272.4374275996814
 30
0.0
 11
771.3062465960624
 21
273.3700703422199
 31
0.0
  0
LINE
  5
101
330
1F
100
AcDbEntity
  8
8
  6
CONTINUOUS
 62
     7
100
AcDbLine
 10
770.5062465960631
 20
266.9374275996814
 30
0.0
 11
771.3062465960642
 21
267.7374275996825
 31
0.0
  0
LINE
  5
102
330
1F
100
AcDbEntity
  8
10
  6
CONTINUOUS
 62
     2
100
AcDbLine
 10
770.7677850576014
 20
272.4374275996814
 30
0.0
 11
770.7677850576014
 21
267.1989660612197
 31
0.0
  0
LINE
  5
103
330
1F
100
AcDbEntity
  8
8
  6
CONTINUOUS
 62
     7
100
AcDbLine
 10
774.9562465960638
 20
276.9374275996814
 30
0.0
 11
774.9562465960638
 21
279.2374275996825
 31
0.0
  0
LINE
  5
104
330
1F
100
AcDbEntity
  8
8
  6
CONTINUOUS
 62
     7
100
AcDbLine
 10
745.9562465960638
 20
276.9374275996814
 30
0.0
 11
745.9562465960638
 21
279.2374275996825
 31
0.0
  0
LINE
  5
105
330
1F
100
AcDbEntity
  8
10
  6
CONTINUOUS
 62
     2
100
AcDbLine
 10
750.1447081345244
 20
272.4374275996814
 30
0.0
 11
749.6062465960634
 21
273.3700703422199
 31
0.0
  0
LINE
  5
106
330
1F
100
AcDbEntity
  8
8
  6
CONTINUOUS
 62
     7
100
AcDbLine
 10
774.9562465960638
 20
276.9374275996814
 30
0.0
 11
745.9562465960638
 21
276.9374275996814
 31
0.0
  0
LINE
  5
107
330
1F
100
AcDbEntity
  8
8
  6
CONTINUOUS
 62
     7
100
AcDbLine
 10
749.6062465960634
 20
272.4374275996814
 30
0.0
 11
771.3062465960642
 21
272.4374275996814
 31
0.0
  0
LINE
  5
108
330
1F
100
AcDbEntity
  8
8
  6
CONTINUOUS
 62
     7
100
AcDbLine
 10
750.4062465960627
 20
266.9374275996814
 30
0.0
 11
749.6062465960634
 21
267.7374275996825
 31
0.0
  0
LINE
  5
109
330
1F
100
AcDbEntity
  8
8
  6
CONTINUOUS
 62
     7
100
AcDbLine
 10
749.6062465960634
 20
267.7374275996825
 30
0.0
 11
771.3062465960642
 21
267.7374275996825
 31
0.0
  0
LINE
  5
10A
330
1F
100
AcDbEntity
  8
8
  6
CONTINUOUS
 62
     7
100
AcDbLine
 10
749.6062465960634
 20
274.9641424308937
 30
0.0
 11
749.6062465960634
 21
267.7374275996825
 31
0.0
  0
LINE
  5
10B
330
1F
100
AcDbEntity
  8
10
  6
CONTINUOUS
 62
     2
100
AcDbLine
 10
750.1447081345244
 20
272.4374275996814
 30
0.0
 11
750.1447081345244
 21
267.1989660612197
 31
0.0
  0
LINE
  5
10C
330
1F
100
AcDbEntity
  8
8
  6
CONTINUOUS
 62
     7
100
AcDbLine
 10
750.4062465960627
 20
266.9374275996814
 30
0.0
 11
770.5062465960631
 21
266.9374275996814
 31
0.0
  0
LINE
  5
10D
330
1F
100
AcDbEntity
  8
8
  6
CONTINUOUS
 62
     7
100
AcDbLine
 10
774.7452687284143
 20
276.9374275996814
 30
0.0
 11
769.2452687284143
 21
276.9374275996814
 31
0.0
  0
ARC
  5
10E
330
1F
100
AcDbEntity
  8
8
  6
CONTINUOUS
 62
     7
100
AcDbCircle
 10
771.9952687284143
 20
281.9374275996814
 30
0.0
 40
7.0
100
AcDbArc
 50
253.448644000063
 51
286.5513559998819
  0
LINE
  5
10F
330
1F
100
AcDbEntity
  8
8
  6
CONTINUOUS
 62
     7
100
AcDbLine
 10
774.7452687284143
 20
276.9374275996814
 30
0.0
 11
774.7031467284136
 21
276.1337025996816
 31
0.0
  0
ARC
  5
110
330
1F
100
AcDbEntity
  8
8
  6
CONTINUOUS
 62
     7
100
AcDbCircle
 10
773.7045167284135
 20
276.1860385996823
 30
0.0
 40
1.0
100
AcDbArc
 50
286.551355999882
 51
356.9999999999939
  0
LINE
  5
111
330
1F
100
AcDbEntity
  8
8
  6
CONTINUOUS
 62
     7
100
AcDbLine
 10
769.2452687284143
 20
276.9374275996814
 30
0.0
 11
769.2873907284132
 21
276.1337025996816
 31
0.0
  0
ARC
  5
112
330
1F
100
AcDbEntity
  8
8
  6
CONTINUOUS
 62
     7
100
AcDbCircle
 10
770.2860207284133
 20
276.1860385996823
 30
0.0
 40
1.0
100
AcDbArc
 50
183.0000000000054
 51
253.4486440000627
  0
LINE
  5
113
330
1F
100
AcDbEntity
  8
8
  6
CONTINUOUS
 62
     7
100
AcDbLine
 10
751.7452687284143
 20
276.9374275996814
 30
0.0
 11
746.2452687284143
 21
276.9374275996814
 31
0.0
  0
ARC
  5
114
330
1F
100
AcDbEntity
  8
8
  6
CONTINUOUS
 62
     7
100
AcDbCircle
 10
748.9952687284143
 20
281.9374275996814
 30
0.0
 40
7.0
100
AcDbArc
 50
253.448644000063
 51
286.5513559998819
  0
LINE
  5
115
330
1F
100
AcDbEntity
  8
8
  6
CONTINUOUS
 62
     7
100
AcDbLine
 10
751.7452687284143
 20
276.9374275996814
 30
0.0
 11
751.7031467284136
 21
276.1337025996816
 31
0.0
  0
ARC
  5
116
330
1F
100
AcDbEntity
  8
8
  6
CONTINUOUS
 62
     7
100
AcDbCircle
 10
750.7045167284135
 20
276.1860385996823
 30
0.0
 40
1.0
100
AcDbArc
 50
286.551355999882
 51
356.9999999999939
  0
LINE
  5
117
330
1F
100
AcDbEntity
  8
8
  6
CONTINUOUS
 62
     7
100
AcDbLine
 10
746.2452687284143
 20
276.9374275996814
 30
0.0
 11
746.2873907284132
 21
276.1337025996816
 31
0.0
  0
ARC
  5
118
330
1F
100
AcDbEntity
  8
8
  6
CONTINUOUS
 62
     7
100
AcDbCircle
 10
747.2860207284133
 20
276.1860385996823
 30
0.0
 40
1.0
100
AcDbArc
 50
183.0000000000054
 51
253.4486440000627
  0
ARC
  5
119
330
1F
100
AcDbEntity
  8
8
  6
CONTINUOUS
 62
     7
100
AcDbCircle
 10
767.1562465960627
 20
339.4374275996832
 30
0.0
 40
0.5
100
AcDbArc
 50
0.0
 51
89.99999999999991
  0
ARC
  5
11A
330
1F
100
AcDbEntity
  8
8
  6
CONTINUOUS
 62
     7
100
AcDbCircle
 10
768.7562465960631
 20
339.4374275996832
 30
0.0
 40
0.5
100
AcDbArc
 50
89.99999999999991
 51
179.9999999999998
  0
CIRCLE
  5
11B
330
1F
100
AcDbEntity
  8
8
  6
CONTINUOUS
 62
     7
100
AcDbCircle
 10
767.956246596062
 20
340.2374275996825
 30
0.0
 40
3.450000000000045
  0
LINE
  5
11C
330
1F
100
AcDbEntity
  8
8
  6
CONTINUOUS
 62
     7
100
AcDbLine
 10
767.6562465960627
 20
339.4374275996832
 30
0.0
 11
767.6562465960627
 21
338.7874275996817
 31
0.0
  0
LINE
  5
11D
330
1F
100
AcDbEntity
  8
8
  6
CONTINUOUS
 62
     7
100
AcDbLine
 10
768.2562465960631
 20
339.4374275996832
 30
0.0
 11
768.2562465960631
 21
338.7874275996817
 31
0.0
  0
LINE
  5
11E
330
1F
100
AcDbEntity
  8
8
  6
CONTINUOUS
 62
     7
100
AcDbLine
 10
767.6562465960627
 20
338.7874275996817
 30
0.0
 11
768.2562465960631
 21
338.7874275996817
 31
0.0
  0
LINE
  5
11F
330
1F
100
AcDbEntity
  8
8
  6
CONTINUOUS
 62
     7
100
AcDbLine
 10
767.1562465960627
 20
340.5374275996817
 30
0.0
 11
766.5062465960631
 21
340.5374275996817
 31
0.0
  0
LINE
  5
120
330
1F
100
AcDbEntity
  8
8
  6
CONTINUOUS
 62
     7
100
AcDbLine
 10
767.1562465960627
 20
339.9374275996832
 30
0.0
 11
766.5062465960631
 21
339.9374275996832
 31
0.0
  0
ARC
  5
121
330
1F
100
AcDbEntity
  8
8
  6
CONTINUOUS
 62
     7
100
AcDbCircle
 10
768.7562465960631
 20
341.0374275996817
 30
0.0
 40
0.5
100
AcDbArc
 50
179.9999999999998
 51
269.9999999999998
  0
ARC
  5
122
330
1F
100
AcDbEntity
  8
8
  6
CONTINUOUS
 62
     7
100
AcDbCircle
 10
767.1562465960627
 20
341.0374275996817
 30
0.0
 40
0.5
100
AcDbArc
 50
269.9999999999998
 51
0.0
  0
LINE
  5
123
330
1F
100
AcDbEntity
  8
8
  6
CONTINUOUS
 62
     7
100
AcDbLine
 10
768.2562465960631
 20
341.0374275996817
 30
0.0
 11
768.2562465960631
 21
341.6874275996832
 31
0.0
  0
LINE
  5
124
330
1F
100
AcDbEntity
  8
8
  6
CONTINUOUS
 62
     7
100
AcDbLine
 10
767.6562465960627
 20
341.0374275996817
 30
0.0
 11
767.6562465960627
 21
341.6874275996832
 31
0.0
  0
LINE
  5
125
330
1F
100
AcDbEntity
  8
8
  6
CONTINUOUS
 62
     7
100
AcDbLine
 10
768.7562465960631
 20
340.5374275996817
 30
0.0
 11
769.4062465960627
 21
340.5374275996817
 31
0.0
  0
LINE
  5
126
330
1F
100
AcDbEntity
  8
8
  6
CONTINUOUS
 62
     7
100
AcDbLine
 10
768.7562465960631
 20
339.9374275996832
 30
0.0
 11
769.4062465960627
 21
339.9374275996832
 31
0.0
  0
LINE
  5
127
330
1F
100
AcDbEntity
  8
8
  6
CONTINUOUS
 62
     7
100
AcDbLine
 10
769.4062465960627
 20
339.9374275996832
 30
0.0
 11
769.4062465960627
 21
340.5374275996817
 31
0.0
  0
LINE
  5
128
330
1F
100
AcDbEntity
  8
8
  6
CONTINUOUS
 62
     7
100
AcDbLine
 10
768.2562465960631
 20
341.6874275996832
 30
0.0
 11
767.6562465960627
 21
341.6874275996832
 31
0.0
  0
LINE
  5
129
330
1F
100
AcDbEntity
  8
8
  6
CONTINUOUS
 62
     7
100
AcDbLine
 10
766.5062465960631
 20
340.5374275996817
 30
0.0
 11
766.5062465960631
 21
339.9374275996832
 31
0.0
  0
ARC
  5
12A
330
1F
100
AcDbEntity
  8
8
  6
CONTINUOUS
 62
     7
100
AcDbCircle
 10
767.1562465960627
 20
263.4374275996832
 30
0.0
 40
0.5
100
AcDbArc
 50
0.0
 51
89.99999999999991
  0
ARC
  5
12B
330
1F
100
AcDbEntity
  8
8
  6
CONTINUOUS
 62
     7
100
AcDbCircle
 10
768.7562465960631
 20
263.4374275996832
 30
0.0
 40
0.5
100
AcDbArc
 50
89.99999999999991
 51
179.9999999999998
  0
ARC
  5
12C
330
1F
100
AcDbEntity
  8
8
  6
CONTINUOUS
 62
     7
100
AcDbCircle
 10
767.956246596062
 20
264.2374275996825
 30
0.0
 40
3.450000000000045
100
AcDbArc
 50
128.4999504092861
 51
51.50004959071395
  0
LINE
  5
12D
330
1F
100
AcDbEntity
  8
8
  6
CONTINUOUS
 62
     7
100
AcDbLine
 10
767.6562465960627
 20
263.4374275996832
 30
0.0
 11
767.6562465960627
 21
262.7874275996817
 31
0.0
  0
LINE
  5
12E
330
1F
100
AcDbEntity
  8
8
  6
CONTINUOUS
 62
     7
100
AcDbLine
 10
768.2562465960631
 20
263.4374275996832
 30
0.0
 11
768.2562465960631
 21
262.7874275996817
 31
0.0
  0
LINE
  5
12F
330
1F
100
AcDbEntity
  8
8
  6
CONTINUOUS
 62
     7
100
AcDbLine
 10
767.6562465960627
 20
262.7874275996817
 30
0.0
 11
768.2562465960631
 21
262.7874275996817
 31
0.0
  0
LINE
  5
130
330
1F
100
AcDbEntity
  8
8
  6
CONTINUOUS
 62
     7
100
AcDbLine
 10
767.1562465960627
 20
264.5374275996817
 30
0.0
 11
766.5062465960631
 21
264.5374275996817
 31
0.0
  0
LINE
  5
131
330
1F
100
AcDbEntity
  8
8
  6
CONTINUOUS
 62
     7
100
AcDbLine
 10
767.1562465960627
 20
263.9374275996832
 30
0.0
 11
766.5062465960631
 21
263.9374275996832
 31
0.0
  0
ARC
  5
132
330
1F
100
AcDbEntity
  8
8
  6
CONTINUOUS
 62
     7
100
AcDbCircle
 10
768.7562465960631
 20
265.0374275996817
 30
0.0
 40
0.5
100
AcDbArc
 50
179.9999999999998
 51
269.9999999999998
  0
ARC
  5
133
330
1F
100
AcDbEntity
  8
8
  6
CONTINUOUS
 62
     7
100
AcDbCircle
 10
767.1562465960627
 20
265.0374275996817
 30
0.0
 40
0.5
100
AcDbArc
 50
269.9999999999998
 51
0.0
  0
LINE
  5
134
330
1F
100
AcDbEntity
  8
8
  6
CONTINUOUS
 62
     7
100
AcDbLine
 10
768.2562465960631
 20
265.0374275996817
 30
0.0
 11
768.2562465960631
 21
265.6874275996832
 31
0.0
  0
LINE
  5
135
330
1F
100
AcDbEntity
  8
8
  6
CONTINUOUS
 62
     7
100
AcDbLine
 10
767.6562465960627
 20
265.0374275996817
 30
0.0
 11
767.6562465960627
 21
265.6874275996832
 31
0.0
  0
LINE
  5
136
330
1F
100
AcDbEntity
  8
8
  6
CONTINUOUS
 62
     7
100
AcDbLine
 10
768.7562465960631
 20
264.5374275996817
 30
0.0
 11
769.4062465960627
 21
264.5374275996817
 31
0.0
  0
LINE
  5
137
330
1F
100
AcDbEntity
  8
8
  6
CONTINUOUS
 62
     7
100
AcDbLine
 10
768.7562465960631
 20
263.9374275996832
 30
0.0
 11
769.4062465960627
 21
263.9374275996832
 31
0.0
  0
LINE
  5
138
330
1F
100
AcDbEntity
  8
8
  6
CONTINUOUS
 62
     7
100
AcDbLine
 10
769.4062465960627
 20
263.9374275996832
 30
0.0
 11
769.4062465960627
 21
264.5374275996817
 31
0.0
  0
LINE
  5
139
330
1F
100
AcDbEntity
  8
8
  6
CONTINUOUS
 62
     7
100
AcDbLine
 10
768.2562465960631
 20
265.6874275996832
 30
0.0
 11
767.6562465960627
 21
265.6874275996832
 31
0.0
  0
LINE
  5
13A
330
1F
100
AcDbEntity
  8
8
  6
CONTINUOUS
 62
     7
100
AcDbLine
 10
766.5062465960631
 20
264.5374275996817
 30
0.0
 11
766.5062465960631
 21
263.9374275996832
 31
0.0
  0
LINE
  5
13B
330
1F
100
AcDbEntity
  8
8
  6
CONTINUOUS
 62
     7
100
AcDbLine
 10
771.4062465960627
 20
417.55409426635
 30
0.0
 11
764.5062465960613
 21
417.55409426635
 31
0.0
  0
ARC
  5
13C
330
1F
100
AcDbEntity
  8
8
  6
CONTINUOUS
 62
     7
100
AcDbCircle
 10
767.956246596062
 20
414.5870767224913
 30
0.0
 40
4.550350877192955
100
AcDbArc
 50
40.69569852534186
 51
139.3043014746581
  0
LINE
  5
13D
330
1F
100
AcDbEntity
  8
8
  6
CONTINUOUS
 62
     7
100
AcDbLine
 10
771.4062465960627
 20
417.2374275996843
 30
0.0
 11
771.4062465960627
 21
417.55409426635
 31
0.0
  0
LINE
  5
13E
330
1F
100
AcDbEntity
  8
8
  6
CONTINUOUS
 62
     7
100
AcDbLine
 10
764.5062465960613
 20
417.2374275996843
 30
0.0
 11
764.5062465960613
 21
417.55409426635
 31
0.0
  0
LINE
  5
13F
330
1F
100
AcDbEntity
  8
8
  6
CONTINUOUS
 62
     7
100
AcDbLine
 10
630.0368096703568
 20
417.5540942663496
 30
0.0
 11
636.9368096703564
 21
417.5540942663496
 31
0.0
  0
ARC
  5
140
330
1F
100
AcDbEntity
  8
8
  6
CONTINUOUS
 62
     7
100
AcDbCircle
 10
633.4868096703557
 20
414.58707672249
 30
0.0
 40
4.550350877192955
100
AcDbArc
 50
40.6956985254205
 51
139.3043014745795
  0
LINE
  5
141
330
1F
100
AcDbEntity
  8
8
  6
CONTINUOUS
 62
     7
100
AcDbLine
 10
630.0368096703568
 20
417.237427599683
 30
0.0
 11
630.0368096703568
 21
417.5540942663496
 31
0.0
  0
LINE
  5
142
330
1F
100
AcDbEntity
  8
8
  6
CONTINUOUS
 62
     7
100
AcDbLine
 10
636.9368096703564
 20
417.237427599683
 30
0.0
 11
636.9368096703564
 21
417.5540942663496
 31
0.0
  0
LINE
  5
143
330
1F
100
AcDbEntity
  8
8
  6
CONTINUOUS
 62
     7
100
AcDbLine
 10
608.5368096703568
 20
417.5540942663496
 30
0.0
 11
615.4368096703564
 21
417.5540942663496
 31
0.0
  0
ARC
  5
144
330
1F
100
AcDbEntity
  8
8
  6
CONTINUOUS
 62
     7
100
AcDbCircle
 10
611.9868096703557
 20
414.58707672249
 30
0.0
 40
4.550350877192955
100
AcDbArc
 50
40.6956985254205
 51
139.3043014745795
  0
LINE
  5
145
330
1F
100
AcDbEntity
  8
8
  6
CONTINUOUS
 62
     7
100
AcDbLine
 10
608.5368096703568
 20
417.237427599683
 30
0.0
 11
608.5368096703568
 21
417.5540942663496
 31
0.0
  0
LINE
  5
146
330
1F
100
AcDbEntity
  8
8
  6
CONTINUOUS
 62
     7
100
AcDbLine
 10
615.4368096703564
 20
417.237427599683
 30
0.0
 11
615.4368096703564
 21
417.5540942663496
 31
0.0
  0
LINE
  5
147
330
1F
100
AcDbEntity
  8
8
  6
CONTINUOUS
 62
     7
100
AcDbLine
 10
113.1701430036899
 20
305.6874275996823
 30
0.0
 11
113.1701430036899
 21
298.7874275996827
 31
0.0
  0
ARC
  5
148
330
1F
100
AcDbEntity
  8
8
  6
CONTINUOUS
 62
     7
100
AcDbCircle
 10
116.1371605475486
 20
302.2374275996834
 30
0.0
 40
4.550350877192983
100
AcDbArc
 50
130.6956985254007
 51
229.304301474599
  0
LINE
  5
149
330
1F
100
AcDbEntity
  8
8
  6
CONTINUOUS
 62
     7
100
AcDbLine
 10
113.4868096703556
 20
305.6874275996823
 30
0.0
 11
113.1701430036899
 21
305.6874275996823
 31
0.0
  0
LINE
  5
14A
330
1F
100
AcDbEntity
  8
8
  6
CONTINUOUS
 62
     7
100
AcDbLine
 10
113.4868096703556
 20
298.7874275996827
 30
0.0
 11
113.1701430036899
 21
298.7874275996827
 31
0.0
  0
LINE
  5
14B
330
1F
100
AcDbEntity
  8
8
  6
CONTINUOUS
 62
     7
100
AcDbLine
 10
126.9368096703582
 20
186.9207609330155
 30
0.0
 11
120.0368096703586
 21
186.9207609330155
 31
0.0
  0
ARC
  5
14C
330
1F
100
AcDbEntity
  8
8
  6
CONTINUOUS
 62
     7
100
AcDbCircle
 10
123.4868096703593
 20
189.887778476875
 30
0.0
 40
4.550350877192969
100
AcDbArc
 50
220.6956985254212
 51
319.3043014745781
  0
LINE
  5
14D
330
1F
100
AcDbEntity
  8
8
  6
CONTINUOUS
 62
     7
100
AcDbLine
 10
126.9368096703582
 20
187.2374275996821
 30
0.0
 11
126.9368096703582
 21
186.9207609330155
 31
0.0
  0
LINE
  5
14E
330
1F
100
AcDbEntity
  8
8
  6
CONTINUOUS
 62
     7
100
AcDbLine
 10
120.0368096703586
 20
187.2374275996821
 30
0.0
 11
120.0368096703586
 21
186.9207609330155
 31
0.0
  0
LINE
  5
14F
330
1F
100
AcDbEntity
  8
8
  6
CONTINUOUS
 62
     7
100
AcDbLine
 10
148.4368096703582
 20
186.9207609330155
 30
0.0
 11
141.5368096703585
 21
186.9207609330155
 31
0.0
  0
ARC
  5
150
330
1F
100
AcDbEntity
  8
8
  6
CONTINUOUS
 62
     7
100
AcDbCircle
 10
144.9868096703593
 20
189.887778476875
 30
0.0
 40
4.550350877192983
100
AcDbArc
 50
220.6956985254212
 51
319.3043014745781
  0
LINE
  5
151
330
1F
100
AcDbEntity
  8
8
  6
CONTINUOUS
 62
     7
100
AcDbLine
 10
148.4368096703582
 20
187.2374275996821
 30
0.0
 11
148.4368096703582
 21
186.9207609330155
 31
0.0
  0
LINE
  5
152
330
1F
100
AcDbEntity
  8
8
  6
CONTINUOUS
 62
     7
100
AcDbLine
 10
141.5368096703585
 20
187.2374275996821
 30
0.0
 11
141.5368096703585
 21
186.9207609330155
 31
0.0
  0
LINE
  5
153
330
1F
100
AcDbEntity
  8
8
  6
CONTINUOUS
 62
     7
100
AcDbLine
 10
630.0368096703568
 20
186.9207609330155
 30
0.0
 11
636.9368096703564
 21
186.9207609330155
 31
0.0
  0
ARC
  5
154
330
1F
100
AcDbEntity
  8
8
  6
CONTINUOUS
 62
     7
100
AcDbCircle
 10
633.4868096703557
 20
189.887778476875
 30
0.0
 40
4.550350877192955
100
AcDbArc
 50
220.6956985254204
 51
319.3043014745789
  0
LINE
  5
155
330
1F
100
AcDbEntity
  8
8
  6
CONTINUOUS
 62
     7
100
AcDbLine
 10
630.0368096703568
 20
187.2374275996821
 30
0.0
 11
630.0368096703568
 21
186.9207609330155
 31
0.0
  0
LINE
  5
156
330
1F
100
AcDbEntity
  8
8
  6
CONTINUOUS
 62
     7
100
AcDbLine
 10
636.9368096703564
 20
187.2374275996821
 30
0.0
 11
636.9368096703564
 21
186.9207609330155
 31
0.0
  0
LINE
  5
157
330
1F
100
AcDbEntity
  8
8
  6
CONTINUOUS
 62
     7
100
AcDbLine
 10
608.5368096703568
 20
186.9207609330155
 30
0.0
 11
615.4368096703564
 21
186.9207609330155
 31
0.0
  0
ARC
  5
158
330
1F
100
AcDbEntity
  8
8
  6
CONTINUOUS
 62
     7
100
AcDbCircle
 10
611.9868096703557
 20
189.887778476875
 30
0.0
 40
4.550350877192955
100
AcDbArc
 50
220.6956985254204
 51
319.3043014745789
  0
LINE
  5
159
330
1F
100
AcDbEntity
  8
8
  6
CONTINUOUS
 62
     7
100
AcDbLine
 10
608.5368096703568
 20
187.2374275996821
 30
0.0
 11
608.5368096703568
 21
186.9207609330155
 31
0.0
  0
LINE
  5
15A
330
1F
100
AcDbEntity
  8
8
  6
CONTINUOUS
 62
     7
100
AcDbLine
 10
615.4368096703564
 20
187.2374275996821
 30
0.0
 11
615.4368096703564
 21
186.9207609330155
 31
0.0
  0
CIRCLE
  5
15B
330
1F
100
AcDbEntity
  8
8
  6
CONTINUOUS
 62
     7
100
AcDbCircle
 10
378.4868096703575
 20
179.237427599683
 30
0.0
 40
3.100000000000023
  0
CIRCLE
  5
15C
330
1F
100
AcDbEntity
  8
8
  6
CONTINUOUS
 62
     7
100
AcDbCircle
 10
378.4868096703575
 20
425.2374275996821
 30
0.0
 40
3.100000000000023
  0
LINE
  5
15D
330
1F
100
AcDbEntity
  8
8
  6
CONTINUOUS
 62
     7
100
AcDbLine
 10
450.0368096703586
 20
417.5540942663496
 30
0.0
 11
456.9368096703564
 21
417.5540942663496
 31
0.0
  0
ARC
  5
15E
330
1F
100
AcDbEntity
  8
8
  6
CONTINUOUS
 62
     7
100
AcDbCircle
 10
453.4868096703557
 20
414.58707672249
 30
0.0
 40
4.550350877192955
100
AcDbArc
 50
40.6956985254205
 51
139.3043014745795
  0
LINE
  5
15F
330
1F
100
AcDbEntity
  8
8
  6
CONTINUOUS
 62
     7
100
AcDbLine
 10
450.0368096703586
 20
417.237427599683
 30
0.0
 11
450.0368096703586
 21
417.5540942663496
 31
0.0
  0
LINE
  5
160
330
1F
100
AcDbEntity
  8
8
  6
CONTINUOUS
 62
     7
100
AcDbLine
 10
456.9368096703564
 20
417.237427599683
 30
0.0
 11
456.9368096703564
 21
417.5540942663496
 31
0.0
  0
LINE
  5
161
330
1F
100
AcDbEntity
  8
8
  6
CONTINUOUS
 62
     7
100
AcDbLine
 10
300.0368096703568
 20
417.5540942663496
 30
0.0
 11
306.9368096703564
 21
417.5540942663496
 31
0.0
  0
ARC
  5
162
330
1F
100
AcDbEntity
  8
8
  6
CONTINUOUS
 62
     7
100
AcDbCircle
 10
303.4868096703557
 20
414.58707672249
 30
0.0
 40
4.550350877192955
100
AcDbArc
 50
40.6956985254205
 51
139.3043014745795
  0
LINE
  5
163
330
1F
100
AcDbEntity
  8
8
  6
CONTINUOUS
 62
     7
100
AcDbLine
 10
300.0368096703568
 20
417.237427599683
 30
0.0
 11
300.0368096703568
 21
417.5540942663496
 31
0.0
  0
LINE
  5
164
330
1F
100
AcDbEntity
  8
8
  6
CONTINUOUS
 62
     7
100
AcDbLine
 10
306.9368096703564
 20
417.237427599683
 30
0.0
 11
306.9368096703564
 21
417.5540942663496
 31
0.0
  0
LINE
  5
165
330
1F
100
AcDbEntity
  8
8
  6
CONTINUOUS
 62
     7
100
AcDbLine
 10
306.9368096703564
 20
186.9207609330155
 30
0.0
 11
300.0368096703568
 21
186.9207609330155
 31
0.0
  0
ARC
  5
166
330
1F
100
AcDbEntity
  8
8
  6
CONTINUOUS
 62
     7
100
AcDbCircle
 10
303.4868096703575
 20
189.887778476875
 30
0.0
 40
4.550350877192955
100
AcDbArc
 50
220.6956985254204
 51
319.3043014745779
  0
LINE
  5
167
330
1F
100
AcDbEntity
  8
8
  6
CONTINUOUS
 62
     7
100
AcDbLine
 10
306.9368096703564
 20
187.2374275996821
 30
0.0
 11
306.9368096703564
 21
186.9207609330155
 31
0.0
  0
LINE
  5
168
330
1F
100
AcDbEntity
  8
8
  6
CONTINUOUS
 62
     7
100
AcDbLine
 10
300.0368096703568
 20
187.2374275996821
 30
0.0
 11
300.0368096703568
 21
186.9207609330155
 31
0.0
  0
LINE
  5
169
330
1F
100
AcDbEntity
  8
8
  6
CONTINUOUS
 62
     7
100
AcDbLine
 10
456.9368096703564
 20
186.9207609330155
 30
0.0
 11
450.0368096703568
 21
186.9207609330155
 31
0.0
  0
ARC
  5
16A
330
1F
100
AcDbEntity
  8
8
  6
CONTINUOUS
 62
     7
100
AcDbCircle
 10
453.4868096703575
 20
189.887778476875
 30
0.0
 40
4.550350877192955
100
AcDbArc
 50
220.6956985254204
 51
319.3043014745779
  0
LINE
  5
16B
330
1F
100
AcDbEntity
  8
8
  6
CONTINUOUS
 62
     7
100
AcDbLine
 10
456.9368096703564
 20
187.2374275996821
 30
0.0
 11
456.9368096703564
 21
186.9207609330155
 31
0.0
  0
LINE
  5
16C
330
1F
100
AcDbEntity
  8
8
  6
CONTINUOUS
 62
     7
100
AcDbLine
 10
450.0368096703568
 20
187.2374275996821
 30
0.0
 11
450.0368096703568
 21
186.9207609330155
 31
0.0
  0
LINE
  5
16D
330
1F
100
AcDbEntity
  8
3
  6
DASHDOT
 62
     1
100
AcDbLine
 10
257.8868096703575
 20
425.2374275996821
 30
0.0
 11
274.0868096703575
 21
425.2374275996821
 31
0.0
  0
LINE
  5
16E
330
1F
100
AcDbEntity
  8
3
  6
DASHDOT
 62
     1
100
AcDbLine
 10
265.9868096703575
 20
433.3374275996821
 30
0.0
 11
265.9868096703575
 21
417.137427599682
 31
0.0
  0
LINE
  5
16F
330
1F
100
AcDbEntity
  8
3
  6
DASHDOT
 62
     1
100
AcDbLine
 10
145.3868096703574
 20
425.2374275996821
 30
0.0
 11
161.5868096703575
 21
425.2374275996821
 31
0.0
  0
LINE
  5
170
330
1F
100
AcDbEntity
  8
3
  6
DASHDOT
 62
     1
100
AcDbLine
 10
153.4868096703574
 20
433.3374275996821
 30
0.0
 11
153.4868096703574
 21
417.137427599682
 31
0.0
  0
LINE
  5
171
330
1F
100
AcDbEntity
  8
3
  6
DASHDOT
 62
     1
100
AcDbLine
 10
370.3868096703575
 20
425.2374275996821
 30
0.0
 11
386.5868096703575
 21
425.2374275996821
 31
0.0
  0
LINE
  5
172
330
1F
100
AcDbEntity
  8
3
  6
DASHDOT
 62
     1
100
AcDbLine
 10
482.8868096703575
 20
425.2374275996821
 30
0.0
 11
499.0868096703575
 21
425.2374275996821
 31
0.0
  0
LINE
  5
173
330
1F
100
AcDbEntity
  8
3
  6
DASHDOT
 62
     1
100
AcDbLine
 10
490.9868096703575
 20
433.3374275996821
 30
0.0
 11
490.9868096703575
 21
417.137427599682
 31
0.0
  0
LINE
  5
174
330
1F
100
AcDbEntity
  8
3
  6
DASHDOT
 62
     1
100
AcDbLine
 10
595.3868096703576
 20
425.2374275996821
 30
0.0
 11
611.5868096703574
 21
425.2374275996821
 31
0.0
  0
LINE
  5
175
330
1F
100
AcDbEntity
  8
3
  6
DASHDOT
 62
     1
100
AcDbLine
 10
603.4868096703575
 20
433.3374275996821
 30
0.0
 11
603.4868096703575
 21
417.137427599682
 31
0.0
  0
LINE
  5
176
330
1F
100
AcDbEntity
  8
3
  6
DASHDOT
 62
     1
100
AcDbLine
 10
595.3868096703576
 20
179.237427599683
 30
0.0
 11
611.5868096703574
 21
179.237427599683
 31
0.0
  0
LINE
  5
177
330
1F
100
AcDbEntity
  8
3
  6
DASHDOT
 62
     1
100
AcDbLine
 10
603.4868096703575
 20
187.337427599683
 30
0.0
 11
603.4868096703575
 21
171.137427599683
 31
0.0
  0
LINE
  5
178
330
1F
100
AcDbEntity
  8
3
  6
DASHDOT
 62
     1
100
AcDbLine
 10
482.8868096703575
 20
179.237427599683
 30
0.0
 11
499.0868096703575
 21
179.237427599683
 31
0.0
  0
LINE
  5
179
330
1F
100
AcDbEntity
  8
3
  6
DASHDOT
 62
     1
100
AcDbLine
 10
490.9868096703575
 20
187.337427599683
 30
0.0
 11
490.9868096703575
 21
171.137427599683
 31
0.0
  0
LINE
  5
17A
330
1F
100
AcDbEntity
  8
3
  6
DASHDOT
 62
     1
100
AcDbLine
 10
370.3868096703575
 20
179.237427599683
 30
0.0
 11
386.5868096703575
 21
179.237427599683
 31
0.0
  0
LINE
  5
17B
330
1F
100
AcDbEntity
  8
3
  6
DASHDOT
 62
     1
100
AcDbLine
 10
257.8868096703575
 20
179.237427599683
 30
0.0
 11
274.0868096703575
 21
179.237427599683
 31
0.0
  0
LINE
  5
17C
330
1F
100
AcDbEntity
  8
3
  6
DASHDOT
 62
     1
100
AcDbLine
 10
265.9868096703575
 20
187.337427599683
 30
0.0
 11
265.9868096703575
 21
171.137427599683
 31
0.0
  0
LINE
  5
17D
330
1F
100
AcDbEntity
  8
3
  6
DASHDOT
 62
     1
100
AcDbLine
 10
145.3868096703574
 20
179.237427599683
 30
0.0
 11
161.5868096703575
 21
179.237427599683
 31
0.0
  0
LINE
  5
17E
330
1F
100
AcDbEntity
  8
3
  6
DASHDOT
 62
     1
100
AcDbLine
 10
153.4868096703574
 20
187.337427599683
 30
0.0
 11
153.4868096703574
 21
171.137427599683
 31
0.0
  0
LINE
  5
17F
330
1F
100
AcDbEntity
  8
3
  6
DASHDOT
 62
     1
100
AcDbLine
 10
771.956246596062
 20
425.237427599682
 30
0.0
 11
782.956246596062
 21
425.237427599682
 31
0.0
  0
LINE
  5
180
330
1F
100
AcDbEntity
  8
3
  6
DASHDOT
 62
     1
100
AcDbLine
 10
771.9562465960618
 20
179.2475902013089
 30
0.0
 11
782.9562465960618
 21
179.2475902013089
 31
0.0
  0
LINE
  5
181
330
1F
100
AcDbEntity
  8
3
  6
DASHDOT
 62
     1
100
AcDbLine
 10
722.956246596062
 20
302.237427599682
 30
0.0
 11
787.956246596062
 21
302.237427599682
 31
0.0
  0
CIRCLE
  5
182
330
1F
100
AcDbEntity
  8
8
  6
CONTINUOUS
 62
     7
100
AcDbCircle
 10
378.4868096703566
 20
302.2374275996808
 30
0.0
 40
27.5
  0
CIRCLE
  5
183
330
1F
100
AcDbEntity
  8
11
  6
HIDDEN
 62
     3
100
AcDbCircle
 10
378.4868096703566
 20
302.2374275996808
 30
0.0
 40
32.5
  0
HATCH
  5
184
330
1F
100
AcDbEntity
  8
9
  6
CONTINUOUS
 62
     2
100
AcDbHatch
 10
0.0
 20
0.0
 30
0.0
210
0.0
220
0.0
230
1.0
  2

 70
     0
 71
     0
 91
        4
 92
        0
 93
       40
 72
     1
 10
410.9868096703565
 20
302.2374275996826
 11
410.9558768717669
 21
303.6550576890559
 72
     1
 10
410.9558768717669
 20
303.6550576890559
 11
410.8631373583383
 21
305.0699892389813
 72
     1
 10
410.8631373583383
 20
305.0699892389813
 11
410.7087676650054
 21
306.479528846834
 72
     1
 10
410.7087676650054
 20
306.479528846834
 11
410.4930616432533
 21
307.8809933738575
 72
     1
 10
410.4930616432533
 20
307.8809933738575
 11
410.2164299017544
 21
309.2717150526705
 72
     1
 10
410.2164299017544
 20
309.2717150526705
 11
409.8793990247513
 21
310.649046565514
 72
     1
 10
409.8793990247513
 20
310.649046565514
 11
409.482610569674
 21
312.0103660835709
 72
     1
 10
409.482610569674
 20
312.0103660835709
 11
409.0268198458987
 21
313.3530822577662
 72
     1
 10
409.0268198458987
 20
313.3530822577662
 11
408.5128944769735
 21
314.6746391515473
 72
     1
 10
408.5128944769735
 20
314.6746391515473
 11
407.9418127490478
 21
315.9725211062545
 72
     1
 10
407.9418127490478
 20
315.9725211062545
 11
407.314661748649
 21
317.2442575298203
 72
     1
 10
407.314661748649
 20
317.2442575298203
 11
406.632635293351
 21
318.4874275996817
 72
     1
 10
406.632635293351
 20
318.4874275996817
 11
405.8970316592756
 21
319.6996648709534
 72
     1
 10
405.8970316592756
 20
319.6996648709534
 11
405.1092511097491
 21
320.8786617810906
 72
     1
 10
405.1092511097491
 20
320.8786617810906
 11
404.2707932298221
 21
322.0221740424649
 72
     1
 10
404.2707932298221
 20
322.0221740424649
 11
403.3832540717237
 21
323.1280249144939
 72
     1
 10
403.3832540717237
 20
323.1280249144939
 11
402.448323116686
 21
324.1941093471903
 72
     1
 10
402.448323116686
 20
324.1941093471903
 11
401.4677800589199
 21
325.2183979882441
 72
     1
 10
401.4677800589199
 20
325.2183979882441
 11
400.4434914178661
 21
326.1989410460103
 72
     1
 10
400.4434914178661
 20
326.1989410460103
 11
399.3774069851697
 21
327.133872001048
 72
     1
 10
399.3774069851697
 20
327.133872001048
 11
398.2715561131407
 21
328.0214111591463
 72
     1
 10
398.2715561131407
 20
328.0214111591463
 11
397.1280438517663
 21
328.8598690390734
 72
     1
 10
397.1280438517663
 20
328.8598690390734
 11
395.9490469416291
 21
329.6476495885998
 72
     1
 10
395.9490469416291
 20
329.6476495885998
 11
394.7368096703574
 21
330.3832532226753
 72
     1
 10
394.7368096703574
 20
330.3832532226753
 11
393.4936396004961
 21
331.0652796779732
 72
     1
 10
393.4936396004961
 20
331.0652796779732
 11
392.2219031769303
 21
331.6924306783721
 72
     1
 10
392.2219031769303
 20
331.6924306783721
 11
390.9240212222231
 21
332.2635124062978
 72
     1
 10
390.9240212222231
 20
332.2635124062978
 11
389.602464328442
 21
332.7774377752229
 72
     1
 10
389.602464328442
 20
332.7774377752229
 11
388.2597481542467
 21
333.2332284989982
 72
     1
 10
388.2597481542467
 20
333.2332284989982
 11
386.8984286361898
 21
333.6300169540756
 72
     1
 10
386.8984286361898
 20
333.6300169540756
 11
385.5210971233463
 21
333.9670478310787
 72
     1
 10
385.5210971233463
 20
333.9670478310787
 11
384.1303754445333
 21
334.2436795725776
 72
     1
 10
384.1303754445333
 20
334.2436795725776
 11
382.7289109175098
 21
334.4593855943297
 72
     1
 10
382.7289109175098
 20
334.4593855943297
 11
381.3193713096571
 21
334.6137552876626
 72
     1
 10
381.3193713096571
 20
334.6137552876626
 11
379.9044397597317
 21
334.7064948010912
 72
     1
 10
379.9044397597317
 20
334.7064948010912
 11
378.4868096703584
 21
334.7374275996808
 72
     1
 10
378.4868096703575
 20
334.7374275996808
 11
378.4868096703575
 21
402.2374275996825
 72
     1
 10
378.4868096703575
 20
402.2374275996825
 11
628.4868096703575
 21
402.2374275996825
 72
     1
 10
628.4868096703575
 20
402.2374275996825
 11
628.4868096703575
 21
302.2374275996821
 72
     1
 10
628.4868096703575
 20
302.2374275996821
 11
410.9868096703566
 21
302.2374275996822
 97
        0
 92
        0
 93
       40
 72
     1
 10
378.486809670357
 20
334.7374275996813
 11
377.0691795809835
 21
334.7064948010917
 72
     1
 10
377.0691795809835
 20
334.7064948010917
 11
375.654248031058
 21
334.613755287663
 72
     1
 10
375.654248031058
 20
334.613755287663
 11
374.2447084232053
 21
334.4593855943301
 72
     1
 10
374.2447084232053
 20
334.4593855943301
 11
372.8432438961817
 21
334.243679572578
 72
     1
 10
372.8432438961817
 20
334.243679572578
 11
371.4525222173686
 21
333.9670478310791
 72
     1
 10
371.4525222173686
 20
333.9670478310791
 11
370.075190704525
 21
333.630016954076
 72
     1
 10
370.075190704525
 20
333.630016954076
 11
368.713871186468
 21
333.2332284989986
 72
     1
 10
368.713871186468
 20
333.2332284989986
 11
367.3711550122727
 21
332.7774377752233
 72
     1
 10
367.3711550122727
 20
332.7774377752233
 11
366.0495981184915
 21
332.2635124062981
 72
     1
 10
366.0495981184915
 20
332.2635124062981
 11
364.7517161637841
 21
331.6924306783724
 72
     1
 10
364.7517161637841
 20
331.6924306783724
 11
363.4799797402183
 21
331.0652796779735
 72
     1
 10
363.4799797402183
 20
331.0652796779735
 11
362.2368096703568
 21
330.3832532226755
 72
     1
 10
362.2368096703568
 20
330.3832532226755
 11
361.0245723990851
 21
329.6476495886
 72
     1
 10
361.0245723990851
 20
329.6476495886
 11
359.8455754889478
 21
328.8598690390735
 72
     1
 10
359.8455754889478
 20
328.8598690390735
 11
358.7020632275734
 21
328.0214111591464
 72
     1
 10
358.7020632275734
 20
328.0214111591464
 11
357.5962123555443
 21
327.133872001048
 72
     1
 10
357.5962123555443
 20
327.133872001048
 11
356.5301279228478
 21
326.1989410460102
 72
     1
 10
356.5301279228478
 20
326.1989410460102
 11
355.505839281794
 21
325.218397988244
 72
     1
 10
355.505839281794
 20
325.218397988244
 11
354.5252962240277
 21
324.1941093471902
 72
     1
 10
354.5252962240277
 20
324.1941093471902
 11
353.59036526899
 21
323.1280249144937
 72
     1
 10
353.59036526899
 20
323.1280249144937
 11
352.7028261108916
 21
322.0221740424646
 72
     1
 10
352.7028261108916
 20
322.0221740424646
 11
351.8643682309645
 21
320.8786617810902
 72
     1
 10
351.8643682309645
 20
320.8786617810902
 11
351.0765876814379
 21
319.699664870953
 72
     1
 10
351.0765876814379
 20
319.699664870953
 11
350.3409840473624
 21
318.4874275996812
 72
     1
 10
350.3409840473624
 20
318.4874275996812
 11
349.6589575920644
 21
317.2442575298198
 72
     1
 10
349.6589575920644
 20
317.2442575298198
 11
349.0318065916655
 21
315.9725211062539
 72
     1
 10
349.0318065916655
 20
315.9725211062539
 11
348.4607248637398
 21
314.6746391515466
 72
     1
 10
348.4607248637398
 20
314.6746391515466
 11
347.9467994948146
 21
313.3530822577654
 72
     1
 10
347.9467994948146
 20
313.3530822577654
 11
347.4910087710393
 21
312.01036608357
 72
     1
 10
347.4910087710393
 20
312.01036608357
 11
347.0942203159619
 21
310.649046565513
 72
     1
 10
347.0942203159619
 20
310.649046565513
 11
346.7571894389588
 21
309.2717150526694
 72
     1
 10
346.7571894389588
 20
309.2717150526694
 11
346.4805576974599
 21
307.8809933738563
 72
     1
 10
346.4805576974599
 20
307.8809933738563
 11
346.2648516757077
 21
306.4795288468327
 72
     1
 10
346.2648516757077
 20
306.4795288468327
 11
346.1104819823749
 21
305.0699892389799
 72
     1
 10
346.1104819823749
 20
305.0699892389799
 11
346.0177424689462
 21
303.6550576890544
 72
     1
 10
346.0177424689462
 20
303.6550576890544
 11
345.9868096703566
 21
302.237427599681
 72
     1
 10
345.9868096703566
 20
302.2374275996823
 11
128.4868096703575
 21
302.2374275996825
 72
     1
 10
128.4868096703575
 20
302.2374275996825
 11
128.4868096703574
 21
402.2374275996825
 72
     1
 10
128.4868096703574
 20
402.2374275996825
 11
378.4868096703576
 21
402.2374275996825
 72
     1
 10
378.4868096703576
 20
402.2374275996825
 11
378.4868096703575
 21
334.7374275996808
 97
        0
 92
        0
 93
       40
 72
     1
 10
128.4868096703574
 20
202.2374275996825
 11
378.4868096703575
 21
202.2374275996825
 72
     1
 10
378.4868096703575
 20
202.2374275996825
 11
378.4868096703575
 21
269.7374275996808
 72
     1
 10
378.4868096703568
 20
269.7374275996808
 11
377.0691795809834
 21
269.7683603982704
 72
     1
 10
377.0691795809834
 20
269.7683603982704
 11
375.6542480310579
 21
269.8610999116991
 72
     1
 10
375.6542480310579
 20
269.8610999116991
 11
374.2447084232051
 21
270.015469605032
 72
     1
 10
374.2447084232051
 20
270.015469605032
 11
372.8432438961815
 21
270.2311756267841
 72
     1
 10
372.8432438961815
 20
270.2311756267841
 11
371.4525222173684
 21
270.507807368283
 72
     1
 10
371.4525222173684
 20
270.507807368283
 11
370.0751907045249
 21
270.8448382452862
 72
     1
 10
370.0751907045249
 20
270.8448382452862
 11
368.7138711864679
 21
271.2416267003635
 72
     1
 10
368.7138711864679
 20
271.2416267003635
 11
367.3711550122725
 21
271.6974174241388
 72
     1
 10
367.3711550122725
 20
271.6974174241388
 11
366.0495981184914
 21
272.211342793064
 72
     1
 10
366.0495981184914
 20
272.211342793064
 11
364.7517161637841
 21
272.7824245209898
 72
     1
 10
364.7517161637841
 20
272.7824245209898
 11
363.4799797402182
 21
273.4095755213887
 72
     1
 10
363.4799797402182
 20
273.4095755213887
 11
362.2368096703568
 21
274.0916019766867
 72
     1
 10
362.2368096703568
 20
274.0916019766867
 11
361.024572399085
 21
274.8272056107621
 72
     1
 10
361.024572399085
 20
274.8272056107621
 11
359.8455754889478
 21
275.6149861602887
 72
     1
 10
359.8455754889478
 20
275.6149861602887
 11
358.7020632275734
 21
276.4534440402157
 72
     1
 10
358.7020632275734
 20
276.4534440402157
 11
357.5962123555443
 21
277.3409831983141
 72
     1
 10
357.5962123555443
 20
277.3409831983141
 11
356.5301279228478
 21
278.2759141533519
 72
     1
 10
356.5301279228478
 20
278.2759141533519
 11
355.505839281794
 21
279.2564572111181
 72
     1
 10
355.505839281794
 20
279.2564572111181
 11
354.5252962240278
 21
280.2807458521719
 72
     1
 10
354.5252962240278
 20
280.2807458521719
 11
353.59036526899
 21
281.3468302848684
 72
     1
 10
353.59036526899
 20
281.3468302848684
 11
352.7028261108917
 21
282.4526811568975
 72
     1
 10
352.7028261108917
 20
282.4526811568975
 11
351.8643682309646
 21
283.5961934182719
 72
     1
 10
351.8643682309646
 20
283.5961934182719
 11
351.076587681438
 21
284.7751903284092
 72
     1
 10
351.076587681438
 20
284.7751903284092
 11
350.3409840473626
 21
285.9874275996809
 72
     1
 10
350.3409840473626
 20
285.9874275996809
 11
349.6589575920646
 21
287.2305976695424
 72
     1
 10
349.6589575920646
 20
287.2305976695424
 11
349.0318065916657
 21
288.5023340931082
 72
     1
 10
349.0318065916657
 20
288.5023340931082
 11
348.46072486374
 21
289.8002160478155
 72
     1
 10
348.46072486374
 20
289.8002160478155
 11
347.9467994948148
 21
291.1217729415967
 72
     1
 10
347.9467994948148
 20
291.1217729415967
 11
347.4910087710394
 21
292.4644891157921
 72
     1
 10
347.4910087710394
 20
292.4644891157921
 11
347.0942203159621
 21
293.825808633849
 72
     1
 10
347.0942203159621
 20
293.825808633849
 11
346.757189438959
 21
295.2031401466926
 72
     1
 10
346.757189438959
 20
295.2031401466926
 11
346.4805576974601
 21
296.5938618255057
 72
     1
 10
346.4805576974601
 20
296.5938618255057
 11
346.264851675708
 21
297.9953263525293
 72
     1
 10
346.264851675708
 20
297.9953263525293
 11
346.1104819823751
 21
299.4048659603821
 72
     1
 10
346.1104819823751
 20
299.4048659603821
 11
346.0177424689465
 21
300.8197975103076
 72
     1
 10
346.0177424689465
 20
300.8197975103076
 11
345.9868096703569
 21
302.237427599681
 72
     1
 10
345.9868096703566
 20
302.2374275996823
 11
128.4868096703574
 21
302.2374275996825
 72
     1
 10
128.4868096703574
 20
302.2374275996825
 11
128.4868096703574
 21
202.2374275996825
 97
        0
 92
        0
 93
       40
 72
     1
 10
378.4868096703574
 20
202.2374275996825
 11
628.4868096703575
 21
202.2374275996825
 72
     1
 10
628.4868096703575
 20
202.2374275996825
 11
628.4868096703575
 21
302.2374275996821
 72
     1
 10
628.4868096703575
 20
302.2374275996821
 11
410.9868096703566
 21
302.2374275996808
 72
     1
 10
410.9868096703566
 20
302.2374275996805
 11
410.955876871767
 21
300.8197975103071
 72
     1
 10
410.955876871767
 20
300.8197975103071
 11
410.8631373583383
 21
299.4048659603816
 72
     1
 10
410.8631373583383
 20
299.4048659603816
 11
410.7087676650054
 21
297.9953263525288
 72
     1
 10
410.7087676650054
 20
297.9953263525288
 11
410.4930616432533
 21
296.5938618255052
 72
     1
 10
410.4930616432533
 20
296.5938618255052
 11
410.2164299017544
 21
295.2031401466921
 72
     1
 10
410.2164299017544
 20
295.2031401466921
 11
409.8793990247513
 21
293.8258086338485
 72
     1
 10
409.8793990247513
 20
293.8258086338485
 11
409.4826105696739
 21
292.4644891157916
 72
     1
 10
409.4826105696739
 20
292.4644891157916
 11
409.0268198458986
 21
291.1217729415962
 72
     1
 10
409.0268198458986
 20
291.1217729415962
 11
408.5128944769733
 21
289.800216047815
 72
     1
 10
408.5128944769733
 20
289.800216047815
 11
407.9418127490476
 21
288.5023340931077
 72
     1
 10
407.9418127490476
 20
288.5023340931077
 11
407.3146617486487
 21
287.2305976695418
 72
     1
 10
407.3146617486487
 20
287.2305976695418
 11
406.6326352933507
 21
285.9874275996804
 72
     1
 10
406.6326352933507
 20
285.9874275996804
 11
405.8970316592752
 21
284.7751903284087
 72
     1
 10
405.8970316592752
 20
284.7751903284087
 11
405.1092511097487
 21
283.5961934182714
 72
     1
 10
405.1092511097487
 20
283.5961934182714
 11
404.2707932298216
 21
282.452681156897
 72
     1
 10
404.2707932298216
 20
282.452681156897
 11
403.3832540717232
 21
281.3468302848679
 72
     1
 10
403.3832540717232
 20
281.3468302848679
 11
402.4483231166855
 21
280.2807458521714
 72
     1
 10
402.4483231166855
 20
280.2807458521714
 11
401.4677800589192
 21
279.2564572111176
 72
     1
 10
401.4677800589192
 20
279.2564572111176
 11
400.4434914178653
 21
278.2759141533514
 72
     1
 10
400.4434914178653
 20
278.2759141533514
 11
399.3774069851689
 21
277.3409831983136
 72
     1
 10
399.3774069851689
 20
277.3409831983136
 11
398.2715561131398
 21
276.4534440402153
 72
     1
 10
398.2715561131398
 20
276.4534440402153
 11
397.1280438517654
 21
275.6149861602882
 72
     1
 10
397.1280438517654
 20
275.6149861602882
 11
395.9490469416281
 21
274.8272056107616
 72
     1
 10
395.9490469416281
 20
274.8272056107616
 11
394.7368096703563
 21
274.0916019766861
 72
     1
 10
394.7368096703563
 20
274.0916019766861
 11
393.4936396004949
 21
273.4095755213882
 72
     1
 10
393.4936396004949
 20
273.4095755213882
 11
392.2219031769291
 21
272.7824245209893
 72
     1
 10
392.2219031769291
 20
272.7824245209893
 11
390.9240212222217
 21
272.2113427930636
 72
     1
 10
390.9240212222217
 20
272.2113427930636
 11
389.6024643284405
 21
271.6974174241384
 72
     1
 10
389.6024643284405
 20
271.6974174241384
 11
388.2597481542451
 21
271.241626700363
 72
     1
 10
388.2597481542451
 20
271.241626700363
 11
386.8984286361882
 21
270.8448382452857
 72
     1
 10
386.8984286361882
 20
270.8448382452857
 11
385.5210971233446
 21
270.5078073682826
 72
     1
 10
385.5210971233446
 20
270.5078073682826
 11
384.1303754445315
 21
270.2311756267837
 72
     1
 10
384.1303754445315
 20
270.2311756267837
 11
382.7289109175079
 21
270.0154696050316
 72
     1
 10
382.7289109175079
 20
270.0154696050316
 11
381.3193713096551
 21
269.8610999116987
 72
     1
 10
381.3193713096551
 20
269.8610999116987
 11
379.9044397597297
 21
269.7683603982701
 72
     1
 10
379.9044397597297
 20
269.7683603982701
 11
378.4868096703562
 21
269.7374275996805
 72
     1
 10
378.4868096703575
 20
269.7374275996808
 11
378.4868096703574
 21
202.2374275996825
 97
        0
 75
     0
 76
     2
 52
0.0
 41
0.5
 77
     0
 78
     2
 53
315.0
 43
-1235.547357271859
 44
-220.0487246799781
 45
6.735192090801775
 46
6.73519209080186
 79
     0
 53
45.0
 43
-1235.547357271859
 44
-220.0487246799781
 45
-6.735192090801775
 46
6.735192090801803
 79
     0
 98
        0
  0
DIMENSION
  5
18F
330
1F
100
AcDbEntity
  8
7
  6
CONTINUOUS
 62
     4
100
AcDbDimension
  2
DIM1
 10
128.4868096703573
 20
132.2374275996837
 30
0.0
 11
378.4868096703575
 21
132.2374275996837
 31
0.0
 70
   160
  1
<>
  3
STANDARD
100
AcDbAlignedDimension
 13
628.4868096703575
 23
202.2374275996825
 33
0.0
 14
128.4868096703574
 24
202.2374275996825
 34
0.0
 50
179.9999999999998
100
AcDbRotatedDimension
1001
ACAD
1000
DSTYLE
1002
{
1070
   287
1070
     4
1070
     7
1000

1070
     6
1000

1070
   279
1070
     1
1070
   340
1005
185
1070
   140
1040
6.0
1070
    40
1040
1.0
1070
   147
1040
0.0
1070
    76
1070
     0
1070
    75
1070
     0
1070
   173
1070
     1
1070
   289
1070
     2
1070
   288
1070
     1
1070
    77
1070
     1
1070
   172
1070
     1
1070
   174
1070
     0
1070
    74
1070
     0
1070
    73
1070
     0
1070
   284
1070
     8
1070
    78
1070
     8
1070
    42
1040
2.0
1070
    44
1040
3.0
1070
    43
1040
30.0
1070
   271
1070
     2
1070
    41
1040
4.0
1002
}
  0
DIMENSION
  5
199
330
1F
100
AcDbEntity
  8
7
  6
CONTINUOUS
 62
     4
100
AcDbDimension
  2
DIM2
 10
113.4868096703555
 20
116.2374275996837
 30
0.0
 11
378.4868096703557
 21
116.2374275996837
 31
0.0
 70
   160
  1
<>
  3
STANDARD
100
AcDbAlignedDimension
 13
643.4868096703575
 23
187.2374275996825
 33
0.0
 14
113.4868096703556
 24
187.2374275996825
 34
0.0
 50
179.9999999999998
100
AcDbRotatedDimension
1001
ACAD
1000
DSTYLE
1002
{
1070
   287
1070
     4
1070
     7
1000

1070
     6
1000

1070
   279
1070
     1
1070
   340
1005
185
1070
   140
1040
6.0
1070
    40
1040
1.0
1070
   147
1040
0.0
1070
    76
1070
     0
1070
    75
1070
     0
1070
   173
1070
     1
1070
   289
1070
     2
1070
   288
1070
     1
1070
    77
1070
     1
1070
   172
1070
     1
1070
   174
1070
     0
1070
    74
1070
     0
1070
    73
1070
     0
1070
   284
1070
     8
1070
    78
1070
     8
1070
    42
1040
2.0
1070
    44
1040
3.0
1070
    43
1040
30.0
1070
   271
1070
     2
1070
    41
1040
4.0
1002
}
  0
DIMENSION
  5
1A3
330
1F
100
AcDbEntity
  8
7
  6
CONTINUOUS
 62
     4
100
AcDbDimension
  2
DIM3
 10
643.4868096703574
 20
116.2374275996837
 30
0.0
 11
660.9868096703575
 21
116.2374275996837
 31
0.0
 70
   160
  1
<>
  3
STANDARD
100
AcDbAlignedDimension
 13
678.4868096703575
 23
279.2374275996839
 33
0.0
 14
643.4868096703575
 24
187.2374275996825
 34
0.0
 50
179.9999999999998
100
AcDbRotatedDimension
1001
ACAD
1000
DSTYLE
1002
{
1070
   287
1070
     4
1070
     7
1000

1070
     6
1000

1070
   279
1070
     1
1070
   340
1005
185
1070
   140
1040
6.0
1070
    40
1040
1.0
1070
   147
1040
0.0
1070
    76
1070
     0
1070
    75
1070
     0
1070
   173
1070
     1
1070
   289
1070
     2
1070
   288
1070
     1
1070
    77
1070
     1
1070
   172
1070
     1
1070
   174
1070
     0
1070
    74
1070
     0
1070
    73
1070
     0
1070
   284
1070
     8
1070
    78
1070
     8
1070
    42
1040
2.0
1070
    44
1040
3.0
1070
    43
1040
30.0
1070
   271
1070
     2
1070
    41
1040
4.0
1002
}
  0
DIMENSION
  5
1AD
330
1F
100
AcDbEntity
  8
7
  6
CONTINUOUS
 62
     4
100
AcDbDimension
  2
DIM4
 10
603.4868096703575
 20
148.2374275996837
 30
0.0
 11
547.2368096703574
 21
148.2374275996837
 31
0.0
 70
   160
  1
<>
  3
STANDARD
100
AcDbAlignedDimension
 13
490.9868096703575
 23
171.137427599683
 33
0.0
 14
603.4868096703575
 24
171.137427599683
 34
0.0
100
AcDbRotatedDimension
1001
ACAD
1000
DSTYLE
1002
{
1070
   287
1070
     4
1070
     7
1000

1070
     6
1000

1070
   279
1070
     1
1070
   340
1005
185
1070
   140
1040
6.0
1070
    40
1040
1.0
1070
   147
1040
0.0
1070
    76
1070
     0
1070
    75
1070
     0
1070
   173
1070
     1
1070
   289
1070
     2
1070
   288
1070
     1
1070
    77
1070
     1
1070
   172
1070
     1
1070
   174
1070
     0
1070
    74
1070
     0
1070
    73
1070
     0
1070
   284
1070
     8
1070
    78
1070
     8
1070
    42
1040
2.0
1070
    44
1040
3.0
1070
    43
1040
30.0
1070
   271
1070
     2
1070
    41
1040
4.0
1002
}
  0
DIMENSION
  5
1B7
330
1F
100
AcDbEntity
  8
7
  6
CONTINUOUS
 62
     4
100
AcDbDimension
  2
DIM5
 10
153.4868096703574
 20
148.2374275996837
 30
0.0
 11
209.7368096703575
 21
148.2374275996837
 31
0.0
 70
   160
  1
<>
  3
STANDARD
100
AcDbAlignedDimension
 13
265.9868096703575
 23
171.137427599683
 33
0.0
 14
153.4868096703574
 24
171.137427599683
 34
0.0
 50
179.9999999999998
100
AcDbRotatedDimension
1001
ACAD
1000
DSTYLE
1002
{
1070
   287
1070
     4
1070
     7
1000

1070
     6
1000

1070
   279
1070
     1
1070
   340
1005
185
1070
   140
1040
6.0
1070
    40
1040
1.0
1070
   147
1040
0.0
1070
    76
1070
     0
1070
    75
1070
     0
1070
   173
1070
     1
1070
   289
1070
     2
1070
   288
1070
     1
1070
    77
1070
     1
1070
   172
1070
     1
1070
   174
1070
     0
1070
    74
1070
     0
1070
    73
1070
     0
1070
   284
1070
     8
1070
    78
1070
     8
1070
    42
1040
2.0
1070
    44
1040
3.0
1070
    43
1040
30.0
1070
   271
1070
     2
1070
    41
1040
4.0
1002
}
  0
DIMENSION
  5
1C1
330
1F
100
AcDbEntity
  8
7
  6
CONTINUOUS
 62
     4
100
AcDbDimension
  2
DIM6
 10
777.9562465960619
 20
116.2374275996837
 30
0.0
 11
755.456246596062
 21
116.2374275996837
 31
0.0
 70
   160
  1
<>
  3
STANDARD
100
AcDbAlignedDimension
 13
732.956246596062
 23
187.2374275996843
 33
0.0
 14
777.956246596062
 24
172.2374275996843
 34
0.0
100
AcDbRotatedDimension
1001
ACAD
1000
DSTYLE
1002
{
1070
   287
1070
     4
1070
     7
1000

1070
     6
1000

1070
   279
1070
     1
1070
   340
1005
185
1070
   140
1040
6.0
1070
    40
1040
1.0
1070
   147
1040
0.0
1070
    76
1070
     0
1070
    75
1070
     0
1070
   173
1070
     1
1070
   289
1070
     2
1070
   288
1070
     1
1070
    77
1070
     1
1070
   172
1070
     1
1070
   174
1070
     0
1070
    74
1070
     0
1070
    73
1070
     0
1070
   284
1070
     8
1070
    78
1070
     8
1070
    42
1040
2.0
1070
    44
1040
3.0
1070
    43
1040
30.0
1070
   271
1070
     2
1070
    41
1040
4.0
1002
}
  0
DIMENSION
  5
1CB
330
1F
100
AcDbEntity
  8
7
  6
CONTINUOUS
 62
     4
100
AcDbDimension
  2
DIM7
 10
777.956246596062
 20
148.2374275996837
 30
0.0
 11
788.9562465960619
 21
148.2374275996837
 31
0.0
 70
   160
  1
<>
  3
STANDARD
100
AcDbAlignedDimension
 13
776.956246596062
 23
172.2374275996843
 33
0.0
 14
777.956246596062
 24
172.2374275996843
 34
0.0
100
AcDbRotatedDimension
1001
ACAD
1000
DSTYLE
1002
{
1070
   287
1070
     4
1070
     7
1000

1070
     6
1000

1070
   279
1070
     1
1070
   340
1005
185
1070
   140
1040
6.0
1070
    40
1040
1.0
1070
   147
1040
0.0
1070
    76
1070
     0
1070
    75
1070
     0
1070
   173
1070
     1
1070
   289
1070
     2
1070
   288
1070
     1
1070
    77
1070
     1
1070
   172
1070
     1
1070
   174
1070
     0
1070
    74
1070
     0
1070
    73
1070
     0
1070
   284
1070
     8
1070
    78
1070
     8
1070
    42
1040
2.0
1070
    44
1040
3.0
1070
    43
1040
30.0
1070
   271
1070
     2
1070
    41
1040
4.0
1002
}
  0
DIMENSION
  5
1D5
330
1F
100
AcDbEntity
  8
7
  6
CONTINUOUS
 62
     4
100
AcDbDimension
  2
DIM8
 10
744.4562465960618
 20
132.2374275996837
 30
0.0
 11
761.2062465960619
 21
132.2374275996837
 31
0.0
 70
   160
  1
<>
  3
STANDARD
100
AcDbAlignedDimension
 13
777.956246596062
 23
172.2374275996843
 33
0.0
 14
744.456246596062
 24
279.2374275996843
 34
0.0
 50
179.9999999999998
100
AcDbRotatedDimension
1001
ACAD
1000
DSTYLE
1002
{
1070
   287
1070
     4
1070
     7
1000

1070
     6
1000

1070
   279
1070
     1
1070
   340
1005
185
1070
   140
1040
6.0
1070
    40
1040
1.0
1070
   147
1040
0.0
1070
    76
1070
     0
1070
    75
1070
     0
1070
   173
1070
     1
1070
   289
1070
     2
1070
   288
1070
     1
1070
    77
1070
     1
1070
   172
1070
     1
1070
   174
1070
     0
1070
    74
1070
     0
1070
    73
1070
     0
1070
   284
1070
     8
1070
    78
1070
     8
1070
    42
1040
2.0
1070
    44
1040
3.0
1070
    43
1040
30.0
1070
   271
1070
     2
1070
    41
1040
4.0
1002
}
  0
DIMENSION
  5
1DF
330
1F
100
AcDbEntity
  8
7
  6
CONTINUOUS
 62
     4
100
AcDbDimension
  2
DIM9
 10
378.4868096703575
 20
148.2374275996837
 30
0.0
 11
322.2368096703575
 21
148.2374275996837
 31
0.0
 70
   160
  1
<>
  3
STANDARD
100
AcDbAlignedDimension
 13
265.9868096703575
 23
171.137427599683
 33
0.0
 14
378.4868096703575
 24
162.2374275996837
 34
0.0
100
AcDbRotatedDimension
1001
ACAD
1000
DSTYLE
1002
{
1070
   287
1070
     4
1070
     7
1000

1070
     6
1000

1070
   279
1070
     1
1070
   340
1005
185
1070
   140
1040
6.0
1070
    40
1040
1.0
1070
   147
1040
0.0
1070
    76
1070
     0
1070
    75
1070
     0
1070
   173
1070
     1
1070
   289
1070
     2
1070
   288
1070
     1
1070
    77
1070
     1
1070
   172
1070
     1
1070
   174
1070
     0
1070
    74
1070
     0
1070
    73
1070
     0
1070
   284
1070
     8
1070
    78
1070
     8
1070
    42
1040
2.0
1070
    44
1040
3.0
1070
    43
1040
30.0
1070
   271
1070
     2
1070
    41
1040
4.0
1002
}
  0
DIMENSION
  5
1E9
330
1F
100
AcDbEntity
  8
7
  6
CONTINUOUS
 62
     4
100
AcDbDimension
  2
DIM10
 10
97.48680967035563
 20
202.2374275996855
 30
0.0
 11
97.48680967035547
 21
302.2374275996825
 31
0.0
 70
   160
  1
<>
 53
89.99999999999991
  3
STANDARD
100
AcDbAlignedDimension
 13
128.4868096703474
 23
402.2374275996855
 33
0.0
 14
128.4868096703493
 24
202.2374275996855
 34
0.0
 50
-89.99999999999991
100
AcDbRotatedDimension
1001
ACAD
1000
DSTYLE
1002
{
1070
   287
1070
     4
1070
     7
1000

1070
     6
1000

1070
   279
1070
     1
1070
   340
1005
185
1070
   140
1040
6.0
1070
    40
1040
1.0
1070
   147
1040
0.0
1070
    76
1070
     0
1070
    75
1070
     0
1070
   173
1070
     1
1070
   289
1070
     2
1070
   288
1070
     1
1070
    77
1070
     1
1070
   172
1070
     1
1070
   174
1070
     0
1070
    74
1070
     0
1070
    73
1070
     0
1070
   284
1070
     8
1070
    78
1070
     8
1070
    42
1040
2.0
1070
    44
1040
3.0
1070
    43
1040
30.0
1070
   271
1070
     2
1070
    41
1040
4.0
1002
}
  0
DIMENSION
  5
1F3
330
1F
100
AcDbEntity
  8
7
  6
CONTINUOUS
 62
     4
100
AcDbDimension
  2
DIM11
 10
81.48680967035573
 20
187.2374275996855
 30
0.0
 11
81.48680967035554
 21
302.2374275996855
 31
0.0
 70
   160
  1
<>
 53
89.99999999999991
  3
STANDARD
100
AcDbAlignedDimension
 13
113.4868096703465
 23
417.2374275996855
 33
0.0
 14
113.4868096703484
 24
187.2374275996855
 34
0.0
 50
-89.99999999999991
100
AcDbRotatedDimension
1001
ACAD
1000
DSTYLE
1002
{
1070
   287
1070
     4
1070
     7
1000

1070
     6
1000

1070
   279
1070
     1
1070
   340
1005
185
1070
   140
1040
6.0
1070
    40
1040
1.0
1070
   147
1040
0.0
1070
    76
1070
     0
1070
    75
1070
     0
1070
   173
1070
     1
1070
   289
1070
     2
1070
   288
1070
     1
1070
    77
1070
     1
1070
   172
1070
     1
1070
   174
1070
     0
1070
    74
1070
     0
1070
    73
1070
     0
1070
   284
1070
     8
1070
    78
1070
     8
1070
    42
1040
2.0
1070
    44
1040
3.0
1070
    43
1040
30.0
1070
   271
1070
     2
1070
    41
1040
4.0
1002
}
  0
DIMENSION
  5
1FD
330
1F
100
AcDbEntity
  8
7
  6
CONTINUOUS
 62
     4
100
AcDbDimension
  2
DIM12
 10
49.48680967035585
 20
172.237427599683
 30
0.0
 11
49.48680967035564
 21
302.2374275996855
 31
0.0
 70
   160
  1
<>
 53
89.99999999999991
  3
STANDARD
100
AcDbAlignedDimension
 13
133.4868096703556
 23
432.2374275996849
 33
0.0
 14
133.4868096703574
 24
172.237427599683
 34
0.0
 50
-89.99999999999991
100
AcDbRotatedDimension
1001
ACAD
1000
DSTYLE
1002
{
1070
   287
1070
     4
1070
     7
1000

1070
     6
1000

1070
   279
1070
     1
1070
   340
1005
185
1070
   140
1040
6.0
1070
    40
1040
1.0
1070
   147
1040
0.0
1070
    76
1070
     0
1070
    75
1070
     0
1070
   173
1070
     1
1070
   289
1070
     2
1070
   288
1070
     1
1070
    77
1070
     1
1070
   172
1070
     1
1070
   174
1070
     0
1070
    74
1070
     0
1070
    73
1070
     0
1070
   284
1070
     8
1070
    78
1070
     8
1070
    42
1040
2.0
1070
    44
1040
3.0
1070
    43
1040
30.0
1070
   271
1070
     2
1070
    41
1040
4.0
1002
}
  0
DIMENSION
  5
207
330
1F
100
AcDbEntity
  8
7
  6
CONTINUOUS
 62
     4
100
AcDbDimension
  2
DIM13
 10
490.9868096703574
 20
148.2374275996837
 30
0.0
 11
434.7368096703574
 21
148.2374275996837
 31
0.0
 70
   160
  1
<>
  3
STANDARD
100
AcDbAlignedDimension
 13
378.4868096703575
 23
162.2374275996837
 33
0.0
 14
490.9868096703575
 24
171.137427599683
 34
0.0
100
AcDbRotatedDimension
1001
ACAD
1000
DSTYLE
1002
{
1070
   287
1070
     4
1070
     7
1000

1070
     6
1000

1070
   279
1070
     1
1070
   340
1005
185
1070
   140
1040
6.0
1070
    40
1040
1.0
1070
   147
1040
0.0
1070
    76
1070
     0
1070
    75
1070
     0
1070
   173
1070
     1
1070
   289
1070
     2
1070
   288
1070
     1
1070
    77
1070
     1
1070
   172
1070
     1
1070
   174
1070
     0
1070
    74
1070
     0
1070
    73
1070
     0
1070
   284
1070
     8
1070
    78
1070
     8
1070
    42
1040
2.0
1070
    44
1040
3.0
1070
    43
1040
30.0
1070
   271
1070
     2
1070
    41
1040
4.0
1002
}
  0
DIMENSION
  5
211
330
1F
100
AcDbEntity
  8
7
  6
CONTINUOUS
 62
     4
100
AcDbDimension
  2
DIM14
 10
65.4868096703558
 20
179.2374275996833
 30
0.0
 11
65.4868096703558
 21
302.2374275996825
 31
0.0
 70
   160
  1
<>
 53
89.99999999999991
  3
STANDARD
100
AcDbAlignedDimension
 13
145.3868096703574
 23
425.2374275996821
 33
0.0
 14
145.3868096703574
 24
179.237427599683
 34
0.0
 50
-89.99999999999991
100
AcDbRotatedDimension
1001
ACAD
1000
DSTYLE
1002
{
1070
   287
1070
     4
1070
     7
1000

1070
     6
1000

1070
   279
1070
     1
1070
   340
1005
185
1070
   140
1040
6.0
1070
    40
1040
1.0
1070
   147
1040
0.0
1070
    76
1070
     0
1070
    75
1070
     0
1070
   173
1070
     1
1070
   289
1070
     2
1070
   288
1070
     1
1070
    77
1070
     1
1070
   172
1070
     1
1070
   174
1070
     0
1070
    74
1070
     0
1070
    73
1070
     0
1070
   284
1070
     8
1070
    78
1070
     8
1070
    42
1040
2.0
1070
    44
1040
3.0
1070
    43
1040
30.0
1070
   271
1070
     2
1070
    41
1040
4.0
1002
}
  0
DIMENSION
  5
219
330
1F
100
AcDbEntity
  8
7
  6
CONTINUOUS
 62
     4
100
AcDbDimension
  2
DIM15
 10
389.2316272834989
 20
271.5649824010944
 30
0.0
 11
331.7129943136864
 21
442.56482472664
 31
0.0
 70
   163
  1
\U+2205<>
  3
STANDARD
100
AcDbDiametricDimension
 15
367.7419920572149
 25
332.9098727982678
 35
0.0
 40
0.0
1001
ACAD
1000
DSTYLE
1002
{
1070
   287
1070
     2
1070
     7
1000

1070
     6
1000

1070
   340
1005
185
1070
   140
1040
4.5
1070
    40
1040
1.0
1070
   147
1040
0.0
1070
    76
1070
     0
1070
    75
1070
     0
1070
   173
1070
     1
1070
   289
1070
     2
1070
   288
1070
     1
1070
    77
1070
     1
1070
   172
1070
     1
1070
   174
1070
     0
1070
    74
1070
     0
1070
    73
1070
     0
1070
   284
1070
     8
1070
    78
1070
     8
1070
    42
1040
1.5
1070
    44
1040
2.25
1070
    43
1040
30.0
1070
   271
1070
     2
1070
    41
1040
3.0
1002
}
  0
DIMENSION
  5
221
330
1F
100
AcDbEntity
  8
7
  6
CONTINUOUS
 62
     4
100
AcDbDimension
  2
DIM16
 10
392.4214357610579
 20
278.5292814108215
 30
0.0
 11
297.8622733715797
 21
443.8510798165369
 31
0.0
 70
   163
  1
\U+2205<>
  3
STANDARD
100
AcDbDiametricDimension
 15
364.5521835796577
 25
325.945573788541
 35
0.0
 40
0.0
1001
ACAD
1000
DSTYLE
1002
{
1070
   287
1070
     2
1070
     7
1000

1070
     6
1000

1070
   340
1005
185
1070
   140
1040
4.5
1070
    40
1040
1.0
1070
   147
1040
0.0
1070
    76
1070
     0
1070
    75
1070
     0
1070
   173
1070
     1
1070
   289
1070
     2
1070
   288
1070
     1
1070
    77
1070
     1
1070
   172
1070
     1
1070
   174
1070
     0
1070
    74
1070
     0
1070
    73
1070
     0
1070
   284
1070
     8
1070
    78
1070
     8
1070
    42
1040
1.5
1070
    44
1040
2.25
1070
    43
1040
30.0
1070
   271
1070
     2
1070
    41
1040
3.0
1002
}
  0
INSERT
  5
222
330
1F
100
AcDbEntity
  8
7
  6
CONTINUOUS
 62
     4
100
AcDbBlockReference
  2
_OPEN
 10
155.0368096703575
 20
427.9221063514138
 30
0.0
 41
8.0
 42
8.0
 43
8.0
 50
239.9999999999998
  0
POLYLINE
  5
223
330
1F
100
AcDbEntity
  8
7
  6
CONTINUOUS
 62
     4
100
AcDb2dPolyline
 66
     1
 10
0.0
 20
0.0
 30
0.0
  0
VERTEX
  5
224
330
223
100
AcDbEntity
  8
7
  6
CONTINUOUS
 62
     4
100
AcDbVertex
100
AcDb2dVertex
 10
155.0368096703575
 20
427.9221063514138
 30
0.0
  0
VERTEX
  5
225
330
223
100
AcDbEntity
  8
7
  6
CONTINUOUS
 62
     4
100
AcDbVertex
100
AcDb2dVertex
 10
168.5368096703575
 20
451.3047922535936
 30
0.0
  0
VERTEX
  5
226
330
223
100
AcDbEntity
  8
7
  6
CONTINUOUS
 62
     4
100
AcDbVertex
100
AcDb2dVertex
 10
194.2568096703575
 20
451.3047922535936
 30
0.0
  0
SEQEND
  5
227
330
223
100
AcDbEntity
  8
7
  6
CONTINUOUS
 62
     4
  0
MTEXT
  5
228
330
1F
100
AcDbEntity
  8
7
  6
CONTINUOUS
 62
     4
100
AcDbMText
 10
173.2568096703575
 20
451.3047922535936
 30
0.0
 40
6.0
 41
29.678826795
 71
     7
 72
     1
  1
{\fＭＳ ゴシック;\T0.777375;10-\U+00D86.2}
1001
ACAD
1000
ACAD_MTEXT_DEFINED_HEIGHT_BEGIN
1070
    46
1040
6.0
1000
ACAD_MTEXT_DEFINED_HEIGHT_END
  0
VIEWPORT
  5
3F
330
1B
100
AcDbEntity
 67
     1
  8
0
100
AcDbViewport
 10
420.0
 20
297.0
 30
0.0
 40
840.0
 41
594.0
 68
     1
 69
     1
1001
ACAD
1000
MVIEW
1002
{
1070
    16
1010
0.0
1020
0.0
1030
0.0
1010
0.0
1020
0.0
1030
1.0
1040
0.0
1040
9.0
1040
420.0
1040
297.0
1040
50.0
1040
0.0
1040
0.0
1070
     0
1070
   100
1070
     0
1070
     3
1070
     0
1070
     0
1070
     0
1070
     0
1040
0.0
1040
0.0
1040
0.0
1040
0.5
1040
0.5
1040
0.5
1040
0.5
1070
     0
1002
{
1002
}
1002
}
  0
ENDSEC
  0
SECTION
  2
OBJECTS
  0
DICTIONARY
  5
C
330
0
100
AcDbDictionary
  3
ACAD_GROUP
350
D
  3
ACAD_LAYOUT
350
1A
  3
ACAD_MATERIAL
350
3B
  3
ACAD_MLEADERSTYLE
350
24B
  3
ACAD_MLINESTYLE
350
17
  3
ACAD_PLOTSETTINGS
350
19
  3
ACAD_VISUALSTYLE
350
2A
  3
ACDBHEADERROUNDTRIPXREC
350
229
  3
ACDBVARIABLEDICTIONARY
350
249
  0
DICTIONARY
  5
D
102
{ACAD_REACTORS
330
C
102
}
330
C
100
AcDbDictionary
  0
DICTIONARY
  5
1A
102
{ACAD_REACTORS
330
C
102
}
330
C
100
AcDbDictionary
  0
DICTIONARY
  5
3B
102
{ACAD_REACTORS
330
C
102
}
330
C
100
AcDbDictionary
  3
BYBLOCK
350
3D
  3
BYLAYER
350
3C
  3
GLOBAL
350
3E
  0
DICTIONARY
  5
24B
102
{ACAD_REACTORS
330
C
102
}
330
C
100
AcDbDictionary
  0
DICTIONARY
  5
17
102
{ACAD_REACTORS
330
C
102
}
330
C
100
AcDbDictionary
  3
STANDARD
350
18
  0
DICTIONARY
  5
19
102
{ACAD_REACTORS
330
C
102
}
330
C
100
AcDbDictionary
  0
DICTIONARY
  5
2A
102
{ACAD_REACTORS
330
C
102
}
330
C
100
AcDbDictionary
  3
2DWIREFRAME
350
2F
  3
3D_HIDDEN
350
31
  3
3DWIREFRAME
350
30
  3
BASIC
350
32
  3
BRIGHTEN
350
36
  3
COLORCHANGE
350
3A
  3
CONCEPTUAL
350
34
  3
DIM
350
35
  3
FACEPATTERN
350
39
  3
FLAT
350
2B
  3
FLATWITHEDGES
350
2C
  3
GOURAUD
350
2D
  3
GOURAUDWITHEDGES
350
2E
  3
LINEPATTERN
350
38
  3
REALISTIC
350
33
  3
THICKEN
350
37
  0
DICTIONARY
  5
229
102
{ACAD_REACTORS
330
C
102
}
330
C
100
AcDbDictionary
  3
CEPSNTYPE
350
232
  3
DIMSTYLEDATA
350
248
  3
FINGERPRINTGUID
350
233
  3
HYPERLINKBASE
350
22C
  3
INSUNITS
350
231
  3
LAYOUTDICT
350
22E
  3
LWETCUNION
350
230
  3
PLOTSETDICT
350
22F
  3
PSVPSCALE
350
235
  3
PUCSBASE
350
238
  3
PUCSORGBACK
350
23E
  3
PUCSORGBOTTOM
350
23A
  3
PUCSORGFRONT
350
23D
  3
PUCSORGLEFT
350
23B
  3
PUCSORGRIGHT
350
23C
  3
PUCSORGTOP
350
239
  3
PUCSORTHOREF
350
236
  3
PUCSORTHOVIEW
350
237
  3
STYLESHEET
350
22D
  3
TSTACKALIGN
350
22A
  3
TSTACKSIZE
350
22B
  3
UCSBASE
350
241
  3
UCSORGBACK
350
247
  3
UCSORGBOTTOM
350
243
  3
UCSORGFRONT
350
246
  3
UCSORGLEFT
350
244
  3
UCSORGRIGHT
350
245
  3
UCSORGTOP
350
242
  3
UCSORTHOREF
350
23F
  3
UCSORTHOVIEW
350
240
  3
VERSIONGUID
350
234
  0
DICTIONARY
  5
249
102
{ACAD_REACTORS
330
C
102
}
330
C
100
AcDbDictionary
  3
DIMASSOC
350
24C
  3
HIDETEXT
350
24D
  0
MATERIAL
  5
3D
102
{ACAD_REACTORS
330
3B
102
}
102
{ACAD_XDICTIONARY
360
250
102
}
330
3B
100
AcDbMaterial
  1
ByBlock
  0
MATERIAL
  5
3C
102
{ACAD_REACTORS
330
3B
102
}
102
{ACAD_XDICTIONARY
360
24E
102
}
330
3B
100
AcDbMaterial
  1
ByLayer
  0
MATERIAL
  5
3E
102
{ACAD_REACTORS
330
3B
102
}
102
{ACAD_XDICTIONARY
360
252
102
}
330
3B
100
AcDbMaterial
  1
Global
  0
MLINESTYLE
  5
18
102
{ACAD_REACTORS
330
17
102
}
330
17
100
AcDbMlineStyle
  2
Standard
 70
     0
  3

 62
   256
 51
90.0
 52
90.0
 71
     2
 49
0.5
 62
   256
  6
BYLAYER
 49
-0.5
 62
   256
  6
BYLAYER
  0
ACAD_PROXY_OBJECT
  5
2F
102
{ACAD_REACTORS
330
2A
102
}
330
2A
100
AcDbProxyObject
 90
      499
 91
      501
 93
      436
310
42CC9915DA5C99599C985B595049028333333333333E3BF0000000000000FB0107901411070040501600405405064090741402480A0340
1001
ACAD
1000
AcDbSavedByObjectVersion
1070
     0
  0
ACAD_PROXY_OBJECT
  5
31
102
{ACAD_REACTORS
330
2A
102
}
330
2A
100
AcDbProxyObject
 90
      499
 91
      501
 93
      500
310
424CD108121A5919195B90640502408333333333333E3BF0000000000000FB01079024090700405020000000000001110200405405064090740C02480A0340
1001
ACAD
1000
AcDbSavedByObjectVersion
1070
     0
  0
ACAD_PROXY_OBJECT
  5
30
102
{ACAD_REACTORS
330
2A
102
}
330
2A
100
AcDbProxyObject
 90
      499
 91
      501
 93
      436
310
42CCD915DA5C99599C985B595059028333333333333E3BF0000000000000FB0107901411070040501600405405064090741402480A0340
1001
ACAD
1000
AcDbSavedByObjectVersion
1070
     0
  0
ACAD_PROXY_OBJECT
  5
32
102
{ACAD_REACTORS
330
2A
102
}
330
2A
100
AcDbProxyObject
 90
      499
 91
      501
 93
      388
310
4150985CDA58D07406404333333333333E3BF0000000000000FB0107A41107004050150841D405064090741402480A0350
1001
ACAD
1000
AcDbSavedByObjectVersion
1070
     0
  0
ACAD_PROXY_OBJECT
  5
36
102
{ACAD_REACTORS
330
2A
102
}
330
2A
100
AcDbProxyObject
 90
      499
 91
      501
 93
      428
310
42109C9A59DA1D195B90C409028333333333333E3BF0000000000000FB010790141107004050150841D405064090741402480A029950
1001
ACAD
1000
AcDbSavedByObjectVersion
1070
     0
  0
ACAD_PROXY_OBJECT
  5
3A
102
{ACAD_REACTORS
330
2A
102
}
330
2A
100
AcDbProxyObject
 90
      499
 91
      501
 93
      452
310
42D0DBDB1BDC90DA185B99D95104090240C333333333333E3BF0000000000000FB0108901411070040501508421405064090741402480A0350
1001
ACAD
1000
AcDbSavedByObjectVersion
1070
     0
  0
ACAD_PROXY_OBJECT
  5
34
102
{ACAD_REACTORS
330
2A
102
}
330
2A
100
AcDbProxyObject
 90
      499
 91
      501
 93
      500
310
4290DBDB98D95C1D1D585B10940D028333333333333E3BF0000000000000FB0107902409070040501000000000000111010841D405064090740C02480A0340
1001
ACAD
1000
AcDbSavedByObjectVersion
1070
     0
  0
ACAD_PROXY_OBJECT
  5
35
102
{ACAD_REACTORS
330
2A
102
}
330
2A
100
AcDbProxyObject
 90
      499
 91
      501
 93
      412
310
40D11A5B50B409028333333333333E3BF0000000000000FB010790141107004050150841D405064090741402480A02677FFFFFD0
1001
ACAD
1000
AcDbSavedByObjectVersion
1070
     0
  0
ACAD_PROXY_OBJECT
  5
39
102
{ACAD_REACTORS
330
2A
102
}
330
2A
100
AcDbProxyObject
 90
      499
 91
      501
 93
      444
310
42D19858D95C185D1D195C9B90F409028333333333333E3BF0000000000000FB010790141107004050150841D405064090741402480A0350
1001
ACAD
1000
AcDbSavedByObjectVersion
1070
     0
  0
ACAD_PROXY_OBJECT
  5
2B
102
{ACAD_REACTORS
330
2A
102
}
330
2A
100
AcDbProxyObject
 90
      499
 91
      501
 93
      388
310
41119B185D240901404333333333333E3BF0000000000000F9010740A41107004050150841D405064090741402480A1B50
1001
ACAD
1000
AcDbSavedByObjectVersion
1070
     0
  0
ACAD_PROXY_OBJECT
  5
2C
102
{ACAD_REACTORS
330
2A
102
}
330
2A
100
AcDbProxyObject
 90
      499
 91
      501
 93
      476
310
43519B185D15DA5D1A115919D95CD0140901404333333333333E3BF0000000000000F9010740901411070040501600405405064090741402480A1B50
1001
ACAD
1000
AcDbSavedByObjectVersion
1070
     0
  0
ACAD_PROXY_OBJECT
  5
2D
102
{ACAD_REACTORS
330
2A
102
}
330
2A
100
AcDbProxyObject
 90
      499
 91
      501
 93
      412
310
41D1DBDD5C985D5910240902404333333333333E3BF0000000000000F9010740A411070040501641D405064090741402480A1B50
1001
ACAD
1000
AcDbSavedByObjectVersion
1070
     0
  0
ACAD_PROXY_OBJECT
  5
2E
102
{ACAD_REACTORS
330
2A
102
}
330
2A
100
AcDbProxyObject
 90
      499
 91
      501
 93
      500
310
4411DBDD5C985D5915DA5D1A115919D95CD0340902404333333333333E3BF0000000000000F9010740901411070040501600405405064090741402480A1B50
1001
ACAD
1000
AcDbSavedByObjectVersion
1070
     0
  0
ACAD_PROXY_OBJECT
  5
38
102
{ACAD_REACTORS
330
2A
102
}
330
2A
100
AcDbProxyObject
 90
      499
 91
      501
 93
      444
310
42D31A5B995C185D1D195C9B90E409028333333333333E3BF0000000000000FB010790141107004050750841D405064090741402483A0350
1001
ACAD
1000
AcDbSavedByObjectVersion
1070
     0
  0
ACAD_PROXY_OBJECT
  5
33
102
{ACAD_REACTORS
330
2A
102
}
330
2A
100
AcDbProxyObject
 90
      499
 91
      501
 93
      420
310
425499585B1A5CDD1A58D08409028333333333333E3BF0000000000000FB01079019070040501508421405064090741402480A1B40
1001
ACAD
1000
AcDbSavedByObjectVersion
1070
     0
  0
ACAD_PROXY_OBJECT
  5
37
102
{ACAD_REACTORS
330
2A
102
}
330
2A
100
AcDbProxyObject
 90
      499
 91
      501
 93
      412
310
41D51A1A58DAD95B90D409028333333333333E3BF0000000000000FB010790141107004050150C41D405064090741402480A0350
1001
ACAD
1000
AcDbSavedByObjectVersion
1070
     0
  0
XRECORD
  5
232
102
{ACAD_REACTORS
330
229
102
}
330
229
100
AcDbXrecord
 90
        0
  0
XRECORD
  5
248
102
{ACAD_REACTORS
330
229
102
}
330
229
100
AcDbXrecord
1000
DSTYLE
1002
{
1070
   171
 70
     2
1070
   143
 40
25.4
1070
   274
 70
     2
1070
    41
 40
1.55291427
1070
   289
 70
     2
1070
   141
 40
0.09
1070
    43
 40
30.0
1070
   278
 70
    46
1070
    44
 40
2.0
1070
    42
 40
2.0
1070
   147
 40
0.09
1070
    77
 70
     3
1070
   272
 70
     4
1070
   146
 40
0.5
1070
   279
 70
     2
1070
   283
 70
     1
1070
   145
 40
0.7
1070
   340
340
11
1070
   140
 40
2.8
1070
   288
 70
     1
1002
}
  0
XRECORD
  5
233
102
{ACAD_REACTORS
330
229
102
}
330
229
100
AcDbXrecord
  1
{E1A4A65E-3A92-4AF3-9661-7006020FDBCB}
  0
XRECORD
  5
22C
102
{ACAD_REACTORS
330
229
102
}
330
229
100
AcDbXrecord
  1

  0
XRECORD
  5
231
102
{ACAD_REACTORS
330
229
102
}
330
229
100
AcDbXrecord
 90
        4
  0
XRECORD
  5
22E
102
{ACAD_REACTORS
330
229
102
}
330
229
100
AcDbXrecord
340
1A
  0
XRECORD
  5
230
102
{ACAD_REACTORS
330
229
102
}
330
229
100
AcDbXrecord
 90
    10781
  0
XRECORD
  5
22F
102
{ACAD_REACTORS
330
229
102
}
330
229
100
AcDbXrecord
340
19
  0
XRECORD
  5
235
102
{ACAD_REACTORS
330
229
102
}
330
229
100
AcDbXrecord
 40
0.0
  0
XRECORD
  5
238
102
{ACAD_REACTORS
330
229
102
}
330
229
100
AcDbXrecord
340
0
  0
XRECORD
  5
23E
102
{ACAD_REACTORS
330
229
102
}
330
229
100
AcDbXrecord
 10
0.0
 20
0.0
 30
0.0
  0
XRECORD
  5
23A
102
{ACAD_REACTORS
330
229
102
}
330
229
100
AcDbXrecord
 10
0.0
 20
0.0
 30
0.0
  0
XRECORD
  5
23D
102
{ACAD_REACTORS
330
229
102
}
330
229
100
AcDbXrecord
 10
0.0
 20
0.0
 30
0.0
  0
XRECORD
  5
23B
102
{ACAD_REACTORS
330
229
102
}
330
229
100
AcDbXrecord
 10
0.0
 20
0.0
 30
0.0
  0
XRECORD
  5
23C
102
{ACAD_REACTORS
330
229
102
}
330
229
100
AcDbXrecord
 10
0.0
 20
0.0
 30
0.0
  0
XRECORD
  5
239
102
{ACAD_REACTORS
330
229
102
}
330
229
100
AcDbXrecord
 10
0.0
 20
0.0
 30
0.0
  0
XRECORD
  5
236
102
{ACAD_REACTORS
330
229
102
}
330
229
100
AcDbXrecord
340
0
  0
XRECORD
  5
237
102
{ACAD_REACTORS
330
229
102
}
330
229
100
AcDbXrecord
 70
     0
  0
XRECORD
  5
22D
102
{ACAD_REACTORS
330
229
102
}
330
229
100
AcDbXrecord
  1

  0
XRECORD
  5
22A
102
{ACAD_REACTORS
330
229
102
}
330
229
100
AcDbXrecord
 90
        1
  0
XRECORD
  5
22B
102
{ACAD_REACTORS
330
229
102
}
330
229
100
AcDbXrecord
 90
       70
  0
XRECORD
  5
241
102
{ACAD_REACTORS
330
229
102
}
330
229
100
AcDbXrecord
340
0
  0
XRECORD
  5
247
102
{ACAD_REACTORS
330
229
102
}
330
229
100
AcDbXrecord
 10
0.0
 20
0.0
 30
0.0
  0
XRECORD
  5
243
102
{ACAD_REACTORS
330
229
102
}
330
229
100
AcDbXrecord
 10
0.0
 20
0.0
 30
0.0
  0
XRECORD
  5
246
102
{ACAD_REACTORS
330
229
102
}
330
229
100
AcDbXrecord
 10
0.0
 20
0.0
 30
0.0
  0
XRECORD
  5
244
102
{ACAD_REACTORS
330
229
102
}
330
229
100
AcDbXrecord
 10
0.0
 20
0.0
 30
0.0
  0
XRECORD
  5
245
102
{ACAD_REACTORS
330
229
102
}
330
229
100
AcDbXrecord
 10
0.0
 20
0.0
 30
0.0
  0
XRECORD
  5
242
102
{ACAD_REACTORS
330
229
102
}
330
229
100
AcDbXrecord
 10
0.0
 20
0.0
 30
0.0
  0
XRECORD
  5
23F
102
{ACAD_REACTORS
330
229
102
}
330
229
100
AcDbXrecord
340
0
  0
XRECORD
  5
240
102
{ACAD_REACTORS
330
229
102
}
330
229
100
AcDbXrecord
 70
     0
  0
XRECORD
  5
234
102
{ACAD_REACTORS
330
229
102
}
330
229
100
AcDbXrecord
  1
{FAEB1C32-E019-11D5-929B-00C0DF256EC4}
  0
DICTIONARYVAR
  5
24C
102
{ACAD_REACTORS
330
249
102
}
330
249
100
DictionaryVariables
280
     0
  1
1
  0
DICTIONARYVAR
  5
24D
102
{ACAD_REACTORS
330
249
102
}
330
249
100
DictionaryVariables
280
     0
  1
1
  0
DICTIONARY
  5
250
330
3D
100
AcDbDictionary
280
     1
  3
ACAD_XREC_ROUNDTRIP
360
251
  0
DICTIONARY
  5
24E
330
3C
100
AcDbDictionary
280
     1
  3
ACAD_XREC_ROUNDTRIP
360
24F
  0
DICTIONARY
  5
252
330
3E
100
AcDbDictionary
280
     1
  3
ACAD_XREC_ROUNDTRIP
360
253
  0
XRECORD
  5
251
102
{ACAD_REACTORS
330
250
102
}
330
250
100
AcDbXrecord
102
MATERIAL
148
0.0
149
0.0
149
0.0
 93
        0
 94
      127
282
     0
 72
     1
 77
     1
171
     1
175
     1
179
     1
273
     0
  0
XRECORD
  5
24F
102
{ACAD_REACTORS
330
24E
102
}
330
24E
100
AcDbXrecord
102
MATERIAL
148
0.0
149
0.0
149
0.0
 93
        0
 94
      127
282
     0
 72
     1
 77
     1
171
     1
175
     1
179
     1
273
     0
  0
XRECORD
  5
253
102
{ACAD_REACTORS
330
252
102
}
330
252
100
AcDbXrecord
102
MATERIAL
148
0.0
149
0.0
149
0.0
 93
        0
 94
      127
282
     0
 72
     1
 77
     1
171
     1
175
     1
179
     1
273
     0
  0
ENDSEC
  0
EOF
