  0
SECTION
  2
HEADER
  9
$ACADVER
  1
AC1014
  9
$ACADMAINTVER
 70
     9
  9
$DWGCODEPAGE
  3
ANSI_932
  9
$INSBASE
 10
0.0
 20
0.0
 30
0.0
  9
$EXTMIN
 10
189.7877717079061
 20
185.1987398886575
 30
0.0
  9
$EXTMAX
 10
1057.999778645007
 20
675.7252775629945
 30
0.0
  9
$LIMMIN
 10
0.0
 20
0.0
  9
$LIMMAX
 10
420.0
 20
297.0
  9
$ORTHOMODE
 70
     0
  9
$REGENMODE
 70
     1
  9
$FILLMODE
 70
     1
  9
$QTEXTMODE
 70
     0
  9
$MIRRTEXT
 70
     1
  9
$DRAGMODE
 70
     2
  9
$LTSCALE
 40
0.75
  9
$OSMODE
 70
    37
  9
$ATTMODE
 70
     1
  9
$TEXTSIZE
 40
8.4
  9
$TRACEWID
 40
0.05
  9
$TEXTSTYLE
  7
STANDARD
  9
$CLAYER
  8
0
  9
$CELTYPE
  6
BYLAYER
  9
$CECOLOR
 62
   256
  9
$CELTSCALE
 40
1.0
  9
$DELOBJ
 70
     1
  9
$DISPSILH
 70
     0
  9
$DIMSCALE
 40
1.0
  9
$DIMASZ
 40
1.55291427
  9
$DIMEXO
 40
2.0
  9
$DIMDLI
 40
30.0
  9
$DIMRND
 40
0.0
  9
$DIMDLE
 40
0.0
  9
$DIMEXE
 40
2.0
  9
$DIMTP
 40
0.0
  9
$DIMTM
 40
0.0
  9
$DIMTXT
 40
2.8
  9
$DIMCEN
 40
0.09
  9
$DIMTSZ
 40
0.0
  9
$DIMTOL
 70
     0
  9
$DIMLIM
 70
     0
  9
$DIMTIH
 70
     0
  9
$DIMTOH
 70
     0
  9
$DIMSE1
 70
     0
  9
$DIMSE2
 70
     0
  9
$DIMTAD
 70
     3
  9
$DIMZIN
 70
     8
  9
$DIMBLK
  1

  9
$DIMASO
 70
     1
  9
$DIMSHO
 70
     1
  9
$DIMPOST
  1

  9
$DIMAPOST
  1

  9
$DIMALT
 70
     0
  9
$DIMALTD
 70
     2
  9
$DIMALTF
 40
25.4
  9
$DIMLFAC
 40
1.0
  9
$DIMTOFL
 70
     1
  9
$DIMTVP
 40
0.7
  9
$DIMTIX
 70
     0
  9
$DIMSOXD
 70
     0
  9
$DIMSAH
 70
     0
  9
$DIMBLK1
  1

  9
$DIMBLK2
  1

  9
$DIMSTYLE
  2
STANDARD
  9
$DIMCLRD
 70
     0
  9
$DIMCLRE
 70
     0
  9
$DIMCLRT
 70
     0
  9
$DIMTFAC
 40
0.5
  9
$DIMGAP
 40
0.09
  9
$DIMJUST
 70
     0
  9
$DIMSD1
 70
     0
  9
$DIMSD2
 70
     0
  9
$DIMTOLJ
 70
     1
  9
$DIMTZIN
 70
     8
  9
$DIMALTZ
 70
     0
  9
$DIMALTTZ
 70
     0
  9
$DIMFIT
 70
     5
  9
$DIMUPT
 70
     1
  9
$DIMUNIT
 70
     2
  9
$DIMDEC
 70
     2
  9
$DIMTDEC
 70
     4
  9
$DIMALTU
 70
     2
  9
$DIMALTTD
 70
     2
  9
$DIMTXSTY
  7
STANDARD
  9
$DIMAUNIT
 70
     0
  9
$LUNITS
 70
     2
  9
$LUPREC
 70
     4
  9
$SKETCHINC
 40
0.1
  9
$FILLETRAD
 40
0.5
  9
$AUNITS
 70
     0
  9
$AUPREC
 70
     0
  9
$MENU
  1
.
  9
$ELEVATION
 40
0.0
  9
$PELEVATION
 40
0.0
  9
$THICKNESS
 40
0.0
  9
$LIMCHECK
 70
     0
  9
$CHAMFERA
 40
0.5
  9
$CHAMFERB
 40
0.5
  9
$CHAMFERC
 40
1.0
  9
$CHAMFERD
 40
0.0
  9
$SKPOLY
 70
     0
  9
$TDCREATE
 40
2460154.773888889
  9
$TDUPDATE
 40
2460154.39889368
  9
$TDINDWG
 40
0.0000000116
  9
$TDUSRTIMER
 40
0.0000000116
  9
$USRTIMER
 70
     1
  9
$ANGBASE
 50
0.0
  9
$ANGDIR
 70
     0
  9
$PDMODE
 70
     0
  9
$PDSIZE
 40
0.0
  9
$PLINEWID
 40
0.0
  9
$COORDS
 70
     1
  9
$SPLFRAME
 70
     0
  9
$SPLINETYPE
 70
     6
  9
$SPLINESEGS
 70
     8
  9
$ATTDIA
 70
     0
  9
$ATTREQ
 70
     1
  9
$HANDLING
 70
     1
  9
$HANDSEED
  5
246
  9
$SURFTAB1
 70
     6
  9
$SURFTAB2
 70
     6
  9
$SURFTYPE
 70
     6
  9
$SURFU
 70
     6
  9
$SURFV
 70
     6
  9
$UCSNAME
  2

  9
$UCSORG
 10
0.0
 20
0.0
 30
0.0
  9
$UCSXDIR
 10
1.0
 20
0.0
 30
0.0
  9
$UCSYDIR
 10
0.0
 20
1.0
 30
0.0
  9
$PUCSNAME
  2

  9
$PUCSORG
 10
0.0
 20
0.0
 30
0.0
  9
$PUCSXDIR
 10
1.0
 20
0.0
 30
0.0
  9
$PUCSYDIR
 10
0.0
 20
1.0
 30
0.0
  9
$USERI1
 70
     0
  9
$USERI2
 70
     0
  9
$USERI3
 70
     0
  9
$USERI4
 70
     0
  9
$USERI5
 70
     0
  9
$USERR1
 40
0.0
  9
$USERR2
 40
0.0
  9
$USERR3
 40
0.0
  9
$USERR4
 40
0.0
  9
$USERR5
 40
0.0
  9
$WORLDVIEW
 70
     1
  9
$SHADEDGE
 70
     3
  9
$SHADEDIF
 70
    70
  9
$TILEMODE
 70
     1
  9
$MAXACTVP
 70
    64
  9
$PINSBASE
 10
0.0
 20
0.0
 30
0.0
  9
$PLIMCHECK
 70
     0
  9
$PEXTMIN
 10
0.0
 20
0.0
 30
0.0
  9
$PEXTMAX
 10
420.0
 20
297.0
 30
0.0
  9
$PLIMMIN
 10
0.0
 20
0.0
  9
$PLIMMAX
 10
420.0
 20
297.0
  9
$UNITMODE
 70
     0
  9
$VISRETAIN
 70
     1
  9
$PLINEGEN
 70
     0
  9
$PSLTSCALE
 70
     1
  9
$TREEDEPTH
 70
  3020
  9
$PICKSTYLE
 70
     1
  9
$CMLSTYLE
  2
STANDARD
  9
$CMLJUST
 70
     0
  9
$CMLSCALE
 40
1.0
  9
$PROXYGRAPHICS
 70
     1
  9
$MEASUREMENT
 70
     1
  0
ENDSEC
  0
SECTION
  2
CLASSES
  0
CLASS
  1
ACDBDICTIONARYWDFLT
  2
AcDbDictionaryWithDefault
  3
ObjectDBX Classes
 90
        0
280
     0
281
     0
  0
CLASS
  1
VISUALSTYLE
  2
AcDbVisualStyle
  3
ObjectDBX Classes
 90
     4095
280
     0
281
     0
  0
CLASS
  1
MATERIAL
  2
AcDbMaterial
  3
ObjectDBX Classes
 90
     1153
280
     0
281
     0
  0
CLASS
  1
DICTIONARYVAR
  2
AcDbDictionaryVar
  3
ObjectDBX Classes
 90
        0
280
     0
281
     0
  0
CLASS
  1
XRECORD
  2
AcDbXrecord
  3
AutoCAD 2000
 90
        0
280
     0
281
     0
  0
CLASS
  1
LWPOLYLINE
  2
AcDbPolyline
  3
AutoCAD 2000
 90
        0
280
     0
281
     1
  0
CLASS
  1
HATCH
  2
AcDbHatch
  3
AutoCAD 2000
 90
        0
280
     0
281
     1
  0
CLASS
  1
ACDBPLACEHOLDER
  2
AcDbPlaceHolder
  3
ObjectDBX Classes
 90
        0
280
     0
281
     0
  0
CLASS
  1
LAYOUT
  2
AcDbLayout
  3
ObjectDBX Classes
 90
        0
280
     0
281
     0
  0
ENDSEC
  0
SECTION
  2
TABLES
  0
TABLE
  2
VPORT
  5
8
330
0
100
AcDbSymbolTable
 70
     1
  0
VPORT
  5
29
330
8
100
AcDbSymbolTableRecord
100
AcDbViewportTableRecord
  2
*ACTIVE
 70
     0
 10
0.0
 20
0.0
 11
1.0
 21
1.0
 12
10.42990654205607
 22
4.5
 13
0.0
 23
0.0
 14
0.5
 24
0.5
 15
0.5
 25
0.5
 16
0.0
 26
0.0
 36
1.0
 17
0.0
 27
0.0
 37
0.0
 40
9.0
 41
1.972972972850329
 42
50.0
 43
0.0
 44
0.0
 50
0.0
 51
0.0
 71
     0
 72
   100
 73
     1
 74
     3
 75
     0
 76
     0
 77
     0
 78
     0
  0
ENDTAB
  0
TABLE
  2
LTYPE
  5
5
330
0
100
AcDbSymbolTable
 70
     9
  0
LTYPE
  5
14
330
5
100
AcDbSymbolTableRecord
100
AcDbLinetypeTableRecord
  2
BYBLOCK
 70
     0
  3

 72
    65
 73
     0
 40
0.0
  0
LTYPE
  5
15
330
5
100
AcDbSymbolTableRecord
100
AcDbLinetypeTableRecord
  2
BYLAYER
 70
     0
  3

 72
    65
 73
     0
 40
0.0
  0
LTYPE
  5
16
330
5
100
AcDbSymbolTableRecord
100
AcDbLinetypeTableRecord
  2
CONTINUOUS
 70
     0
  3
Solid line
 72
    65
 73
     0
 40
0.0
  0
LTYPE
  5
8E
330
5
100
AcDbSymbolTableRecord
100
AcDbLinetypeTableRecord
  2
DOT
 70
     0
  3
DOT
 72
    65
 73
     2
 40
4.0
 49
6.0
 74
     0
 49
-2.0
 74
     0
  0
LTYPE
  5
8F
330
5
100
AcDbSymbolTableRecord
100
AcDbLinetypeTableRecord
  2
HIDDEN
 70
     0
  3
HIDDEN
 72
    65
 73
     2
 40
4.2
 49
8.4
 74
     0
 49
-4.2
 74
     0
  0
LTYPE
  5
90
330
5
100
AcDbSymbolTableRecord
100
AcDbLinetypeTableRecord
  2
DASHDOT
 70
     0
  3
DASHDOT
 72
    65
 73
     4
 40
14.5
 49
30.0
 74
     0
 49
-9.0
 74
     0
 49
2.5
 74
     0
 49
-9.0
 74
     0
  0
LTYPE
  5
91
330
5
100
AcDbSymbolTableRecord
100
AcDbLinetypeTableRecord
  2
PHANTOM
 70
     0
  3
PHANTOM
 72
    65
 73
     6
 40
12.0
 49
30.0
 74
     0
 49
-9.0
 74
     0
 49
2.5
 74
     0
 49
-5.0
 74
     0
 49
2.5
 74
     0
 49
-9.0
 74
     0
  0
LTYPE
  5
92
330
5
100
AcDbSymbolTableRecord
100
AcDbLinetypeTableRecord
  2
ACAD_ISO14W100
 70
     0
  3
ACAD_ISO14W100
 72
    65
 73
     8
 40
1.5
 49
12.0
 74
     0
 49
-3.0
 74
     0
 49
0.5
 74
     0
 49
-3.0
 74
     0
 49
0.5
 74
     0
 49
-3.0
 74
     0
 49
0.5
 74
     0
 49
-3.0
 74
     0
  0
LTYPE
  5
93
330
5
100
AcDbSymbolTableRecord
100
AcDbLinetypeTableRecord
  2
ACAD_ISO06W100
 70
     0
  3
ACAD_ISO06W100
 72
    65
 73
     8
 40
13.5
 49
24.0
 74
     0
 49
-3.0
 74
     0
 49
0.5
 74
     0
 49
-3.0
 74
     0
 49
0.5
 74
     0
 49
-3.0
 74
     0
 49
0.5
 74
     0
 49
-3.0
 74
     0
  0
LTYPE
  5
94
330
5
100
AcDbSymbolTableRecord
100
AcDbLinetypeTableRecord
  2
ACAD_ISO11W100
 70
     0
  3
ACAD_ISO11W100
 72
    65
 73
     6
 40
15.5
 49
12.0
 74
     0
 49
-3.0
 74
     0
 49
12.0
 74
     0
 49
-3.0
 74
     0
 49
0.5
 74
     0
 49
-3.0
 74
     0
  0
LTYPE
  5
95
330
5
100
AcDbSymbolTableRecord
100
AcDbLinetypeTableRecord
  2
ACAD_ISO13W100
 70
     0
  3
ACAD_ISO13W100
 72
    65
 73
     8
 40
13.0
 49
12.0
 74
     0
 49
-3.0
 74
     0
 49
12.0
 74
     0
 49
-3.0
 74
     0
 49
0.5
 74
     0
 49
-3.0
 74
     0
 49
0.5
 74
     0
 49
-3.0
 74
     0
  0
ENDTAB
  0
TABLE
  2
LAYER
  5
2
330
0
100
AcDbSymbolTable
 70
    13
  0
LAYER
  5
10
330
2
100
AcDbSymbolTableRecord
100
AcDbLayerTableRecord
  2
0
 70
     0
 62
     7
  6
CONTINUOUS
  0
LAYER
  5
96
330
2
100
AcDbSymbolTableRecord
100
AcDbLayerTableRecord
  2
1
 70
     0
 62
     7
  6
CONTINUOUS
  0
LAYER
  5
97
330
2
100
AcDbSymbolTableRecord
100
AcDbLayerTableRecord
  2
2
 70
     0
 62
     7
  6
CONTINUOUS
  0
LAYER
  5
98
330
2
100
AcDbSymbolTableRecord
100
AcDbLayerTableRecord
  2
3
 70
     0
 62
   151
  6
CONTINUOUS
  0
LAYER
  5
99
330
2
100
AcDbSymbolTableRecord
100
AcDbLayerTableRecord
  2
4
 70
     0
 62
     1
  6
DASHDOT
  0
LAYER
  5
9A
330
2
100
AcDbSymbolTableRecord
100
AcDbLayerTableRecord
  2
5
 70
     0
 62
     6
  6
CONTINUOUS
  0
LAYER
  5
9B
330
2
100
AcDbSymbolTableRecord
100
AcDbLayerTableRecord
  2
6
 70
     0
 62
     3
  6
CONTINUOUS
  0
LAYER
  5
9C
330
2
100
AcDbSymbolTableRecord
100
AcDbLayerTableRecord
  2
7
 70
     0
 62
     4
  6
CONTINUOUS
  0
LAYER
  5
9D
330
2
100
AcDbSymbolTableRecord
100
AcDbLayerTableRecord
  2
8
 70
     0
 62
     2
  6
CONTINUOUS
  0
LAYER
  5
9E
330
2
100
AcDbSymbolTableRecord
100
AcDbLayerTableRecord
  2
9
 70
     0
 62
     3
  6
HIDDEN
  0
LAYER
  5
9F
330
2
100
AcDbSymbolTableRecord
100
AcDbLayerTableRecord
  2
10
 70
     0
 62
     7
  6
CONTINUOUS
  0
LAYER
  5
A0
330
2
100
AcDbSymbolTableRecord
100
AcDbLayerTableRecord
  2
11
 70
     0
 62
    94
  6
CONTINUOUS
  0
LAYER
  5
A1
330
2
100
AcDbSymbolTableRecord
100
AcDbLayerTableRecord
  2
12
 70
     0
 62
    94
  6
CONTINUOUS
  0
ENDTAB
  0
TABLE
  2
STYLE
  5
3
330
0
100
AcDbSymbolTable
 70
     3
  0
STYLE
  5
11
330
3
100
AcDbSymbolTableRecord
100
AcDbTextStyleTableRecord
  2
STANDARD
 70
     0
 40
0.0
 41
1.0
 50
0.0
 71
     0
 42
8.4
  3
txt
  4
bigfont
  0
STYLE
  5
41
330
3
100
AcDbSymbolTableRecord
100
AcDbTextStyleTableRecord
  2
T_STANDARD
 70
     4
 40
10.0
 41
1.0
 50
0.0
 71
     0
 42
10.0
  3
txt
  4
bigfont
  0
STYLE
  5
F4
330
3
100
AcDbSymbolTableRecord
100
AcDbTextStyleTableRecord
  2
ＭＳ_ゴシック
 70
     0
 40
0.0
 41
1.0
 50
0.0
 71
     0
 42
0.0
  3

  4

1001
ACAD
1000
ＭＳ ゴシック
1071
      256
  0
ENDTAB
  0
TABLE
  2
VIEW
  5
6
330
0
100
AcDbSymbolTable
 70
     0
  0
ENDTAB
  0
TABLE
  2
UCS
  5
7
330
0
100
AcDbSymbolTable
 70
     0
  0
ENDTAB
  0
TABLE
  2
APPID
  5
9
330
0
100
AcDbSymbolTable
 70
     2
  0
APPID
  5
12
330
9
100
AcDbSymbolTableRecord
100
AcDbRegAppTableRecord
  2
ACAD
 70
     0
  0
APPID
  5
40
330
9
100
AcDbSymbolTableRecord
100
AcDbRegAppTableRecord
  2
ODA
 70
     0
  0
ENDTAB
  0
TABLE
  2
DIMSTYLE
  5
A
330
0
100
AcDbSymbolTable
 70
     1
  0
DIMSTYLE
105
27
102
{ACAD_REACTORS
330
100
330
18B
330
195
330
19F
330
1A9
330
1B3
330
1BD
330
1C7
330
1D1
330
1DB
330
1E5
330
1EF
330
1F9
330
203
330
20B
330
213
102
}
330
A
100
AcDbSymbolTableRecord
100
AcDbDimStyleTableRecord
  2
STANDARD
 70
     0
  3

  4

  5

  6

  7

 40
1.0
 41
0.18
 42
0.0625
 43
0.38
 44
0.18
 45
0.0
 46
0.0
 47
0.0
 48
0.0
140
0.18
141
0.09
142
0.0
143
25.4
144
1.0
145
0.0
146
1.0
147
0.09
 71
     0
 72
     0
 73
     1
 74
     1
 75
     0
 76
     0
 77
     0
 78
     0
170
     0
171
     2
172
     0
173
     0
174
     0
175
     0
176
     0
177
     0
178
     0
270
     2
271
     4
272
     4
273
     2
274
     2
340
11
275
     0
280
     0
281
     0
282
     0
283
     1
284
     0
285
     0
286
     0
287
     3
288
     0
  0
ENDTAB
  0
TABLE
  2
BLOCK_RECORD
  5
1
330
0
100
AcDbSymbolTable
 70
    32
  0
BLOCK_RECORD
  5
1F
330
1
100
AcDbSymbolTableRecord
100
AcDbBlockTableRecord
  2
*MODEL_SPACE
  0
BLOCK_RECORD
  5
1B
330
1
100
AcDbSymbolTableRecord
100
AcDbBlockTableRecord
  2
*PAPER_SPACE
  0
BLOCK_RECORD
  5
42
330
1
100
AcDbSymbolTableRecord
100
AcDbBlockTableRecord
  2
_ORIGIN
  0
BLOCK_RECORD
  5
47
330
1
100
AcDbSymbolTableRecord
100
AcDbBlockTableRecord
  2
_DOTBLANK
  0
BLOCK_RECORD
  5
4C
330
1
100
AcDbSymbolTableRecord
100
AcDbBlockTableRecord
  2
_DOT
  0
BLOCK_RECORD
  5
51
330
1
100
AcDbSymbolTableRecord
100
AcDbBlockTableRecord
  2
_OPEN
  0
BLOCK_RECORD
  5
57
330
1
100
AcDbSymbolTableRecord
100
AcDbBlockTableRecord
  2
_CLOSED
  0
BLOCK_RECORD
  5
5E
330
1
100
AcDbSymbolTableRecord
100
AcDbBlockTableRecord
  2
_CLOSEDBLANK
  0
BLOCK_RECORD
  5
64
330
1
100
AcDbSymbolTableRecord
100
AcDbBlockTableRecord
  2
_ARROWFILLED
  0
BLOCK_RECORD
  5
68
330
1
100
AcDbSymbolTableRecord
100
AcDbBlockTableRecord
  2
_BOXBLANK
  0
BLOCK_RECORD
  5
70
330
1
100
AcDbSymbolTableRecord
100
AcDbBlockTableRecord
  2
_BOXFILLED
  0
BLOCK_RECORD
  5
75
330
1
100
AcDbSymbolTableRecord
100
AcDbBlockTableRecord
  2
_INTEGRAL
  0
BLOCK_RECORD
  5
7A
330
1
100
AcDbSymbolTableRecord
100
AcDbBlockTableRecord
  2
_OBLIQUE
  0
BLOCK_RECORD
  5
7E
330
1
100
AcDbSymbolTableRecord
100
AcDbBlockTableRecord
  2
_NONE
  0
BLOCK_RECORD
  5
81
330
1
100
AcDbSymbolTableRecord
100
AcDbBlockTableRecord
  2
MARK_OPEN
  0
BLOCK_RECORD
  5
86
330
1
100
AcDbSymbolTableRecord
100
AcDbBlockTableRecord
  2
MARK_ORIGIN
  0
BLOCK_RECORD
  5
8A
330
1
100
AcDbSymbolTableRecord
100
AcDbBlockTableRecord
  2
MARK_DOT
  0
BLOCK_RECORD
  5
F5
330
1
100
AcDbSymbolTableRecord
100
AcDbBlockTableRecord
  2
DIM1
  0
BLOCK_RECORD
  5
182
330
1
100
AcDbSymbolTableRecord
100
AcDbBlockTableRecord
  2
DIM2
  0
BLOCK_RECORD
  5
18C
330
1
100
AcDbSymbolTableRecord
100
AcDbBlockTableRecord
  2
DIM3
  0
BLOCK_RECORD
  5
196
330
1
100
AcDbSymbolTableRecord
100
AcDbBlockTableRecord
  2
DIM4
  0
BLOCK_RECORD
  5
1A0
330
1
100
AcDbSymbolTableRecord
100
AcDbBlockTableRecord
  2
DIM5
  0
BLOCK_RECORD
  5
1AA
330
1
100
AcDbSymbolTableRecord
100
AcDbBlockTableRecord
  2
DIM6
  0
BLOCK_RECORD
  5
1B4
330
1
100
AcDbSymbolTableRecord
100
AcDbBlockTableRecord
  2
DIM7
  0
BLOCK_RECORD
  5
1BE
330
1
100
AcDbSymbolTableRecord
100
AcDbBlockTableRecord
  2
DIM8
  0
BLOCK_RECORD
  5
1C8
330
1
100
AcDbSymbolTableRecord
100
AcDbBlockTableRecord
  2
DIM9
  0
BLOCK_RECORD
  5
1D2
330
1
100
AcDbSymbolTableRecord
100
AcDbBlockTableRecord
  2
DIM10
  0
BLOCK_RECORD
  5
1DC
330
1
100
AcDbSymbolTableRecord
100
AcDbBlockTableRecord
  2
DIM11
  0
BLOCK_RECORD
  5
1E6
330
1
100
AcDbSymbolTableRecord
100
AcDbBlockTableRecord
  2
DIM12
  0
BLOCK_RECORD
  5
1F0
330
1
100
AcDbSymbolTableRecord
100
AcDbBlockTableRecord
  2
DIM13
  0
BLOCK_RECORD
  5
1FA
330
1
100
AcDbSymbolTableRecord
100
AcDbBlockTableRecord
  2
DIM14
  0
BLOCK_RECORD
  5
204
330
1
100
AcDbSymbolTableRecord
100
AcDbBlockTableRecord
  2
DIM15
  0
BLOCK_RECORD
  5
20C
330
1
100
AcDbSymbolTableRecord
100
AcDbBlockTableRecord
  2
DIM16
  0
ENDTAB
  0
ENDSEC
  0
SECTION
  2
BLOCKS
  0
BLOCK
  5
20
330
1F
100
AcDbEntity
  8
0
100
AcDbBlockBegin
  2
*MODEL_SPACE
 70
     0
 10
0.0
 20
0.0
 30
0.0
  3
*MODEL_SPACE
  1

  0
ENDBLK
  5
21
330
1F
100
AcDbEntity
  8
0
100
AcDbBlockEnd
  0
BLOCK
  5
1C
330
1B
100
AcDbEntity
 67
     1
  8
0
100
AcDbBlockBegin
  2
*PAPER_SPACE
 70
     0
 10
0.0
 20
0.0
 30
0.0
  3
*PAPER_SPACE
  1

  0
ENDBLK
  5
1D
330
1B
100
AcDbEntity
 67
     1
  8
0
100
AcDbBlockEnd
  0
BLOCK
  5
45
330
42
100
AcDbEntity
  8
0
100
AcDbBlockBegin
  2
_ORIGIN
 70
     0
 10
0.0
 20
0.0
 30
0.0
  3
_ORIGIN
  1

  0
CIRCLE
  5
43
330
42
100
AcDbEntity
  8
0
 62
     0
100
AcDbCircle
 10
0.0
 20
0.0
 30
0.0
 40
0.5
  0
LINE
  5
44
330
42
100
AcDbEntity
  8
0
 62
     0
100
AcDbLine
 10
0.0
 20
0.0
 30
0.0
 11
-1.0
 21
0.0
 31
0.0
  0
ENDBLK
  5
46
330
42
100
AcDbEntity
  8
0
100
AcDbBlockEnd
  0
BLOCK
  5
4A
330
47
100
AcDbEntity
  8
0
100
AcDbBlockBegin
  2
_DOTBLANK
 70
     0
 10
0.0
 20
0.0
 30
0.0
  3
_DOTBLANK
  1

  0
CIRCLE
  5
48
330
47
100
AcDbEntity
  8
0
 62
     0
100
AcDbCircle
 10
0.0
 20
0.0
 30
0.0
 40
0.5
  0
LINE
  5
49
330
47
100
AcDbEntity
  8
0
 62
     0
100
AcDbLine
 10
-0.5
 20
0.0
 30
0.0
 11
-1.0
 21
0.0
 31
0.0
  0
ENDBLK
  5
4B
330
47
100
AcDbEntity
  8
0
100
AcDbBlockEnd
  0
BLOCK
  5
4F
330
4C
100
AcDbEntity
  8
0
100
AcDbBlockBegin
  2
_DOT
 70
     0
 10
0.0
 20
0.0
 30
0.0
  3
_DOT
  1

  0
LWPOLYLINE
  5
4D
330
4C
100
AcDbEntity
  8
0
 62
     0
100
AcDbPolyline
 90
        2
 70
     1
 43
0.5
 10
-0.25
 20
0.0
 42
1.0
 10
0.25
 20
0.0
 42
1.0
  0
LINE
  5
4E
330
4C
100
AcDbEntity
  8
0
 62
     0
100
AcDbLine
 10
-0.5
 20
0.0
 30
0.0
 11
-1.0
 21
0.0
 31
0.0
  0
ENDBLK
  5
50
330
4C
100
AcDbEntity
  8
0
100
AcDbBlockEnd
  0
BLOCK
  5
55
330
51
100
AcDbEntity
  8
0
100
AcDbBlockBegin
  2
_OPEN
 70
     0
 10
0.0
 20
0.0
 30
0.0
  3
_OPEN
  1

  0
LINE
  5
52
330
51
100
AcDbEntity
  8
0
 62
     0
100
AcDbLine
 10
0.0
 20
0.0
 30
0.0
 11
-1.0
 21
0.1666666666666667
 31
0.0
  0
LINE
  5
53
330
51
100
AcDbEntity
  8
0
 62
     0
100
AcDbLine
 10
0.0
 20
0.0
 30
0.0
 11
-1.0
 21
-0.1666666666666667
 31
0.0
  0
LINE
  5
54
330
51
100
AcDbEntity
  8
0
 62
     0
100
AcDbLine
 10
0.0
 20
0.0
 30
0.0
 11
-1.0
 21
0.0
 31
0.0
  0
ENDBLK
  5
56
330
51
100
AcDbEntity
  8
0
100
AcDbBlockEnd
  0
BLOCK
  5
5C
330
57
100
AcDbEntity
  8
0
100
AcDbBlockBegin
  2
_CLOSED
 70
     0
 10
0.0
 20
0.0
 30
0.0
  3
_CLOSED
  1

  0
LINE
  5
58
330
57
100
AcDbEntity
  8
0
 62
     0
100
AcDbLine
 10
0.0
 20
0.0
 30
0.0
 11
-1.0
 21
0.1666666666666667
 31
0.0
  0
LINE
  5
59
330
57
100
AcDbEntity
  8
0
 62
     0
100
AcDbLine
 10
0.0
 20
0.0
 30
0.0
 11
-1.0
 21
-0.1666666666666667
 31
0.0
  0
LINE
  5
5A
330
57
100
AcDbEntity
  8
0
 62
     0
100
AcDbLine
 10
-1.0
 20
0.1666666666666667
 30
0.0
 11
-1.0
 21
-0.1666666666666667
 31
0.0
  0
LINE
  5
5B
330
57
100
AcDbEntity
  8
0
 62
     0
100
AcDbLine
 10
0.0
 20
0.0
 30
0.0
 11
-1.0
 21
0.0
 31
0.0
  0
ENDBLK
  5
5D
330
57
100
AcDbEntity
  8
0
100
AcDbBlockEnd
  0
BLOCK
  5
62
330
5E
100
AcDbEntity
  8
0
100
AcDbBlockBegin
  2
_CLOSEDBLANK
 70
     0
 10
0.0
 20
0.0
 30
0.0
  3
_CLOSEDBLANK
  1

  0
LINE
  5
5F
330
5E
100
AcDbEntity
  8
0
 62
     0
100
AcDbLine
 10
0.0
 20
0.0
 30
0.0
 11
-1.0
 21
0.1666666666666667
 31
0.0
  0
LINE
  5
60
330
5E
100
AcDbEntity
  8
0
 62
     0
100
AcDbLine
 10
0.0
 20
0.0
 30
0.0
 11
-1.0
 21
-0.1666666666666667
 31
0.0
  0
LINE
  5
61
330
5E
100
AcDbEntity
  8
0
 62
     0
100
AcDbLine
 10
-1.0
 20
0.1666666666666667
 30
0.0
 11
-1.0
 21
-0.1666666666666667
 31
0.0
  0
ENDBLK
  5
63
330
5E
100
AcDbEntity
  8
0
100
AcDbBlockEnd
  0
BLOCK
  5
66
330
64
100
AcDbEntity
  8
0
100
AcDbBlockBegin
  2
_ARROWFILLED
 70
     0
 10
0.0
 20
0.0
 30
0.0
  3
_ARROWFILLED
  1

  0
SOLID
  5
65
330
64
100
AcDbEntity
  8
0
 62
     0
100
AcDbTrace
 10
0.0
 20
0.0
 30
0.0
 11
-1.0
 21
-0.1666666666666667
 31
0.0
 12
-1.0
 22
0.1666666666666667
 32
0.0
 13
0.0
 23
0.0
 33
0.0
  0
ENDBLK
  5
67
330
64
100
AcDbEntity
  8
0
100
AcDbBlockEnd
  0
BLOCK
  5
6E
330
68
100
AcDbEntity
  8
0
100
AcDbBlockBegin
  2
_BOXBLANK
 70
     0
 10
0.0
 20
0.0
 30
0.0
  3
_BOXBLANK
  1

  0
LINE
  5
69
330
68
100
AcDbEntity
  8
0
 62
     0
100
AcDbLine
 10
-0.5
 20
-0.5
 30
0.0
 11
0.5
 21
-0.5
 31
0.0
  0
LINE
  5
6A
330
68
100
AcDbEntity
  8
0
 62
     0
100
AcDbLine
 10
0.5
 20
-0.5
 30
0.0
 11
0.5
 21
0.5
 31
0.0
  0
LINE
  5
6B
330
68
100
AcDbEntity
  8
0
 62
     0
100
AcDbLine
 10
0.5
 20
0.5
 30
0.0
 11
-0.5
 21
0.5
 31
0.0
  0
LINE
  5
6C
330
68
100
AcDbEntity
  8
0
 62
     0
100
AcDbLine
 10
-0.5
 20
0.5
 30
0.0
 11
-0.5
 21
-0.5
 31
0.0
  0
LINE
  5
6D
330
68
100
AcDbEntity
  8
0
 62
     0
100
AcDbLine
 10
-0.5
 20
0.0
 30
0.0
 11
-1.0
 21
0.0
 31
0.0
  0
ENDBLK
  5
6F
330
68
100
AcDbEntity
  8
0
100
AcDbBlockEnd
  0
BLOCK
  5
73
330
70
100
AcDbEntity
  8
0
100
AcDbBlockBegin
  2
_BOXFILLED
 70
     0
 10
0.0
 20
0.0
 30
0.0
  3
_BOXFILLED
  1

  0
SOLID
  5
71
330
70
100
AcDbEntity
  8
0
 62
     0
100
AcDbTrace
 10
-0.5
 20
0.5
 30
0.0
 11
0.5
 21
0.5
 31
0.0
 12
-0.5
 22
-0.5
 32
0.0
 13
0.5
 23
-0.5
 33
0.0
  0
LINE
  5
72
330
70
100
AcDbEntity
  8
0
 62
     0
100
AcDbLine
 10
-0.5
 20
0.0
 30
0.0
 11
-1.0
 21
0.0
 31
0.0
  0
ENDBLK
  5
74
330
70
100
AcDbEntity
  8
0
100
AcDbBlockEnd
  0
BLOCK
  5
78
330
75
100
AcDbEntity
  8
0
100
AcDbBlockBegin
  2
_INTEGRAL
 70
     0
 10
0.0
 20
0.0
 30
0.0
  3
_INTEGRAL
  1

  0
ARC
  5
76
330
75
100
AcDbEntity
  8
0
 62
     0
100
AcDbCircle
 10
0.444888
 20
-0.0913346
 30
0.0
 40
0.4541666
100
AcDbArc
 50
101.9999999999999
 51
167.9999999999998
  0
ARC
  5
77
330
75
100
AcDbEntity
  8
0
 62
     0
100
AcDbCircle
 10
-0.444888
 20
0.0913346
 30
0.0
 40
0.4541666
100
AcDbArc
 50
281.9999999999997
 51
347.9999999999997
  0
ENDBLK
  5
79
330
75
100
AcDbEntity
  8
0
100
AcDbBlockEnd
  0
BLOCK
  5
7C
330
7A
100
AcDbEntity
  8
0
100
AcDbBlockBegin
  2
_OBLIQUE
 70
     0
 10
0.0
 20
0.0
 30
0.0
  3
_OBLIQUE
  1

  0
LINE
  5
7B
330
7A
100
AcDbEntity
  8
0
 62
     0
100
AcDbLine
 10
-0.5
 20
-0.5
 30
0.0
 11
0.5
 21
0.5
 31
0.0
  0
ENDBLK
  5
7D
330
7A
100
AcDbEntity
  8
0
100
AcDbBlockEnd
  0
BLOCK
  5
7F
330
7E
100
AcDbEntity
  8
0
100
AcDbBlockBegin
  2
_NONE
 70
     0
 10
0.0
 20
0.0
 30
0.0
  3
_NONE
  1

  0
ENDBLK
  5
80
330
7E
100
AcDbEntity
  8
0
100
AcDbBlockEnd
  0
BLOCK
  5
84
330
81
100
AcDbEntity
  8
0
100
AcDbBlockBegin
  2
MARK_OPEN
 70
     0
 10
0.0
 20
0.0
 30
0.0
  3
MARK_OPEN
  1

  0
LINE
  5
82
330
81
100
AcDbEntity
  8
0
 62
     0
100
AcDbLine
 10
0.0
 20
0.0
 30
0.0
 11
-1.0
 21
0.1666666666666667
 31
0.0
  0
LINE
  5
83
330
81
100
AcDbEntity
  8
0
 62
     0
100
AcDbLine
 10
0.0
 20
0.0
 30
0.0
 11
-1.0
 21
-0.1666666666666667
 31
0.0
  0
ENDBLK
  5
85
330
81
100
AcDbEntity
  8
0
100
AcDbBlockEnd
  0
BLOCK
  5
88
330
86
100
AcDbEntity
  8
0
100
AcDbBlockBegin
  2
MARK_ORIGIN
 70
     0
 10
0.0
 20
0.0
 30
0.0
  3
MARK_ORIGIN
  1

  0
CIRCLE
  5
87
330
86
100
AcDbEntity
  8
0
 62
     0
100
AcDbCircle
 10
0.0
 20
0.0
 30
0.0
 40
0.5
  0
ENDBLK
  5
89
330
86
100
AcDbEntity
  8
0
100
AcDbBlockEnd
  0
BLOCK
  5
8C
330
8A
100
AcDbEntity
  8
0
100
AcDbBlockBegin
  2
MARK_DOT
 70
     0
 10
0.0
 20
0.0
 30
0.0
  3
MARK_DOT
  1

  0
LWPOLYLINE
  5
8B
330
8A
100
AcDbEntity
  8
0
 62
     0
100
AcDbPolyline
 90
        2
 70
     1
 43
0.5
 10
-0.25
 20
0.0
 42
1.0
 10
0.25
 20
0.0
 42
1.0
  0
ENDBLK
  5
8D
330
8A
100
AcDbEntity
  8
0
100
AcDbBlockEnd
  0
BLOCK
  5
F6
330
F5
100
AcDbEntity
  8
0
100
AcDbBlockBegin
  2
DIM1
 70
     0
 10
0.0
 20
0.0
 30
0.0
  3
DIM1
  1

  0
LINE
  5
F8
330
F5
100
AcDbEntity
  8
7
  6
CONTINUOUS
 62
     4
100
AcDbLine
 10
602.7278783205523
 20
284.7882439254702
 30
0.0
 11
602.7278783205522
 21
238.178774697087
 31
0.0
  0
LINE
  5
F9
330
F5
100
AcDbEntity
  8
7
  6
CONTINUOUS
 62
     4
100
AcDbLine
 10
715.2278783205526
 20
284.7882439254702
 30
0.0
 11
715.2278783205525
 21
238.178774697087
 31
0.0
  0
LINE
  5
FA
330
F5
100
AcDbEntity
  8
7
  6
CONTINUOUS
 62
     4
100
AcDbLine
 10
602.7278783205522
 20
242.678774697087
 30
0.0
 11
715.2278783205525
 21
242.678774697087
 31
0.0
  0
LINE
  5
FB
330
F5
100
AcDbEntity
  8
7
  6
CONTINUOUS
 62
     4
100
AcDbLine
 10
658.9778783205523
 20
242.678774697087
 30
0.0
 11
649.9778783205525
 21
251.678774697087
 31
0.0
  0
LINE
  5
FC
330
F5
100
AcDbEntity
  8
7
  6
CONTINUOUS
 62
     4
100
AcDbLine
 10
649.9778783205525
 20
251.678774697087
 30
0.0
 11
655.9778783205525
 21
251.678774697087
 31
0.0
  0
MTEXT
  5
FD
330
F5
100
AcDbEntity
  8
7
  6
CONTINUOUS
 62
     4
100
AcDbMText
 10
658.9778783205525
 20
251.678774697087
 30
0.0
 40
9.0
 41
173.5714285714286
 71
     4
 72
     1
  1
112.5
  7
ＭＳ_ゴシック
1001
ACAD
1000
ACAD_MTEXT_DEFINED_HEIGHT_BEGIN
1070
    46
1040
9.0
1000
ACAD_MTEXT_DEFINED_HEIGHT_END
  0
INSERT
  5
FE
330
F5
100
AcDbEntity
  8
7
  6
CONTINUOUS
 62
     4
100
AcDbBlockReference
  2
_ARROWFILLED
 10
602.7278783205522
 20
242.678774697087
 30
0.0
 41
6.0
 42
6.0
 43
6.0
 50
179.9999999999998
  0
INSERT
  5
FF
330
F5
100
AcDbEntity
  8
7
  6
CONTINUOUS
 62
     4
100
AcDbBlockReference
  2
_ARROWFILLED
 10
715.2278783205525
 20
242.678774697087
 30
0.0
 41
6.0
 42
6.0
 43
6.0
 50
359.9999999999997
  0
ENDBLK
  5
F7
330
F5
100
AcDbEntity
  8
0
100
AcDbBlockEnd
  0
BLOCK
  5
183
330
182
100
AcDbEntity
  8
0
100
AcDbBlockBegin
  2
DIM2
 70
     0
 10
0.0
 20
0.0
 30
0.0
  3
DIM2
  1

  0
LINE
  5
185
330
182
100
AcDbEntity
  8
7
  6
CONTINUOUS
 62
     4
100
AcDbLine
 10
740.2278783205526
 20
307.7882439254698
 30
0.0
 11
740.2278783205525
 21
209.8848078587378
 31
0.0
  0
LINE
  5
186
330
182
100
AcDbEntity
  8
7
  6
CONTINUOUS
 62
     4
100
AcDbLine
 10
240.2278783205529
 20
307.7882439254698
 30
0.0
 11
240.2278783205527
 21
209.8848078587378
 31
0.0
  0
LINE
  5
187
330
182
100
AcDbEntity
  8
7
  6
CONTINUOUS
 62
     4
100
AcDbLine
 10
740.2278783205525
 20
214.3848078587378
 30
0.0
 11
240.2278783205527
 21
214.3848078587378
 31
0.0
  0
MTEXT
  5
188
330
182
100
AcDbEntity
  8
7
  6
CONTINUOUS
 62
     4
100
AcDbMText
 10
490.2278783205527
 20
214.3848078587378
 30
0.0
 40
9.0
 41
115.7142857142857
 71
     8
 72
     1
  1
500
  7
ＭＳ_ゴシック
1001
ACAD
1000
ACAD_MTEXT_DEFINED_HEIGHT_BEGIN
1070
    46
1040
9.0
1000
ACAD_MTEXT_DEFINED_HEIGHT_END
  0
INSERT
  5
189
330
182
100
AcDbEntity
  8
7
  6
CONTINUOUS
 62
     4
100
AcDbBlockReference
  2
_ARROWFILLED
 10
740.2278783205525
 20
214.3848078587378
 30
0.0
 41
6.0
 42
6.0
 43
6.0
 50
359.9999999999997
  0
INSERT
  5
18A
330
182
100
AcDbEntity
  8
7
  6
CONTINUOUS
 62
     4
100
AcDbBlockReference
  2
_ARROWFILLED
 10
240.2278783205527
 20
214.3848078587378
 30
0.0
 41
6.0
 42
6.0
 43
6.0
 50
179.9999999999998
  0
ENDBLK
  5
184
330
182
100
AcDbEntity
  8
0
100
AcDbBlockEnd
  0
BLOCK
  5
18D
330
18C
100
AcDbEntity
  8
0
100
AcDbBlockBegin
  2
DIM3
 70
     0
 10
0.0
 20
0.0
 30
0.0
  3
DIM3
  1

  0
LINE
  5
18F
330
18C
100
AcDbEntity
  8
7
  6
CONTINUOUS
 62
     4
100
AcDbLine
 10
755.2278783205527
 20
292.7882439254698
 30
0.0
 11
755.2278783205525
 21
185.1987398886575
 31
0.0
  0
LINE
  5
190
330
18C
100
AcDbEntity
  8
7
  6
CONTINUOUS
 62
     4
100
AcDbLine
 10
225.227878320552
 20
292.7882439254698
 30
0.0
 11
225.2278783205518
 21
185.1987398886575
 31
0.0
  0
LINE
  5
191
330
18C
100
AcDbEntity
  8
7
  6
CONTINUOUS
 62
     4
100
AcDbLine
 10
755.2278783205525
 20
189.6987398886575
 30
0.0
 11
225.2278783205518
 21
189.6987398886575
 31
0.0
  0
MTEXT
  5
192
330
18C
100
AcDbEntity
  8
7
  6
CONTINUOUS
 62
     4
100
AcDbMText
 10
490.2278783205521
 20
189.6987398886575
 30
0.0
 40
9.0
 41
115.7142857142857
 71
     8
 72
     1
  1
530
  7
ＭＳ_ゴシック
1001
ACAD
1000
ACAD_MTEXT_DEFINED_HEIGHT_BEGIN
1070
    46
1040
9.0
1000
ACAD_MTEXT_DEFINED_HEIGHT_END
  0
INSERT
  5
193
330
18C
100
AcDbEntity
  8
7
  6
CONTINUOUS
 62
     4
100
AcDbBlockReference
  2
_ARROWFILLED
 10
755.2278783205525
 20
189.6987398886575
 30
0.0
 41
6.0
 42
6.0
 43
6.0
 50
359.9999999999997
  0
INSERT
  5
194
330
18C
100
AcDbEntity
  8
7
  6
CONTINUOUS
 62
     4
100
AcDbBlockReference
  2
_ARROWFILLED
 10
225.2278783205518
 20
189.6987398886575
 30
0.0
 41
6.0
 42
6.0
 43
6.0
 50
179.9999999999998
  0
ENDBLK
  5
18E
330
18C
100
AcDbEntity
  8
0
100
AcDbBlockEnd
  0
BLOCK
  5
197
330
196
100
AcDbEntity
  8
0
100
AcDbBlockBegin
  2
DIM4
 70
     0
 10
0.0
 20
0.0
 30
0.0
  3
DIM4
  1

  0
LINE
  5
199
330
196
100
AcDbEntity
  8
7
  6
CONTINUOUS
 62
     4
100
AcDbLine
 10
790.2278783205531
 20
434.7882439254715
 30
0.0
 11
790.2278783205527
 21
185.1987398886575
 31
0.0
  0
LINE
  5
19A
330
196
100
AcDbEntity
  8
7
  6
CONTINUOUS
 62
     4
100
AcDbLine
 10
755.2278783205529
 20
292.7882439254698
 30
0.0
 11
755.2278783205527
 21
185.1987398886575
 31
0.0
  0
LINE
  5
19B
330
196
100
AcDbEntity
  8
7
  6
CONTINUOUS
 62
     4
100
AcDbLine
 10
790.2278783205527
 20
189.6987398886575
 30
0.0
 11
755.2278783205527
 21
189.6987398886575
 31
0.0
  0
MTEXT
  5
19C
330
196
100
AcDbEntity
  8
7
  6
CONTINUOUS
 62
     4
100
AcDbMText
 10
772.727878320553
 20
189.6987398886575
 30
0.0
 40
9.0
 41
72.85714285714286
 71
     8
 72
     1
  1
35
  7
ＭＳ_ゴシック
1001
ACAD
1000
ACAD_MTEXT_DEFINED_HEIGHT_BEGIN
1070
    46
1040
9.0
1000
ACAD_MTEXT_DEFINED_HEIGHT_END
  0
INSERT
  5
19D
330
196
100
AcDbEntity
  8
7
  6
CONTINUOUS
 62
     4
100
AcDbBlockReference
  2
_ARROWFILLED
 10
790.2278783205527
 20
189.6987398886575
 30
0.0
 41
6.0
 42
6.0
 43
6.0
 50
359.9999999999997
  0
INSERT
  5
19E
330
196
100
AcDbEntity
  8
7
  6
CONTINUOUS
 62
     4
100
AcDbBlockReference
  2
_ARROWFILLED
 10
755.2278783205527
 20
189.6987398886575
 30
0.0
 41
6.0
 42
6.0
 43
6.0
 50
179.9999999999998
  0
ENDBLK
  5
198
330
196
100
AcDbEntity
  8
0
100
AcDbBlockEnd
  0
BLOCK
  5
1A1
330
1A0
100
AcDbEntity
  8
0
100
AcDbBlockBegin
  2
DIM5
 70
     0
 10
0.0
 20
0.0
 30
0.0
  3
DIM5
  1

  0
LINE
  5
1A3
330
1A0
100
AcDbEntity
  8
7
  6
CONTINUOUS
 62
     4
100
AcDbLine
 10
377.7278783205523
 20
284.7882439254702
 30
0.0
 11
377.7278783205522
 21
238.178774697087
 31
0.0
  0
LINE
  5
1A4
330
1A0
100
AcDbEntity
  8
7
  6
CONTINUOUS
 62
     4
100
AcDbLine
 10
265.2278783205526
 20
284.7882439254702
 30
0.0
 11
265.2278783205525
 21
238.178774697087
 31
0.0
  0
LINE
  5
1A5
330
1A0
100
AcDbEntity
  8
7
  6
CONTINUOUS
 62
     4
100
AcDbLine
 10
377.7278783205522
 20
242.678774697087
 30
0.0
 11
265.2278783205525
 21
242.678774697087
 31
0.0
  0
MTEXT
  5
1A6
330
1A0
100
AcDbEntity
  8
7
  6
CONTINUOUS
 62
     4
100
AcDbMText
 10
321.4778783205526
 20
242.678774697087
 30
0.0
 40
9.0
 41
173.5714285714286
 71
     8
 72
     1
  1
112.5
  7
ＭＳ_ゴシック
1001
ACAD
1000
ACAD_MTEXT_DEFINED_HEIGHT_BEGIN
1070
    46
1040
9.0
1000
ACAD_MTEXT_DEFINED_HEIGHT_END
  0
INSERT
  5
1A7
330
1A0
100
AcDbEntity
  8
7
  6
CONTINUOUS
 62
     4
100
AcDbBlockReference
  2
_ARROWFILLED
 10
377.7278783205522
 20
242.678774697087
 30
0.0
 41
6.0
 42
6.0
 43
6.0
 50
359.9999999999997
  0
INSERT
  5
1A8
330
1A0
100
AcDbEntity
  8
7
  6
CONTINUOUS
 62
     4
100
AcDbBlockReference
  2
_ARROWFILLED
 10
265.2278783205525
 20
242.678774697087
 30
0.0
 41
6.0
 42
6.0
 43
6.0
 50
179.9999999999998
  0
ENDBLK
  5
1A2
330
1A0
100
AcDbEntity
  8
0
100
AcDbBlockEnd
  0
BLOCK
  5
1AB
330
1AA
100
AcDbEntity
  8
0
100
AcDbBlockBegin
  2
DIM6
 70
     0
 10
0.0
 20
0.0
 30
0.0
  3
DIM6
  1

  0
LINE
  5
1AD
330
1AA
100
AcDbEntity
  8
7
  6
CONTINUOUS
 62
     4
100
AcDbLine
 10
994.1664013233678
 20
292.7882439254698
 30
0.0
 11
994.1664013233677
 21
209.7865917958003
 31
0.0
  0
LINE
  5
1AE
330
1AA
100
AcDbEntity
  8
7
  6
CONTINUOUS
 62
     4
100
AcDbLine
 10
1039.166401323368
 20
277.7882439254698
 30
0.0
 11
1039.166401323368
 21
209.7865917958003
 31
0.0
  0
LINE
  5
1AF
330
1AA
100
AcDbEntity
  8
7
  6
CONTINUOUS
 62
     4
100
AcDbLine
 10
994.1664013233677
 20
214.2865917958003
 30
0.0
 11
1039.166401323368
 21
214.2865917958003
 31
0.0
  0
MTEXT
  5
1B0
330
1AA
100
AcDbEntity
  8
7
  6
CONTINUOUS
 62
     4
100
AcDbMText
 10
1016.666401323368
 20
214.2865917958003
 30
0.0
 40
9.0
 41
72.85714285714286
 71
     8
 72
     1
  1
45
  7
ＭＳ_ゴシック
1001
ACAD
1000
ACAD_MTEXT_DEFINED_HEIGHT_BEGIN
1070
    46
1040
9.0
1000
ACAD_MTEXT_DEFINED_HEIGHT_END
  0
INSERT
  5
1B1
330
1AA
100
AcDbEntity
  8
7
  6
CONTINUOUS
 62
     4
100
AcDbBlockReference
  2
_ARROWFILLED
 10
994.1664013233677
 20
214.2865917958003
 30
0.0
 41
6.0
 42
6.0
 43
6.0
 50
179.9999999999998
  0
INSERT
  5
1B2
330
1AA
100
AcDbEntity
  8
7
  6
CONTINUOUS
 62
     4
100
AcDbBlockReference
  2
_ARROWFILLED
 10
1039.166401323368
 20
214.2865917958003
 30
0.0
 41
6.0
 42
6.0
 43
6.0
 50
359.9999999999997
  0
ENDBLK
  5
1AC
330
1AA
100
AcDbEntity
  8
0
100
AcDbBlockEnd
  0
BLOCK
  5
1B5
330
1B4
100
AcDbEntity
  8
0
100
AcDbBlockBegin
  2
DIM7
 70
     0
 10
0.0
 20
0.0
 30
0.0
  3
DIM7
  1

  0
LINE
  5
1B7
330
1B4
100
AcDbEntity
  8
7
  6
CONTINUOUS
 62
     4
100
AcDbLine
 10
1038.166401323368
 20
277.7882439254698
 30
0.0
 11
1038.166401323368
 21
262.8625545407814
 31
0.0
  0
LINE
  5
1B8
330
1B4
100
AcDbEntity
  8
7
  6
CONTINUOUS
 62
     4
100
AcDbLine
 10
1039.166401323368
 20
277.7882439254698
 30
0.0
 11
1039.166401323368
 21
262.8625545407814
 31
0.0
  0
LINE
  5
1B9
330
1B4
100
AcDbEntity
  8
7
  6
CONTINUOUS
 62
     4
100
AcDbLine
 10
1026.166401323368
 20
267.3625545407814
 30
0.0
 11
1057.999778645007
 21
267.3625545407814
 31
0.0
  0
MTEXT
  5
1BA
330
1B4
100
AcDbEntity
  8
7
  6
CONTINUOUS
 62
     4
100
AcDbMText
 10
1053.499778645007
 20
267.3625545407814
 30
0.0
 40
9.0
 41
10.71428571428572
 71
     7
 72
     1
  1
1
  7
ＭＳ_ゴシック
1001
ACAD
1000
ACAD_MTEXT_DEFINED_HEIGHT_BEGIN
1070
    46
1040
9.0
1000
ACAD_MTEXT_DEFINED_HEIGHT_END
  0
INSERT
  5
1BB
330
1B4
100
AcDbEntity
  8
7
  6
CONTINUOUS
 62
     4
100
AcDbBlockReference
  2
_ARROWFILLED
 10
1038.166401323368
 20
267.3625545407814
 30
0.0
 41
6.0
 42
6.0
 43
6.0
 50
359.9999999999997
  0
INSERT
  5
1BC
330
1B4
100
AcDbEntity
  8
7
  6
CONTINUOUS
 62
     4
100
AcDbBlockReference
  2
_ARROWFILLED
 10
1039.166401323368
 20
267.3625545407814
 30
0.0
 41
6.0
 42
6.0
 43
6.0
 50
179.9999999999995
  0
ENDBLK
  5
1B6
330
1B4
100
AcDbEntity
  8
0
100
AcDbBlockEnd
  0
BLOCK
  5
1BF
330
1BE
100
AcDbEntity
  8
0
100
AcDbBlockBegin
  2
DIM8
 70
     0
 10
0.0
 20
0.0
 30
0.0
  3
DIM8
  1

  0
LINE
  5
1C1
330
1BE
100
AcDbEntity
  8
7
  6
CONTINUOUS
 62
     4
100
AcDbLine
 10
1039.166401323368
 20
277.7882439254698
 30
0.0
 11
1039.166401323368
 21
238.1197894842636
 31
0.0
  0
LINE
  5
1C2
330
1BE
100
AcDbEntity
  8
7
  6
CONTINUOUS
 62
     4
100
AcDbLine
 10
1005.666401323367
 20
434.7882439254698
 30
0.0
 11
1005.666401323367
 21
238.1197894842636
 31
0.0
  0
LINE
  5
1C3
330
1BE
100
AcDbEntity
  8
7
  6
CONTINUOUS
 62
     4
100
AcDbLine
 10
1039.166401323368
 20
242.6197894842636
 30
0.0
 11
1005.666401323367
 21
242.6197894842636
 31
0.0
  0
MTEXT
  5
1C4
330
1BE
100
AcDbEntity
  8
7
  6
CONTINUOUS
 62
     4
100
AcDbMText
 10
1022.416401323368
 20
242.6197894842636
 30
0.0
 40
9.0
 41
137.1428571428571
 71
     8
 72
     1
  1
33.5
  7
ＭＳ_ゴシック
1001
ACAD
1000
ACAD_MTEXT_DEFINED_HEIGHT_BEGIN
1070
    46
1040
9.0
1000
ACAD_MTEXT_DEFINED_HEIGHT_END
  0
INSERT
  5
1C5
330
1BE
100
AcDbEntity
  8
7
  6
CONTINUOUS
 62
     4
100
AcDbBlockReference
  2
_ARROWFILLED
 10
1039.166401323368
 20
242.6197894842636
 30
0.0
 41
6.0
 42
6.0
 43
6.0
 50
359.9999999999997
  0
INSERT
  5
1C6
330
1BE
100
AcDbEntity
  8
7
  6
CONTINUOUS
 62
     4
100
AcDbBlockReference
  2
_ARROWFILLED
 10
1005.666401323367
 20
242.6197894842636
 30
0.0
 41
6.0
 42
6.0
 43
6.0
 50
179.9999999999998
  0
ENDBLK
  5
1C0
330
1BE
100
AcDbEntity
  8
0
100
AcDbBlockEnd
  0
BLOCK
  5
1C9
330
1C8
100
AcDbEntity
  8
0
100
AcDbBlockBegin
  2
DIM9
 70
     0
 10
0.0
 20
0.0
 30
0.0
  3
DIM9
  1

  0
LINE
  5
1CB
330
1C8
100
AcDbEntity
  8
7
  6
CONTINUOUS
 62
     4
100
AcDbLine
 10
377.7278783205523
 20
284.7882439254702
 30
0.0
 11
377.7278783205522
 21
238.178774697087
 31
0.0
  0
LINE
  5
1CC
330
1C8
100
AcDbEntity
  8
7
  6
CONTINUOUS
 62
     4
100
AcDbLine
 10
490.2278783205525
 20
262.7882439254709
 30
0.0
 11
490.2278783205525
 21
238.178774697087
 31
0.0
  0
LINE
  5
1CD
330
1C8
100
AcDbEntity
  8
7
  6
CONTINUOUS
 62
     4
100
AcDbLine
 10
377.7278783205522
 20
242.678774697087
 30
0.0
 11
490.2278783205525
 21
242.678774697087
 31
0.0
  0
MTEXT
  5
1CE
330
1C8
100
AcDbEntity
  8
7
  6
CONTINUOUS
 62
     4
100
AcDbMText
 10
433.9778783205525
 20
242.678774697087
 30
0.0
 40
9.0
 41
173.5714285714286
 71
     8
 72
     1
  1
112.5
  7
ＭＳ_ゴシック
1001
ACAD
1000
ACAD_MTEXT_DEFINED_HEIGHT_BEGIN
1070
    46
1040
9.0
1000
ACAD_MTEXT_DEFINED_HEIGHT_END
  0
INSERT
  5
1CF
330
1C8
100
AcDbEntity
  8
7
  6
CONTINUOUS
 62
     4
100
AcDbBlockReference
  2
_ARROWFILLED
 10
377.7278783205522
 20
242.678774697087
 30
0.0
 41
6.0
 42
6.0
 43
6.0
 50
179.9999999999998
  0
INSERT
  5
1D0
330
1C8
100
AcDbEntity
  8
7
  6
CONTINUOUS
 62
     4
100
AcDbBlockReference
  2
_ARROWFILLED
 10
490.2278783205525
 20
242.678774697087
 30
0.0
 41
6.0
 42
6.0
 43
6.0
 50
359.9999999999997
  0
ENDBLK
  5
1CA
330
1C8
100
AcDbEntity
  8
0
100
AcDbBlockEnd
  0
BLOCK
  5
1D3
330
1D2
100
AcDbEntity
  8
0
100
AcDbBlockBegin
  2
DIM10
 70
     0
 10
0.0
 20
0.0
 30
0.0
  3
DIM10
  1

  0
LINE
  5
1D5
330
1D2
100
AcDbEntity
  8
7
  6
CONTINUOUS
 62
     4
100
AcDbLine
 10
743.2278783205597
 20
610.7882439254654
 30
0.0
 11
824.1009947670576
 21
610.7882439254654
 31
0.0
  0
LINE
  5
1D6
330
1D2
100
AcDbEntity
  8
7
  6
CONTINUOUS
 62
     4
100
AcDbLine
 10
743.2278783205529
 20
310.7882439254652
 30
0.0
 11
824.1009947670582
 21
310.7882439254652
 31
0.0
  0
LINE
  5
1D7
330
1D2
100
AcDbEntity
  8
7
  6
CONTINUOUS
 62
     4
100
AcDbLine
 10
819.6009947670576
 20
610.7882439254654
 30
0.0
 11
819.6009947670582
 21
310.7882439254652
 31
0.0
  0
MTEXT
  5
1D8
330
1D2
100
AcDbEntity
  8
7
  6
CONTINUOUS
 62
     4
100
AcDbMText
 10
819.600994767058
 20
460.7882439254651
 30
0.0
 40
9.0
 41
115.7142857142857
 71
     8
 72
     1
  1
300
  7
ＭＳ_ゴシック
 11
1.393499969507555E-15
 21
1.0
 31
0.0
1001
ACAD
1000
ACAD_MTEXT_DEFINED_HEIGHT_BEGIN
1070
    46
1040
9.0
1000
ACAD_MTEXT_DEFINED_HEIGHT_END
  0
INSERT
  5
1D9
330
1D2
100
AcDbEntity
  8
7
  6
CONTINUOUS
 62
     4
100
AcDbBlockReference
  2
_ARROWFILLED
 10
819.6009947670576
 20
610.7882439254654
 30
0.0
 41
6.0
 42
6.0
 43
6.0
 50
89.99999999999991
  0
INSERT
  5
1DA
330
1D2
100
AcDbEntity
  8
7
  6
CONTINUOUS
 62
     4
100
AcDbBlockReference
  2
_ARROWFILLED
 10
819.6009947670582
 20
310.7882439254652
 30
0.0
 41
6.0
 42
6.0
 43
6.0
 50
269.9999999999999
  0
ENDBLK
  5
1D4
330
1D2
100
AcDbEntity
  8
0
100
AcDbBlockEnd
  0
BLOCK
  5
1DD
330
1DC
100
AcDbEntity
  8
0
100
AcDbBlockBegin
  2
DIM11
 70
     0
 10
0.0
 20
0.0
 30
0.0
  3
DIM11
  1

  0
LINE
  5
1DF
330
1DC
100
AcDbEntity
  8
7
  6
CONTINUOUS
 62
     4
100
AcDbLine
 10
758.227878320561
 20
625.7882439254649
 30
0.0
 11
853.4124169162222
 21
625.7882439254649
 31
0.0
  0
LINE
  5
1E0
330
1DC
100
AcDbEntity
  8
7
  6
CONTINUOUS
 62
     4
100
AcDbLine
 10
758.2278783205535
 20
295.7882439254649
 30
0.0
 11
853.4124169162228
 21
295.7882439254649
 31
0.0
  0
LINE
  5
1E1
330
1DC
100
AcDbEntity
  8
7
  6
CONTINUOUS
 62
     4
100
AcDbLine
 10
848.9124169162222
 20
625.7882439254649
 30
0.0
 11
848.9124169162228
 21
295.7882439254649
 31
0.0
  0
MTEXT
  5
1E2
330
1DC
100
AcDbEntity
  8
7
  6
CONTINUOUS
 62
     4
100
AcDbMText
 10
848.9124169162226
 20
460.7882439254649
 30
0.0
 40
9.0
 41
115.7142857142857
 71
     8
 72
     1
  1
330
  7
ＭＳ_ゴシック
 11
1.615544574432587E-15
 21
1.0
 31
0.0
1001
ACAD
1000
ACAD_MTEXT_DEFINED_HEIGHT_BEGIN
1070
    46
1040
9.0
1000
ACAD_MTEXT_DEFINED_HEIGHT_END
  0
INSERT
  5
1E3
330
1DC
100
AcDbEntity
  8
7
  6
CONTINUOUS
 62
     4
100
AcDbBlockReference
  2
_ARROWFILLED
 10
848.9124169162222
 20
625.7882439254649
 30
0.0
 41
6.0
 42
6.0
 43
6.0
 50
89.99999999999991
  0
INSERT
  5
1E4
330
1DC
100
AcDbEntity
  8
7
  6
CONTINUOUS
 62
     4
100
AcDbBlockReference
  2
_ARROWFILLED
 10
848.9124169162228
 20
295.7882439254649
 30
0.0
 41
6.0
 42
6.0
 43
6.0
 50
269.9999999999999
  0
ENDBLK
  5
1DE
330
1DC
100
AcDbEntity
  8
0
100
AcDbBlockEnd
  0
BLOCK
  5
1E7
330
1E6
100
AcDbEntity
  8
0
100
AcDbBlockBegin
  2
DIM12
 70
     0
 10
0.0
 20
0.0
 30
0.0
  3
DIM12
  1

  0
LINE
  5
1E9
330
1E6
100
AcDbEntity
  8
7
  6
CONTINUOUS
 62
     4
100
AcDbLine
 10
718.2278783205606
 20
633.7882439254654
 30
0.0
 11
882.339056875477
 21
633.7882439254654
 31
0.0
  0
LINE
  5
1EA
330
1E6
100
AcDbEntity
  8
7
  6
CONTINUOUS
 62
     4
100
AcDbLine
 10
718.2278783205527
 20
287.7882439254662
 30
0.0
 11
882.3390568754776
 21
287.7882439254662
 31
0.0
  0
LINE
  5
1EB
330
1E6
100
AcDbEntity
  8
7
  6
CONTINUOUS
 62
     4
100
AcDbLine
 10
877.839056875477
 20
633.7882439254654
 30
0.0
 11
877.8390568754776
 21
287.7882439254662
 31
0.0
  0
MTEXT
  5
1EC
330
1E6
100
AcDbEntity
  8
7
  6
CONTINUOUS
 62
     4
100
AcDbMText
 10
877.8390568754774
 20
460.7882439254657
 30
0.0
 40
9.0
 41
115.7142857142857
 71
     8
 72
     1
  1
346
  7
ＭＳ_ゴシック
 11
1.615544574432587E-15
 21
1.0
 31
0.0
1001
ACAD
1000
ACAD_MTEXT_DEFINED_HEIGHT_BEGIN
1070
    46
1040
9.0
1000
ACAD_MTEXT_DEFINED_HEIGHT_END
  0
INSERT
  5
1ED
330
1E6
100
AcDbEntity
  8
7
  6
CONTINUOUS
 62
     4
100
AcDbBlockReference
  2
_ARROWFILLED
 10
877.839056875477
 20
633.7882439254654
 30
0.0
 41
6.0
 42
6.0
 43
6.0
 50
89.99999999999991
  0
INSERT
  5
1EE
330
1E6
100
AcDbEntity
  8
7
  6
CONTINUOUS
 62
     4
100
AcDbBlockReference
  2
_ARROWFILLED
 10
877.8390568754776
 20
287.7882439254662
 30
0.0
 41
6.0
 42
6.0
 43
6.0
 50
269.9999999999999
  0
ENDBLK
  5
1E8
330
1E6
100
AcDbEntity
  8
0
100
AcDbBlockEnd
  0
BLOCK
  5
1F1
330
1F0
100
AcDbEntity
  8
0
100
AcDbBlockBegin
  2
DIM13
 70
     0
 10
0.0
 20
0.0
 30
0.0
  3
DIM13
  1

  0
LINE
  5
1F3
330
1F0
100
AcDbEntity
  8
7
  6
CONTINUOUS
 62
     4
100
AcDbLine
 10
738.2278783205608
 20
640.7882439254649
 30
0.0
 11
907.903181609184
 21
640.7882439254649
 31
0.0
  0
LINE
  5
1F4
330
1F0
100
AcDbEntity
  8
7
  6
CONTINUOUS
 62
     4
100
AcDbLine
 10
738.2278783205526
 20
280.7882439254658
 30
0.0
 11
907.9031816091847
 21
280.7882439254658
 31
0.0
  0
LINE
  5
1F5
330
1F0
100
AcDbEntity
  8
7
  6
CONTINUOUS
 62
     4
100
AcDbLine
 10
903.403181609184
 20
640.7882439254649
 30
0.0
 11
903.4031816091847
 21
280.7882439254658
 31
0.0
  0
MTEXT
  5
1F6
330
1F0
100
AcDbEntity
  8
7
  6
CONTINUOUS
 62
     4
100
AcDbMText
 10
903.4031816091843
 20
460.7882439254653
 30
0.0
 40
9.0
 41
115.7142857142857
 71
     8
 72
     1
  1
360
  7
ＭＳ_ゴシック
 11
1.393499969507555E-15
 21
1.0
 31
0.0
1001
ACAD
1000
ACAD_MTEXT_DEFINED_HEIGHT_BEGIN
1070
    46
1040
9.0
1000
ACAD_MTEXT_DEFINED_HEIGHT_END
  0
INSERT
  5
1F7
330
1F0
100
AcDbEntity
  8
7
  6
CONTINUOUS
 62
     4
100
AcDbBlockReference
  2
_ARROWFILLED
 10
903.403181609184
 20
640.7882439254649
 30
0.0
 41
6.0
 42
6.0
 43
6.0
 50
89.99999999999991
  0
INSERT
  5
1F8
330
1F0
100
AcDbEntity
  8
7
  6
CONTINUOUS
 62
     4
100
AcDbBlockReference
  2
_ARROWFILLED
 10
903.4031816091847
 20
280.7882439254658
 30
0.0
 41
6.0
 42
6.0
 43
6.0
 50
269.9999999999999
  0
ENDBLK
  5
1F2
330
1F0
100
AcDbEntity
  8
0
100
AcDbBlockEnd
  0
BLOCK
  5
1FB
330
1FA
100
AcDbEntity
  8
0
100
AcDbBlockBegin
  2
DIM14
 70
     0
 10
0.0
 20
0.0
 30
0.0
  3
DIM14
  1

  0
LINE
  5
1FD
330
1FA
100
AcDbEntity
  8
7
  6
CONTINUOUS
 62
     4
100
AcDbLine
 10
490.2278783205525
 20
262.7882439254709
 30
0.0
 11
490.2278783205525
 21
238.178774697087
 31
0.0
  0
LINE
  5
1FE
330
1FA
100
AcDbEntity
  8
7
  6
CONTINUOUS
 62
     4
100
AcDbLine
 10
602.7278783205523
 20
284.7882439254702
 30
0.0
 11
602.7278783205522
 21
238.178774697087
 31
0.0
  0
LINE
  5
1FF
330
1FA
100
AcDbEntity
  8
7
  6
CONTINUOUS
 62
     4
100
AcDbLine
 10
490.2278783205525
 20
242.678774697087
 30
0.0
 11
602.7278783205522
 21
242.678774697087
 31
0.0
  0
MTEXT
  5
200
330
1FA
100
AcDbEntity
  8
7
  6
CONTINUOUS
 62
     4
100
AcDbMText
 10
546.4778783205525
 20
242.678774697087
 30
0.0
 40
9.0
 41
173.5714285714286
 71
     8
 72
     1
  1
112.5
  7
ＭＳ_ゴシック
1001
ACAD
1000
ACAD_MTEXT_DEFINED_HEIGHT_BEGIN
1070
    46
1040
9.0
1000
ACAD_MTEXT_DEFINED_HEIGHT_END
  0
INSERT
  5
201
330
1FA
100
AcDbEntity
  8
7
  6
CONTINUOUS
 62
     4
100
AcDbBlockReference
  2
_ARROWFILLED
 10
490.2278783205525
 20
242.678774697087
 30
0.0
 41
6.0
 42
6.0
 43
6.0
 50
179.9999999999998
  0
INSERT
  5
202
330
1FA
100
AcDbEntity
  8
7
  6
CONTINUOUS
 62
     4
100
AcDbBlockReference
  2
_ARROWFILLED
 10
602.7278783205522
 20
242.678774697087
 30
0.0
 41
6.0
 42
6.0
 43
6.0
 50
359.9999999999997
  0
ENDBLK
  5
1FC
330
1FA
100
AcDbEntity
  8
0
100
AcDbBlockEnd
  0
BLOCK
  5
205
330
204
100
AcDbEntity
  8
0
100
AcDbBlockBegin
  2
DIM15
 70
     0
 10
0.0
 20
0.0
 30
0.0
  3
DIM15
  1

  0
LINE
  5
207
330
204
100
AcDbEntity
  8
7
  6
CONTINUOUS
 62
     4
100
AcDbLine
 10
505.8723818522291
 20
452.9460816440899
 30
0.0
 11
190.7838234998741
 21
610.8913691127167
 31
0.0
  0
MTEXT
  5
208
330
204
100
AcDbEntity
  8
7
  6
CONTINUOUS
 62
     4
100
AcDbMText
 10
202.8524405100116
 20
604.8417010670616
 30
0.0
 40
9.0
 41
113.5714285714286
 71
     9
 72
     1
  1
\U+220535
  7
ＭＳ_ゴシック
 11
0.8939716303806353
 21
-0.4481235589372519
 31
0.0
1001
ACAD
1000
ACAD_MTEXT_DEFINED_HEIGHT_BEGIN
1070
    46
1040
9.0
1000
ACAD_MTEXT_DEFINED_HEIGHT_END
  0
INSERT
  5
209
330
204
100
AcDbEntity
  8
7
  6
CONTINUOUS
 62
     4
100
AcDbBlockReference
  2
_ARROWFILLED
 10
505.8723818522291
 20
452.9460816440899
 30
0.0
 41
6.0
 42
6.0
 43
6.0
 50
333.376642969277
  0
INSERT
  5
20A
330
204
100
AcDbEntity
  8
7
  6
CONTINUOUS
 62
     4
100
AcDbBlockReference
  2
_ARROWFILLED
 10
474.5833747889081
 20
468.6304062068932
 30
0.0
 41
6.0
 42
6.0
 43
6.0
 50
153.376642969277
  0
ENDBLK
  5
206
330
204
100
AcDbEntity
  8
0
100
AcDbBlockEnd
  0
BLOCK
  5
20D
330
20C
100
AcDbEntity
  8
0
100
AcDbBlockBegin
  2
DIM16
 70
     0
 10
0.0
 20
0.0
 30
0.0
  3
DIM16
  1

  0
LINE
  5
20F
330
20C
100
AcDbEntity
  8
7
  6
CONTINUOUS
 62
     4
100
AcDbLine
 10
512.3004026061784
 20
456.4231927618943
 30
0.0
 11
189.7877717079078
 21
520.2031264278955
 31
0.0
  0
MTEXT
  5
210
330
20C
100
AcDbEntity
  8
7
  6
CONTINUOUS
 62
     4
100
AcDbMText
 10
203.0312862792765
 20
517.5840957297277
 30
0.0
 40
9.0
 41
113.5714285714286
 71
     9
 72
     1
  1
\U+220545
  7
ＭＳ_ゴシック
 11
0.9810010793607671
 21
-0.1940022739377299
 31
0.0
1001
ACAD
1000
ACAD_MTEXT_DEFINED_HEIGHT_BEGIN
1070
    46
1040
9.0
1000
ACAD_MTEXT_DEFINED_HEIGHT_END
  0
INSERT
  5
211
330
20C
100
AcDbEntity
  8
7
  6
CONTINUOUS
 62
     4
100
AcDbBlockReference
  2
_ARROWFILLED
 10
512.3004026061784
 20
456.4231927618943
 30
0.0
 41
6.0
 42
6.0
 43
6.0
 50
348.813554888224
  0
INSERT
  5
212
330
20C
100
AcDbEntity
  8
7
  6
CONTINUOUS
 62
     4
100
AcDbBlockReference
  2
_ARROWFILLED
 10
468.155354034944
 20
465.1532950890922
 30
0.0
 41
6.0
 42
6.0
 43
6.0
 50
168.813554888224
  0
ENDBLK
  5
20E
330
20C
100
AcDbEntity
  8
0
100
AcDbBlockEnd
  0
ENDSEC
  0
SECTION
  2
ENTITIES
  0
POLYLINE
  5
A2
330
1F
100
AcDbEntity
  8
10
  6
CONTINUOUS
 62
     7
100
AcDb2dPolyline
 66
     1
 10
0.0
 20
0.0
 30
0.0
  0
VERTEX
  5
A3
330
A2
100
AcDbEntity
  8
10
  6
CONTINUOUS
 62
     7
100
AcDbVertex
100
AcDb2dVertex
 10
240.2278783205529
 20
310.7882439254698
 30
0.0
  0
VERTEX
  5
A4
330
A2
100
AcDbEntity
  8
10
  6
CONTINUOUS
 62
     7
100
AcDbVertex
100
AcDb2dVertex
 10
740.2278783205529
 20
310.7882439254698
 30
0.0
  0
VERTEX
  5
A5
330
A2
100
AcDbEntity
  8
10
  6
CONTINUOUS
 62
     7
100
AcDbVertex
100
AcDb2dVertex
 10
740.2278783205529
 20
610.7882439254697
 30
0.0
  0
VERTEX
  5
A6
330
A2
100
AcDbEntity
  8
10
  6
CONTINUOUS
 62
     7
100
AcDbVertex
100
AcDb2dVertex
 10
240.2278783205529
 20
610.7882439254699
 30
0.0
  0
VERTEX
  5
A7
330
A2
100
AcDbEntity
  8
10
  6
CONTINUOUS
 62
     7
100
AcDbVertex
100
AcDb2dVertex
 10
240.2278783205529
 20
310.7882439254698
 30
0.0
  0
SEQEND
  5
A8
330
A2
100
AcDbEntity
  8
10
  6
CONTINUOUS
 62
     7
  0
LINE
  5
A9
330
1F
100
AcDbEntity
  8
10
  6
CONTINUOUS
 62
     7
100
AcDbLine
 10
755.2278783205529
 20
295.7882439254698
 30
0.0
 11
225.227878320552
 21
295.7882439254698
 31
0.0
  0
LINE
  5
AA
330
1F
100
AcDbEntity
  8
10
  6
CONTINUOUS
 62
     7
100
AcDbLine
 10
225.227878320552
 20
295.7882439254698
 30
0.0
 11
225.227878320552
 21
625.7882439254699
 31
0.0
  0
LINE
  5
AB
330
1F
100
AcDbEntity
  8
10
  6
CONTINUOUS
 62
     7
100
AcDbLine
 10
755.2278783205529
 20
295.7882439254698
 30
0.0
 11
755.2278783205529
 21
625.7882439254697
 31
0.0
  0
LINE
  5
AC
330
1F
100
AcDbEntity
  8
10
  6
CONTINUOUS
 62
     7
100
AcDbLine
 10
755.2278783205529
 20
625.7882439254697
 30
0.0
 11
225.227878320552
 21
625.7882439254699
 31
0.0
  0
LINE
  5
AD
330
1F
100
AcDbEntity
  8
10
  6
CONTINUOUS
 62
     7
100
AcDbLine
 10
790.2278783205529
 20
437.7882439254715
 30
0.0
 11
790.2278783205529
 21
483.7882439254715
 31
0.0
  0
LINE
  5
AE
330
1F
100
AcDbEntity
  8
10
  6
CONTINUOUS
 62
     7
100
AcDbLine
 10
790.2278783205529
 20
482.2882439254715
 30
0.0
 11
755.227878320552
 21
482.2882439254715
 31
0.0
  0
LINE
  5
AF
330
1F
100
AcDbEntity
  8
10
  6
CONTINUOUS
 62
     7
100
AcDbLine
 10
790.2278783205529
 20
483.7882439254715
 30
0.0
 11
755.2278783205529
 21
483.7882439254715
 31
0.0
  0
LINE
  5
B0
330
1F
100
AcDbEntity
  8
10
  6
CONTINUOUS
 62
     7
100
AcDbLine
 10
790.2278783205529
 20
439.2882439254715
 30
0.0
 11
755.227878320552
 21
439.2882439254715
 31
0.0
  0
LINE
  5
B1
330
1F
100
AcDbEntity
  8
10
  6
CONTINUOUS
 62
     7
100
AcDbLine
 10
790.2278783205529
 20
437.7882439254715
 30
0.0
 11
755.2278783205529
 21
437.7882439254715
 31
0.0
  0
LINE
  5
B2
330
1F
100
AcDbEntity
  8
10
  6
CONTINUOUS
 62
     7
100
AcDbLine
 10
783.0778783205515
 20
433.5222372860005
 30
0.0
 11
783.0778783205515
 21
426.2882439254697
 31
0.0
  0
LINE
  5
B3
330
1F
100
AcDbEntity
  8
10
  6
CONTINUOUS
 62
     7
100
AcDbLine
 10
782.5394167820905
 20
430.9882439254695
 30
0.0
 11
783.0778783205515
 21
431.9208866680071
 31
0.0
  0
LINE
  5
B4
330
1F
100
AcDbEntity
  8
10
  6
CONTINUOUS
 62
     7
100
AcDbLine
 10
782.2778783205522
 20
425.4882439254695
 30
0.0
 11
783.0778783205515
 21
426.2882439254697
 31
0.0
  0
LINE
  5
B5
330
1F
100
AcDbEntity
  8
10
  6
CONTINUOUS
 62
     7
100
AcDbLine
 10
782.5394167820905
 20
430.9882439254695
 30
0.0
 11
782.5394167820905
 21
425.7497823870078
 31
0.0
  0
LINE
  5
B6
330
1F
100
AcDbEntity
  8
10
  6
CONTINUOUS
 62
     7
100
AcDbLine
 10
786.7278783205529
 20
435.4882439254695
 30
0.0
 11
786.7278783205529
 21
437.7882439254697
 31
0.0
  0
LINE
  5
B7
330
1F
100
AcDbEntity
  8
10
  6
CONTINUOUS
 62
     7
100
AcDbLine
 10
757.7278783205529
 20
435.4882439254695
 30
0.0
 11
757.7278783205529
 21
437.7882439254697
 31
0.0
  0
LINE
  5
B8
330
1F
100
AcDbEntity
  8
10
  6
CONTINUOUS
 62
     7
100
AcDbLine
 10
761.9163398590135
 20
430.9882439254695
 30
0.0
 11
761.3778783205526
 21
431.9208866680071
 31
0.0
  0
LINE
  5
B9
330
1F
100
AcDbEntity
  8
10
  6
CONTINUOUS
 62
     7
100
AcDbLine
 10
786.7278783205529
 20
435.4882439254695
 30
0.0
 11
757.7278783205529
 21
435.4882439254695
 31
0.0
  0
LINE
  5
BA
330
1F
100
AcDbEntity
  8
10
  6
CONTINUOUS
 62
     7
100
AcDbLine
 10
761.3778783205526
 20
430.9882439254695
 30
0.0
 11
783.0778783205515
 21
430.9882439254695
 31
0.0
  0
LINE
  5
BB
330
1F
100
AcDbEntity
  8
10
  6
CONTINUOUS
 62
     7
100
AcDbLine
 10
762.1778783205518
 20
425.4882439254695
 30
0.0
 11
761.3778783205526
 21
426.2882439254697
 31
0.0
  0
LINE
  5
BC
330
1F
100
AcDbEntity
  8
10
  6
CONTINUOUS
 62
     7
100
AcDbLine
 10
761.3778783205526
 20
426.2882439254697
 30
0.0
 11
783.0778783205515
 21
426.2882439254697
 31
0.0
  0
LINE
  5
BD
330
1F
100
AcDbEntity
  8
10
  6
CONTINUOUS
 62
     7
100
AcDbLine
 10
761.3778783205526
 20
433.5149587566809
 30
0.0
 11
761.3778783205526
 21
426.2882439254697
 31
0.0
  0
LINE
  5
BE
330
1F
100
AcDbEntity
  8
10
  6
CONTINUOUS
 62
     7
100
AcDbLine
 10
761.9163398590135
 20
430.9882439254695
 30
0.0
 11
761.9163398590135
 21
425.7497823870078
 31
0.0
  0
LINE
  5
BF
330
1F
100
AcDbEntity
  8
10
  6
CONTINUOUS
 62
     7
100
AcDbLine
 10
762.1778783205518
 20
425.4882439254695
 30
0.0
 11
782.2778783205522
 21
425.4882439254695
 31
0.0
  0
LINE
  5
C0
330
1F
100
AcDbEntity
  8
10
  6
CONTINUOUS
 62
     7
100
AcDbLine
 10
786.5169004529016
 20
435.4882439254695
 30
0.0
 11
781.0169004529016
 21
435.4882439254695
 31
0.0
  0
ARC
  5
C1
330
1F
100
AcDbEntity
  8
10
  6
CONTINUOUS
 62
     7
100
AcDbCircle
 10
783.7669004529016
 20
440.4882439254695
 30
0.0
 40
7.0
100
AcDbArc
 50
253.4486440000077
 51
286.5513559999916
  0
LINE
  5
C2
330
1F
100
AcDbEntity
  8
10
  6
CONTINUOUS
 62
     7
100
AcDbLine
 10
786.5169004529016
 20
435.4882439254695
 30
0.0
 11
786.4747784529018
 21
434.6845189254698
 31
0.0
  0
ARC
  5
C3
330
1F
100
AcDbEntity
  8
10
  6
CONTINUOUS
 62
     7
100
AcDbCircle
 10
785.4761484529017
 20
434.7368549254695
 30
0.0
 40
1.0
100
AcDbArc
 50
286.5513559999903
 51
356.9999999999939
  0
LINE
  5
C4
330
1F
100
AcDbEntity
  8
10
  6
CONTINUOUS
 62
     7
100
AcDbLine
 10
781.0169004529016
 20
435.4882439254695
 30
0.0
 11
781.0590224529024
 21
434.6845189254698
 31
0.0
  0
ARC
  5
C5
330
1F
100
AcDbEntity
  8
10
  6
CONTINUOUS
 62
     7
100
AcDbCircle
 10
782.0576524529024
 20
434.7368549254695
 30
0.0
 40
1.0
100
AcDbArc
 50
183.0000000000054
 51
253.448644000009
  0
LINE
  5
C6
330
1F
100
AcDbEntity
  8
10
  6
CONTINUOUS
 62
     7
100
AcDbLine
 10
763.5169004529016
 20
435.4882439254695
 30
0.0
 11
758.0169004529016
 21
435.4882439254695
 31
0.0
  0
ARC
  5
C7
330
1F
100
AcDbEntity
  8
10
  6
CONTINUOUS
 62
     7
100
AcDbCircle
 10
760.7669004529016
 20
440.4882439254695
 30
0.0
 40
7.0
100
AcDbArc
 50
253.4486440000077
 51
286.5513559999916
  0
LINE
  5
C8
330
1F
100
AcDbEntity
  8
10
  6
CONTINUOUS
 62
     7
100
AcDbLine
 10
763.5169004529016
 20
435.4882439254695
 30
0.0
 11
763.4747784529018
 21
434.6845189254698
 31
0.0
  0
ARC
  5
C9
330
1F
100
AcDbEntity
  8
10
  6
CONTINUOUS
 62
     7
100
AcDbCircle
 10
762.4761484529017
 20
434.7368549254695
 30
0.0
 40
1.0
100
AcDbArc
 50
286.5513559999903
 51
356.9999999999939
  0
LINE
  5
CA
330
1F
100
AcDbEntity
  8
10
  6
CONTINUOUS
 62
     7
100
AcDbLine
 10
758.0169004529016
 20
435.4882439254695
 30
0.0
 11
758.0590224529024
 21
434.6845189254698
 31
0.0
  0
ARC
  5
CB
330
1F
100
AcDbEntity
  8
10
  6
CONTINUOUS
 62
     7
100
AcDbCircle
 10
759.0576524529024
 20
434.7368549254695
 30
0.0
 40
1.0
100
AcDbArc
 50
183.0000000000054
 51
253.448644000009
  0
LINE
  5
CC
330
1F
100
AcDbEntity
  8
10
  6
CONTINUOUS
 62
     7
100
AcDbLine
 10
224.9112116538854
 20
532.3382439254713
 30
0.0
 11
224.9112116538854
 21
539.2382439254709
 31
0.0
  0
ARC
  5
CD
330
1F
100
AcDbEntity
  8
10
  6
CONTINUOUS
 62
     7
100
AcDbCircle
 10
227.878229197745
 20
535.7882439254702
 30
0.0
 40
4.550350877192983
100
AcDbArc
 50
130.6956985254013
 51
229.3043014745992
  0
LINE
  5
CE
330
1F
100
AcDbEntity
  8
10
  6
CONTINUOUS
 62
     7
100
AcDbLine
 10
225.227878320552
 20
532.3382439254713
 30
0.0
 11
224.9112116538854
 21
532.3382439254713
 31
0.0
  0
LINE
  5
CF
330
1F
100
AcDbEntity
  8
10
  6
CONTINUOUS
 62
     7
100
AcDbLine
 10
225.227878320552
 20
539.2382439254709
 30
0.0
 11
224.9112116538854
 21
539.2382439254709
 31
0.0
  0
LINE
  5
D0
330
1F
100
AcDbEntity
  8
10
  6
CONTINUOUS
 62
     7
100
AcDbLine
 10
238.6778783205532
 20
626.1049105921368
 30
0.0
 11
231.7778783205536
 21
626.1049105921368
 31
0.0
  0
ARC
  5
D1
330
1F
100
AcDbEntity
  8
10
  6
CONTINUOUS
 62
     7
100
AcDbCircle
 10
235.2278783205543
 20
623.1378930482772
 30
0.0
 40
4.550350877192983
100
AcDbArc
 50
40.69569852540148
 51
139.3043014745985
  0
LINE
  5
D2
330
1F
100
AcDbEntity
  8
10
  6
CONTINUOUS
 62
     7
100
AcDbLine
 10
238.6778783205532
 20
625.7882439254702
 30
0.0
 11
238.6778783205532
 21
626.1049105921368
 31
0.0
  0
LINE
  5
D3
330
1F
100
AcDbEntity
  8
10
  6
CONTINUOUS
 62
     7
100
AcDbLine
 10
231.7778783205536
 20
625.7882439254702
 30
0.0
 11
231.7778783205536
 21
626.1049105921368
 31
0.0
  0
LINE
  5
D4
330
1F
100
AcDbEntity
  8
10
  6
CONTINUOUS
 62
     7
100
AcDbLine
 10
260.1778783205532
 20
626.1049105921368
 30
0.0
 11
253.2778783205536
 21
626.1049105921368
 31
0.0
  0
ARC
  5
D5
330
1F
100
AcDbEntity
  8
10
  6
CONTINUOUS
 62
     7
100
AcDbCircle
 10
256.7278783205543
 20
623.1378930482772
 30
0.0
 40
4.550350877192955
100
AcDbArc
 50
40.69569852540125
 51
139.3043014745985
  0
LINE
  5
D6
330
1F
100
AcDbEntity
  8
10
  6
CONTINUOUS
 62
     7
100
AcDbLine
 10
260.1778783205532
 20
625.7882439254702
 30
0.0
 11
260.1778783205532
 21
626.1049105921368
 31
0.0
  0
LINE
  5
D7
330
1F
100
AcDbEntity
  8
10
  6
CONTINUOUS
 62
     7
100
AcDbLine
 10
253.2778783205536
 20
625.7882439254702
 30
0.0
 11
253.2778783205536
 21
626.1049105921368
 31
0.0
  0
LINE
  5
D8
330
1F
100
AcDbEntity
  8
10
  6
CONTINUOUS
 62
     7
100
AcDbLine
 10
755.5445449872195
 20
495.33824392547
 30
0.0
 11
755.5445449872195
 21
502.2382439254705
 31
0.0
  0
ARC
  5
D9
330
1F
100
AcDbEntity
  8
10
  6
CONTINUOUS
 62
     7
100
AcDbCircle
 10
752.5775274433599
 20
498.7882439254698
 30
0.0
 40
4.550350877192955
100
AcDbArc
 50
310.6956985254009
 51
49.30430147459828
  0
LINE
  5
DA
330
1F
100
AcDbEntity
  8
10
  6
CONTINUOUS
 62
     7
100
AcDbLine
 10
755.2278783205529
 20
495.33824392547
 30
0.0
 11
755.5445449872195
 21
495.33824392547
 31
0.0
  0
LINE
  5
DB
330
1F
100
AcDbEntity
  8
10
  6
CONTINUOUS
 62
     7
100
AcDbLine
 10
755.2278783205529
 20
502.2382439254705
 30
0.0
 11
755.5445449872195
 21
502.2382439254705
 31
0.0
  0
LINE
  5
DC
330
1F
100
AcDbEntity
  8
10
  6
CONTINUOUS
 62
     7
100
AcDbLine
 10
755.5445449872195
 20
426.2382439254695
 30
0.0
 11
755.5445449872195
 21
419.338243925469
 31
0.0
  0
ARC
  5
DD
330
1F
100
AcDbEntity
  8
10
  6
CONTINUOUS
 62
     7
100
AcDbCircle
 10
752.5775274433599
 20
422.7882439254697
 30
0.0
 40
4.550350877192955
100
AcDbArc
 50
310.6956985254009
 51
49.30430147459828
  0
LINE
  5
DE
330
1F
100
AcDbEntity
  8
10
  6
CONTINUOUS
 62
     7
100
AcDbLine
 10
755.2278783205529
 20
426.2382439254695
 30
0.0
 11
755.5445449872195
 21
426.2382439254695
 31
0.0
  0
LINE
  5
DF
330
1F
100
AcDbEntity
  8
10
  6
CONTINUOUS
 62
     7
100
AcDbLine
 10
755.2278783205529
 20
419.338243925469
 30
0.0
 11
755.5445449872195
 21
419.338243925469
 31
0.0
  0
LINE
  5
E0
330
1F
100
AcDbEntity
  8
4
  6
DASHDOT
 62
     1
100
AcDbLine
 10
770.2278783205529
 20
460.7882439254697
 30
0.0
 11
210.227878320552
 21
460.7882439254698
 31
0.0
  0
LINE
  5
E1
330
1F
100
AcDbEntity
  8
4
  6
DASHDOT
 62
     1
100
AcDbLine
 10
490.2278783205525
 20
655.7882439254688
 30
0.0
 11
490.2278783205525
 21
265.7882439254709
 31
0.0
  0
LINE
  5
E2
330
1F
100
AcDbEntity
  8
10
  6
CONTINUOUS
 62
     7
100
AcDbLine
 10
740.2278783205526
 20
285.7882439254702
 30
0.0
 11
740.2278783205526
 21
295.7882439254702
 31
0.0
  0
ARC
  5
E3
330
1F
100
AcDbEntity
  8
10
  6
CONTINUOUS
 62
     7
100
AcDbCircle
 10
735.2278783205526
 20
285.7882439254702
 30
0.0
 40
5.0
100
AcDbArc
 50
269.9999999999998
 51
0.0
  0
LINE
  5
E4
330
1F
100
AcDbEntity
  8
10
  6
CONTINUOUS
 62
     7
100
AcDbLine
 10
245.2278783205526
 20
280.7882439254702
 30
0.0
 11
735.2278783205526
 21
280.7882439254716
 31
0.0
  0
LINE
  5
E5
330
1F
100
AcDbEntity
  8
10
  6
CONTINUOUS
 62
     7
100
AcDbLine
 10
240.2278783205526
 20
285.7882439254702
 30
0.0
 11
240.2278783205526
 21
295.7882439254702
 31
0.0
  0
ARC
  5
E6
330
1F
100
AcDbEntity
  8
10
  6
CONTINUOUS
 62
     7
100
AcDbCircle
 10
245.2278783205508
 20
285.7882439254702
 30
0.0
 40
5.0
100
AcDbArc
 50
179.9999999999998
 51
269.9999999999998
  0
CIRCLE
  5
E7
330
1F
100
AcDbEntity
  8
10
  6
CONTINUOUS
 62
     7
100
AcDbCircle
 10
715.2278783205526
 20
287.7882439254702
 30
0.0
 40
3.100000000000023
  0
CIRCLE
  5
E8
330
1F
100
AcDbEntity
  8
10
  6
CONTINUOUS
 62
     7
100
AcDbCircle
 10
602.7278783205523
 20
287.7882439254702
 30
0.0
 40
3.100000000000023
  0
CIRCLE
  5
E9
330
1F
100
AcDbEntity
  8
10
  6
CONTINUOUS
 62
     7
100
AcDbCircle
 10
377.7278783205523
 20
287.7882439254702
 30
0.0
 40
3.100000000000023
  0
CIRCLE
  5
EA
330
1F
100
AcDbEntity
  8
10
  6
CONTINUOUS
 62
     7
100
AcDbCircle
 10
265.2278783205526
 20
287.7882439254702
 30
0.0
 40
3.100000000000023
  0
LINE
  5
EB
330
1F
100
AcDbEntity
  8
10
  6
CONTINUOUS
 62
     7
100
AcDbLine
 10
740.2278783205527
 20
635.7882439254693
 30
0.0
 11
740.2278783205527
 21
625.7882439254693
 31
0.0
  0
ARC
  5
EC
330
1F
100
AcDbEntity
  8
10
  6
CONTINUOUS
 62
     7
100
AcDbCircle
 10
735.2278783205527
 20
635.7882439254693
 30
0.0
 40
5.0
100
AcDbArc
 50
0.0
 51
89.99999999999991
  0
LINE
  5
ED
330
1F
100
AcDbEntity
  8
10
  6
CONTINUOUS
 62
     7
100
AcDbLine
 10
245.2278783205526
 20
640.7882439254695
 30
0.0
 11
735.2278783205527
 21
640.7882439254679
 31
0.0
  0
LINE
  5
EE
330
1F
100
AcDbEntity
  8
10
  6
CONTINUOUS
 62
     7
100
AcDbLine
 10
240.2278783205526
 20
635.7882439254695
 30
0.0
 11
240.2278783205526
 21
625.7882439254695
 31
0.0
  0
ARC
  5
EF
330
1F
100
AcDbEntity
  8
10
  6
CONTINUOUS
 62
     7
100
AcDbCircle
 10
245.2278783205508
 20
635.7882439254695
 30
0.0
 40
5.0
100
AcDbArc
 50
89.99999999999991
 51
179.9999999999998
  0
CIRCLE
  5
F0
330
1F
100
AcDbEntity
  8
10
  6
CONTINUOUS
 62
     7
100
AcDbCircle
 10
715.2278783205527
 20
633.7882439254693
 30
0.0
 40
3.100000000000023
  0
CIRCLE
  5
F1
330
1F
100
AcDbEntity
  8
10
  6
CONTINUOUS
 62
     7
100
AcDbCircle
 10
602.7278783205523
 20
633.7882439254693
 30
0.0
 40
3.100000000000023
  0
CIRCLE
  5
F2
330
1F
100
AcDbEntity
  8
10
  6
CONTINUOUS
 62
     7
100
AcDbCircle
 10
377.7278783205523
 20
633.7882439254695
 30
0.0
 40
3.100000000000023
  0
CIRCLE
  5
F3
330
1F
100
AcDbEntity
  8
10
  6
CONTINUOUS
 62
     7
100
AcDbCircle
 10
265.2278783205526
 20
633.7882439254695
 30
0.0
 40
3.100000000000023
  0
DIMENSION
  5
100
330
1F
100
AcDbEntity
  8
7
  6
CONTINUOUS
 62
     4
100
AcDbDimension
  2
DIM1
 10
715.2278783205525
 20
242.678774697087
 30
0.0
 11
670.2278783205525
 21
247.178774697087
 31
0.0
 70
   160
  1
<>
  3
STANDARD
100
AcDbAlignedDimension
 13
602.7278783205523
 23
287.7882439254702
 33
0.0
 14
715.2278783205526
 24
287.7882439254702
 34
0.0
100
AcDbRotatedDimension
1001
ACAD
1000
DSTYLE
1002
{
1070
   287
1070
     4
1070
     7
1000

1070
     6
1000

1070
   279
1070
     1
1070
   340
1005
F4
1070
   140
1040
9.0
1070
    40
1040
1.0
1070
   147
1040
0.0
1070
    76
1070
     0
1070
    75
1070
     0
1070
   173
1070
     1
1070
   289
1070
     2
1070
   288
1070
     1
1070
    77
1070
     1
1070
   172
1070
     1
1070
   174
1070
     0
1070
    74
1070
     0
1070
    73
1070
     0
1070
   284
1070
     8
1070
    78
1070
     8
1070
    42
1040
3.0
1070
    44
1040
4.5
1070
    43
1040
30.0
1070
   271
1070
     2
1070
    41
1040
6.0
1002
}
  0
LINE
  5
101
330
1F
100
AcDbEntity
  8
10
  6
CONTINUOUS
 62
     7
100
AcDbLine
 10
1032.616401323368
 20
295.4715772588041
 30
0.0
 11
1025.716401323367
 21
295.4715772588041
 31
0.0
  0
ARC
  5
102
330
1F
100
AcDbEntity
  8
10
  6
CONTINUOUS
 62
     7
100
AcDbCircle
 10
1029.166401323368
 20
298.4385948026628
 30
0.0
 40
4.550350877193068
100
AcDbArc
 50
220.6956985253633
 51
319.304301474632
  0
LINE
  5
103
330
1F
100
AcDbEntity
  8
10
  6
CONTINUOUS
 62
     7
100
AcDbLine
 10
1032.616401323368
 20
295.7882439254698
 30
0.0
 11
1032.616401323368
 21
295.4715772588041
 31
0.0
  0
LINE
  5
104
330
1F
100
AcDbEntity
  8
10
  6
CONTINUOUS
 62
     7
100
AcDbLine
 10
1025.716401323367
 20
295.7882439254698
 30
0.0
 11
1025.716401323367
 21
295.4715772588041
 31
0.0
  0
LINE
  5
105
330
1F
100
AcDbEntity
  8
10
  6
CONTINUOUS
 62
     7
100
AcDbLine
 10
994.1664013233678
 20
625.7882439254698
 30
0.0
 11
994.1664013233678
 21
295.7882439254698
 31
0.0
  0
LINE
  5
106
330
1F
100
AcDbEntity
  8
10
  6
CONTINUOUS
 62
     7
100
AcDbLine
 10
1039.166401323368
 20
640.7882439254698
 30
0.0
 11
1039.166401323368
 21
280.7882439254698
 31
0.0
  0
LINE
  5
107
330
1F
100
AcDbEntity
  8
10
  6
CONTINUOUS
 62
     7
100
AcDbLine
 10
1038.166401323368
 20
640.7882439254698
 30
0.0
 11
1038.166401323366
 21
280.7882439254698
 31
0.0
  0
LINE
  5
108
330
1F
100
AcDbEntity
  8
10
  6
CONTINUOUS
 62
     7
100
AcDbLine
 10
994.1664013233678
 20
625.7882439254698
 30
0.0
 11
1038.166401323368
 21
625.788243925468
 31
0.0
  0
LINE
  5
109
330
1F
100
AcDbEntity
  8
10
  6
CONTINUOUS
 62
     7
100
AcDbLine
 10
1038.166401323368
 20
624.788243925468
 30
0.0
 11
1039.166401323368
 21
624.788243925468
 31
0.0
  0
LINE
  5
10A
330
1F
100
AcDbEntity
  8
10
  6
CONTINUOUS
 62
     7
100
AcDbLine
 10
1038.166401323368
 20
640.7882439254698
 30
0.0
 11
1039.166401323368
 21
640.7882439254698
 31
0.0
  0
LINE
  5
10B
330
1F
100
AcDbEntity
  8
10
  6
CONTINUOUS
 62
     7
100
AcDbLine
 10
994.1664013233678
 20
295.7882439254698
 30
0.0
 11
1038.166401323366
 21
295.7882439254698
 31
0.0
  0
LINE
  5
10C
330
1F
100
AcDbEntity
  8
10
  6
CONTINUOUS
 62
     7
100
AcDbLine
 10
1038.166401323366
 20
296.7882439254698
 30
0.0
 11
1039.166401323368
 21
296.7882439254698
 31
0.0
  0
LINE
  5
10D
330
1F
100
AcDbEntity
  8
10
  6
CONTINUOUS
 62
     7
100
AcDbLine
 10
1038.166401323368
 20
280.7882439254698
 30
0.0
 11
1039.166401323368
 21
280.7882439254698
 31
0.0
  0
LINE
  5
10E
330
1F
100
AcDbEntity
  8
10
  6
CONTINUOUS
 62
     7
100
AcDbLine
 10
1005.666401323367
 20
483.7882439254698
 30
0.0
 11
1038.166401323367
 21
483.7882439254698
 31
0.0
  0
LINE
  5
10F
330
1F
100
AcDbEntity
  8
10
  6
CONTINUOUS
 62
     7
100
AcDbLine
 10
1005.666401323367
 20
483.7882439254698
 30
0.0
 11
1005.666401323367
 21
437.7882439254698
 31
0.0
  0
LINE
  5
110
330
1F
100
AcDbEntity
  8
10
  6
CONTINUOUS
 62
     7
100
AcDbLine
 10
1005.666401323367
 20
437.7882439254698
 30
0.0
 11
1038.166401323367
 21
437.7882439254698
 31
0.0
  0
LINE
  5
111
330
1F
100
AcDbEntity
  8
10
  6
CONTINUOUS
 62
     7
100
AcDbLine
 10
1032.516401323369
 20
433.5222372859988
 30
0.0
 11
1032.516401323369
 21
426.288243925468
 31
0.0
  0
LINE
  5
112
330
1F
100
AcDbEntity
  8
10
  6
CONTINUOUS
 62
     7
100
AcDbLine
 10
1031.977939784906
 20
430.9882439254669
 30
0.0
 11
1032.516401323367
 21
431.9208866680054
 31
0.0
  0
LINE
  5
113
330
1F
100
AcDbEntity
  8
10
  6
CONTINUOUS
 62
     7
100
AcDbLine
 10
1031.716401323368
 20
425.4882439254669
 30
0.0
 11
1032.516401323369
 21
426.288243925468
 31
0.0
  0
LINE
  5
114
330
1F
100
AcDbEntity
  8
10
  6
CONTINUOUS
 62
     7
100
AcDbLine
 10
1031.977939784906
 20
430.9882439254669
 30
0.0
 11
1031.977939784906
 21
425.7497823870052
 31
0.0
  0
LINE
  5
115
330
1F
100
AcDbEntity
  8
10
  6
CONTINUOUS
 62
     7
100
AcDbLine
 10
1036.166401323368
 20
435.4882439254669
 30
0.0
 11
1036.166401323368
 21
437.788243925468
 31
0.0
  0
LINE
  5
116
330
1F
100
AcDbEntity
  8
10
  6
CONTINUOUS
 62
     7
100
AcDbLine
 10
1007.166401323368
 20
435.4882439254669
 30
0.0
 11
1007.166401323368
 21
437.788243925468
 31
0.0
  0
LINE
  5
117
330
1F
100
AcDbEntity
  8
10
  6
CONTINUOUS
 62
     7
100
AcDbLine
 10
1011.354862861829
 20
430.9882439254669
 30
0.0
 11
1010.816401323368
 21
431.9208866680054
 31
0.0
  0
LINE
  5
118
330
1F
100
AcDbEntity
  8
10
  6
CONTINUOUS
 62
     7
100
AcDbLine
 10
1036.166401323368
 20
435.4882439254669
 30
0.0
 11
1007.166401323368
 21
435.4882439254669
 31
0.0
  0
LINE
  5
119
330
1F
100
AcDbEntity
  8
10
  6
CONTINUOUS
 62
     7
100
AcDbLine
 10
1010.816401323368
 20
430.9882439254669
 30
0.0
 11
1032.516401323369
 21
430.9882439254669
 31
0.0
  0
LINE
  5
11A
330
1F
100
AcDbEntity
  8
10
  6
CONTINUOUS
 62
     7
100
AcDbLine
 10
1011.616401323367
 20
425.4882439254669
 30
0.0
 11
1010.816401323368
 21
426.288243925468
 31
0.0
  0
LINE
  5
11B
330
1F
100
AcDbEntity
  8
10
  6
CONTINUOUS
 62
     7
100
AcDbLine
 10
1010.816401323368
 20
426.288243925468
 30
0.0
 11
1032.516401323369
 21
426.288243925468
 31
0.0
  0
LINE
  5
11C
330
1F
100
AcDbEntity
  8
10
  6
CONTINUOUS
 62
     7
100
AcDbLine
 10
1010.816401323368
 20
433.5149587566792
 30
0.0
 11
1010.816401323368
 21
426.288243925468
 31
0.0
  0
LINE
  5
11D
330
1F
100
AcDbEntity
  8
10
  6
CONTINUOUS
 62
     7
100
AcDbLine
 10
1011.354862861829
 20
430.9882439254669
 30
0.0
 11
1011.354862861829
 21
425.7497823870052
 31
0.0
  0
LINE
  5
11E
330
1F
100
AcDbEntity
  8
10
  6
CONTINUOUS
 62
     7
100
AcDbLine
 10
1011.616401323367
 20
425.4882439254669
 30
0.0
 11
1031.716401323368
 21
425.4882439254669
 31
0.0
  0
LINE
  5
11F
330
1F
100
AcDbEntity
  8
10
  6
CONTINUOUS
 62
     7
100
AcDbLine
 10
1035.955423455719
 20
435.4882439254669
 30
0.0
 11
1030.455423455719
 21
435.4882439254669
 31
0.0
  0
ARC
  5
120
330
1F
100
AcDbEntity
  8
10
  6
CONTINUOUS
 62
     7
100
AcDbCircle
 10
1033.205423455719
 20
440.4882439254669
 30
0.0
 40
7.0
100
AcDbArc
 50
253.448644000065
 51
286.5513559999091
  0
LINE
  5
121
330
1F
100
AcDbEntity
  8
10
  6
CONTINUOUS
 62
     7
100
AcDbLine
 10
1035.955423455719
 20
435.4882439254669
 30
0.0
 11
1035.913301455718
 21
434.6845189254672
 31
0.0
  0
ARC
  5
122
330
1F
100
AcDbEntity
  8
10
  6
CONTINUOUS
 62
     7
100
AcDbCircle
 10
1034.914671455718
 20
434.7368549254678
 30
0.0
 40
1.0
100
AcDbArc
 50
286.5513559999089
 51
356.9999999999942
  0
LINE
  5
123
330
1F
100
AcDbEntity
  8
10
  6
CONTINUOUS
 62
     7
100
AcDbLine
 10
1030.455423455719
 20
435.4882439254669
 30
0.0
 11
1030.497545455718
 21
434.6845189254672
 31
0.0
  0
ARC
  5
124
330
1F
100
AcDbEntity
  8
10
  6
CONTINUOUS
 62
     7
100
AcDbCircle
 10
1031.496175455718
 20
434.7368549254678
 30
0.0
 40
1.0
100
AcDbArc
 50
183.0000000000051
 51
253.4486440000627
  0
LINE
  5
125
330
1F
100
AcDbEntity
  8
10
  6
CONTINUOUS
 62
     7
100
AcDbLine
 10
1012.955423455719
 20
435.4882439254669
 30
0.0
 11
1007.455423455719
 21
435.4882439254669
 31
0.0
  0
ARC
  5
126
330
1F
100
AcDbEntity
  8
10
  6
CONTINUOUS
 62
     7
100
AcDbCircle
 10
1010.205423455719
 20
440.4882439254669
 30
0.0
 40
7.0
100
AcDbArc
 50
253.448644000064
 51
286.5513559999091
  0
LINE
  5
127
330
1F
100
AcDbEntity
  8
10
  6
CONTINUOUS
 62
     7
100
AcDbLine
 10
1012.955423455719
 20
435.4882439254669
 30
0.0
 11
1012.913301455718
 21
434.6845189254672
 31
0.0
  0
ARC
  5
128
330
1F
100
AcDbEntity
  8
10
  6
CONTINUOUS
 62
     7
100
AcDbCircle
 10
1011.914671455718
 20
434.7368549254678
 30
0.0
 40
1.0
100
AcDbArc
 50
286.5513559999089
 51
356.9999999999939
  0
LINE
  5
129
330
1F
100
AcDbEntity
  8
10
  6
CONTINUOUS
 62
     7
100
AcDbLine
 10
1007.455423455719
 20
435.4882439254669
 30
0.0
 11
1007.497545455718
 21
434.6845189254672
 31
0.0
  0
ARC
  5
12A
330
1F
100
AcDbEntity
  8
10
  6
CONTINUOUS
 62
     7
100
AcDbCircle
 10
1008.496175455718
 20
434.7368549254678
 30
0.0
 40
1.0
100
AcDbArc
 50
183.0000000000054
 51
253.4486440000627
  0
ARC
  5
12B
330
1F
100
AcDbEntity
  8
10
  6
CONTINUOUS
 62
     7
100
AcDbCircle
 10
1028.366401323368
 20
497.9882439254687
 30
0.0
 40
0.5
100
AcDbArc
 50
0.0
 51
89.99999999999991
  0
ARC
  5
12C
330
1F
100
AcDbEntity
  8
10
  6
CONTINUOUS
 62
     7
100
AcDbCircle
 10
1029.966401323368
 20
497.9882439254687
 30
0.0
 40
0.5
100
AcDbArc
 50
89.99999999999991
 51
179.9999999999998
  0
CIRCLE
  5
12D
330
1F
100
AcDbEntity
  8
10
  6
CONTINUOUS
 62
     7
100
AcDbCircle
 10
1029.166401323368
 20
498.788243925468
 30
0.0
 40
3.450000000000045
  0
LINE
  5
12E
330
1F
100
AcDbEntity
  8
10
  6
CONTINUOUS
 62
     7
100
AcDbLine
 10
1028.866401323368
 20
497.9882439254687
 30
0.0
 11
1028.866401323368
 21
497.3382439254673
 31
0.0
  0
LINE
  5
12F
330
1F
100
AcDbEntity
  8
10
  6
CONTINUOUS
 62
     7
100
AcDbLine
 10
1029.466401323368
 20
497.9882439254687
 30
0.0
 11
1029.466401323368
 21
497.3382439254673
 31
0.0
  0
LINE
  5
130
330
1F
100
AcDbEntity
  8
10
  6
CONTINUOUS
 62
     7
100
AcDbLine
 10
1028.866401323368
 20
497.3382439254673
 30
0.0
 11
1029.466401323368
 21
497.3382439254673
 31
0.0
  0
LINE
  5
131
330
1F
100
AcDbEntity
  8
10
  6
CONTINUOUS
 62
     7
100
AcDbLine
 10
1028.366401323368
 20
499.0882439254673
 30
0.0
 11
1027.716401323368
 21
499.0882439254673
 31
0.0
  0
LINE
  5
132
330
1F
100
AcDbEntity
  8
10
  6
CONTINUOUS
 62
     7
100
AcDbLine
 10
1028.366401323368
 20
498.4882439254687
 30
0.0
 11
1027.716401323368
 21
498.4882439254687
 31
0.0
  0
ARC
  5
133
330
1F
100
AcDbEntity
  8
10
  6
CONTINUOUS
 62
     7
100
AcDbCircle
 10
1029.966401323368
 20
499.5882439254673
 30
0.0
 40
0.5
100
AcDbArc
 50
179.9999999999998
 51
269.9999999999998
  0
ARC
  5
134
330
1F
100
AcDbEntity
  8
10
  6
CONTINUOUS
 62
     7
100
AcDbCircle
 10
1028.366401323368
 20
499.5882439254673
 30
0.0
 40
0.5
100
AcDbArc
 50
269.9999999999998
 51
0.0
  0
LINE
  5
135
330
1F
100
AcDbEntity
  8
10
  6
CONTINUOUS
 62
     7
100
AcDbLine
 10
1029.466401323368
 20
499.5882439254673
 30
0.0
 11
1029.466401323368
 21
500.2382439254687
 31
0.0
  0
LINE
  5
136
330
1F
100
AcDbEntity
  8
10
  6
CONTINUOUS
 62
     7
100
AcDbLine
 10
1028.866401323368
 20
499.5882439254673
 30
0.0
 11
1028.866401323368
 21
500.2382439254687
 31
0.0
  0
LINE
  5
137
330
1F
100
AcDbEntity
  8
10
  6
CONTINUOUS
 62
     7
100
AcDbLine
 10
1029.966401323368
 20
499.0882439254673
 30
0.0
 11
1030.616401323368
 21
499.0882439254673
 31
0.0
  0
LINE
  5
138
330
1F
100
AcDbEntity
  8
10
  6
CONTINUOUS
 62
     7
100
AcDbLine
 10
1029.966401323368
 20
498.4882439254687
 30
0.0
 11
1030.616401323368
 21
498.4882439254687
 31
0.0
  0
LINE
  5
139
330
1F
100
AcDbEntity
  8
10
  6
CONTINUOUS
 62
     7
100
AcDbLine
 10
1030.616401323368
 20
498.4882439254687
 30
0.0
 11
1030.616401323368
 21
499.0882439254673
 31
0.0
  0
LINE
  5
13A
330
1F
100
AcDbEntity
  8
10
  6
CONTINUOUS
 62
     7
100
AcDbLine
 10
1029.466401323368
 20
500.2382439254687
 30
0.0
 11
1028.866401323368
 21
500.2382439254687
 31
0.0
  0
LINE
  5
13B
330
1F
100
AcDbEntity
  8
10
  6
CONTINUOUS
 62
     7
100
AcDbLine
 10
1027.716401323368
 20
499.0882439254673
 30
0.0
 11
1027.716401323368
 21
498.4882439254687
 31
0.0
  0
ARC
  5
13C
330
1F
100
AcDbEntity
  8
10
  6
CONTINUOUS
 62
     7
100
AcDbCircle
 10
1028.366401323368
 20
421.9882439254687
 30
0.0
 40
0.5
100
AcDbArc
 50
0.0
 51
89.99999999999991
  0
ARC
  5
13D
330
1F
100
AcDbEntity
  8
10
  6
CONTINUOUS
 62
     7
100
AcDbCircle
 10
1029.966401323368
 20
421.9882439254687
 30
0.0
 40
0.5
100
AcDbArc
 50
89.99999999999991
 51
179.9999999999998
  0
ARC
  5
13E
330
1F
100
AcDbEntity
  8
10
  6
CONTINUOUS
 62
     7
100
AcDbCircle
 10
1029.166401323368
 20
422.788243925468
 30
0.0
 40
3.450000000000045
100
AcDbArc
 50
128.4999504092861
 51
51.50004959071395
  0
LINE
  5
13F
330
1F
100
AcDbEntity
  8
10
  6
CONTINUOUS
 62
     7
100
AcDbLine
 10
1028.866401323368
 20
421.9882439254687
 30
0.0
 11
1028.866401323368
 21
421.3382439254673
 31
0.0
  0
LINE
  5
140
330
1F
100
AcDbEntity
  8
10
  6
CONTINUOUS
 62
     7
100
AcDbLine
 10
1029.466401323368
 20
421.9882439254687
 30
0.0
 11
1029.466401323368
 21
421.3382439254673
 31
0.0
  0
LINE
  5
141
330
1F
100
AcDbEntity
  8
10
  6
CONTINUOUS
 62
     7
100
AcDbLine
 10
1028.866401323368
 20
421.3382439254673
 30
0.0
 11
1029.466401323368
 21
421.3382439254673
 31
0.0
  0
LINE
  5
142
330
1F
100
AcDbEntity
  8
10
  6
CONTINUOUS
 62
     7
100
AcDbLine
 10
1028.366401323368
 20
423.0882439254673
 30
0.0
 11
1027.716401323368
 21
423.0882439254673
 31
0.0
  0
LINE
  5
143
330
1F
100
AcDbEntity
  8
10
  6
CONTINUOUS
 62
     7
100
AcDbLine
 10
1028.366401323368
 20
422.4882439254687
 30
0.0
 11
1027.716401323368
 21
422.4882439254687
 31
0.0
  0
ARC
  5
144
330
1F
100
AcDbEntity
  8
10
  6
CONTINUOUS
 62
     7
100
AcDbCircle
 10
1029.966401323368
 20
423.5882439254673
 30
0.0
 40
0.5
100
AcDbArc
 50
179.9999999999998
 51
269.9999999999998
  0
ARC
  5
145
330
1F
100
AcDbEntity
  8
10
  6
CONTINUOUS
 62
     7
100
AcDbCircle
 10
1028.366401323368
 20
423.5882439254673
 30
0.0
 40
0.5
100
AcDbArc
 50
269.9999999999998
 51
0.0
  0
LINE
  5
146
330
1F
100
AcDbEntity
  8
10
  6
CONTINUOUS
 62
     7
100
AcDbLine
 10
1029.466401323368
 20
423.5882439254673
 30
0.0
 11
1029.466401323368
 21
424.2382439254687
 31
0.0
  0
LINE
  5
147
330
1F
100
AcDbEntity
  8
10
  6
CONTINUOUS
 62
     7
100
AcDbLine
 10
1028.866401323368
 20
423.5882439254673
 30
0.0
 11
1028.866401323368
 21
424.2382439254687
 31
0.0
  0
LINE
  5
148
330
1F
100
AcDbEntity
  8
10
  6
CONTINUOUS
 62
     7
100
AcDbLine
 10
1029.966401323368
 20
423.0882439254673
 30
0.0
 11
1030.616401323368
 21
423.0882439254673
 31
0.0
  0
LINE
  5
149
330
1F
100
AcDbEntity
  8
10
  6
CONTINUOUS
 62
     7
100
AcDbLine
 10
1029.966401323368
 20
422.4882439254687
 30
0.0
 11
1030.616401323368
 21
422.4882439254687
 31
0.0
  0
LINE
  5
14A
330
1F
100
AcDbEntity
  8
10
  6
CONTINUOUS
 62
     7
100
AcDbLine
 10
1030.616401323368
 20
422.4882439254687
 30
0.0
 11
1030.616401323368
 21
423.0882439254673
 31
0.0
  0
LINE
  5
14B
330
1F
100
AcDbEntity
  8
10
  6
CONTINUOUS
 62
     7
100
AcDbLine
 10
1029.466401323368
 20
424.2382439254687
 30
0.0
 11
1028.866401323368
 21
424.2382439254687
 31
0.0
  0
LINE
  5
14C
330
1F
100
AcDbEntity
  8
10
  6
CONTINUOUS
 62
     7
100
AcDbLine
 10
1027.716401323368
 20
423.0882439254673
 30
0.0
 11
1027.716401323368
 21
422.4882439254687
 31
0.0
  0
LINE
  5
14D
330
1F
100
AcDbEntity
  8
10
  6
CONTINUOUS
 62
     7
100
AcDbLine
 10
1032.616401323368
 20
626.1049105921355
 30
0.0
 11
1025.716401323367
 21
626.1049105921355
 31
0.0
  0
ARC
  5
14E
330
1F
100
AcDbEntity
  8
10
  6
CONTINUOUS
 62
     7
100
AcDbCircle
 10
1029.166401323368
 20
623.1378930482769
 30
0.0
 40
4.550350877193068
100
AcDbArc
 50
40.69569852534131
 51
139.3043014746587
  0
LINE
  5
14F
330
1F
100
AcDbEntity
  8
10
  6
CONTINUOUS
 62
     7
100
AcDbLine
 10
1032.616401323368
 20
625.7882439254698
 30
0.0
 11
1032.616401323368
 21
626.1049105921355
 31
0.0
  0
LINE
  5
150
330
1F
100
AcDbEntity
  8
10
  6
CONTINUOUS
 62
     7
100
AcDbLine
 10
1025.716401323367
 20
625.7882439254698
 30
0.0
 11
1025.716401323367
 21
626.1049105921355
 31
0.0
  0
LINE
  5
151
330
1F
100
AcDbEntity
  8
10
  6
CONTINUOUS
 62
     7
100
AcDbLine
 10
741.7778783205517
 20
626.1049105921368
 30
0.0
 11
748.6778783205514
 21
626.1049105921368
 31
0.0
  0
ARC
  5
152
330
1F
100
AcDbEntity
  8
10
  6
CONTINUOUS
 62
     7
100
AcDbCircle
 10
745.2278783205506
 20
623.1378930482772
 30
0.0
 40
4.550350877192955
100
AcDbArc
 50
40.69569852540125
 51
139.3043014745987
  0
LINE
  5
153
330
1F
100
AcDbEntity
  8
10
  6
CONTINUOUS
 62
     7
100
AcDbLine
 10
741.7778783205517
 20
625.7882439254702
 30
0.0
 11
741.7778783205517
 21
626.1049105921368
 31
0.0
  0
LINE
  5
154
330
1F
100
AcDbEntity
  8
10
  6
CONTINUOUS
 62
     7
100
AcDbLine
 10
748.6778783205514
 20
625.7882439254702
 30
0.0
 11
748.6778783205514
 21
626.1049105921368
 31
0.0
  0
LINE
  5
155
330
1F
100
AcDbEntity
  8
10
  6
CONTINUOUS
 62
     7
100
AcDbLine
 10
720.2778783205517
 20
626.1049105921368
 30
0.0
 11
727.1778783205514
 21
626.1049105921368
 31
0.0
  0
ARC
  5
156
330
1F
100
AcDbEntity
  8
10
  6
CONTINUOUS
 62
     7
100
AcDbCircle
 10
723.7278783205506
 20
623.1378930482772
 30
0.0
 40
4.550350877192955
100
AcDbArc
 50
40.69569852540125
 51
139.3043014745987
  0
LINE
  5
157
330
1F
100
AcDbEntity
  8
10
  6
CONTINUOUS
 62
     7
100
AcDbLine
 10
720.2778783205517
 20
625.7882439254702
 30
0.0
 11
720.2778783205517
 21
626.1049105921368
 31
0.0
  0
LINE
  5
158
330
1F
100
AcDbEntity
  8
10
  6
CONTINUOUS
 62
     7
100
AcDbLine
 10
727.1778783205514
 20
625.7882439254702
 30
0.0
 11
727.1778783205514
 21
626.1049105921368
 31
0.0
  0
LINE
  5
159
330
1F
100
AcDbEntity
  8
10
  6
CONTINUOUS
 62
     7
100
AcDbLine
 10
224.9112116538854
 20
389.2382439254682
 30
0.0
 11
224.9112116538854
 21
382.3382439254686
 31
0.0
  0
ARC
  5
15A
330
1F
100
AcDbEntity
  8
10
  6
CONTINUOUS
 62
     7
100
AcDbCircle
 10
227.878229197745
 20
385.7882439254693
 30
0.0
 40
4.550350877192983
100
AcDbArc
 50
130.695698525401
 51
229.304301474599
  0
LINE
  5
15B
330
1F
100
AcDbEntity
  8
10
  6
CONTINUOUS
 62
     7
100
AcDbLine
 10
225.227878320552
 20
389.2382439254682
 30
0.0
 11
224.9112116538854
 21
389.2382439254682
 31
0.0
  0
LINE
  5
15C
330
1F
100
AcDbEntity
  8
10
  6
CONTINUOUS
 62
     7
100
AcDbLine
 10
225.227878320552
 20
382.3382439254686
 30
0.0
 11
224.9112116538854
 21
382.3382439254686
 31
0.0
  0
LINE
  5
15D
330
1F
100
AcDbEntity
  8
10
  6
CONTINUOUS
 62
     7
100
AcDbLine
 10
238.6778783205532
 20
295.4715772588026
 30
0.0
 11
231.7778783205536
 21
295.4715772588026
 31
0.0
  0
ARC
  5
15E
330
1F
100
AcDbEntity
  8
10
  6
CONTINUOUS
 62
     7
100
AcDbCircle
 10
235.2278783205543
 20
298.4385948026622
 30
0.0
 40
4.550350877192983
100
AcDbArc
 50
220.6956985254003
 51
319.304301474599
  0
LINE
  5
15F
330
1F
100
AcDbEntity
  8
10
  6
CONTINUOUS
 62
     7
100
AcDbLine
 10
238.6778783205532
 20
295.7882439254692
 30
0.0
 11
238.6778783205532
 21
295.4715772588026
 31
0.0
  0
LINE
  5
160
330
1F
100
AcDbEntity
  8
10
  6
CONTINUOUS
 62
     7
100
AcDbLine
 10
231.7778783205536
 20
295.7882439254692
 30
0.0
 11
231.7778783205536
 21
295.4715772588026
 31
0.0
  0
LINE
  5
161
330
1F
100
AcDbEntity
  8
10
  6
CONTINUOUS
 62
     7
100
AcDbLine
 10
260.1778783205532
 20
295.4715772588026
 30
0.0
 11
253.2778783205536
 21
295.4715772588026
 31
0.0
  0
ARC
  5
162
330
1F
100
AcDbEntity
  8
10
  6
CONTINUOUS
 62
     7
100
AcDbCircle
 10
256.7278783205543
 20
298.4385948026622
 30
0.0
 40
4.550350877192955
100
AcDbArc
 50
220.6956985254003
 51
319.304301474599
  0
LINE
  5
163
330
1F
100
AcDbEntity
  8
10
  6
CONTINUOUS
 62
     7
100
AcDbLine
 10
260.1778783205532
 20
295.7882439254692
 30
0.0
 11
260.1778783205532
 21
295.4715772588026
 31
0.0
  0
LINE
  5
164
330
1F
100
AcDbEntity
  8
10
  6
CONTINUOUS
 62
     7
100
AcDbLine
 10
253.2778783205536
 20
295.7882439254692
 30
0.0
 11
253.2778783205536
 21
295.4715772588026
 31
0.0
  0
LINE
  5
165
330
1F
100
AcDbEntity
  8
10
  6
CONTINUOUS
 62
     7
100
AcDbLine
 10
741.7778783205517
 20
295.4715772588026
 30
0.0
 11
748.6778783205514
 21
295.4715772588026
 31
0.0
  0
ARC
  5
166
330
1F
100
AcDbEntity
  8
10
  6
CONTINUOUS
 62
     7
100
AcDbCircle
 10
745.2278783205506
 20
298.4385948026622
 30
0.0
 40
4.550350877192955
100
AcDbArc
 50
220.6956985254003
 51
319.304301474599
  0
LINE
  5
167
330
1F
100
AcDbEntity
  8
10
  6
CONTINUOUS
 62
     7
100
AcDbLine
 10
741.7778783205517
 20
295.7882439254692
 30
0.0
 11
741.7778783205517
 21
295.4715772588026
 31
0.0
  0
LINE
  5
168
330
1F
100
AcDbEntity
  8
10
  6
CONTINUOUS
 62
     7
100
AcDbLine
 10
748.6778783205514
 20
295.7882439254692
 30
0.0
 11
748.6778783205514
 21
295.4715772588026
 31
0.0
  0
LINE
  5
169
330
1F
100
AcDbEntity
  8
10
  6
CONTINUOUS
 62
     7
100
AcDbLine
 10
720.2778783205517
 20
295.4715772588026
 30
0.0
 11
727.1778783205514
 21
295.4715772588026
 31
0.0
  0
ARC
  5
16A
330
1F
100
AcDbEntity
  8
10
  6
CONTINUOUS
 62
     7
100
AcDbCircle
 10
723.7278783205506
 20
298.4385948026622
 30
0.0
 40
4.550350877192955
100
AcDbArc
 50
220.6956985254003
 51
319.304301474599
  0
LINE
  5
16B
330
1F
100
AcDbEntity
  8
10
  6
CONTINUOUS
 62
     7
100
AcDbLine
 10
720.2778783205517
 20
295.7882439254692
 30
0.0
 11
720.2778783205517
 21
295.4715772588026
 31
0.0
  0
LINE
  5
16C
330
1F
100
AcDbEntity
  8
10
  6
CONTINUOUS
 62
     7
100
AcDbLine
 10
727.1778783205514
 20
295.7882439254692
 30
0.0
 11
727.1778783205514
 21
295.4715772588026
 31
0.0
  0
CIRCLE
  5
16D
330
1F
100
AcDbEntity
  8
10
  6
CONTINUOUS
 62
     7
100
AcDbCircle
 10
490.2278783205523
 20
287.7882439254702
 30
0.0
 40
3.100000000000023
  0
CIRCLE
  5
16E
330
1F
100
AcDbEntity
  8
10
  6
CONTINUOUS
 62
     7
100
AcDbCircle
 10
490.2278783205523
 20
633.7882439254695
 30
0.0
 40
3.100000000000023
  0
LINE
  5
16F
330
1F
100
AcDbEntity
  8
10
  6
CONTINUOUS
 62
     7
100
AcDbLine
 10
561.7778783205529
 20
626.1049105921368
 30
0.0
 11
568.6778783205525
 21
626.1049105921368
 31
0.0
  0
ARC
  5
170
330
1F
100
AcDbEntity
  8
10
  6
CONTINUOUS
 62
     7
100
AcDbCircle
 10
565.2278783205518
 20
623.1378930482772
 30
0.0
 40
4.550350877192955
100
AcDbArc
 50
40.69569852540125
 51
139.3043014745987
  0
LINE
  5
171
330
1F
100
AcDbEntity
  8
10
  6
CONTINUOUS
 62
     7
100
AcDbLine
 10
561.7778783205529
 20
625.7882439254702
 30
0.0
 11
561.7778783205529
 21
626.1049105921368
 31
0.0
  0
LINE
  5
172
330
1F
100
AcDbEntity
  8
10
  6
CONTINUOUS
 62
     7
100
AcDbLine
 10
568.6778783205525
 20
625.7882439254702
 30
0.0
 11
568.6778783205525
 21
626.1049105921368
 31
0.0
  0
LINE
  5
173
330
1F
100
AcDbEntity
  8
10
  6
CONTINUOUS
 62
     7
100
AcDbLine
 10
411.7778783205528
 20
626.1049105921368
 30
0.0
 11
418.6778783205525
 21
626.1049105921368
 31
0.0
  0
ARC
  5
174
330
1F
100
AcDbEntity
  8
10
  6
CONTINUOUS
 62
     7
100
AcDbCircle
 10
415.2278783205517
 20
623.1378930482772
 30
0.0
 40
4.550350877192955
100
AcDbArc
 50
40.69569852540125
 51
139.3043014745983
  0
LINE
  5
175
330
1F
100
AcDbEntity
  8
10
  6
CONTINUOUS
 62
     7
100
AcDbLine
 10
411.7778783205528
 20
625.7882439254702
 30
0.0
 11
411.7778783205528
 21
626.1049105921368
 31
0.0
  0
LINE
  5
176
330
1F
100
AcDbEntity
  8
10
  6
CONTINUOUS
 62
     7
100
AcDbLine
 10
418.6778783205525
 20
625.7882439254702
 30
0.0
 11
418.6778783205525
 21
626.1049105921368
 31
0.0
  0
LINE
  5
177
330
1F
100
AcDbEntity
  8
10
  6
CONTINUOUS
 62
     7
100
AcDbLine
 10
418.6778783205515
 20
295.4715772588026
 30
0.0
 11
411.7778783205519
 21
295.4715772588026
 31
0.0
  0
ARC
  5
178
330
1F
100
AcDbEntity
  8
10
  6
CONTINUOUS
 62
     7
100
AcDbCircle
 10
415.2278783205526
 20
298.4385948026622
 30
0.0
 40
4.550350877192955
100
AcDbArc
 50
220.6956985254003
 51
319.304301474599
  0
LINE
  5
179
330
1F
100
AcDbEntity
  8
10
  6
CONTINUOUS
 62
     7
100
AcDbLine
 10
418.6778783205515
 20
295.7882439254692
 30
0.0
 11
418.6778783205515
 21
295.4715772588026
 31
0.0
  0
LINE
  5
17A
330
1F
100
AcDbEntity
  8
10
  6
CONTINUOUS
 62
     7
100
AcDbLine
 10
411.7778783205519
 20
295.7882439254692
 30
0.0
 11
411.7778783205519
 21
295.4715772588026
 31
0.0
  0
LINE
  5
17B
330
1F
100
AcDbEntity
  8
10
  6
CONTINUOUS
 62
     7
100
AcDbLine
 10
568.6778783205516
 20
295.4715772588026
 30
0.0
 11
561.777878320552
 21
295.4715772588026
 31
0.0
  0
ARC
  5
17C
330
1F
100
AcDbEntity
  8
10
  6
CONTINUOUS
 62
     7
100
AcDbCircle
 10
565.2278783205527
 20
298.4385948026622
 30
0.0
 40
4.550350877192955
100
AcDbArc
 50
220.6956985254003
 51
319.304301474599
  0
LINE
  5
17D
330
1F
100
AcDbEntity
  8
10
  6
CONTINUOUS
 62
     7
100
AcDbLine
 10
568.6778783205516
 20
295.7882439254692
 30
0.0
 11
568.6778783205516
 21
295.4715772588026
 31
0.0
  0
LINE
  5
17E
330
1F
100
AcDbEntity
  8
10
  6
CONTINUOUS
 62
     7
100
AcDbLine
 10
561.777878320552
 20
295.7882439254692
 30
0.0
 11
561.777878320552
 21
295.4715772588026
 31
0.0
  0
CIRCLE
  5
17F
330
1F
100
AcDbEntity
  8
10
  6
CONTINUOUS
 62
     7
100
AcDbCircle
 10
490.2278783205631
 20
460.7882439254918
 30
0.0
 40
17.5
  0
CIRCLE
  5
180
330
1F
100
AcDbEntity
  8
9
  6
HIDDEN
 62
     3
100
AcDbCircle
 10
490.2278783205631
 20
460.7882439254918
 30
0.0
 40
22.50000000000006
  0
HATCH
  5
181
330
1F
100
AcDbEntity
  8
8
  6
CONTINUOUS
 62
     2
100
AcDbHatch
 10
0.0
 20
0.0
 30
0.0
210
0.0
220
0.0
230
1.0
  2

 70
     0
 71
     0
 91
        4
 92
        0
 93
       40
 72
     1
 10
490.2278783205525
 20
310.7882439254698
 11
740.2278783205529
 21
310.7882439254698
 72
     1
 10
740.2278783205529
 20
310.7882439254698
 11
740.2278783205529
 21
460.7882439254697
 72
     1
 10
740.2278783205529
 20
460.7882439254697
 11
512.7278783205631
 21
460.7882439254918
 72
     1
 10
512.7278783205631
 20
460.7882439254903
 11
512.706463306155
 21
459.8068077097703
 72
     1
 10
512.706463306155
 20
459.8068077097703
 11
512.6422590276275
 21
458.827239713668
 72
     1
 10
512.6422590276275
 20
458.827239713668
 11
512.5353877014738
 21
457.8514046005392
 72
     1
 10
512.5353877014738
 20
457.8514046005392
 11
512.3860527633378
 21
456.8811599279844
 72
     1
 10
512.3860527633378
 20
456.8811599279844
 11
512.1945384807616
 21
455.918352611883
 72
     1
 10
512.1945384807616
 20
455.918352611883
 11
511.9612094120671
 21
454.9648154106836
 72
     1
 10
511.9612094120671
 20
454.9648154106836
 11
511.6865097123982
 21
454.0223634366442
 72
     1
 10
511.6865097123982
 20
454.0223634366442
 11
511.3709622882461
 21
453.0927907006628
 72
     1
 10
511.3709622882461
 20
453.0927907006628
 11
511.015167802067
 21
452.1778666972758
 72
     1
 10
511.015167802067
 20
452.1778666972758
 11
510.6198035288877
 21
451.2793330363246
 72
     1
 10
510.6198035288877
 20
451.2793330363246
 11
510.1856220670731
 21
450.3989001277021
 72
     1
 10
510.1856220670731
 20
450.3989001277021
 11
509.7134499057129
 21
449.5382439254903
 72
     1
 10
509.7134499057129
 20
449.5382439254903
 11
509.204185851353
 21
448.6990027376868
 72
     1
 10
509.204185851353
 20
448.6990027376868
 11
508.6587993170654
 21
447.8827741075918
 72
     1
 10
508.6587993170654
 20
447.8827741075918
 11
508.0783284771159
 21
447.0911117727941
 72
     1
 10
508.0783284771159
 20
447.0911117727941
 11
507.4638782907401
 21
446.3255227075432
 72
     1
 10
507.4638782907401
 20
446.3255227075432
 11
506.8166183987909
 21
445.587464254138
 72
     1
 10
506.8166183987909
 20
445.587464254138
 11
506.1377808972604
 21
444.8783413487931
 72
     1
 10
506.1377808972604
 20
444.8783413487931
 11
505.4286579919154
 21
444.1995038472626
 72
     1
 10
505.4286579919154
 20
444.1995038472626
 11
504.6905995385102
 21
443.5522439553134
 72
     1
 10
504.6905995385102
 20
443.5522439553134
 11
503.9250104732592
 21
442.9377937689376
 72
     1
 10
503.9250104732592
 20
442.9377937689376
 11
503.1333481384616
 21
442.3573229289881
 72
     1
 10
503.1333481384616
 20
442.3573229289881
 11
502.3171195083666
 21
441.8119363947005
 72
     1
 10
502.3171195083666
 20
441.8119363947005
 11
501.477878320563
 21
441.3026723403406
 72
     1
 10
501.477878320563
 20
441.3026723403406
 11
500.6172221183513
 21
440.8305001789804
 72
     1
 10
500.6172221183513
 20
440.8305001789804
 11
499.7367892097288
 21
440.3963187171658
 72
     1
 10
499.7367892097288
 20
440.3963187171658
 11
498.8382555487776
 21
440.0009544439865
 72
     1
 10
498.8382555487776
 20
440.0009544439865
 11
497.9233315453906
 21
439.6451599578075
 72
     1
 10
497.9233315453906
 20
439.6451599578075
 11
496.9937588094092
 21
439.3296125336553
 72
     1
 10
496.9937588094092
 20
439.3296125336553
 11
496.0513068353698
 21
439.0549128339864
 72
     1
 10
496.0513068353698
 20
439.0549128339864
 11
495.0977696341703
 21
438.821583765292
 72
     1
 10
495.0977696341703
 20
438.821583765292
 11
494.134962318069
 21
438.6300694827158
 72
     1
 10
494.134962318069
 20
438.6300694827158
 11
493.1647176455142
 21
438.4807345445797
 72
     1
 10
493.1647176455142
 20
438.4807345445797
 11
492.1888825323854
 21
438.3738632184262
 72
     1
 10
492.1888825323854
 20
438.3738632184262
 11
491.2093145362831
 21
438.3096589398987
 72
     1
 10
491.2093145362831
 20
438.3096589398987
 11
490.227878320563
 21
438.2882439254905
 72
     1
 10
490.2278783205525
 20
438.2882439254918
 11
490.2278783205525
 21
310.7882439254698
 97
        0
 92
        0
 93
       40
 72
     1
 10
240.2278783205529
 20
310.7882439254698
 11
490.2278783205525
 21
310.7882439254698
 72
     1
 10
490.2278783205525
 20
310.7882439254698
 11
490.2278783205525
 21
438.2882439254918
 72
     1
 10
490.2278783205633
 20
438.2882439254918
 11
489.2464421048433
 21
438.3096589399
 72
     1
 10
489.2464421048433
 20
438.3096589399
 11
488.266874108741
 21
438.3738632184276
 72
     1
 10
488.266874108741
 20
438.3738632184276
 11
487.2910389956122
 21
438.4807345445811
 72
     1
 10
487.2910389956122
 20
438.4807345445811
 11
486.3207943230574
 21
438.6300694827171
 72
     1
 10
486.3207943230574
 20
438.6300694827171
 11
485.357987006956
 21
438.8215837652933
 72
     1
 10
485.357987006956
 20
438.8215837652933
 11
484.4044498057567
 21
439.0549128339878
 72
     1
 10
484.4044498057567
 20
439.0549128339878
 11
483.4619978317172
 21
439.3296125336568
 72
     1
 10
483.4619978317172
 20
439.3296125336568
 11
482.5324250957358
 21
439.6451599578089
 72
     1
 10
482.5324250957358
 20
439.6451599578089
 11
481.6175010923488
 21
440.0009544439879
 72
     1
 10
481.6175010923488
 20
440.0009544439879
 11
480.7189674313976
 21
440.3963187171672
 72
     1
 10
480.7189674313976
 20
440.3963187171672
 11
479.8385345227751
 21
440.8305001789819
 72
     1
 10
479.8385345227751
 20
440.8305001789819
 11
478.9778783205634
 21
441.302672340342
 72
     1
 10
478.9778783205634
 20
441.302672340342
 11
478.1386371327599
 21
441.8119363947019
 72
     1
 10
478.1386371327599
 20
441.8119363947019
 11
477.3224085026649
 21
442.3573229289896
 72
     1
 10
477.3224085026649
 20
442.3573229289896
 11
476.5307461678672
 21
442.9377937689391
 72
     1
 10
476.5307461678672
 20
442.9377937689391
 11
475.7651571026163
 21
443.5522439553149
 72
     1
 10
475.7651571026163
 20
443.5522439553149
 11
475.027098649211
 21
444.1995038472641
 72
     1
 10
475.027098649211
 20
444.1995038472641
 11
474.3179757438661
 21
444.8783413487945
 72
     1
 10
474.3179757438661
 20
444.8783413487945
 11
473.6391382423356
 21
445.5874642541395
 72
     1
 10
473.6391382423356
 20
445.5874642541395
 11
472.9918783503864
 21
446.3255227075447
 72
     1
 10
472.9918783503864
 20
446.3255227075447
 11
472.3774281640106
 21
447.0911117727957
 72
     1
 10
472.3774281640106
 20
447.0911117727957
 11
471.7969573240611
 21
447.8827741075933
 72
     1
 10
471.7969573240611
 20
447.8827741075933
 11
471.2515707897735
 21
448.6990027376883
 72
     1
 10
471.2515707897735
 20
448.6990027376883
 11
470.7423067354136
 21
449.5382439254919
 72
     1
 10
470.7423067354136
 20
449.5382439254919
 11
470.2701345740534
 21
450.3989001277036
 72
     1
 10
470.2701345740534
 20
450.3989001277036
 11
469.8359531122388
 21
451.2793330363261
 72
     1
 10
469.8359531122388
 20
451.2793330363261
 11
469.4405888390595
 21
452.1778666972774
 72
     1
 10
469.4405888390595
 20
452.1778666972774
 11
469.0847943528805
 21
453.0927907006643
 72
     1
 10
469.0847943528805
 20
453.0927907006643
 11
468.7692469287284
 21
454.0223634366457
 72
     1
 10
468.7692469287284
 20
454.0223634366457
 11
468.4945472290594
 21
454.9648154106852
 72
     1
 10
468.4945472290594
 20
454.9648154106852
 11
468.261218160365
 21
455.9183526118845
 72
     1
 10
468.261218160365
 20
455.9183526118845
 11
468.0697038777888
 21
456.8811599279859
 72
     1
 10
468.0697038777888
 20
456.8811599279859
 11
467.9203689396527
 21
457.8514046005407
 72
     1
 10
467.9203689396527
 20
457.8514046005407
 11
467.8134976134992
 21
458.8272397136695
 72
     1
 10
467.8134976134992
 20
458.8272397136695
 11
467.7492933349717
 21
459.8068077097718
 72
     1
 10
467.7492933349717
 20
459.8068077097718
 11
467.7278783205635
 21
460.7882439254918
 72
     1
 10
467.7278783205631
 20
460.7882439254698
 11
240.2278783205529
 21
460.7882439254698
 72
     1
 10
240.2278783205529
 20
460.7882439254698
 11
240.2278783205529
 21
310.7882439254698
 97
        0
 92
        0
 93
       40
 72
     1
 10
490.2278783205634
 20
483.2882439254925
 11
489.2464421048434
 21
483.2668289110842
 72
     1
 10
489.2464421048434
 20
483.2668289110842
 11
488.2668741087411
 21
483.2026246325567
 72
     1
 10
488.2668741087411
 20
483.2026246325567
 11
487.2910389956122
 21
483.0957533064032
 72
     1
 10
487.2910389956122
 20
483.0957533064032
 11
486.3207943230574
 21
482.9464183682671
 72
     1
 10
486.3207943230574
 20
482.9464183682671
 11
485.357987006956
 21
482.754904085691
 72
     1
 10
485.357987006956
 20
482.754904085691
 11
484.4044498057567
 21
482.5215750169965
 72
     1
 10
484.4044498057567
 20
482.5215750169965
 11
483.4619978317172
 21
482.2468753173276
 72
     1
 10
483.4619978317172
 20
482.2468753173276
 11
482.5324250957358
 21
481.9313278931754
 72
     1
 10
482.5324250957358
 20
481.9313278931754
 11
481.6175010923488
 21
481.5755334069964
 72
     1
 10
481.6175010923488
 20
481.5755334069964
 11
480.7189674313976
 21
481.1801691338171
 72
     1
 10
480.7189674313976
 20
481.1801691338171
 11
479.838534522775
 21
480.7459876720025
 72
     1
 10
479.838534522775
 20
480.7459876720025
 11
478.9778783205633
 21
480.2738155106423
 72
     1
 10
478.9778783205633
 20
480.2738155106423
 11
478.1386371327598
 21
479.7645514562823
 72
     1
 10
478.1386371327598
 20
479.7645514562823
 11
477.3224085026647
 21
479.2191649219947
 72
     1
 10
477.3224085026647
 20
479.2191649219947
 11
476.5307461678671
 21
478.6386940820452
 72
     1
 10
476.5307461678671
 20
478.6386940820452
 11
475.7651571026161
 21
478.0242438956694
 72
     1
 10
475.7651571026161
 20
478.0242438956694
 11
475.0270986492109
 21
477.3769840037202
 72
     1
 10
475.0270986492109
 20
477.3769840037202
 11
474.3179757438659
 21
476.6981465021897
 72
     1
 10
474.3179757438659
 20
476.6981465021897
 11
473.6391382423354
 21
475.9890235968447
 72
     1
 10
473.6391382423354
 20
475.9890235968447
 11
472.9918783503862
 21
475.2509651434395
 72
     1
 10
472.9918783503862
 20
475.2509651434395
 11
472.3774281640104
 21
474.4853760781886
 72
     1
 10
472.3774281640104
 20
474.4853760781886
 11
471.7969573240609
 21
473.6937137433909
 72
     1
 10
471.7969573240609
 20
473.6937137433909
 11
471.2515707897733
 21
472.8774851132959
 72
     1
 10
471.2515707897733
 20
472.8774851132959
 11
470.7423067354133
 21
472.0382439254923
 72
     1
 10
470.7423067354133
 20
472.0382439254923
 11
470.2701345740531
 21
471.1775877232806
 72
     1
 10
470.2701345740531
 20
471.1775877232806
 11
469.8359531122385
 21
470.2971548146581
 72
     1
 10
469.8359531122385
 20
470.2971548146581
 11
469.4405888390592
 21
469.3986211537069
 72
     1
 10
469.4405888390592
 20
469.3986211537069
 11
469.0847943528802
 21
468.4836971503199
 72
     1
 10
469.0847943528802
 20
468.4836971503199
 11
468.769246928728
 21
467.5541244143384
 72
     1
 10
468.769246928728
 20
467.5541244143384
 11
468.4945472290591
 21
466.611672440299
 72
     1
 10
468.4945472290591
 20
466.611672440299
 11
468.2612181603646
 21
465.6581352390996
 72
     1
 10
468.2612181603646
 20
465.6581352390996
 11
468.0697038777884
 21
464.6953279229982
 72
     1
 10
468.0697038777884
 20
464.6953279229982
 11
467.9203689396523
 21
463.7250832504434
 72
     1
 10
467.9203689396523
 20
463.7250832504434
 11
467.8134976134988
 21
462.7492481373146
 72
     1
 10
467.8134976134988
 20
462.7492481373146
 11
467.7492933349713
 21
461.7696801412123
 72
     1
 10
467.7492933349713
 20
461.7696801412123
 11
467.7278783205631
 21
460.7882439254922
 72
     1
 10
467.7278783205631
 20
460.7882439254698
 11
240.2278783205529
 21
460.7882439254698
 72
     1
 10
240.2278783205529
 20
460.7882439254698
 11
240.2278783205529
 21
610.7882439254699
 72
     1
 10
240.2278783205529
 20
610.7882439254699
 11
490.2278783205525
 21
610.7882439254699
 72
     1
 10
490.2278783205525
 20
610.7882439254699
 11
490.2278783205525
 21
483.2882439254919
 97
        0
 92
        0
 93
       40
 72
     1
 10
512.7278783205641
 20
460.7882439254918
 11
512.7064633061558
 21
461.7696801412119
 72
     1
 10
512.7064633061558
 20
461.7696801412119
 11
512.6422590276283
 21
462.7492481373141
 72
     1
 10
512.6422590276283
 20
462.7492481373141
 11
512.5353877014747
 21
463.725083250443
 72
     1
 10
512.5353877014747
 20
463.725083250443
 11
512.3860527633387
 21
464.6953279229978
 72
     1
 10
512.3860527633387
 20
464.6953279229978
 11
512.1945384807625
 21
465.6581352390991
 72
     1
 10
512.1945384807625
 20
465.6581352390991
 11
511.9612094120681
 21
466.6116724402985
 72
     1
 10
511.9612094120681
 20
466.6116724402985
 11
511.6865097123991
 21
467.554124414338
 72
     1
 10
511.6865097123991
 20
467.554124414338
 11
511.3709622882469
 21
468.4836971503194
 72
     1
 10
511.3709622882469
 20
468.4836971503194
 11
511.0151678020679
 21
469.3986211537064
 72
     1
 10
511.0151678020679
 20
469.3986211537064
 11
510.6198035288886
 21
470.2971548146576
 72
     1
 10
510.6198035288886
 20
470.2971548146576
 11
510.185622067074
 21
471.1775877232801
 72
     1
 10
510.185622067074
 20
471.1775877232801
 11
509.7134499057139
 21
472.0382439254918
 72
     1
 10
509.7134499057139
 20
472.0382439254918
 11
509.2041858513539
 21
472.8774851132953
 72
     1
 10
509.2041858513539
 20
472.8774851132953
 11
508.6587993170663
 21
473.6937137433903
 72
     1
 10
508.6587993170663
 20
473.6937137433903
 11
508.0783284771168
 21
474.485376078188
 72
     1
 10
508.0783284771168
 20
474.485376078188
 11
507.463878290741
 21
475.250965143439
 72
     1
 10
507.463878290741
 20
475.250965143439
 11
506.8166183987918
 21
475.9890235968442
 72
     1
 10
506.8166183987918
 20
475.9890235968442
 11
506.1377808972613
 21
476.6981465021892
 72
     1
 10
506.1377808972613
 20
476.6981465021892
 11
505.4286579919164
 21
477.3769840037196
 72
     1
 10
505.4286579919164
 20
477.3769840037196
 11
504.6905995385112
 21
478.0242438956688
 72
     1
 10
504.6905995385112
 20
478.0242438956688
 11
503.9250104732602
 21
478.6386940820446
 72
     1
 10
503.9250104732602
 20
478.6386940820446
 11
503.1333481384626
 21
479.2191649219941
 72
     1
 10
503.1333481384626
 20
479.2191649219941
 11
502.3171195083676
 21
479.7645514562818
 72
     1
 10
502.3171195083676
 20
479.7645514562818
 11
501.477878320564
 21
480.2738155106417
 72
     1
 10
501.477878320564
 20
480.2738155106417
 11
500.6172221183523
 21
480.7459876720018
 72
     1
 10
500.6172221183523
 20
480.7459876720018
 11
499.7367892097297
 21
481.1801691338164
 72
     1
 10
499.7367892097297
 20
481.1801691338164
 11
498.8382555487785
 21
481.5755334069958
 72
     1
 10
498.8382555487785
 20
481.5755334069958
 11
497.9233315453916
 21
481.9313278931747
 72
     1
 10
497.9233315453916
 20
481.9313278931747
 11
496.9937588094102
 21
482.2468753173269
 72
     1
 10
496.9937588094102
 20
482.2468753173269
 11
496.0513068353707
 21
482.5215750169959
 72
     1
 10
496.0513068353707
 20
482.5215750169959
 11
495.0977696341714
 21
482.7549040856903
 72
     1
 10
495.0977696341714
 20
482.7549040856903
 11
494.1349623180699
 21
482.9464183682665
 72
     1
 10
494.1349623180699
 20
482.9464183682665
 11
493.1647176455152
 21
483.0957533064026
 72
     1
 10
493.1647176455152
 20
483.0957533064026
 11
492.1888825323863
 21
483.2026246325561
 72
     1
 10
492.1888825323863
 20
483.2026246325561
 11
491.2093145362841
 21
483.2668289110836
 72
     1
 10
491.2093145362841
 20
483.2668289110836
 11
490.2278783205641
 21
483.2882439254918
 72
     1
 10
490.2278783205525
 20
483.2882439254918
 11
490.2278783205525
 21
610.7882439254699
 72
     1
 10
490.2278783205525
 20
610.7882439254699
 11
740.2278783205529
 21
610.7882439254697
 72
     1
 10
740.2278783205529
 20
610.7882439254697
 11
740.2278783205529
 21
460.7882439254697
 72
     1
 10
740.2278783205529
 20
460.7882439254697
 11
512.7278783205631
 21
460.7882439254698
 97
        0
 75
     0
 76
     2
 52
0.0
 41
0.3333333333333333
 77
     0
 78
     2
 53
315.0
 43
-854.8844546430468
 44
1005.021568667661
 45
10.10278813620278
 46
10.10278813620278
 79
     0
 53
45.0
 43
-854.8844546430468
 44
1005.021568667661
 45
-10.10278813620278
 46
10.10278813620278
 79
     0
 98
        0
  0
DIMENSION
  5
18B
330
1F
100
AcDbEntity
  8
7
  6
CONTINUOUS
 62
     4
100
AcDbDimension
  2
DIM2
 10
240.2278783205527
 20
214.3848078587378
 30
0.0
 11
490.2278783205527
 21
214.3848078587378
 31
0.0
 70
   160
  1
<>
  3
STANDARD
100
AcDbAlignedDimension
 13
740.2278783205526
 23
310.7882439254698
 33
0.0
 14
240.2278783205529
 24
310.7882439254698
 34
0.0
 50
179.9999999999998
100
AcDbRotatedDimension
1001
ACAD
1000
DSTYLE
1002
{
1070
   287
1070
     4
1070
     7
1000

1070
     6
1000

1070
   279
1070
     1
1070
   340
1005
F4
1070
   140
1040
9.0
1070
    40
1040
1.0
1070
   147
1040
0.0
1070
    76
1070
     0
1070
    75
1070
     0
1070
   173
1070
     1
1070
   289
1070
     2
1070
   288
1070
     1
1070
    77
1070
     1
1070
   172
1070
     1
1070
   174
1070
     0
1070
    74
1070
     0
1070
    73
1070
     0
1070
   284
1070
     8
1070
    78
1070
     8
1070
    42
1040
3.0
1070
    44
1040
4.5
1070
    43
1040
30.0
1070
   271
1070
     2
1070
    41
1040
6.0
1002
}
  0
DIMENSION
  5
195
330
1F
100
AcDbEntity
  8
7
  6
CONTINUOUS
 62
     4
100
AcDbDimension
  2
DIM3
 10
225.2278783205518
 20
189.6987398886575
 30
0.0
 11
490.2278783205521
 21
189.6987398886575
 31
0.0
 70
   160
  1
<>
  3
STANDARD
100
AcDbAlignedDimension
 13
755.2278783205527
 23
295.7882439254698
 33
0.0
 14
225.227878320552
 24
295.7882439254698
 34
0.0
 50
179.9999999999998
100
AcDbRotatedDimension
1001
ACAD
1000
DSTYLE
1002
{
1070
   287
1070
     4
1070
     7
1000

1070
     6
1000

1070
   279
1070
     1
1070
   340
1005
F4
1070
   140
1040
9.0
1070
    40
1040
1.0
1070
   147
1040
0.0
1070
    76
1070
     0
1070
    75
1070
     0
1070
   173
1070
     1
1070
   289
1070
     2
1070
   288
1070
     1
1070
    77
1070
     1
1070
   172
1070
     1
1070
   174
1070
     0
1070
    74
1070
     0
1070
    73
1070
     0
1070
   284
1070
     8
1070
    78
1070
     8
1070
    42
1040
3.0
1070
    44
1040
4.5
1070
    43
1040
30.0
1070
   271
1070
     2
1070
    41
1040
6.0
1002
}
  0
DIMENSION
  5
19F
330
1F
100
AcDbEntity
  8
7
  6
CONTINUOUS
 62
     4
100
AcDbDimension
  2
DIM4
 10
755.2278783205527
 20
189.6987398886575
 30
0.0
 11
772.727878320553
 21
189.6987398886575
 31
0.0
 70
   160
  1
<>
  3
STANDARD
100
AcDbAlignedDimension
 13
790.2278783205531
 23
437.7882439254715
 33
0.0
 14
755.2278783205529
 24
295.7882439254698
 34
0.0
 50
179.9999999999998
100
AcDbRotatedDimension
1001
ACAD
1000
DSTYLE
1002
{
1070
   287
1070
     4
1070
     7
1000

1070
     6
1000

1070
   279
1070
     1
1070
   340
1005
F4
1070
   140
1040
9.0
1070
    40
1040
1.0
1070
   147
1040
0.0
1070
    76
1070
     0
1070
    75
1070
     0
1070
   173
1070
     1
1070
   289
1070
     2
1070
   288
1070
     1
1070
    77
1070
     1
1070
   172
1070
     1
1070
   174
1070
     0
1070
    74
1070
     0
1070
    73
1070
     0
1070
   284
1070
     8
1070
    78
1070
     8
1070
    42
1040
3.0
1070
    44
1040
4.5
1070
    43
1040
30.0
1070
   271
1070
     2
1070
    41
1040
6.0
1002
}
  0
DIMENSION
  5
1A9
330
1F
100
AcDbEntity
  8
7
  6
CONTINUOUS
 62
     4
100
AcDbDimension
  2
DIM5
 10
265.2278783205525
 20
242.678774697087
 30
0.0
 11
321.4778783205526
 21
242.678774697087
 31
0.0
 70
   160
  1
<>
  3
STANDARD
100
AcDbAlignedDimension
 13
377.7278783205523
 23
287.7882439254702
 33
0.0
 14
265.2278783205526
 24
287.7882439254702
 34
0.0
 50
179.9999999999998
100
AcDbRotatedDimension
1001
ACAD
1000
DSTYLE
1002
{
1070
   287
1070
     4
1070
     7
1000

1070
     6
1000

1070
   279
1070
     1
1070
   340
1005
F4
1070
   140
1040
9.0
1070
    40
1040
1.0
1070
   147
1040
0.0
1070
    76
1070
     0
1070
    75
1070
     0
1070
   173
1070
     1
1070
   289
1070
     2
1070
   288
1070
     1
1070
    77
1070
     1
1070
   172
1070
     1
1070
   174
1070
     0
1070
    74
1070
     0
1070
    73
1070
     0
1070
   284
1070
     8
1070
    78
1070
     8
1070
    42
1040
3.0
1070
    44
1040
4.5
1070
    43
1040
30.0
1070
   271
1070
     2
1070
    41
1040
6.0
1002
}
  0
DIMENSION
  5
1B3
330
1F
100
AcDbEntity
  8
7
  6
CONTINUOUS
 62
     4
100
AcDbDimension
  2
DIM6
 10
1039.166401323368
 20
214.2865917958003
 30
0.0
 11
1016.666401323368
 21
214.2865917958003
 31
0.0
 70
   160
  1
<>
  3
STANDARD
100
AcDbAlignedDimension
 13
994.1664013233678
 23
295.7882439254698
 33
0.0
 14
1039.166401323368
 24
280.7882439254698
 34
0.0
100
AcDbRotatedDimension
1001
ACAD
1000
DSTYLE
1002
{
1070
   287
1070
     4
1070
     7
1000

1070
     6
1000

1070
   279
1070
     1
1070
   340
1005
F4
1070
   140
1040
9.0
1070
    40
1040
1.0
1070
   147
1040
0.0
1070
    76
1070
     0
1070
    75
1070
     0
1070
   173
1070
     1
1070
   289
1070
     2
1070
   288
1070
     1
1070
    77
1070
     1
1070
   172
1070
     1
1070
   174
1070
     0
1070
    74
1070
     0
1070
    73
1070
     0
1070
   284
1070
     8
1070
    78
1070
     8
1070
    42
1040
3.0
1070
    44
1040
4.5
1070
    43
1040
30.0
1070
   271
1070
     2
1070
    41
1040
6.0
1002
}
  0
DIMENSION
  5
1BD
330
1F
100
AcDbEntity
  8
7
  6
CONTINUOUS
 62
     4
100
AcDbDimension
  2
DIM7
 10
1039.166401323368
 20
267.3625545407814
 30
0.0
 11
1055.749778645007
 21
267.3625545407814
 31
0.0
 70
   160
  1
<>
  3
STANDARD
100
AcDbAlignedDimension
 13
1038.166401323368
 23
280.7882439254698
 33
0.0
 14
1039.166401323368
 24
280.7882439254698
 34
0.0
100
AcDbRotatedDimension
1001
ACAD
1000
DSTYLE
1002
{
1070
   287
1070
     4
1070
     7
1000

1070
     6
1000

1070
   279
1070
     1
1070
   340
1005
F4
1070
   140
1040
9.0
1070
    40
1040
1.0
1070
   147
1040
0.0
1070
    76
1070
     0
1070
    75
1070
     0
1070
   173
1070
     1
1070
   289
1070
     2
1070
   288
1070
     1
1070
    77
1070
     1
1070
   172
1070
     1
1070
   174
1070
     0
1070
    74
1070
     0
1070
    73
1070
     0
1070
   284
1070
     8
1070
    78
1070
     8
1070
    42
1040
3.0
1070
    44
1040
4.5
1070
    43
1040
30.0
1070
   271
1070
     2
1070
    41
1040
6.0
1002
}
  0
DIMENSION
  5
1C7
330
1F
100
AcDbEntity
  8
7
  6
CONTINUOUS
 62
     4
100
AcDbDimension
  2
DIM8
 10
1005.666401323367
 20
242.6197894842636
 30
0.0
 11
1022.416401323368
 21
242.6197894842636
 31
0.0
 70
   160
  1
<>
  3
STANDARD
100
AcDbAlignedDimension
 13
1039.166401323368
 23
280.7882439254698
 33
0.0
 14
1005.666401323367
 24
437.7882439254698
 34
0.0
 50
179.9999999999998
100
AcDbRotatedDimension
1001
ACAD
1000
DSTYLE
1002
{
1070
   287
1070
     4
1070
     7
1000

1070
     6
1000

1070
   279
1070
     1
1070
   340
1005
F4
1070
   140
1040
9.0
1070
    40
1040
1.0
1070
   147
1040
0.0
1070
    76
1070
     0
1070
    75
1070
     0
1070
   173
1070
     1
1070
   289
1070
     2
1070
   288
1070
     1
1070
    77
1070
     1
1070
   172
1070
     1
1070
   174
1070
     0
1070
    74
1070
     0
1070
    73
1070
     0
1070
   284
1070
     8
1070
    78
1070
     8
1070
    42
1040
3.0
1070
    44
1040
4.5
1070
    43
1040
30.0
1070
   271
1070
     2
1070
    41
1040
6.0
1002
}
  0
DIMENSION
  5
1D1
330
1F
100
AcDbEntity
  8
7
  6
CONTINUOUS
 62
     4
100
AcDbDimension
  2
DIM9
 10
490.2278783205525
 20
242.678774697087
 30
0.0
 11
433.9778783205525
 21
242.678774697087
 31
0.0
 70
   160
  1
<>
  3
STANDARD
100
AcDbAlignedDimension
 13
377.7278783205523
 23
287.7882439254702
 33
0.0
 14
490.2278783205525
 24
265.7882439254709
 34
0.0
100
AcDbRotatedDimension
1001
ACAD
1000
DSTYLE
1002
{
1070
   287
1070
     4
1070
     7
1000

1070
     6
1000

1070
   279
1070
     1
1070
   340
1005
F4
1070
   140
1040
9.0
1070
    40
1040
1.0
1070
   147
1040
0.0
1070
    76
1070
     0
1070
    75
1070
     0
1070
   173
1070
     1
1070
   289
1070
     2
1070
   288
1070
     1
1070
    77
1070
     1
1070
   172
1070
     1
1070
   174
1070
     0
1070
    74
1070
     0
1070
    73
1070
     0
1070
   284
1070
     8
1070
    78
1070
     8
1070
    42
1040
3.0
1070
    44
1040
4.5
1070
    43
1040
30.0
1070
   271
1070
     2
1070
    41
1040
6.0
1002
}
  0
DIMENSION
  5
1DB
330
1F
100
AcDbEntity
  8
7
  6
CONTINUOUS
 62
     4
100
AcDbDimension
  2
DIM10
 10
819.6009947670582
 20
310.7882439254652
 30
0.0
 11
819.600994767058
 21
460.7882439254651
 31
0.0
 70
   160
  1
<>
 53
89.99999999999991
  3
STANDARD
100
AcDbAlignedDimension
 13
740.2278783205597
 23
610.7882439254654
 33
0.0
 14
740.2278783205529
 24
310.7882439254652
 34
0.0
 50
-89.9999999999999
100
AcDbRotatedDimension
1001
ACAD
1000
DSTYLE
1002
{
1070
   287
1070
     4
1070
     7
1000

1070
     6
1000

1070
   279
1070
     1
1070
   340
1005
F4
1070
   140
1040
9.0
1070
    40
1040
1.0
1070
   147
1040
0.0
1070
    76
1070
     0
1070
    75
1070
     0
1070
   173
1070
     1
1070
   289
1070
     2
1070
   288
1070
     1
1070
    77
1070
     1
1070
   172
1070
     1
1070
   174
1070
     0
1070
    74
1070
     0
1070
    73
1070
     0
1070
   284
1070
     8
1070
    78
1070
     8
1070
    42
1040
3.0
1070
    44
1040
4.5
1070
    43
1040
30.0
1070
   271
1070
     2
1070
    41
1040
6.0
1002
}
  0
DIMENSION
  5
1E5
330
1F
100
AcDbEntity
  8
7
  6
CONTINUOUS
 62
     4
100
AcDbDimension
  2
DIM11
 10
848.9124169162228
 20
295.7882439254649
 30
0.0
 11
848.9124169162226
 21
460.7882439254649
 31
0.0
 70
   160
  1
<>
 53
89.99999999999991
  3
STANDARD
100
AcDbAlignedDimension
 13
755.227878320561
 23
625.7882439254649
 33
0.0
 14
755.2278783205535
 24
295.7882439254649
 34
0.0
 50
-89.99999999999991
100
AcDbRotatedDimension
1001
ACAD
1000
DSTYLE
1002
{
1070
   287
1070
     4
1070
     7
1000

1070
     6
1000

1070
   279
1070
     1
1070
   340
1005
F4
1070
   140
1040
9.0
1070
    40
1040
1.0
1070
   147
1040
0.0
1070
    76
1070
     0
1070
    75
1070
     0
1070
   173
1070
     1
1070
   289
1070
     2
1070
   288
1070
     1
1070
    77
1070
     1
1070
   172
1070
     1
1070
   174
1070
     0
1070
    74
1070
     0
1070
    73
1070
     0
1070
   284
1070
     8
1070
    78
1070
     8
1070
    42
1040
3.0
1070
    44
1040
4.5
1070
    43
1040
30.0
1070
   271
1070
     2
1070
    41
1040
6.0
1002
}
  0
DIMENSION
  5
1EF
330
1F
100
AcDbEntity
  8
7
  6
CONTINUOUS
 62
     4
100
AcDbDimension
  2
DIM12
 10
877.8390568754776
 20
287.7882439254662
 30
0.0
 11
877.8390568754774
 21
460.7882439254657
 31
0.0
 70
   160
  1
<>
 53
89.99999999999991
  3
STANDARD
100
AcDbAlignedDimension
 13
715.2278783205606
 23
633.7882439254654
 33
0.0
 14
715.2278783205527
 24
287.7882439254662
 34
0.0
 50
-89.99999999999991
100
AcDbRotatedDimension
1001
ACAD
1000
DSTYLE
1002
{
1070
   287
1070
     4
1070
     7
1000

1070
     6
1000

1070
   279
1070
     1
1070
   340
1005
F4
1070
   140
1040
9.0
1070
    40
1040
1.0
1070
   147
1040
0.0
1070
    76
1070
     0
1070
    75
1070
     0
1070
   173
1070
     1
1070
   289
1070
     2
1070
   288
1070
     1
1070
    77
1070
     1
1070
   172
1070
     1
1070
   174
1070
     0
1070
    74
1070
     0
1070
    73
1070
     0
1070
   284
1070
     8
1070
    78
1070
     8
1070
    42
1040
3.0
1070
    44
1040
4.5
1070
    43
1040
30.0
1070
   271
1070
     2
1070
    41
1040
6.0
1002
}
  0
DIMENSION
  5
1F9
330
1F
100
AcDbEntity
  8
7
  6
CONTINUOUS
 62
     4
100
AcDbDimension
  2
DIM13
 10
903.4031816091847
 20
280.7882439254658
 30
0.0
 11
903.4031816091843
 21
460.7882439254653
 31
0.0
 70
   160
  1
<>
 53
89.99999999999991
  3
STANDARD
100
AcDbAlignedDimension
 13
735.2278783205608
 23
640.7882439254649
 33
0.0
 14
735.2278783205526
 24
280.7882439254658
 34
0.0
 50
-89.9999999999999
100
AcDbRotatedDimension
1001
ACAD
1000
DSTYLE
1002
{
1070
   287
1070
     4
1070
     7
1000

1070
     6
1000

1070
   279
1070
     1
1070
   340
1005
F4
1070
   140
1040
9.0
1070
    40
1040
1.0
1070
   147
1040
0.0
1070
    76
1070
     0
1070
    75
1070
     0
1070
   173
1070
     1
1070
   289
1070
     2
1070
   288
1070
     1
1070
    77
1070
     1
1070
   172
1070
     1
1070
   174
1070
     0
1070
    74
1070
     0
1070
    73
1070
     0
1070
   284
1070
     8
1070
    78
1070
     8
1070
    42
1040
3.0
1070
    44
1040
4.5
1070
    43
1040
30.0
1070
   271
1070
     2
1070
    41
1040
6.0
1002
}
  0
DIMENSION
  5
203
330
1F
100
AcDbEntity
  8
7
  6
CONTINUOUS
 62
     4
100
AcDbDimension
  2
DIM14
 10
602.7278783205522
 20
242.678774697087
 30
0.0
 11
546.4778783205525
 21
242.678774697087
 31
0.0
 70
   160
  1
<>
  3
STANDARD
100
AcDbAlignedDimension
 13
490.2278783205525
 23
265.7882439254709
 33
0.0
 14
602.7278783205523
 24
287.7882439254702
 34
0.0
100
AcDbRotatedDimension
1001
ACAD
1000
DSTYLE
1002
{
1070
   287
1070
     4
1070
     7
1000

1070
     6
1000

1070
   279
1070
     1
1070
   340
1005
F4
1070
   140
1040
9.0
1070
    40
1040
1.0
1070
   147
1040
0.0
1070
    76
1070
     0
1070
    75
1070
     0
1070
   173
1070
     1
1070
   289
1070
     2
1070
   288
1070
     1
1070
    77
1070
     1
1070
   172
1070
     1
1070
   174
1070
     0
1070
    74
1070
     0
1070
    73
1070
     0
1070
   284
1070
     8
1070
    78
1070
     8
1070
    42
1040
3.0
1070
    44
1040
4.5
1070
    43
1040
30.0
1070
   271
1070
     2
1070
    41
1040
6.0
1002
}
  0
DIMENSION
  5
20B
330
1F
100
AcDbEntity
  8
7
  6
CONTINUOUS
 62
     4
100
AcDbDimension
  2
DIM15
 10
505.8723818522291
 20
452.9460816440899
 30
0.0
 11
198.8346880201599
 21
611.889407426601
 31
0.0
 70
   163
  1
\U+2205<>
  3
STANDARD
100
AcDbDiametricDimension
 15
474.5833747889081
 25
468.6304062068932
 35
0.0
 40
0.0
1001
ACAD
1000
DSTYLE
1002
{
1070
   287
1070
     2
1070
     7
1000

1070
     6
1000

1070
   340
1005
F4
1070
   140
1040
9.0
1070
    40
1040
1.0
1070
   147
1040
0.0
1070
    76
1070
     0
1070
    75
1070
     0
1070
   173
1070
     1
1070
   289
1070
     2
1070
   288
1070
     1
1070
    77
1070
     1
1070
   172
1070
     1
1070
   174
1070
     0
1070
    74
1070
     0
1070
    73
1070
     0
1070
   284
1070
     8
1070
    78
1070
     8
1070
    42
1040
3.0
1070
    44
1040
4.5
1070
    43
1040
30.0
1070
   271
1070
     2
1070
    41
1040
6.0
1002
}
  0
DIMENSION
  5
213
330
1F
100
AcDbEntity
  8
7
  6
CONTINUOUS
 62
     4
100
AcDbDimension
  2
DIM16
 10
512.3004026061784
 20
456.4231927618943
 30
0.0
 11
197.2825392263111
 21
523.3081159359308
 31
0.0
 70
   163
  1
\U+2205<>
  3
STANDARD
100
AcDbDiametricDimension
 15
468.155354034944
 25
465.1532950890922
 35
0.0
 40
0.0
1001
ACAD
1000
DSTYLE
1002
{
1070
   287
1070
     2
1070
     7
1000

1070
     6
1000

1070
   340
1005
F4
1070
   140
1040
9.0
1070
    40
1040
1.0
1070
   147
1040
0.0
1070
    76
1070
     0
1070
    75
1070
     0
1070
   173
1070
     1
1070
   289
1070
     2
1070
   288
1070
     1
1070
    77
1070
     1
1070
   172
1070
     1
1070
   174
1070
     0
1070
    74
1070
     0
1070
    73
1070
     0
1070
   284
1070
     8
1070
    78
1070
     8
1070
    42
1040
3.0
1070
    44
1040
4.5
1070
    43
1040
30.0
1070
   271
1070
     2
1070
    41
1040
6.0
1002
}
  0
INSERT
  5
214
330
1F
100
AcDbEntity
  8
7
  6
CONTINUOUS
 62
     4
100
AcDbBlockReference
  2
_OPEN
 10
717.0122434715377
 20
636.3232076348645
 30
0.0
 41
6.0
 42
6.0
 43
6.0
 50
232.0713711176813
  0
POLYLINE
  5
215
330
1F
100
AcDbEntity
  8
7
  6
CONTINUOUS
 62
     4
100
AcDb2dPolyline
 66
     1
 10
0.0
 20
0.0
 30
0.0
  0
VERTEX
  5
216
330
215
100
AcDbEntity
  8
7
  6
CONTINUOUS
 62
     4
100
AcDbVertex
100
AcDb2dVertex
 10
717.0122434715377
 20
636.3232076348645
 30
0.0
  0
VERTEX
  5
217
330
215
100
AcDbEntity
  8
7
  6
CONTINUOUS
 62
     4
100
AcDbVertex
100
AcDb2dVertex
 10
740.7040157819738
 20
666.7252775629945
 30
0.0
  0
VERTEX
  5
218
330
215
100
AcDbEntity
  8
7
  6
CONTINUOUS
 62
     4
100
AcDbVertex
100
AcDb2dVertex
 10
783.5640157819739
 20
666.7252775629945
 30
0.0
  0
SEQEND
  5
219
330
215
100
AcDbEntity
  8
7
  6
CONTINUOUS
 62
     4
  0
MTEXT
  5
21A
330
1F
100
AcDbEntity
  8
7
  6
CONTINUOUS
 62
     4
100
AcDbMText
 10
743.0640157819738
 20
666.7252775629945
 30
0.0
 40
9.0
 41
57.31130633669999
 71
     7
 72
     1
  1
{\fＭＳ ゴシック;\T1.034245;10-\U+00D86.2}
1001
ACAD
1000
ACAD_MTEXT_DEFINED_HEIGHT_BEGIN
1070
    46
1040
9.0
1000
ACAD_MTEXT_DEFINED_HEIGHT_END
  0
VIEWPORT
  5
3F
330
1B
100
AcDbEntity
 67
     1
  8
0
100
AcDbViewport
 10
630.0
 20
445.5
 30
0.0
 40
1260.0
 41
891.0
 68
     1
 69
     1
1001
ACAD
1000
MVIEW
1002
{
1070
    16
1010
0.0
1020
0.0
1030
0.0
1010
0.0
1020
0.0
1030
1.0
1040
0.0
1040
9.0
1040
630.0
1040
445.5
1040
50.0
1040
0.0
1040
0.0
1070
     0
1070
   100
1070
     0
1070
     3
1070
     0
1070
     0
1070
     0
1070
     0
1040
0.0
1040
0.0
1040
0.0
1040
0.5
1040
0.5
1040
0.5
1040
0.5
1070
     0
1002
{
1002
}
1002
}
  0
ENDSEC
  0
SECTION
  2
OBJECTS
  0
DICTIONARY
  5
C
330
0
100
AcDbDictionary
  3
ACAD_GROUP
350
D
  3
ACAD_LAYOUT
350
1A
  3
ACAD_MATERIAL
350
3B
  3
ACAD_MLEADERSTYLE
350
23D
  3
ACAD_MLINESTYLE
350
17
  3
ACAD_PLOTSETTINGS
350
19
  3
ACAD_VISUALSTYLE
350
2A
  3
ACDBHEADERROUNDTRIPXREC
350
21B
  3
ACDBVARIABLEDICTIONARY
350
23B
  0
DICTIONARY
  5
D
102
{ACAD_REACTORS
330
C
102
}
330
C
100
AcDbDictionary
  0
DICTIONARY
  5
1A
102
{ACAD_REACTORS
330
C
102
}
330
C
100
AcDbDictionary
  0
DICTIONARY
  5
3B
102
{ACAD_REACTORS
330
C
102
}
330
C
100
AcDbDictionary
  3
BYBLOCK
350
3D
  3
BYLAYER
350
3C
  3
GLOBAL
350
3E
  0
DICTIONARY
  5
23D
102
{ACAD_REACTORS
330
C
102
}
330
C
100
AcDbDictionary
  0
DICTIONARY
  5
17
102
{ACAD_REACTORS
330
C
102
}
330
C
100
AcDbDictionary
  3
STANDARD
350
18
  0
DICTIONARY
  5
19
102
{ACAD_REACTORS
330
C
102
}
330
C
100
AcDbDictionary
  0
DICTIONARY
  5
2A
102
{ACAD_REACTORS
330
C
102
}
330
C
100
AcDbDictionary
  3
2DWIREFRAME
350
2F
  3
3D_HIDDEN
350
31
  3
3DWIREFRAME
350
30
  3
BASIC
350
32
  3
BRIGHTEN
350
36
  3
COLORCHANGE
350
3A
  3
CONCEPTUAL
350
34
  3
DIM
350
35
  3
FACEPATTERN
350
39
  3
FLAT
350
2B
  3
FLATWITHEDGES
350
2C
  3
GOURAUD
350
2D
  3
GOURAUDWITHEDGES
350
2E
  3
LINEPATTERN
350
38
  3
REALISTIC
350
33
  3
THICKEN
350
37
  0
DICTIONARY
  5
21B
102
{ACAD_REACTORS
330
C
102
}
330
C
100
AcDbDictionary
  3
CEPSNTYPE
350
224
  3
DIMSTYLEDATA
350
23A
  3
FINGERPRINTGUID
350
225
  3
HYPERLINKBASE
350
21E
  3
INSUNITS
350
223
  3
LAYOUTDICT
350
220
  3
LWETCUNION
350
222
  3
PLOTSETDICT
350
221
  3
PSVPSCALE
350
227
  3
PUCSBASE
350
22A
  3
PUCSORGBACK
350
230
  3
PUCSORGBOTTOM
350
22C
  3
PUCSORGFRONT
350
22F
  3
PUCSORGLEFT
350
22D
  3
PUCSORGRIGHT
350
22E
  3
PUCSORGTOP
350
22B
  3
PUCSORTHOREF
350
228
  3
PUCSORTHOVIEW
350
229
  3
STYLESHEET
350
21F
  3
TSTACKALIGN
350
21C
  3
TSTACKSIZE
350
21D
  3
UCSBASE
350
233
  3
UCSORGBACK
350
239
  3
UCSORGBOTTOM
350
235
  3
UCSORGFRONT
350
238
  3
UCSORGLEFT
350
236
  3
UCSORGRIGHT
350
237
  3
UCSORGTOP
350
234
  3
UCSORTHOREF
350
231
  3
UCSORTHOVIEW
350
232
  3
VERSIONGUID
350
226
  0
DICTIONARY
  5
23B
102
{ACAD_REACTORS
330
C
102
}
330
C
100
AcDbDictionary
  3
DIMASSOC
350
23E
  3
HIDETEXT
350
23F
  0
MATERIAL
  5
3D
102
{ACAD_REACTORS
330
3B
102
}
102
{ACAD_XDICTIONARY
360
242
102
}
330
3B
100
AcDbMaterial
  1
ByBlock
  0
MATERIAL
  5
3C
102
{ACAD_REACTORS
330
3B
102
}
102
{ACAD_XDICTIONARY
360
240
102
}
330
3B
100
AcDbMaterial
  1
ByLayer
  0
MATERIAL
  5
3E
102
{ACAD_REACTORS
330
3B
102
}
102
{ACAD_XDICTIONARY
360
244
102
}
330
3B
100
AcDbMaterial
  1
Global
  0
MLINESTYLE
  5
18
102
{ACAD_REACTORS
330
17
102
}
330
17
100
AcDbMlineStyle
  2
Standard
 70
     0
  3

 62
   256
 51
90.0
 52
90.0
 71
     2
 49
0.5
 62
   256
  6
BYLAYER
 49
-0.5
 62
   256
  6
BYLAYER
  0
ACAD_PROXY_OBJECT
  5
2F
102
{ACAD_REACTORS
330
2A
102
}
330
2A
100
AcDbProxyObject
 90
      499
 91
      501
 93
      436
310
42CC9915DA5C99599C985B595049028333333333333E3BF0000000000000FB0107901411070040501600405405064090741402480A0340
1001
ACAD
1000
AcDbSavedByObjectVersion
1070
     0
  0
ACAD_PROXY_OBJECT
  5
31
102
{ACAD_REACTORS
330
2A
102
}
330
2A
100
AcDbProxyObject
 90
      499
 91
      501
 93
      500
310
424CD108121A5919195B90640502408333333333333E3BF0000000000000FB01079024090700405020000000000001110200405405064090740C02480A0340
1001
ACAD
1000
AcDbSavedByObjectVersion
1070
     0
  0
ACAD_PROXY_OBJECT
  5
30
102
{ACAD_REACTORS
330
2A
102
}
330
2A
100
AcDbProxyObject
 90
      499
 91
      501
 93
      436
310
42CCD915DA5C99599C985B595059028333333333333E3BF0000000000000FB0107901411070040501600405405064090741402480A0340
1001
ACAD
1000
AcDbSavedByObjectVersion
1070
     0
  0
ACAD_PROXY_OBJECT
  5
32
102
{ACAD_REACTORS
330
2A
102
}
330
2A
100
AcDbProxyObject
 90
      499
 91
      501
 93
      388
310
4150985CDA58D07406404333333333333E3BF0000000000000FB0107A41107004050150841D405064090741402480A0350
1001
ACAD
1000
AcDbSavedByObjectVersion
1070
     0
  0
ACAD_PROXY_OBJECT
  5
36
102
{ACAD_REACTORS
330
2A
102
}
330
2A
100
AcDbProxyObject
 90
      499
 91
      501
 93
      428
310
42109C9A59DA1D195B90C409028333333333333E3BF0000000000000FB010790141107004050150841D405064090741402480A029950
1001
ACAD
1000
AcDbSavedByObjectVersion
1070
     0
  0
ACAD_PROXY_OBJECT
  5
3A
102
{ACAD_REACTORS
330
2A
102
}
330
2A
100
AcDbProxyObject
 90
      499
 91
      501
 93
      452
310
42D0DBDB1BDC90DA185B99D95104090240C333333333333E3BF0000000000000FB0108901411070040501508421405064090741402480A0350
1001
ACAD
1000
AcDbSavedByObjectVersion
1070
     0
  0
ACAD_PROXY_OBJECT
  5
34
102
{ACAD_REACTORS
330
2A
102
}
330
2A
100
AcDbProxyObject
 90
      499
 91
      501
 93
      500
310
4290DBDB98D95C1D1D585B10940D028333333333333E3BF0000000000000FB0107902409070040501000000000000111010841D405064090740C02480A0340
1001
ACAD
1000
AcDbSavedByObjectVersion
1070
     0
  0
ACAD_PROXY_OBJECT
  5
35
102
{ACAD_REACTORS
330
2A
102
}
330
2A
100
AcDbProxyObject
 90
      499
 91
      501
 93
      412
310
40D11A5B50B409028333333333333E3BF0000000000000FB010790141107004050150841D405064090741402480A02677FFFFFD0
1001
ACAD
1000
AcDbSavedByObjectVersion
1070
     0
  0
ACAD_PROXY_OBJECT
  5
39
102
{ACAD_REACTORS
330
2A
102
}
330
2A
100
AcDbProxyObject
 90
      499
 91
      501
 93
      444
310
42D19858D95C185D1D195C9B90F409028333333333333E3BF0000000000000FB010790141107004050150841D405064090741402480A0350
1001
ACAD
1000
AcDbSavedByObjectVersion
1070
     0
  0
ACAD_PROXY_OBJECT
  5
2B
102
{ACAD_REACTORS
330
2A
102
}
330
2A
100
AcDbProxyObject
 90
      499
 91
      501
 93
      388
310
41119B185D240901404333333333333E3BF0000000000000F9010740A41107004050150841D405064090741402480A1B50
1001
ACAD
1000
AcDbSavedByObjectVersion
1070
     0
  0
ACAD_PROXY_OBJECT
  5
2C
102
{ACAD_REACTORS
330
2A
102
}
330
2A
100
AcDbProxyObject
 90
      499
 91
      501
 93
      476
310
43519B185D15DA5D1A115919D95CD0140901404333333333333E3BF0000000000000F9010740901411070040501600405405064090741402480A1B50
1001
ACAD
1000
AcDbSavedByObjectVersion
1070
     0
  0
ACAD_PROXY_OBJECT
  5
2D
102
{ACAD_REACTORS
330
2A
102
}
330
2A
100
AcDbProxyObject
 90
      499
 91
      501
 93
      412
310
41D1DBDD5C985D5910240902404333333333333E3BF0000000000000F9010740A411070040501641D405064090741402480A1B50
1001
ACAD
1000
AcDbSavedByObjectVersion
1070
     0
  0
ACAD_PROXY_OBJECT
  5
2E
102
{ACAD_REACTORS
330
2A
102
}
330
2A
100
AcDbProxyObject
 90
      499
 91
      501
 93
      500
310
4411DBDD5C985D5915DA5D1A115919D95CD0340902404333333333333E3BF0000000000000F9010740901411070040501600405405064090741402480A1B50
1001
ACAD
1000
AcDbSavedByObjectVersion
1070
     0
  0
ACAD_PROXY_OBJECT
  5
38
102
{ACAD_REACTORS
330
2A
102
}
330
2A
100
AcDbProxyObject
 90
      499
 91
      501
 93
      444
310
42D31A5B995C185D1D195C9B90E409028333333333333E3BF0000000000000FB010790141107004050750841D405064090741402483A0350
1001
ACAD
1000
AcDbSavedByObjectVersion
1070
     0
  0
ACAD_PROXY_OBJECT
  5
33
102
{ACAD_REACTORS
330
2A
102
}
330
2A
100
AcDbProxyObject
 90
      499
 91
      501
 93
      420
310
425499585B1A5CDD1A58D08409028333333333333E3BF0000000000000FB01079019070040501508421405064090741402480A1B40
1001
ACAD
1000
AcDbSavedByObjectVersion
1070
     0
  0
ACAD_PROXY_OBJECT
  5
37
102
{ACAD_REACTORS
330
2A
102
}
330
2A
100
AcDbProxyObject
 90
      499
 91
      501
 93
      412
310
41D51A1A58DAD95B90D409028333333333333E3BF0000000000000FB010790141107004050150C41D405064090741402480A0350
1001
ACAD
1000
AcDbSavedByObjectVersion
1070
     0
  0
XRECORD
  5
224
102
{ACAD_REACTORS
330
21B
102
}
330
21B
100
AcDbXrecord
 90
        0
  0
XRECORD
  5
23A
102
{ACAD_REACTORS
330
21B
102
}
330
21B
100
AcDbXrecord
1000
DSTYLE
1002
{
1070
   171
 70
     2
1070
   143
 40
25.4
1070
   274
 70
     2
1070
    41
 40
1.55291427
1070
   289
 70
     2
1070
   141
 40
0.09
1070
    43
 40
30.0
1070
   278
 70
    46
1070
    44
 40
2.0
1070
    42
 40
2.0
1070
   147
 40
0.09
1070
    77
 70
     3
1070
   272
 70
     4
1070
   146
 40
0.5
1070
   279
 70
     2
1070
   283
 70
     1
1070
   145
 40
0.7
1070
   340
340
11
1070
   140
 40
2.8
1070
   288
 70
     1
1002
}
  0
XRECORD
  5
225
102
{ACAD_REACTORS
330
21B
102
}
330
21B
100
AcDbXrecord
  1
{AFB19352-1E55-419F-8069-56341226C3EF}
  0
XRECORD
  5
21E
102
{ACAD_REACTORS
330
21B
102
}
330
21B
100
AcDbXrecord
  1

  0
XRECORD
  5
223
102
{ACAD_REACTORS
330
21B
102
}
330
21B
100
AcDbXrecord
 90
        4
  0
XRECORD
  5
220
102
{ACAD_REACTORS
330
21B
102
}
330
21B
100
AcDbXrecord
340
1A
  0
XRECORD
  5
222
102
{ACAD_REACTORS
330
21B
102
}
330
21B
100
AcDbXrecord
 90
    10781
  0
XRECORD
  5
221
102
{ACAD_REACTORS
330
21B
102
}
330
21B
100
AcDbXrecord
340
19
  0
XRECORD
  5
227
102
{ACAD_REACTORS
330
21B
102
}
330
21B
100
AcDbXrecord
 40
0.0
  0
XRECORD
  5
22A
102
{ACAD_REACTORS
330
21B
102
}
330
21B
100
AcDbXrecord
340
0
  0
XRECORD
  5
230
102
{ACAD_REACTORS
330
21B
102
}
330
21B
100
AcDbXrecord
 10
0.0
 20
0.0
 30
0.0
  0
XRECORD
  5
22C
102
{ACAD_REACTORS
330
21B
102
}
330
21B
100
AcDbXrecord
 10
0.0
 20
0.0
 30
0.0
  0
XRECORD
  5
22F
102
{ACAD_REACTORS
330
21B
102
}
330
21B
100
AcDbXrecord
 10
0.0
 20
0.0
 30
0.0
  0
XRECORD
  5
22D
102
{ACAD_REACTORS
330
21B
102
}
330
21B
100
AcDbXrecord
 10
0.0
 20
0.0
 30
0.0
  0
XRECORD
  5
22E
102
{ACAD_REACTORS
330
21B
102
}
330
21B
100
AcDbXrecord
 10
0.0
 20
0.0
 30
0.0
  0
XRECORD
  5
22B
102
{ACAD_REACTORS
330
21B
102
}
330
21B
100
AcDbXrecord
 10
0.0
 20
0.0
 30
0.0
  0
XRECORD
  5
228
102
{ACAD_REACTORS
330
21B
102
}
330
21B
100
AcDbXrecord
340
0
  0
XRECORD
  5
229
102
{ACAD_REACTORS
330
21B
102
}
330
21B
100
AcDbXrecord
 70
     0
  0
XRECORD
  5
21F
102
{ACAD_REACTORS
330
21B
102
}
330
21B
100
AcDbXrecord
  1

  0
XRECORD
  5
21C
102
{ACAD_REACTORS
330
21B
102
}
330
21B
100
AcDbXrecord
 90
        1
  0
XRECORD
  5
21D
102
{ACAD_REACTORS
330
21B
102
}
330
21B
100
AcDbXrecord
 90
       70
  0
XRECORD
  5
233
102
{ACAD_REACTORS
330
21B
102
}
330
21B
100
AcDbXrecord
340
0
  0
XRECORD
  5
239
102
{ACAD_REACTORS
330
21B
102
}
330
21B
100
AcDbXrecord
 10
0.0
 20
0.0
 30
0.0
  0
XRECORD
  5
235
102
{ACAD_REACTORS
330
21B
102
}
330
21B
100
AcDbXrecord
 10
0.0
 20
0.0
 30
0.0
  0
XRECORD
  5
238
102
{ACAD_REACTORS
330
21B
102
}
330
21B
100
AcDbXrecord
 10
0.0
 20
0.0
 30
0.0
  0
XRECORD
  5
236
102
{ACAD_REACTORS
330
21B
102
}
330
21B
100
AcDbXrecord
 10
0.0
 20
0.0
 30
0.0
  0
XRECORD
  5
237
102
{ACAD_REACTORS
330
21B
102
}
330
21B
100
AcDbXrecord
 10
0.0
 20
0.0
 30
0.0
  0
XRECORD
  5
234
102
{ACAD_REACTORS
330
21B
102
}
330
21B
100
AcDbXrecord
 10
0.0
 20
0.0
 30
0.0
  0
XRECORD
  5
231
102
{ACAD_REACTORS
330
21B
102
}
330
21B
100
AcDbXrecord
340
0
  0
XRECORD
  5
232
102
{ACAD_REACTORS
330
21B
102
}
330
21B
100
AcDbXrecord
 70
     0
  0
XRECORD
  5
226
102
{ACAD_REACTORS
330
21B
102
}
330
21B
100
AcDbXrecord
  1
{FAEB1C32-E019-11D5-929B-00C0DF256EC4}
  0
DICTIONARYVAR
  5
23E
102
{ACAD_REACTORS
330
23B
102
}
330
23B
100
DictionaryVariables
280
     0
  1
1
  0
DICTIONARYVAR
  5
23F
102
{ACAD_REACTORS
330
23B
102
}
330
23B
100
DictionaryVariables
280
     0
  1
1
  0
DICTIONARY
  5
242
330
3D
100
AcDbDictionary
280
     1
  3
ACAD_XREC_ROUNDTRIP
360
243
  0
DICTIONARY
  5
240
330
3C
100
AcDbDictionary
280
     1
  3
ACAD_XREC_ROUNDTRIP
360
241
  0
DICTIONARY
  5
244
330
3E
100
AcDbDictionary
280
     1
  3
ACAD_XREC_ROUNDTRIP
360
245
  0
XRECORD
  5
243
102
{ACAD_REACTORS
330
242
102
}
330
242
100
AcDbXrecord
102
MATERIAL
148
0.0
149
0.0
149
0.0
 93
        0
 94
      127
282
     0
 72
     1
 77
     1
171
     1
175
     1
179
     1
273
     0
  0
XRECORD
  5
241
102
{ACAD_REACTORS
330
240
102
}
330
240
100
AcDbXrecord
102
MATERIAL
148
0.0
149
0.0
149
0.0
 93
        0
 94
      127
282
     0
 72
     1
 77
     1
171
     1
175
     1
179
     1
273
     0
  0
XRECORD
  5
245
102
{ACAD_REACTORS
330
244
102
}
330
244
100
AcDbXrecord
102
MATERIAL
148
0.0
149
0.0
149
0.0
 93
        0
 94
      127
282
     0
 72
     1
 77
     1
171
     1
175
     1
179
     1
273
     0
  0
ENDSEC
  0
EOF
