  0
SECTION
  2
HEADER
  9
$ACADVER
  1
AC1014
  9
$ACADMAINTVER
 70
     9
  9
$DWGCODEPAGE
  3
ANSI_932
  9
$INSBASE
 10
0.0
 20
0.0
 30
0.0
  9
$EXTMIN
 10
182.6173127623895
 20
185.1987398886577
 30
0.0
  9
$EXTMAX
 10
1057.999778645007
 20
678.3767046698305
 30
0.0
  9
$LIMMIN
 10
0.0
 20
0.0
  9
$LIMMAX
 10
420.0
 20
297.0
  9
$ORTHOMODE
 70
     0
  9
$REGENMODE
 70
     1
  9
$FILLMODE
 70
     1
  9
$QTEXTMODE
 70
     0
  9
$MIRRTEXT
 70
     1
  9
$DRAGMODE
 70
     2
  9
$LTSCALE
 40
0.75
  9
$OSMODE
 70
    37
  9
$ATTMODE
 70
     1
  9
$TEXTSIZE
 40
8.4
  9
$TRACEWID
 40
0.05
  9
$TEXTSTYLE
  7
STANDARD
  9
$CLAYER
  8
0
  9
$CELTYPE
  6
BYLAYER
  9
$CECOLOR
 62
   256
  9
$CELTSCALE
 40
1.0
  9
$DELOBJ
 70
     1
  9
$DISPSILH
 70
     0
  9
$DIMSCALE
 40
1.0
  9
$DIMASZ
 40
1.55291427
  9
$DIMEXO
 40
2.0
  9
$DIMDLI
 40
30.0
  9
$DIMRND
 40
0.0
  9
$DIMDLE
 40
0.0
  9
$DIMEXE
 40
2.0
  9
$DIMTP
 40
0.0
  9
$DIMTM
 40
0.0
  9
$DIMTXT
 40
2.8
  9
$DIMCEN
 40
0.09
  9
$DIMTSZ
 40
0.0
  9
$DIMTOL
 70
     0
  9
$DIMLIM
 70
     0
  9
$DIMTIH
 70
     0
  9
$DIMTOH
 70
     0
  9
$DIMSE1
 70
     0
  9
$DIMSE2
 70
     0
  9
$DIMTAD
 70
     3
  9
$DIMZIN
 70
     8
  9
$DIMBLK
  1

  9
$DIMASO
 70
     1
  9
$DIMSHO
 70
     1
  9
$DIMPOST
  1

  9
$DIMAPOST
  1

  9
$DIMALT
 70
     0
  9
$DIMALTD
 70
     2
  9
$DIMALTF
 40
25.4
  9
$DIMLFAC
 40
1.0
  9
$DIMTOFL
 70
     1
  9
$DIMTVP
 40
0.7
  9
$DIMTIX
 70
     0
  9
$DIMSOXD
 70
     0
  9
$DIMSAH
 70
     0
  9
$DIMBLK1
  1

  9
$DIMBLK2
  1

  9
$DIMSTYLE
  2
STANDARD
  9
$DIMCLRD
 70
     0
  9
$DIMCLRE
 70
     0
  9
$DIMCLRT
 70
     0
  9
$DIMTFAC
 40
0.5
  9
$DIMGAP
 40
0.09
  9
$DIMJUST
 70
     0
  9
$DIMSD1
 70
     0
  9
$DIMSD2
 70
     0
  9
$DIMTOLJ
 70
     1
  9
$DIMTZIN
 70
     8
  9
$DIMALTZ
 70
     0
  9
$DIMALTTZ
 70
     0
  9
$DIMFIT
 70
     5
  9
$DIMUPT
 70
     1
  9
$DIMUNIT
 70
     2
  9
$DIMDEC
 70
     2
  9
$DIMTDEC
 70
     4
  9
$DIMALTU
 70
     2
  9
$DIMALTTD
 70
     2
  9
$DIMTXSTY
  7
STANDARD
  9
$DIMAUNIT
 70
     0
  9
$LUNITS
 70
     2
  9
$LUPREC
 70
     4
  9
$SKETCHINC
 40
0.1
  9
$FILLETRAD
 40
0.5
  9
$AUNITS
 70
     0
  9
$AUPREC
 70
     0
  9
$MENU
  1
.
  9
$ELEVATION
 40
0.0
  9
$PELEVATION
 40
0.0
  9
$THICKNESS
 40
0.0
  9
$LIMCHECK
 70
     0
  9
$CHAMFERA
 40
0.5
  9
$CHAMFERB
 40
0.5
  9
$CHAMFERC
 40
1.0
  9
$CHAMFERD
 40
0.0
  9
$SKPOLY
 70
     0
  9
$TDCREATE
 40
2460154.782465278
  9
$TDUPDATE
 40
2460154.40747044
  9
$TDINDWG
 40
0.0000000116
  9
$TDUSRTIMER
 40
0.0000000116
  9
$USRTIMER
 70
     1
  9
$ANGBASE
 50
0.0
  9
$ANGDIR
 70
     0
  9
$PDMODE
 70
     0
  9
$PDSIZE
 40
0.0
  9
$PLINEWID
 40
0.0
  9
$COORDS
 70
     1
  9
$SPLFRAME
 70
     0
  9
$SPLINETYPE
 70
     6
  9
$SPLINESEGS
 70
     8
  9
$ATTDIA
 70
     0
  9
$ATTREQ
 70
     1
  9
$HANDLING
 70
     1
  9
$HANDSEED
  5
25F
  9
$SURFTAB1
 70
     6
  9
$SURFTAB2
 70
     6
  9
$SURFTYPE
 70
     6
  9
$SURFU
 70
     6
  9
$SURFV
 70
     6
  9
$UCSNAME
  2

  9
$UCSORG
 10
0.0
 20
0.0
 30
0.0
  9
$UCSXDIR
 10
1.0
 20
0.0
 30
0.0
  9
$UCSYDIR
 10
0.0
 20
1.0
 30
0.0
  9
$PUCSNAME
  2

  9
$PUCSORG
 10
0.0
 20
0.0
 30
0.0
  9
$PUCSXDIR
 10
1.0
 20
0.0
 30
0.0
  9
$PUCSYDIR
 10
0.0
 20
1.0
 30
0.0
  9
$USERI1
 70
     0
  9
$USERI2
 70
     0
  9
$USERI3
 70
     0
  9
$USERI4
 70
     0
  9
$USERI5
 70
     0
  9
$USERR1
 40
0.0
  9
$USERR2
 40
0.0
  9
$USERR3
 40
0.0
  9
$USERR4
 40
0.0
  9
$USERR5
 40
0.0
  9
$WORLDVIEW
 70
     1
  9
$SHADEDGE
 70
     3
  9
$SHADEDIF
 70
    70
  9
$TILEMODE
 70
     1
  9
$MAXACTVP
 70
    64
  9
$PINSBASE
 10
0.0
 20
0.0
 30
0.0
  9
$PLIMCHECK
 70
     0
  9
$PEXTMIN
 10
0.0
 20
0.0
 30
0.0
  9
$PEXTMAX
 10
420.0
 20
297.0
 30
0.0
  9
$PLIMMIN
 10
0.0
 20
0.0
  9
$PLIMMAX
 10
420.0
 20
297.0
  9
$UNITMODE
 70
     0
  9
$VISRETAIN
 70
     1
  9
$PLINEGEN
 70
     0
  9
$PSLTSCALE
 70
     1
  9
$TREEDEPTH
 70
  3020
  9
$PICKSTYLE
 70
     1
  9
$CMLSTYLE
  2
STANDARD
  9
$CMLJUST
 70
     0
  9
$CMLSCALE
 40
1.0
  9
$PROXYGRAPHICS
 70
     1
  9
$MEASUREMENT
 70
     1
  0
ENDSEC
  0
SECTION
  2
CLASSES
  0
CLASS
  1
ACDBDICTIONARYWDFLT
  2
AcDbDictionaryWithDefault
  3
ObjectDBX Classes
 90
        0
280
     0
281
     0
  0
CLASS
  1
VISUALSTYLE
  2
AcDbVisualStyle
  3
ObjectDBX Classes
 90
     4095
280
     0
281
     0
  0
CLASS
  1
MATERIAL
  2
AcDbMaterial
  3
ObjectDBX Classes
 90
     1153
280
     0
281
     0
  0
CLASS
  1
DICTIONARYVAR
  2
AcDbDictionaryVar
  3
ObjectDBX Classes
 90
        0
280
     0
281
     0
  0
CLASS
  1
XRECORD
  2
AcDbXrecord
  3
AutoCAD 2000
 90
        0
280
     0
281
     0
  0
CLASS
  1
LWPOLYLINE
  2
AcDbPolyline
  3
AutoCAD 2000
 90
        0
280
     0
281
     1
  0
CLASS
  1
HATCH
  2
AcDbHatch
  3
AutoCAD 2000
 90
        0
280
     0
281
     1
  0
CLASS
  1
ACDBPLACEHOLDER
  2
AcDbPlaceHolder
  3
ObjectDBX Classes
 90
        0
280
     0
281
     0
  0
CLASS
  1
LAYOUT
  2
AcDbLayout
  3
ObjectDBX Classes
 90
        0
280
     0
281
     0
  0
ENDSEC
  0
SECTION
  2
TABLES
  0
TABLE
  2
VPORT
  5
8
330
0
100
AcDbSymbolTable
 70
     1
  0
VPORT
  5
29
330
8
100
AcDbSymbolTableRecord
100
AcDbViewportTableRecord
  2
*ACTIVE
 70
     0
 10
0.0
 20
0.0
 11
1.0
 21
1.0
 12
10.42990654205607
 22
4.5
 13
0.0
 23
0.0
 14
0.5
 24
0.5
 15
0.5
 25
0.5
 16
0.0
 26
0.0
 36
1.0
 17
0.0
 27
0.0
 37
0.0
 40
9.0
 41
1.972972972850329
 42
50.0
 43
0.0
 44
0.0
 50
0.0
 51
0.0
 71
     0
 72
   100
 73
     1
 74
     3
 75
     0
 76
     0
 77
     0
 78
     0
  0
ENDTAB
  0
TABLE
  2
LTYPE
  5
5
330
0
100
AcDbSymbolTable
 70
     9
  0
LTYPE
  5
14
330
5
100
AcDbSymbolTableRecord
100
AcDbLinetypeTableRecord
  2
BYBLOCK
 70
     0
  3

 72
    65
 73
     0
 40
0.0
  0
LTYPE
  5
15
330
5
100
AcDbSymbolTableRecord
100
AcDbLinetypeTableRecord
  2
BYLAYER
 70
     0
  3

 72
    65
 73
     0
 40
0.0
  0
LTYPE
  5
16
330
5
100
AcDbSymbolTableRecord
100
AcDbLinetypeTableRecord
  2
CONTINUOUS
 70
     0
  3
Solid line
 72
    65
 73
     0
 40
0.0
  0
LTYPE
  5
8E
330
5
100
AcDbSymbolTableRecord
100
AcDbLinetypeTableRecord
  2
DOT
 70
     0
  3
DOT
 72
    65
 73
     2
 40
4.0
 49
6.0
 74
     0
 49
-2.0
 74
     0
  0
LTYPE
  5
8F
330
5
100
AcDbSymbolTableRecord
100
AcDbLinetypeTableRecord
  2
HIDDEN
 70
     0
  3
HIDDEN
 72
    65
 73
     2
 40
4.2
 49
8.4
 74
     0
 49
-4.2
 74
     0
  0
LTYPE
  5
90
330
5
100
AcDbSymbolTableRecord
100
AcDbLinetypeTableRecord
  2
DASHDOT
 70
     0
  3
DASHDOT
 72
    65
 73
     4
 40
14.5
 49
30.0
 74
     0
 49
-9.0
 74
     0
 49
2.5
 74
     0
 49
-9.0
 74
     0
  0
LTYPE
  5
91
330
5
100
AcDbSymbolTableRecord
100
AcDbLinetypeTableRecord
  2
PHANTOM
 70
     0
  3
PHANTOM
 72
    65
 73
     6
 40
12.0
 49
30.0
 74
     0
 49
-9.0
 74
     0
 49
2.5
 74
     0
 49
-5.0
 74
     0
 49
2.5
 74
     0
 49
-9.0
 74
     0
  0
LTYPE
  5
92
330
5
100
AcDbSymbolTableRecord
100
AcDbLinetypeTableRecord
  2
ACAD_ISO14W100
 70
     0
  3
ACAD_ISO14W100
 72
    65
 73
     8
 40
1.5
 49
12.0
 74
     0
 49
-3.0
 74
     0
 49
0.5
 74
     0
 49
-3.0
 74
     0
 49
0.5
 74
     0
 49
-3.0
 74
     0
 49
0.5
 74
     0
 49
-3.0
 74
     0
  0
LTYPE
  5
93
330
5
100
AcDbSymbolTableRecord
100
AcDbLinetypeTableRecord
  2
ACAD_ISO06W100
 70
     0
  3
ACAD_ISO06W100
 72
    65
 73
     8
 40
13.5
 49
24.0
 74
     0
 49
-3.0
 74
     0
 49
0.5
 74
     0
 49
-3.0
 74
     0
 49
0.5
 74
     0
 49
-3.0
 74
     0
 49
0.5
 74
     0
 49
-3.0
 74
     0
  0
LTYPE
  5
94
330
5
100
AcDbSymbolTableRecord
100
AcDbLinetypeTableRecord
  2
ACAD_ISO11W100
 70
     0
  3
ACAD_ISO11W100
 72
    65
 73
     6
 40
15.5
 49
12.0
 74
     0
 49
-3.0
 74
     0
 49
12.0
 74
     0
 49
-3.0
 74
     0
 49
0.5
 74
     0
 49
-3.0
 74
     0
  0
LTYPE
  5
95
330
5
100
AcDbSymbolTableRecord
100
AcDbLinetypeTableRecord
  2
ACAD_ISO13W100
 70
     0
  3
ACAD_ISO13W100
 72
    65
 73
     8
 40
13.0
 49
12.0
 74
     0
 49
-3.0
 74
     0
 49
12.0
 74
     0
 49
-3.0
 74
     0
 49
0.5
 74
     0
 49
-3.0
 74
     0
 49
0.5
 74
     0
 49
-3.0
 74
     0
  0
ENDTAB
  0
TABLE
  2
LAYER
  5
2
330
0
100
AcDbSymbolTable
 70
    11
  0
LAYER
  5
10
330
2
100
AcDbSymbolTableRecord
100
AcDbLayerTableRecord
  2
0
 70
     0
 62
     7
  6
CONTINUOUS
  0
LAYER
  5
96
330
2
100
AcDbSymbolTableRecord
100
AcDbLayerTableRecord
  2
1
 70
     0
 62
     7
  6
CONTINUOUS
  0
LAYER
  5
97
330
2
100
AcDbSymbolTableRecord
100
AcDbLayerTableRecord
  2
2
 70
     0
 62
   151
  6
CONTINUOUS
  0
LAYER
  5
98
330
2
100
AcDbSymbolTableRecord
100
AcDbLayerTableRecord
  2
3
 70
     0
 62
     3
  6
HIDDEN
  0
LAYER
  5
99
330
2
100
AcDbSymbolTableRecord
100
AcDbLayerTableRecord
  2
4
 70
     0
 62
     1
  6
DASHDOT
  0
LAYER
  5
9A
330
2
100
AcDbSymbolTableRecord
100
AcDbLayerTableRecord
  2
5
 70
     0
 62
     7
  6
CONTINUOUS
  0
LAYER
  5
9B
330
2
100
AcDbSymbolTableRecord
100
AcDbLayerTableRecord
  2
6
 70
     0
 62
     6
  6
CONTINUOUS
  0
LAYER
  5
9C
330
2
100
AcDbSymbolTableRecord
100
AcDbLayerTableRecord
  2
7
 70
     0
 62
     3
  6
CONTINUOUS
  0
LAYER
  5
9D
330
2
100
AcDbSymbolTableRecord
100
AcDbLayerTableRecord
  2
8
 70
     0
 62
     4
  6
CONTINUOUS
  0
LAYER
  5
9E
330
2
100
AcDbSymbolTableRecord
100
AcDbLayerTableRecord
  2
9
 70
     0
 62
     7
  6
CONTINUOUS
  0
LAYER
  5
9F
330
2
100
AcDbSymbolTableRecord
100
AcDbLayerTableRecord
  2
10
 70
     0
 62
     2
  6
CONTINUOUS
  0
ENDTAB
  0
TABLE
  2
STYLE
  5
3
330
0
100
AcDbSymbolTable
 70
     3
  0
STYLE
  5
11
330
3
100
AcDbSymbolTableRecord
100
AcDbTextStyleTableRecord
  2
STANDARD
 70
     0
 40
0.0
 41
1.0
 50
0.0
 71
     0
 42
8.4
  3
txt
  4
bigfont
  0
STYLE
  5
41
330
3
100
AcDbSymbolTableRecord
100
AcDbTextStyleTableRecord
  2
T_STANDARD
 70
     4
 40
10.0
 41
1.0
 50
0.0
 71
     0
 42
10.0
  3
txt
  4
bigfont
  0
STYLE
  5
F2
330
3
100
AcDbSymbolTableRecord
100
AcDbTextStyleTableRecord
  2
ＭＳ_ゴシック
 70
     0
 40
0.0
 41
1.0
 50
0.0
 71
     0
 42
0.0
  3

  4

1001
ACAD
1000
ＭＳ ゴシック
1071
      256
  0
ENDTAB
  0
TABLE
  2
VIEW
  5
6
330
0
100
AcDbSymbolTable
 70
     0
  0
ENDTAB
  0
TABLE
  2
UCS
  5
7
330
0
100
AcDbSymbolTable
 70
     0
  0
ENDTAB
  0
TABLE
  2
APPID
  5
9
330
0
100
AcDbSymbolTable
 70
     2
  0
APPID
  5
12
330
9
100
AcDbSymbolTableRecord
100
AcDbRegAppTableRecord
  2
ACAD
 70
     0
  0
APPID
  5
40
330
9
100
AcDbSymbolTableRecord
100
AcDbRegAppTableRecord
  2
ODA
 70
     0
  0
ENDTAB
  0
TABLE
  2
DIMSTYLE
  5
A
330
0
100
AcDbSymbolTable
 70
     1
  0
DIMSTYLE
105
27
102
{ACAD_REACTORS
330
FE
330
1A2
330
1AA
330
1BB
330
1C5
330
1CF
330
1D9
330
1E3
330
1ED
330
1F7
330
201
330
20B
330
215
330
21F
330
229
330
233
102
}
330
A
100
AcDbSymbolTableRecord
100
AcDbDimStyleTableRecord
  2
STANDARD
 70
     0
  3

  4

  5

  6

  7

 40
1.0
 41
0.18
 42
0.0625
 43
0.38
 44
0.18
 45
0.0
 46
0.0
 47
0.0
 48
0.0
140
0.18
141
0.09
142
0.0
143
25.4
144
1.0
145
0.0
146
1.0
147
0.09
 71
     0
 72
     0
 73
     1
 74
     1
 75
     0
 76
     0
 77
     0
 78
     0
170
     0
171
     2
172
     0
173
     0
174
     0
175
     0
176
     0
177
     0
178
     0
270
     2
271
     4
272
     4
273
     2
274
     2
340
11
275
     0
280
     0
281
     0
282
     0
283
     1
284
     0
285
     0
286
     0
287
     3
288
     0
  0
ENDTAB
  0
TABLE
  2
BLOCK_RECORD
  5
1
330
0
100
AcDbSymbolTable
 70
    32
  0
BLOCK_RECORD
  5
1F
330
1
100
AcDbSymbolTableRecord
100
AcDbBlockTableRecord
  2
*MODEL_SPACE
  0
BLOCK_RECORD
  5
1B
330
1
100
AcDbSymbolTableRecord
100
AcDbBlockTableRecord
  2
*PAPER_SPACE
  0
BLOCK_RECORD
  5
42
330
1
100
AcDbSymbolTableRecord
100
AcDbBlockTableRecord
  2
_ORIGIN
  0
BLOCK_RECORD
  5
47
330
1
100
AcDbSymbolTableRecord
100
AcDbBlockTableRecord
  2
_DOTBLANK
  0
BLOCK_RECORD
  5
4C
330
1
100
AcDbSymbolTableRecord
100
AcDbBlockTableRecord
  2
_DOT
  0
BLOCK_RECORD
  5
51
330
1
100
AcDbSymbolTableRecord
100
AcDbBlockTableRecord
  2
_OPEN
  0
BLOCK_RECORD
  5
57
330
1
100
AcDbSymbolTableRecord
100
AcDbBlockTableRecord
  2
_CLOSED
  0
BLOCK_RECORD
  5
5E
330
1
100
AcDbSymbolTableRecord
100
AcDbBlockTableRecord
  2
_CLOSEDBLANK
  0
BLOCK_RECORD
  5
64
330
1
100
AcDbSymbolTableRecord
100
AcDbBlockTableRecord
  2
_ARROWFILLED
  0
BLOCK_RECORD
  5
68
330
1
100
AcDbSymbolTableRecord
100
AcDbBlockTableRecord
  2
_BOXBLANK
  0
BLOCK_RECORD
  5
70
330
1
100
AcDbSymbolTableRecord
100
AcDbBlockTableRecord
  2
_BOXFILLED
  0
BLOCK_RECORD
  5
75
330
1
100
AcDbSymbolTableRecord
100
AcDbBlockTableRecord
  2
_INTEGRAL
  0
BLOCK_RECORD
  5
7A
330
1
100
AcDbSymbolTableRecord
100
AcDbBlockTableRecord
  2
_OBLIQUE
  0
BLOCK_RECORD
  5
7E
330
1
100
AcDbSymbolTableRecord
100
AcDbBlockTableRecord
  2
_NONE
  0
BLOCK_RECORD
  5
81
330
1
100
AcDbSymbolTableRecord
100
AcDbBlockTableRecord
  2
MARK_OPEN
  0
BLOCK_RECORD
  5
86
330
1
100
AcDbSymbolTableRecord
100
AcDbBlockTableRecord
  2
MARK_ORIGIN
  0
BLOCK_RECORD
  5
8A
330
1
100
AcDbSymbolTableRecord
100
AcDbBlockTableRecord
  2
MARK_DOT
  0
BLOCK_RECORD
  5
F3
330
1
100
AcDbSymbolTableRecord
100
AcDbBlockTableRecord
  2
DIM1
  0
BLOCK_RECORD
  5
19B
330
1
100
AcDbSymbolTableRecord
100
AcDbBlockTableRecord
  2
DIM2
  0
BLOCK_RECORD
  5
1A3
330
1
100
AcDbSymbolTableRecord
100
AcDbBlockTableRecord
  2
DIM3
  0
BLOCK_RECORD
  5
1B2
330
1
100
AcDbSymbolTableRecord
100
AcDbBlockTableRecord
  2
DIM4
  0
BLOCK_RECORD
  5
1BC
330
1
100
AcDbSymbolTableRecord
100
AcDbBlockTableRecord
  2
DIM5
  0
BLOCK_RECORD
  5
1C6
330
1
100
AcDbSymbolTableRecord
100
AcDbBlockTableRecord
  2
DIM6
  0
BLOCK_RECORD
  5
1D0
330
1
100
AcDbSymbolTableRecord
100
AcDbBlockTableRecord
  2
DIM7
  0
BLOCK_RECORD
  5
1DA
330
1
100
AcDbSymbolTableRecord
100
AcDbBlockTableRecord
  2
DIM8
  0
BLOCK_RECORD
  5
1E4
330
1
100
AcDbSymbolTableRecord
100
AcDbBlockTableRecord
  2
DIM9
  0
BLOCK_RECORD
  5
1EE
330
1
100
AcDbSymbolTableRecord
100
AcDbBlockTableRecord
  2
DIM10
  0
BLOCK_RECORD
  5
1F8
330
1
100
AcDbSymbolTableRecord
100
AcDbBlockTableRecord
  2
DIM11
  0
BLOCK_RECORD
  5
202
330
1
100
AcDbSymbolTableRecord
100
AcDbBlockTableRecord
  2
DIM12
  0
BLOCK_RECORD
  5
20C
330
1
100
AcDbSymbolTableRecord
100
AcDbBlockTableRecord
  2
DIM13
  0
BLOCK_RECORD
  5
216
330
1
100
AcDbSymbolTableRecord
100
AcDbBlockTableRecord
  2
DIM14
  0
BLOCK_RECORD
  5
220
330
1
100
AcDbSymbolTableRecord
100
AcDbBlockTableRecord
  2
DIM15
  0
BLOCK_RECORD
  5
22A
330
1
100
AcDbSymbolTableRecord
100
AcDbBlockTableRecord
  2
DIM16
  0
ENDTAB
  0
ENDSEC
  0
SECTION
  2
BLOCKS
  0
BLOCK
  5
20
330
1F
100
AcDbEntity
  8
0
100
AcDbBlockBegin
  2
*MODEL_SPACE
 70
     0
 10
0.0
 20
0.0
 30
0.0
  3
*MODEL_SPACE
  1

  0
ENDBLK
  5
21
330
1F
100
AcDbEntity
  8
0
100
AcDbBlockEnd
  0
BLOCK
  5
1C
330
1B
100
AcDbEntity
 67
     1
  8
0
100
AcDbBlockBegin
  2
*PAPER_SPACE
 70
     0
 10
0.0
 20
0.0
 30
0.0
  3
*PAPER_SPACE
  1

  0
ENDBLK
  5
1D
330
1B
100
AcDbEntity
 67
     1
  8
0
100
AcDbBlockEnd
  0
BLOCK
  5
45
330
42
100
AcDbEntity
  8
0
100
AcDbBlockBegin
  2
_ORIGIN
 70
     0
 10
0.0
 20
0.0
 30
0.0
  3
_ORIGIN
  1

  0
CIRCLE
  5
43
330
42
100
AcDbEntity
  8
0
 62
     0
100
AcDbCircle
 10
0.0
 20
0.0
 30
0.0
 40
0.5
  0
LINE
  5
44
330
42
100
AcDbEntity
  8
0
 62
     0
100
AcDbLine
 10
0.0
 20
0.0
 30
0.0
 11
-1.0
 21
0.0
 31
0.0
  0
ENDBLK
  5
46
330
42
100
AcDbEntity
  8
0
100
AcDbBlockEnd
  0
BLOCK
  5
4A
330
47
100
AcDbEntity
  8
0
100
AcDbBlockBegin
  2
_DOTBLANK
 70
     0
 10
0.0
 20
0.0
 30
0.0
  3
_DOTBLANK
  1

  0
CIRCLE
  5
48
330
47
100
AcDbEntity
  8
0
 62
     0
100
AcDbCircle
 10
0.0
 20
0.0
 30
0.0
 40
0.5
  0
LINE
  5
49
330
47
100
AcDbEntity
  8
0
 62
     0
100
AcDbLine
 10
-0.5
 20
0.0
 30
0.0
 11
-1.0
 21
0.0
 31
0.0
  0
ENDBLK
  5
4B
330
47
100
AcDbEntity
  8
0
100
AcDbBlockEnd
  0
BLOCK
  5
4F
330
4C
100
AcDbEntity
  8
0
100
AcDbBlockBegin
  2
_DOT
 70
     0
 10
0.0
 20
0.0
 30
0.0
  3
_DOT
  1

  0
LWPOLYLINE
  5
4D
330
4C
100
AcDbEntity
  8
0
 62
     0
100
AcDbPolyline
 90
        2
 70
     1
 43
0.5
 10
-0.25
 20
0.0
 42
1.0
 10
0.25
 20
0.0
 42
1.0
  0
LINE
  5
4E
330
4C
100
AcDbEntity
  8
0
 62
     0
100
AcDbLine
 10
-0.5
 20
0.0
 30
0.0
 11
-1.0
 21
0.0
 31
0.0
  0
ENDBLK
  5
50
330
4C
100
AcDbEntity
  8
0
100
AcDbBlockEnd
  0
BLOCK
  5
55
330
51
100
AcDbEntity
  8
0
100
AcDbBlockBegin
  2
_OPEN
 70
     0
 10
0.0
 20
0.0
 30
0.0
  3
_OPEN
  1

  0
LINE
  5
52
330
51
100
AcDbEntity
  8
0
 62
     0
100
AcDbLine
 10
0.0
 20
0.0
 30
0.0
 11
-1.0
 21
0.1666666666666667
 31
0.0
  0
LINE
  5
53
330
51
100
AcDbEntity
  8
0
 62
     0
100
AcDbLine
 10
0.0
 20
0.0
 30
0.0
 11
-1.0
 21
-0.1666666666666667
 31
0.0
  0
LINE
  5
54
330
51
100
AcDbEntity
  8
0
 62
     0
100
AcDbLine
 10
0.0
 20
0.0
 30
0.0
 11
-1.0
 21
0.0
 31
0.0
  0
ENDBLK
  5
56
330
51
100
AcDbEntity
  8
0
100
AcDbBlockEnd
  0
BLOCK
  5
5C
330
57
100
AcDbEntity
  8
0
100
AcDbBlockBegin
  2
_CLOSED
 70
     0
 10
0.0
 20
0.0
 30
0.0
  3
_CLOSED
  1

  0
LINE
  5
58
330
57
100
AcDbEntity
  8
0
 62
     0
100
AcDbLine
 10
0.0
 20
0.0
 30
0.0
 11
-1.0
 21
0.1666666666666667
 31
0.0
  0
LINE
  5
59
330
57
100
AcDbEntity
  8
0
 62
     0
100
AcDbLine
 10
0.0
 20
0.0
 30
0.0
 11
-1.0
 21
-0.1666666666666667
 31
0.0
  0
LINE
  5
5A
330
57
100
AcDbEntity
  8
0
 62
     0
100
AcDbLine
 10
-1.0
 20
0.1666666666666667
 30
0.0
 11
-1.0
 21
-0.1666666666666667
 31
0.0
  0
LINE
  5
5B
330
57
100
AcDbEntity
  8
0
 62
     0
100
AcDbLine
 10
0.0
 20
0.0
 30
0.0
 11
-1.0
 21
0.0
 31
0.0
  0
ENDBLK
  5
5D
330
57
100
AcDbEntity
  8
0
100
AcDbBlockEnd
  0
BLOCK
  5
62
330
5E
100
AcDbEntity
  8
0
100
AcDbBlockBegin
  2
_CLOSEDBLANK
 70
     0
 10
0.0
 20
0.0
 30
0.0
  3
_CLOSEDBLANK
  1

  0
LINE
  5
5F
330
5E
100
AcDbEntity
  8
0
 62
     0
100
AcDbLine
 10
0.0
 20
0.0
 30
0.0
 11
-1.0
 21
0.1666666666666667
 31
0.0
  0
LINE
  5
60
330
5E
100
AcDbEntity
  8
0
 62
     0
100
AcDbLine
 10
0.0
 20
0.0
 30
0.0
 11
-1.0
 21
-0.1666666666666667
 31
0.0
  0
LINE
  5
61
330
5E
100
AcDbEntity
  8
0
 62
     0
100
AcDbLine
 10
-1.0
 20
0.1666666666666667
 30
0.0
 11
-1.0
 21
-0.1666666666666667
 31
0.0
  0
ENDBLK
  5
63
330
5E
100
AcDbEntity
  8
0
100
AcDbBlockEnd
  0
BLOCK
  5
66
330
64
100
AcDbEntity
  8
0
100
AcDbBlockBegin
  2
_ARROWFILLED
 70
     0
 10
0.0
 20
0.0
 30
0.0
  3
_ARROWFILLED
  1

  0
SOLID
  5
65
330
64
100
AcDbEntity
  8
0
 62
     0
100
AcDbTrace
 10
0.0
 20
0.0
 30
0.0
 11
-1.0
 21
-0.1666666666666667
 31
0.0
 12
-1.0
 22
0.1666666666666667
 32
0.0
 13
0.0
 23
0.0
 33
0.0
  0
ENDBLK
  5
67
330
64
100
AcDbEntity
  8
0
100
AcDbBlockEnd
  0
BLOCK
  5
6E
330
68
100
AcDbEntity
  8
0
100
AcDbBlockBegin
  2
_BOXBLANK
 70
     0
 10
0.0
 20
0.0
 30
0.0
  3
_BOXBLANK
  1

  0
LINE
  5
69
330
68
100
AcDbEntity
  8
0
 62
     0
100
AcDbLine
 10
-0.5
 20
-0.5
 30
0.0
 11
0.5
 21
-0.5
 31
0.0
  0
LINE
  5
6A
330
68
100
AcDbEntity
  8
0
 62
     0
100
AcDbLine
 10
0.5
 20
-0.5
 30
0.0
 11
0.5
 21
0.5
 31
0.0
  0
LINE
  5
6B
330
68
100
AcDbEntity
  8
0
 62
     0
100
AcDbLine
 10
0.5
 20
0.5
 30
0.0
 11
-0.5
 21
0.5
 31
0.0
  0
LINE
  5
6C
330
68
100
AcDbEntity
  8
0
 62
     0
100
AcDbLine
 10
-0.5
 20
0.5
 30
0.0
 11
-0.5
 21
-0.5
 31
0.0
  0
LINE
  5
6D
330
68
100
AcDbEntity
  8
0
 62
     0
100
AcDbLine
 10
-0.5
 20
0.0
 30
0.0
 11
-1.0
 21
0.0
 31
0.0
  0
ENDBLK
  5
6F
330
68
100
AcDbEntity
  8
0
100
AcDbBlockEnd
  0
BLOCK
  5
73
330
70
100
AcDbEntity
  8
0
100
AcDbBlockBegin
  2
_BOXFILLED
 70
     0
 10
0.0
 20
0.0
 30
0.0
  3
_BOXFILLED
  1

  0
SOLID
  5
71
330
70
100
AcDbEntity
  8
0
 62
     0
100
AcDbTrace
 10
-0.5
 20
0.5
 30
0.0
 11
0.5
 21
0.5
 31
0.0
 12
-0.5
 22
-0.5
 32
0.0
 13
0.5
 23
-0.5
 33
0.0
  0
LINE
  5
72
330
70
100
AcDbEntity
  8
0
 62
     0
100
AcDbLine
 10
-0.5
 20
0.0
 30
0.0
 11
-1.0
 21
0.0
 31
0.0
  0
ENDBLK
  5
74
330
70
100
AcDbEntity
  8
0
100
AcDbBlockEnd
  0
BLOCK
  5
78
330
75
100
AcDbEntity
  8
0
100
AcDbBlockBegin
  2
_INTEGRAL
 70
     0
 10
0.0
 20
0.0
 30
0.0
  3
_INTEGRAL
  1

  0
ARC
  5
76
330
75
100
AcDbEntity
  8
0
 62
     0
100
AcDbCircle
 10
0.444888
 20
-0.0913346
 30
0.0
 40
0.4541666
100
AcDbArc
 50
101.9999999999999
 51
167.9999999999998
  0
ARC
  5
77
330
75
100
AcDbEntity
  8
0
 62
     0
100
AcDbCircle
 10
-0.444888
 20
0.0913346
 30
0.0
 40
0.4541666
100
AcDbArc
 50
281.9999999999997
 51
347.9999999999997
  0
ENDBLK
  5
79
330
75
100
AcDbEntity
  8
0
100
AcDbBlockEnd
  0
BLOCK
  5
7C
330
7A
100
AcDbEntity
  8
0
100
AcDbBlockBegin
  2
_OBLIQUE
 70
     0
 10
0.0
 20
0.0
 30
0.0
  3
_OBLIQUE
  1

  0
LINE
  5
7B
330
7A
100
AcDbEntity
  8
0
 62
     0
100
AcDbLine
 10
-0.5
 20
-0.5
 30
0.0
 11
0.5
 21
0.5
 31
0.0
  0
ENDBLK
  5
7D
330
7A
100
AcDbEntity
  8
0
100
AcDbBlockEnd
  0
BLOCK
  5
7F
330
7E
100
AcDbEntity
  8
0
100
AcDbBlockBegin
  2
_NONE
 70
     0
 10
0.0
 20
0.0
 30
0.0
  3
_NONE
  1

  0
ENDBLK
  5
80
330
7E
100
AcDbEntity
  8
0
100
AcDbBlockEnd
  0
BLOCK
  5
84
330
81
100
AcDbEntity
  8
0
100
AcDbBlockBegin
  2
MARK_OPEN
 70
     0
 10
0.0
 20
0.0
 30
0.0
  3
MARK_OPEN
  1

  0
LINE
  5
82
330
81
100
AcDbEntity
  8
0
 62
     0
100
AcDbLine
 10
0.0
 20
0.0
 30
0.0
 11
-1.0
 21
0.1666666666666667
 31
0.0
  0
LINE
  5
83
330
81
100
AcDbEntity
  8
0
 62
     0
100
AcDbLine
 10
0.0
 20
0.0
 30
0.0
 11
-1.0
 21
-0.1666666666666667
 31
0.0
  0
ENDBLK
  5
85
330
81
100
AcDbEntity
  8
0
100
AcDbBlockEnd
  0
BLOCK
  5
88
330
86
100
AcDbEntity
  8
0
100
AcDbBlockBegin
  2
MARK_ORIGIN
 70
     0
 10
0.0
 20
0.0
 30
0.0
  3
MARK_ORIGIN
  1

  0
CIRCLE
  5
87
330
86
100
AcDbEntity
  8
0
 62
     0
100
AcDbCircle
 10
0.0
 20
0.0
 30
0.0
 40
0.5
  0
ENDBLK
  5
89
330
86
100
AcDbEntity
  8
0
100
AcDbBlockEnd
  0
BLOCK
  5
8C
330
8A
100
AcDbEntity
  8
0
100
AcDbBlockBegin
  2
MARK_DOT
 70
     0
 10
0.0
 20
0.0
 30
0.0
  3
MARK_DOT
  1

  0
LWPOLYLINE
  5
8B
330
8A
100
AcDbEntity
  8
0
 62
     0
100
AcDbPolyline
 90
        2
 70
     1
 43
0.5
 10
-0.25
 20
0.0
 42
1.0
 10
0.25
 20
0.0
 42
1.0
  0
ENDBLK
  5
8D
330
8A
100
AcDbEntity
  8
0
100
AcDbBlockEnd
  0
BLOCK
  5
F4
330
F3
100
AcDbEntity
  8
0
100
AcDbBlockBegin
  2
DIM1
 70
     0
 10
0.0
 20
0.0
 30
0.0
  3
DIM1
  1

  0
LINE
  5
F6
330
F3
100
AcDbEntity
  8
8
  6
CONTINUOUS
 62
     4
100
AcDbLine
 10
602.7278783205525
 20
274.1882439254707
 30
0.0
 11
602.7278783205525
 21
238.1787746970872
 31
0.0
  0
LINE
  5
F7
330
F3
100
AcDbEntity
  8
8
  6
CONTINUOUS
 62
     4
100
AcDbLine
 10
715.2278783205525
 20
274.1882439254707
 30
0.0
 11
715.2278783205525
 21
238.1787746970872
 31
0.0
  0
LINE
  5
F8
330
F3
100
AcDbEntity
  8
8
  6
CONTINUOUS
 62
     4
100
AcDbLine
 10
602.7278783205525
 20
242.6787746970872
 30
0.0
 11
715.2278783205525
 21
242.6787746970872
 31
0.0
  0
LINE
  5
F9
330
F3
100
AcDbEntity
  8
8
  6
CONTINUOUS
 62
     4
100
AcDbLine
 10
658.9778783205525
 20
242.6787746970872
 30
0.0
 11
649.9778783205525
 21
251.6787746970872
 31
0.0
  0
LINE
  5
FA
330
F3
100
AcDbEntity
  8
8
  6
CONTINUOUS
 62
     4
100
AcDbLine
 10
649.9778783205525
 20
251.6787746970872
 30
0.0
 11
655.9778783205525
 21
251.6787746970872
 31
0.0
  0
MTEXT
  5
FB
330
F3
100
AcDbEntity
  8
8
  6
CONTINUOUS
 62
     4
100
AcDbMText
 10
658.9778783205525
 20
251.6787746970872
 30
0.0
 40
9.0
 41
173.5714285714286
 71
     4
 72
     1
  1
112.5
  7
ＭＳ_ゴシック
1001
ACAD
1000
ACAD_MTEXT_DEFINED_HEIGHT_BEGIN
1070
    46
1040
9.0
1000
ACAD_MTEXT_DEFINED_HEIGHT_END
  0
INSERT
  5
FC
330
F3
100
AcDbEntity
  8
8
  6
CONTINUOUS
 62
     4
100
AcDbBlockReference
  2
_ARROWFILLED
 10
602.7278783205525
 20
242.6787746970872
 30
0.0
 41
6.0
 42
6.0
 43
6.0
 50
179.9999999999998
  0
INSERT
  5
FD
330
F3
100
AcDbEntity
  8
8
  6
CONTINUOUS
 62
     4
100
AcDbBlockReference
  2
_ARROWFILLED
 10
715.2278783205525
 20
242.6787746970872
 30
0.0
 41
6.0
 42
6.0
 43
6.0
 50
359.9999999999997
  0
ENDBLK
  5
F5
330
F3
100
AcDbEntity
  8
0
100
AcDbBlockEnd
  0
BLOCK
  5
19C
330
19B
100
AcDbEntity
  8
0
100
AcDbBlockBegin
  2
DIM2
 70
     0
 10
0.0
 20
0.0
 30
0.0
  3
DIM2
  1

  0
LINE
  5
19E
330
19B
100
AcDbEntity
  8
8
  6
CONTINUOUS
 62
     4
100
AcDbLine
 10
514.8209354955874
 20
448.482491661362
 30
0.0
 11
188.3303918953184
 21
611.8502144102673
 31
0.0
  0
MTEXT
  5
19F
330
19B
100
AcDbEntity
  8
8
  6
CONTINUOUS
 62
     4
100
AcDbMText
 10
204.4276656826046
 20
603.7955402010177
 30
0.0
 40
9.0
 41
111.4285714285714
 71
     9
 72
     1
  1
φ55
  7
ＭＳ_ゴシック
 11
0.8942929881829993
 21
-0.4474819005129949
 31
0.0
1001
ACAD
1000
ACAD_MTEXT_DEFINED_HEIGHT_BEGIN
1070
    46
1040
9.0
1000
ACAD_MTEXT_DEFINED_HEIGHT_END
  0
INSERT
  5
1A0
330
19B
100
AcDbEntity
  8
8
  6
CONTINUOUS
 62
     4
100
AcDbBlockReference
  2
_ARROWFILLED
 10
514.8209354955874
 20
448.482491661362
 30
0.0
 41
6.0
 42
6.0
 43
6.0
 50
333.4177602822736
  0
INSERT
  5
1A1
330
19B
100
AcDbEntity
  8
8
  6
CONTINUOUS
 62
     4
100
AcDbBlockReference
  2
_ARROWFILLED
 10
465.6348211455224
 20
473.0939961895769
 30
0.0
 41
6.0
 42
6.0
 43
6.0
 50
153.4177602822736
  0
ENDBLK
  5
19D
330
19B
100
AcDbEntity
  8
0
100
AcDbBlockEnd
  0
BLOCK
  5
1A4
330
1A3
100
AcDbEntity
  8
0
100
AcDbBlockBegin
  2
DIM3
 70
     0
 10
0.0
 20
0.0
 30
0.0
  3
DIM3
  1

  0
LINE
  5
1A6
330
1A3
100
AcDbEntity
  8
8
  6
CONTINUOUS
 62
     4
100
AcDbLine
 10
520.7597265728292
 20
449.6501901322746
 30
0.0
 11
182.6173127623934
 21
573.0049364176086
 31
0.0
  0
MTEXT
  5
1A7
330
1A3
100
AcDbEntity
  8
8
  6
CONTINUOUS
 62
     4
100
AcDbMText
 10
199.5272594867259
 20
566.836168162905
 30
0.0
 40
9.0
 41
111.4285714285714
 71
     9
 72
     1
  1
φ65
  7
ＭＳ_ゴシック
 11
0.9394414846853543
 21
-0.3427093474829324
 31
0.0
1001
ACAD
1000
ACAD_MTEXT_DEFINED_HEIGHT_BEGIN
1070
    46
1040
9.0
1000
ACAD_MTEXT_DEFINED_HEIGHT_END
  0
INSERT
  5
1A8
330
1A3
100
AcDbEntity
  8
8
  6
CONTINUOUS
 62
     4
100
AcDbBlockReference
  2
_ARROWFILLED
 10
520.7597265728292
 20
449.6501901322746
 30
0.0
 41
6.0
 42
6.0
 43
6.0
 50
339.9579716130437
  0
INSERT
  5
1A9
330
1A3
100
AcDbEntity
  8
8
  6
CONTINUOUS
 62
     4
100
AcDbBlockReference
  2
_ARROWFILLED
 10
459.6960300682812
 20
471.9262977186655
 30
0.0
 41
6.0
 42
6.0
 43
6.0
 50
159.9579716130437
  0
ENDBLK
  5
1A5
330
1A3
100
AcDbEntity
  8
0
100
AcDbBlockEnd
  0
BLOCK
  5
1B3
330
1B2
100
AcDbEntity
  8
0
100
AcDbBlockBegin
  2
DIM4
 70
     0
 10
0.0
 20
0.0
 30
0.0
  3
DIM4
  1

  0
LINE
  5
1B5
330
1B2
100
AcDbEntity
  8
8
  6
CONTINUOUS
 62
     4
100
AcDbLine
 10
740.2278783205525
 20
307.7882439254702
 30
0.0
 11
740.2278783205523
 21
209.884807858738
 31
0.0
  0
LINE
  5
1B6
330
1B2
100
AcDbEntity
  8
8
  6
CONTINUOUS
 62
     4
100
AcDbLine
 10
240.2278783205525
 20
307.7882439254702
 30
0.0
 11
240.2278783205523
 21
209.884807858738
 31
0.0
  0
LINE
  5
1B7
330
1B2
100
AcDbEntity
  8
8
  6
CONTINUOUS
 62
     4
100
AcDbLine
 10
740.2278783205523
 20
214.384807858738
 30
0.0
 11
240.2278783205523
 21
214.384807858738
 31
0.0
  0
MTEXT
  5
1B8
330
1B2
100
AcDbEntity
  8
8
  6
CONTINUOUS
 62
     4
100
AcDbMText
 10
490.2278783205525
 20
214.384807858738
 30
0.0
 40
9.0
 41
115.7142857142857
 71
     8
 72
     1
  1
500
  7
ＭＳ_ゴシック
1001
ACAD
1000
ACAD_MTEXT_DEFINED_HEIGHT_BEGIN
1070
    46
1040
9.0
1000
ACAD_MTEXT_DEFINED_HEIGHT_END
  0
INSERT
  5
1B9
330
1B2
100
AcDbEntity
  8
8
  6
CONTINUOUS
 62
     4
100
AcDbBlockReference
  2
_ARROWFILLED
 10
740.2278783205523
 20
214.384807858738
 30
0.0
 41
6.0
 42
6.0
 43
6.0
 50
359.9999999999997
  0
INSERT
  5
1BA
330
1B2
100
AcDbEntity
  8
8
  6
CONTINUOUS
 62
     4
100
AcDbBlockReference
  2
_ARROWFILLED
 10
240.2278783205523
 20
214.384807858738
 30
0.0
 41
6.0
 42
6.0
 43
6.0
 50
179.9999999999998
  0
ENDBLK
  5
1B4
330
1B2
100
AcDbEntity
  8
0
100
AcDbBlockEnd
  0
BLOCK
  5
1BD
330
1BC
100
AcDbEntity
  8
0
100
AcDbBlockBegin
  2
DIM5
 70
     0
 10
0.0
 20
0.0
 30
0.0
  3
DIM5
  1

  0
LINE
  5
1BF
330
1BC
100
AcDbEntity
  8
8
  6
CONTINUOUS
 62
     4
100
AcDbLine
 10
755.2278783205525
 20
292.7882439254702
 30
0.0
 11
755.2278783205522
 21
185.1987398886577
 31
0.0
  0
LINE
  5
1C0
330
1BC
100
AcDbEntity
  8
8
  6
CONTINUOUS
 62
     4
100
AcDbLine
 10
225.2278783205511
 20
292.7882439254702
 30
0.0
 11
225.2278783205509
 21
185.1987398886577
 31
0.0
  0
LINE
  5
1C1
330
1BC
100
AcDbEntity
  8
8
  6
CONTINUOUS
 62
     4
100
AcDbLine
 10
755.2278783205522
 20
189.6987398886577
 30
0.0
 11
225.2278783205509
 21
189.6987398886577
 31
0.0
  0
MTEXT
  5
1C2
330
1BC
100
AcDbEntity
  8
8
  6
CONTINUOUS
 62
     4
100
AcDbMText
 10
490.2278783205526
 20
189.6987398886577
 30
0.0
 40
9.0
 41
115.7142857142857
 71
     8
 72
     1
  1
530
  7
ＭＳ_ゴシック
1001
ACAD
1000
ACAD_MTEXT_DEFINED_HEIGHT_BEGIN
1070
    46
1040
9.0
1000
ACAD_MTEXT_DEFINED_HEIGHT_END
  0
INSERT
  5
1C3
330
1BC
100
AcDbEntity
  8
8
  6
CONTINUOUS
 62
     4
100
AcDbBlockReference
  2
_ARROWFILLED
 10
755.2278783205522
 20
189.6987398886577
 30
0.0
 41
6.0
 42
6.0
 43
6.0
 50
359.9999999999997
  0
INSERT
  5
1C4
330
1BC
100
AcDbEntity
  8
8
  6
CONTINUOUS
 62
     4
100
AcDbBlockReference
  2
_ARROWFILLED
 10
225.2278783205509
 20
189.6987398886577
 30
0.0
 41
6.0
 42
6.0
 43
6.0
 50
179.9999999999998
  0
ENDBLK
  5
1BE
330
1BC
100
AcDbEntity
  8
0
100
AcDbBlockEnd
  0
BLOCK
  5
1C7
330
1C6
100
AcDbEntity
  8
0
100
AcDbBlockBegin
  2
DIM6
 70
     0
 10
0.0
 20
0.0
 30
0.0
  3
DIM6
  1

  0
LINE
  5
1C9
330
1C6
100
AcDbEntity
  8
8
  6
CONTINUOUS
 62
     4
100
AcDbLine
 10
790.2278783205534
 20
434.7882439254717
 30
0.0
 11
790.2278783205529
 21
185.1987398886577
 31
0.0
  0
LINE
  5
1CA
330
1C6
100
AcDbEntity
  8
8
  6
CONTINUOUS
 62
     4
100
AcDbLine
 10
755.2278783205525
 20
292.7882439254702
 30
0.0
 11
755.2278783205522
 21
185.1987398886577
 31
0.0
  0
LINE
  5
1CB
330
1C6
100
AcDbEntity
  8
8
  6
CONTINUOUS
 62
     4
100
AcDbLine
 10
790.2278783205529
 20
189.6987398886577
 30
0.0
 11
755.2278783205522
 21
189.6987398886577
 31
0.0
  0
MTEXT
  5
1CC
330
1C6
100
AcDbEntity
  8
8
  6
CONTINUOUS
 62
     4
100
AcDbMText
 10
772.7278783205529
 20
189.6987398886577
 30
0.0
 40
9.0
 41
72.85714285714286
 71
     8
 72
     1
  1
35
  7
ＭＳ_ゴシック
1001
ACAD
1000
ACAD_MTEXT_DEFINED_HEIGHT_BEGIN
1070
    46
1040
9.0
1000
ACAD_MTEXT_DEFINED_HEIGHT_END
  0
INSERT
  5
1CD
330
1C6
100
AcDbEntity
  8
8
  6
CONTINUOUS
 62
     4
100
AcDbBlockReference
  2
_ARROWFILLED
 10
790.2278783205529
 20
189.6987398886577
 30
0.0
 41
6.0
 42
6.0
 43
6.0
 50
359.9999999999997
  0
INSERT
  5
1CE
330
1C6
100
AcDbEntity
  8
8
  6
CONTINUOUS
 62
     4
100
AcDbBlockReference
  2
_ARROWFILLED
 10
755.2278783205522
 20
189.6987398886577
 30
0.0
 41
6.0
 42
6.0
 43
6.0
 50
179.9999999999998
  0
ENDBLK
  5
1C8
330
1C6
100
AcDbEntity
  8
0
100
AcDbBlockEnd
  0
BLOCK
  5
1D1
330
1D0
100
AcDbEntity
  8
0
100
AcDbBlockBegin
  2
DIM7
 70
     0
 10
0.0
 20
0.0
 30
0.0
  3
DIM7
  1

  0
LINE
  5
1D3
330
1D0
100
AcDbEntity
  8
8
  6
CONTINUOUS
 62
     4
100
AcDbLine
 10
377.7278783205511
 20
274.1882439254707
 30
0.0
 11
377.727878320551
 21
238.1787746970872
 31
0.0
  0
LINE
  5
1D4
330
1D0
100
AcDbEntity
  8
8
  6
CONTINUOUS
 62
     4
100
AcDbLine
 10
265.2278783205511
 20
274.1882439254707
 30
0.0
 11
265.227878320551
 21
238.1787746970872
 31
0.0
  0
LINE
  5
1D5
330
1D0
100
AcDbEntity
  8
8
  6
CONTINUOUS
 62
     4
100
AcDbLine
 10
377.727878320551
 20
242.6787746970872
 30
0.0
 11
265.227878320551
 21
242.6787746970872
 31
0.0
  0
MTEXT
  5
1D6
330
1D0
100
AcDbEntity
  8
8
  6
CONTINUOUS
 62
     4
100
AcDbMText
 10
321.4778783205511
 20
242.6787746970872
 30
0.0
 40
9.0
 41
173.5714285714286
 71
     8
 72
     1
  1
112.5
  7
ＭＳ_ゴシック
1001
ACAD
1000
ACAD_MTEXT_DEFINED_HEIGHT_BEGIN
1070
    46
1040
9.0
1000
ACAD_MTEXT_DEFINED_HEIGHT_END
  0
INSERT
  5
1D7
330
1D0
100
AcDbEntity
  8
8
  6
CONTINUOUS
 62
     4
100
AcDbBlockReference
  2
_ARROWFILLED
 10
377.727878320551
 20
242.6787746970872
 30
0.0
 41
6.0
 42
6.0
 43
6.0
 50
359.9999999999997
  0
INSERT
  5
1D8
330
1D0
100
AcDbEntity
  8
8
  6
CONTINUOUS
 62
     4
100
AcDbBlockReference
  2
_ARROWFILLED
 10
265.227878320551
 20
242.6787746970872
 30
0.0
 41
6.0
 42
6.0
 43
6.0
 50
179.9999999999998
  0
ENDBLK
  5
1D2
330
1D0
100
AcDbEntity
  8
0
100
AcDbBlockEnd
  0
BLOCK
  5
1DB
330
1DA
100
AcDbEntity
  8
0
100
AcDbBlockBegin
  2
DIM8
 70
     0
 10
0.0
 20
0.0
 30
0.0
  3
DIM8
  1

  0
LINE
  5
1DD
330
1DA
100
AcDbEntity
  8
8
  6
CONTINUOUS
 62
     4
100
AcDbLine
 10
994.1664013233681
 20
292.7882439254718
 30
0.0
 11
994.166401323368
 21
209.7865917958022
 31
0.0
  0
LINE
  5
1DE
330
1DA
100
AcDbEntity
  8
8
  6
CONTINUOUS
 62
     4
100
AcDbLine
 10
1039.166401323368
 20
277.7882439254718
 30
0.0
 11
1039.166401323368
 21
209.7865917958022
 31
0.0
  0
LINE
  5
1DF
330
1DA
100
AcDbEntity
  8
8
  6
CONTINUOUS
 62
     4
100
AcDbLine
 10
994.166401323368
 20
214.2865917958022
 30
0.0
 11
1039.166401323368
 21
214.2865917958022
 31
0.0
  0
MTEXT
  5
1E0
330
1DA
100
AcDbEntity
  8
8
  6
CONTINUOUS
 62
     4
100
AcDbMText
 10
1016.666401323368
 20
214.2865917958022
 30
0.0
 40
9.0
 41
72.85714285714286
 71
     8
 72
     1
  1
45
  7
ＭＳ_ゴシック
1001
ACAD
1000
ACAD_MTEXT_DEFINED_HEIGHT_BEGIN
1070
    46
1040
9.0
1000
ACAD_MTEXT_DEFINED_HEIGHT_END
  0
INSERT
  5
1E1
330
1DA
100
AcDbEntity
  8
8
  6
CONTINUOUS
 62
     4
100
AcDbBlockReference
  2
_ARROWFILLED
 10
994.166401323368
 20
214.2865917958022
 30
0.0
 41
6.0
 42
6.0
 43
6.0
 50
179.9999999999998
  0
INSERT
  5
1E2
330
1DA
100
AcDbEntity
  8
8
  6
CONTINUOUS
 62
     4
100
AcDbBlockReference
  2
_ARROWFILLED
 10
1039.166401323368
 20
214.2865917958022
 30
0.0
 41
6.0
 42
6.0
 43
6.0
 50
359.9999999999997
  0
ENDBLK
  5
1DC
330
1DA
100
AcDbEntity
  8
0
100
AcDbBlockEnd
  0
BLOCK
  5
1E5
330
1E4
100
AcDbEntity
  8
0
100
AcDbBlockBegin
  2
DIM9
 70
     0
 10
0.0
 20
0.0
 30
0.0
  3
DIM9
  1

  0
LINE
  5
1E7
330
1E4
100
AcDbEntity
  8
8
  6
CONTINUOUS
 62
     4
100
AcDbLine
 10
1038.166401323368
 20
277.7882439254718
 30
0.0
 11
1038.166401323368
 21
262.8625545407833
 31
0.0
  0
LINE
  5
1E8
330
1E4
100
AcDbEntity
  8
8
  6
CONTINUOUS
 62
     4
100
AcDbLine
 10
1039.166401323368
 20
277.7882439254718
 30
0.0
 11
1039.166401323368
 21
262.8625545407833
 31
0.0
  0
LINE
  5
1E9
330
1E4
100
AcDbEntity
  8
8
  6
CONTINUOUS
 62
     4
100
AcDbLine
 10
1026.166401323368
 20
267.3625545407833
 30
0.0
 11
1057.999778645007
 21
267.3625545407833
 31
0.0
  0
MTEXT
  5
1EA
330
1E4
100
AcDbEntity
  8
8
  6
CONTINUOUS
 62
     4
100
AcDbMText
 10
1053.499778645007
 20
267.3625545407833
 30
0.0
 40
9.0
 41
10.71428571428572
 71
     7
 72
     1
  1
1
  7
ＭＳ_ゴシック
1001
ACAD
1000
ACAD_MTEXT_DEFINED_HEIGHT_BEGIN
1070
    46
1040
9.0
1000
ACAD_MTEXT_DEFINED_HEIGHT_END
  0
INSERT
  5
1EB
330
1E4
100
AcDbEntity
  8
8
  6
CONTINUOUS
 62
     4
100
AcDbBlockReference
  2
_ARROWFILLED
 10
1038.166401323368
 20
267.3625545407833
 30
0.0
 41
6.0
 42
6.0
 43
6.0
 50
359.9999999999997
  0
INSERT
  5
1EC
330
1E4
100
AcDbEntity
  8
8
  6
CONTINUOUS
 62
     4
100
AcDbBlockReference
  2
_ARROWFILLED
 10
1039.166401323368
 20
267.3625545407833
 30
0.0
 41
6.0
 42
6.0
 43
6.0
 50
179.9999999999995
  0
ENDBLK
  5
1E6
330
1E4
100
AcDbEntity
  8
0
100
AcDbBlockEnd
  0
BLOCK
  5
1EF
330
1EE
100
AcDbEntity
  8
0
100
AcDbBlockBegin
  2
DIM10
 70
     0
 10
0.0
 20
0.0
 30
0.0
  3
DIM10
  1

  0
LINE
  5
1F1
330
1EE
100
AcDbEntity
  8
8
  6
CONTINUOUS
 62
     4
100
AcDbLine
 10
1039.166401323368
 20
277.7882439254718
 30
0.0
 11
1039.166401323368
 21
238.1197894842655
 31
0.0
  0
LINE
  5
1F2
330
1EE
100
AcDbEntity
  8
8
  6
CONTINUOUS
 62
     4
100
AcDbLine
 10
1005.666401323368
 20
434.7882439254718
 30
0.0
 11
1005.666401323368
 21
238.1197894842655
 31
0.0
  0
LINE
  5
1F3
330
1EE
100
AcDbEntity
  8
8
  6
CONTINUOUS
 62
     4
100
AcDbLine
 10
1039.166401323368
 20
242.6197894842655
 30
0.0
 11
1005.666401323368
 21
242.6197894842655
 31
0.0
  0
MTEXT
  5
1F4
330
1EE
100
AcDbEntity
  8
8
  6
CONTINUOUS
 62
     4
100
AcDbMText
 10
1022.416401323368
 20
242.6197894842655
 30
0.0
 40
9.0
 41
137.1428571428571
 71
     8
 72
     1
  1
33.5
  7
ＭＳ_ゴシック
1001
ACAD
1000
ACAD_MTEXT_DEFINED_HEIGHT_BEGIN
1070
    46
1040
9.0
1000
ACAD_MTEXT_DEFINED_HEIGHT_END
  0
INSERT
  5
1F5
330
1EE
100
AcDbEntity
  8
8
  6
CONTINUOUS
 62
     4
100
AcDbBlockReference
  2
_ARROWFILLED
 10
1039.166401323368
 20
242.6197894842655
 30
0.0
 41
6.0
 42
6.0
 43
6.0
 50
359.9999999999997
  0
INSERT
  5
1F6
330
1EE
100
AcDbEntity
  8
8
  6
CONTINUOUS
 62
     4
100
AcDbBlockReference
  2
_ARROWFILLED
 10
1005.666401323368
 20
242.6197894842655
 30
0.0
 41
6.0
 42
6.0
 43
6.0
 50
179.9999999999998
  0
ENDBLK
  5
1F0
330
1EE
100
AcDbEntity
  8
0
100
AcDbBlockEnd
  0
BLOCK
  5
1F9
330
1F8
100
AcDbEntity
  8
0
100
AcDbBlockBegin
  2
DIM11
 70
     0
 10
0.0
 20
0.0
 30
0.0
  3
DIM11
  1

  0
LINE
  5
1FB
330
1F8
100
AcDbEntity
  8
8
  6
CONTINUOUS
 62
     4
100
AcDbLine
 10
377.7278783205511
 20
274.1882439254707
 30
0.0
 11
377.727878320551
 21
238.1787746970872
 31
0.0
  0
LINE
  5
1FC
330
1F8
100
AcDbEntity
  8
8
  6
CONTINUOUS
 62
     4
100
AcDbLine
 10
490.2278783205525
 20
262.7882439254711
 30
0.0
 11
490.2278783205525
 21
238.1787746970872
 31
0.0
  0
LINE
  5
1FD
330
1F8
100
AcDbEntity
  8
8
  6
CONTINUOUS
 62
     4
100
AcDbLine
 10
377.727878320551
 20
242.6787746970872
 30
0.0
 11
490.2278783205525
 21
242.6787746970872
 31
0.0
  0
MTEXT
  5
1FE
330
1F8
100
AcDbEntity
  8
8
  6
CONTINUOUS
 62
     4
100
AcDbMText
 10
433.9778783205518
 20
242.6787746970872
 30
0.0
 40
9.0
 41
173.5714285714286
 71
     8
 72
     1
  1
112.5
  7
ＭＳ_ゴシック
1001
ACAD
1000
ACAD_MTEXT_DEFINED_HEIGHT_BEGIN
1070
    46
1040
9.0
1000
ACAD_MTEXT_DEFINED_HEIGHT_END
  0
INSERT
  5
1FF
330
1F8
100
AcDbEntity
  8
8
  6
CONTINUOUS
 62
     4
100
AcDbBlockReference
  2
_ARROWFILLED
 10
377.727878320551
 20
242.6787746970872
 30
0.0
 41
6.0
 42
6.0
 43
6.0
 50
179.9999999999998
  0
INSERT
  5
200
330
1F8
100
AcDbEntity
  8
8
  6
CONTINUOUS
 62
     4
100
AcDbBlockReference
  2
_ARROWFILLED
 10
490.2278783205525
 20
242.6787746970872
 30
0.0
 41
6.0
 42
6.0
 43
6.0
 50
359.9999999999997
  0
ENDBLK
  5
1FA
330
1F8
100
AcDbEntity
  8
0
100
AcDbBlockEnd
  0
BLOCK
  5
203
330
202
100
AcDbEntity
  8
0
100
AcDbBlockBegin
  2
DIM12
 70
     0
 10
0.0
 20
0.0
 30
0.0
  3
DIM12
  1

  0
LINE
  5
205
330
202
100
AcDbEntity
  8
8
  6
CONTINUOUS
 62
     4
100
AcDbLine
 10
743.2278783205525
 20
610.7882439254656
 30
0.0
 11
830.4012638858808
 21
610.7882439254656
 31
0.0
  0
LINE
  5
206
330
202
100
AcDbEntity
  8
8
  6
CONTINUOUS
 62
     4
100
AcDbLine
 10
743.2278783205525
 20
310.7882439254654
 30
0.0
 11
830.4012638858812
 21
310.7882439254654
 31
0.0
  0
LINE
  5
207
330
202
100
AcDbEntity
  8
8
  6
CONTINUOUS
 62
     4
100
AcDbLine
 10
825.9012638858808
 20
610.7882439254656
 30
0.0
 11
825.9012638858812
 21
310.7882439254654
 31
0.0
  0
MTEXT
  5
208
330
202
100
AcDbEntity
  8
8
  6
CONTINUOUS
 62
     4
100
AcDbMText
 10
825.901263885881
 20
460.7882439254654
 30
0.0
 40
9.0
 41
115.7142857142857
 71
     8
 72
     1
  1
300
  7
ＭＳ_ゴシック
 11
1.615544574432587E-15
 21
1.0
 31
0.0
1001
ACAD
1000
ACAD_MTEXT_DEFINED_HEIGHT_BEGIN
1070
    46
1040
9.0
1000
ACAD_MTEXT_DEFINED_HEIGHT_END
  0
INSERT
  5
209
330
202
100
AcDbEntity
  8
8
  6
CONTINUOUS
 62
     4
100
AcDbBlockReference
  2
_ARROWFILLED
 10
825.9012638858808
 20
610.7882439254656
 30
0.0
 41
6.0
 42
6.0
 43
6.0
 50
89.99999999999991
  0
INSERT
  5
20A
330
202
100
AcDbEntity
  8
8
  6
CONTINUOUS
 62
     4
100
AcDbBlockReference
  2
_ARROWFILLED
 10
825.9012638858812
 20
310.7882439254654
 30
0.0
 41
6.0
 42
6.0
 43
6.0
 50
269.9999999999999
  0
ENDBLK
  5
204
330
202
100
AcDbEntity
  8
0
100
AcDbBlockEnd
  0
BLOCK
  5
20D
330
20C
100
AcDbEntity
  8
0
100
AcDbBlockBegin
  2
DIM13
 70
     0
 10
0.0
 20
0.0
 30
0.0
  3
DIM13
  1

  0
LINE
  5
20F
330
20C
100
AcDbEntity
  8
8
  6
CONTINUOUS
 62
     4
100
AcDbLine
 10
758.2278783205525
 20
625.7882439254699
 30
0.0
 11
859.7126860350457
 21
625.7882439254699
 31
0.0
  0
LINE
  5
210
330
20C
100
AcDbEntity
  8
8
  6
CONTINUOUS
 62
     4
100
AcDbLine
 10
758.2278783205525
 20
295.7882439254702
 30
0.0
 11
859.7126860350463
 21
295.7882439254702
 31
0.0
  0
LINE
  5
211
330
20C
100
AcDbEntity
  8
8
  6
CONTINUOUS
 62
     4
100
AcDbLine
 10
855.2126860350457
 20
625.7882439254699
 30
0.0
 11
855.2126860350463
 21
295.7882439254702
 31
0.0
  0
MTEXT
  5
212
330
20C
100
AcDbEntity
  8
8
  6
CONTINUOUS
 62
     4
100
AcDbMText
 10
855.2126860350461
 20
460.7882439254649
 30
0.0
 40
9.0
 41
115.7142857142857
 71
     8
 72
     1
  1
330
  7
ＭＳ_ゴシック
 11
1.615544574432587E-15
 21
1.0
 31
0.0
1001
ACAD
1000
ACAD_MTEXT_DEFINED_HEIGHT_BEGIN
1070
    46
1040
9.0
1000
ACAD_MTEXT_DEFINED_HEIGHT_END
  0
INSERT
  5
213
330
20C
100
AcDbEntity
  8
8
  6
CONTINUOUS
 62
     4
100
AcDbBlockReference
  2
_ARROWFILLED
 10
855.2126860350457
 20
625.7882439254699
 30
0.0
 41
6.0
 42
6.0
 43
6.0
 50
89.99999999999991
  0
INSERT
  5
214
330
20C
100
AcDbEntity
  8
8
  6
CONTINUOUS
 62
     4
100
AcDbBlockReference
  2
_ARROWFILLED
 10
855.2126860350463
 20
295.7882439254702
 30
0.0
 41
6.0
 42
6.0
 43
6.0
 50
269.9999999999999
  0
ENDBLK
  5
20E
330
20C
100
AcDbEntity
  8
0
100
AcDbBlockEnd
  0
BLOCK
  5
217
330
216
100
AcDbEntity
  8
0
100
AcDbBlockBegin
  2
DIM14
 70
     0
 10
0.0
 20
0.0
 30
0.0
  3
DIM14
  1

  0
LINE
  5
219
330
216
100
AcDbEntity
  8
8
  6
CONTINUOUS
 62
     4
100
AcDbLine
 10
728.8278783205519
 20
633.7882439254695
 30
0.0
 11
888.6393259943005
 21
633.7882439254695
 31
0.0
  0
LINE
  5
21A
330
216
100
AcDbEntity
  8
8
  6
CONTINUOUS
 62
     4
100
AcDbLine
 10
728.8278783205519
 20
287.7882439254704
 30
0.0
 11
888.6393259943011
 21
287.7882439254704
 31
0.0
  0
LINE
  5
21B
330
216
100
AcDbEntity
  8
8
  6
CONTINUOUS
 62
     4
100
AcDbLine
 10
884.1393259943005
 20
633.7882439254695
 30
0.0
 11
884.1393259943011
 21
287.7882439254704
 31
0.0
  0
MTEXT
  5
21C
330
216
100
AcDbEntity
  8
8
  6
CONTINUOUS
 62
     4
100
AcDbMText
 10
884.1393259943009
 20
460.788243925466
 30
0.0
 40
9.0
 41
115.7142857142857
 71
     8
 72
     1
  1
346
  7
ＭＳ_ゴシック
 11
1.615544574432587E-15
 21
1.0
 31
0.0
1001
ACAD
1000
ACAD_MTEXT_DEFINED_HEIGHT_BEGIN
1070
    46
1040
9.0
1000
ACAD_MTEXT_DEFINED_HEIGHT_END
  0
INSERT
  5
21D
330
216
100
AcDbEntity
  8
8
  6
CONTINUOUS
 62
     4
100
AcDbBlockReference
  2
_ARROWFILLED
 10
884.1393259943005
 20
633.7882439254695
 30
0.0
 41
6.0
 42
6.0
 43
6.0
 50
89.99999999999991
  0
INSERT
  5
21E
330
216
100
AcDbEntity
  8
8
  6
CONTINUOUS
 62
     4
100
AcDbBlockReference
  2
_ARROWFILLED
 10
884.1393259943011
 20
287.7882439254704
 30
0.0
 41
6.0
 42
6.0
 43
6.0
 50
269.9999999999999
  0
ENDBLK
  5
218
330
216
100
AcDbEntity
  8
0
100
AcDbBlockEnd
  0
BLOCK
  5
221
330
220
100
AcDbEntity
  8
0
100
AcDbBlockBegin
  2
DIM15
 70
     0
 10
0.0
 20
0.0
 30
0.0
  3
DIM15
  1

  0
LINE
  5
223
330
220
100
AcDbEntity
  8
8
  6
CONTINUOUS
 62
     4
100
AcDbLine
 10
738.2278783205525
 20
640.7882439254695
 30
0.0
 11
914.2034507280075
 21
640.7882439254695
 31
0.0
  0
LINE
  5
224
330
220
100
AcDbEntity
  8
8
  6
CONTINUOUS
 62
     4
100
AcDbLine
 10
738.2278783205511
 20
280.7882439254718
 30
0.0
 11
914.2034507280082
 21
280.7882439254718
 31
0.0
  0
LINE
  5
225
330
220
100
AcDbEntity
  8
8
  6
CONTINUOUS
 62
     4
100
AcDbLine
 10
909.7034507280075
 20
640.7882439254695
 30
0.0
 11
909.7034507280082
 21
280.7882439254718
 31
0.0
  0
MTEXT
  5
226
330
220
100
AcDbEntity
  8
8
  6
CONTINUOUS
 62
     4
100
AcDbMText
 10
909.7034507280079
 20
460.7882439254656
 30
0.0
 40
9.0
 41
115.7142857142857
 71
     8
 72
     1
  1
360
  7
ＭＳ_ゴシック
 11
1.393499969507555E-15
 21
1.0
 31
0.0
1001
ACAD
1000
ACAD_MTEXT_DEFINED_HEIGHT_BEGIN
1070
    46
1040
9.0
1000
ACAD_MTEXT_DEFINED_HEIGHT_END
  0
INSERT
  5
227
330
220
100
AcDbEntity
  8
8
  6
CONTINUOUS
 62
     4
100
AcDbBlockReference
  2
_ARROWFILLED
 10
909.7034507280075
 20
640.7882439254695
 30
0.0
 41
6.0
 42
6.0
 43
6.0
 50
89.99999999999991
  0
INSERT
  5
228
330
220
100
AcDbEntity
  8
8
  6
CONTINUOUS
 62
     4
100
AcDbBlockReference
  2
_ARROWFILLED
 10
909.7034507280082
 20
280.7882439254718
 30
0.0
 41
6.0
 42
6.0
 43
6.0
 50
269.9999999999999
  0
ENDBLK
  5
222
330
220
100
AcDbEntity
  8
0
100
AcDbBlockEnd
  0
BLOCK
  5
22B
330
22A
100
AcDbEntity
  8
0
100
AcDbBlockBegin
  2
DIM16
 70
     0
 10
0.0
 20
0.0
 30
0.0
  3
DIM16
  1

  0
LINE
  5
22D
330
22A
100
AcDbEntity
  8
8
  6
CONTINUOUS
 62
     4
100
AcDbLine
 10
490.2278783205525
 20
262.7882439254711
 30
0.0
 11
490.2278783205525
 21
238.1787746970872
 31
0.0
  0
LINE
  5
22E
330
22A
100
AcDbEntity
  8
8
  6
CONTINUOUS
 62
     4
100
AcDbLine
 10
602.7278783205525
 20
274.1882439254707
 30
0.0
 11
602.7278783205525
 21
238.1787746970872
 31
0.0
  0
LINE
  5
22F
330
22A
100
AcDbEntity
  8
8
  6
CONTINUOUS
 62
     4
100
AcDbLine
 10
490.2278783205525
 20
242.6787746970872
 30
0.0
 11
602.7278783205525
 21
242.6787746970872
 31
0.0
  0
MTEXT
  5
230
330
22A
100
AcDbEntity
  8
8
  6
CONTINUOUS
 62
     4
100
AcDbMText
 10
546.4778783205525
 20
242.6787746970872
 30
0.0
 40
9.0
 41
173.5714285714286
 71
     8
 72
     1
  1
112.5
  7
ＭＳ_ゴシック
1001
ACAD
1000
ACAD_MTEXT_DEFINED_HEIGHT_BEGIN
1070
    46
1040
9.0
1000
ACAD_MTEXT_DEFINED_HEIGHT_END
  0
INSERT
  5
231
330
22A
100
AcDbEntity
  8
8
  6
CONTINUOUS
 62
     4
100
AcDbBlockReference
  2
_ARROWFILLED
 10
490.2278783205525
 20
242.6787746970872
 30
0.0
 41
6.0
 42
6.0
 43
6.0
 50
179.9999999999998
  0
INSERT
  5
232
330
22A
100
AcDbEntity
  8
8
  6
CONTINUOUS
 62
     4
100
AcDbBlockReference
  2
_ARROWFILLED
 10
602.7278783205525
 20
242.6787746970872
 30
0.0
 41
6.0
 42
6.0
 43
6.0
 50
359.9999999999997
  0
ENDBLK
  5
22C
330
22A
100
AcDbEntity
  8
0
100
AcDbBlockEnd
  0
ENDSEC
  0
SECTION
  2
ENTITIES
  0
POLYLINE
  5
A0
330
1F
100
AcDbEntity
  8
9
  6
CONTINUOUS
 62
     7
100
AcDb2dPolyline
 66
     1
 10
0.0
 20
0.0
 30
0.0
  0
VERTEX
  5
A1
330
A0
100
AcDbEntity
  8
9
  6
CONTINUOUS
 62
     7
100
AcDbVertex
100
AcDb2dVertex
 10
240.2278783205525
 20
310.7882439254702
 30
0.0
  0
VERTEX
  5
A2
330
A0
100
AcDbEntity
  8
9
  6
CONTINUOUS
 62
     7
100
AcDbVertex
100
AcDb2dVertex
 10
740.2278783205525
 20
310.7882439254702
 30
0.0
  0
VERTEX
  5
A3
330
A0
100
AcDbEntity
  8
9
  6
CONTINUOUS
 62
     7
100
AcDbVertex
100
AcDb2dVertex
 10
740.2278783205525
 20
610.7882439254699
 30
0.0
  0
VERTEX
  5
A4
330
A0
100
AcDbEntity
  8
9
  6
CONTINUOUS
 62
     7
100
AcDbVertex
100
AcDb2dVertex
 10
240.2278783205525
 20
610.7882439254699
 30
0.0
  0
VERTEX
  5
A5
330
A0
100
AcDbEntity
  8
9
  6
CONTINUOUS
 62
     7
100
AcDbVertex
100
AcDb2dVertex
 10
240.2278783205525
 20
310.7882439254702
 30
0.0
  0
SEQEND
  5
A6
330
A0
100
AcDbEntity
  8
9
  6
CONTINUOUS
 62
     7
  0
LINE
  5
A7
330
1F
100
AcDbEntity
  8
9
  6
CONTINUOUS
 62
     7
100
AcDbLine
 10
755.2278783205525
 20
295.7882439254702
 30
0.0
 11
225.2278783205511
 21
295.7882439254702
 31
0.0
  0
LINE
  5
A8
330
1F
100
AcDbEntity
  8
9
  6
CONTINUOUS
 62
     7
100
AcDbLine
 10
225.2278783205511
 20
295.7882439254702
 30
0.0
 11
225.2278783205511
 21
625.7882439254702
 31
0.0
  0
LINE
  5
A9
330
1F
100
AcDbEntity
  8
9
  6
CONTINUOUS
 62
     7
100
AcDbLine
 10
755.2278783205525
 20
295.7882439254702
 30
0.0
 11
755.2278783205525
 21
625.7882439254699
 31
0.0
  0
LINE
  5
AA
330
1F
100
AcDbEntity
  8
9
  6
CONTINUOUS
 62
     7
100
AcDbLine
 10
755.2278783205525
 20
625.7882439254699
 30
0.0
 11
225.2278783205511
 21
625.7882439254702
 31
0.0
  0
LINE
  5
AB
330
1F
100
AcDbEntity
  8
9
  6
CONTINUOUS
 62
     7
100
AcDbLine
 10
790.2278783205534
 20
437.7882439254717
 30
0.0
 11
790.2278783205534
 21
483.7882439254717
 31
0.0
  0
LINE
  5
AC
330
1F
100
AcDbEntity
  8
9
  6
CONTINUOUS
 62
     7
100
AcDbLine
 10
790.2278783205534
 20
482.2882439254717
 30
0.0
 11
755.2278783205511
 21
482.2882439254717
 31
0.0
  0
LINE
  5
AD
330
1F
100
AcDbEntity
  8
9
  6
CONTINUOUS
 62
     7
100
AcDbLine
 10
790.2278783205534
 20
483.7882439254717
 30
0.0
 11
755.2278783205525
 21
483.7882439254717
 31
0.0
  0
LINE
  5
AE
330
1F
100
AcDbEntity
  8
9
  6
CONTINUOUS
 62
     7
100
AcDbLine
 10
790.2278783205534
 20
439.2882439254717
 30
0.0
 11
755.2278783205511
 21
439.2882439254717
 31
0.0
  0
LINE
  5
AF
330
1F
100
AcDbEntity
  8
9
  6
CONTINUOUS
 62
     7
100
AcDbLine
 10
790.2278783205534
 20
437.7882439254717
 30
0.0
 11
755.2278783205525
 21
437.7882439254717
 31
0.0
  0
LINE
  5
B0
330
1F
100
AcDbEntity
  8
9
  6
CONTINUOUS
 62
     7
100
AcDbLine
 10
783.077878320551
 20
433.5222372860007
 30
0.0
 11
783.077878320551
 21
426.2882439254699
 31
0.0
  0
LINE
  5
B1
330
1F
100
AcDbEntity
  8
9
  6
CONTINUOUS
 62
     7
100
AcDbLine
 10
782.53941678209
 20
430.9882439254697
 30
0.0
 11
783.077878320551
 21
431.9208866680073
 31
0.0
  0
LINE
  5
B2
330
1F
100
AcDbEntity
  8
9
  6
CONTINUOUS
 62
     7
100
AcDbLine
 10
782.2778783205508
 20
425.4882439254697
 30
0.0
 11
783.077878320551
 21
426.2882439254699
 31
0.0
  0
LINE
  5
B3
330
1F
100
AcDbEntity
  8
9
  6
CONTINUOUS
 62
     7
100
AcDbLine
 10
782.53941678209
 20
430.9882439254697
 30
0.0
 11
782.53941678209
 21
425.749782387008
 31
0.0
  0
LINE
  5
B4
330
1F
100
AcDbEntity
  8
9
  6
CONTINUOUS
 62
     7
100
AcDbLine
 10
786.7278783205525
 20
435.4882439254697
 30
0.0
 11
786.7278783205525
 21
437.7882439254699
 31
0.0
  0
LINE
  5
B5
330
1F
100
AcDbEntity
  8
9
  6
CONTINUOUS
 62
     7
100
AcDbLine
 10
757.7278783205525
 20
435.4882439254697
 30
0.0
 11
757.7278783205525
 21
437.7882439254699
 31
0.0
  0
LINE
  5
B6
330
1F
100
AcDbEntity
  8
9
  6
CONTINUOUS
 62
     7
100
AcDbLine
 10
761.9163398590131
 20
430.9882439254697
 30
0.0
 11
761.3778783205521
 21
431.9208866680073
 31
0.0
  0
LINE
  5
B7
330
1F
100
AcDbEntity
  8
9
  6
CONTINUOUS
 62
     7
100
AcDbLine
 10
786.7278783205525
 20
435.4882439254697
 30
0.0
 11
757.7278783205525
 21
435.4882439254697
 31
0.0
  0
LINE
  5
B8
330
1F
100
AcDbEntity
  8
9
  6
CONTINUOUS
 62
     7
100
AcDbLine
 10
761.3778783205521
 20
430.9882439254697
 30
0.0
 11
783.077878320551
 21
430.9882439254697
 31
0.0
  0
LINE
  5
B9
330
1F
100
AcDbEntity
  8
9
  6
CONTINUOUS
 62
     7
100
AcDbLine
 10
762.1778783205514
 20
425.4882439254697
 30
0.0
 11
761.3778783205521
 21
426.2882439254699
 31
0.0
  0
LINE
  5
BA
330
1F
100
AcDbEntity
  8
9
  6
CONTINUOUS
 62
     7
100
AcDbLine
 10
761.3778783205521
 20
426.2882439254699
 30
0.0
 11
783.077878320551
 21
426.2882439254699
 31
0.0
  0
LINE
  5
BB
330
1F
100
AcDbEntity
  8
9
  6
CONTINUOUS
 62
     7
100
AcDbLine
 10
761.3778783205521
 20
433.5149587566811
 30
0.0
 11
761.3778783205521
 21
426.2882439254699
 31
0.0
  0
LINE
  5
BC
330
1F
100
AcDbEntity
  8
9
  6
CONTINUOUS
 62
     7
100
AcDbLine
 10
761.9163398590131
 20
430.9882439254697
 30
0.0
 11
761.9163398590131
 21
425.749782387008
 31
0.0
  0
LINE
  5
BD
330
1F
100
AcDbEntity
  8
9
  6
CONTINUOUS
 62
     7
100
AcDbLine
 10
762.1778783205514
 20
425.4882439254697
 30
0.0
 11
782.2778783205508
 21
425.4882439254697
 31
0.0
  0
LINE
  5
BE
330
1F
100
AcDbEntity
  8
9
  6
CONTINUOUS
 62
     7
100
AcDbLine
 10
786.5169004529012
 20
435.4882439254697
 30
0.0
 11
781.0169004529012
 21
435.4882439254697
 31
0.0
  0
ARC
  5
BF
330
1F
100
AcDbEntity
  8
9
  6
CONTINUOUS
 62
     7
100
AcDbCircle
 10
783.7669004529012
 20
440.4882439254697
 30
0.0
 40
7.0
100
AcDbArc
 50
253.4486440000086
 51
286.5513559999907
  0
LINE
  5
C0
330
1F
100
AcDbEntity
  8
9
  6
CONTINUOUS
 62
     7
100
AcDbLine
 10
786.5169004529012
 20
435.4882439254697
 30
0.0
 11
786.4747784529013
 21
434.6845189254699
 31
0.0
  0
ARC
  5
C1
330
1F
100
AcDbEntity
  8
9
  6
CONTINUOUS
 62
     7
100
AcDbCircle
 10
785.4761484529013
 20
434.7368549254697
 30
0.0
 40
1.0
100
AcDbArc
 50
286.5513559999903
 51
356.9999999999939
  0
LINE
  5
C2
330
1F
100
AcDbEntity
  8
9
  6
CONTINUOUS
 62
     7
100
AcDbLine
 10
781.0169004529012
 20
435.4882439254697
 30
0.0
 11
781.059022452901
 21
434.6845189254699
 31
0.0
  0
ARC
  5
C3
330
1F
100
AcDbEntity
  8
9
  6
CONTINUOUS
 62
     7
100
AcDbCircle
 10
782.057652452901
 20
434.7368549254697
 30
0.0
 40
1.0
100
AcDbArc
 50
183.0000000000054
 51
253.448644000009
  0
LINE
  5
C4
330
1F
100
AcDbEntity
  8
9
  6
CONTINUOUS
 62
     7
100
AcDbLine
 10
763.5169004529012
 20
435.4882439254697
 30
0.0
 11
758.0169004529012
 21
435.4882439254697
 31
0.0
  0
ARC
  5
C5
330
1F
100
AcDbEntity
  8
9
  6
CONTINUOUS
 62
     7
100
AcDbCircle
 10
760.7669004529012
 20
440.4882439254697
 30
0.0
 40
7.0
100
AcDbArc
 50
253.4486440000086
 51
286.5513559999907
  0
LINE
  5
C6
330
1F
100
AcDbEntity
  8
9
  6
CONTINUOUS
 62
     7
100
AcDbLine
 10
763.5169004529012
 20
435.4882439254697
 30
0.0
 11
763.4747784529013
 21
434.6845189254699
 31
0.0
  0
ARC
  5
C7
330
1F
100
AcDbEntity
  8
9
  6
CONTINUOUS
 62
     7
100
AcDbCircle
 10
762.4761484529013
 20
434.7368549254697
 30
0.0
 40
1.0
100
AcDbArc
 50
286.5513559999903
 51
356.9999999999939
  0
LINE
  5
C8
330
1F
100
AcDbEntity
  8
9
  6
CONTINUOUS
 62
     7
100
AcDbLine
 10
758.0169004529012
 20
435.4882439254697
 30
0.0
 11
758.0590224529019
 21
434.6845189254699
 31
0.0
  0
ARC
  5
C9
330
1F
100
AcDbEntity
  8
9
  6
CONTINUOUS
 62
     7
100
AcDbCircle
 10
759.057652452902
 20
434.7368549254697
 30
0.0
 40
1.0
100
AcDbArc
 50
183.0000000000054
 51
253.448644000009
  0
LINE
  5
CA
330
1F
100
AcDbEntity
  8
9
  6
CONTINUOUS
 62
     7
100
AcDbLine
 10
224.9112116538849
 20
532.3382439254713
 30
0.0
 11
224.9112116538849
 21
539.2382439254711
 31
0.0
  0
ARC
  5
CB
330
1F
100
AcDbEntity
  8
9
  6
CONTINUOUS
 62
     7
100
AcDbCircle
 10
227.8782291977441
 20
535.7882439254704
 30
0.0
 40
4.550350877192983
100
AcDbArc
 50
130.6956985253984
 51
229.3043014746012
  0
LINE
  5
CC
330
1F
100
AcDbEntity
  8
9
  6
CONTINUOUS
 62
     7
100
AcDbLine
 10
225.2278783205511
 20
532.3382439254713
 30
0.0
 11
224.9112116538849
 21
532.3382439254713
 31
0.0
  0
LINE
  5
CD
330
1F
100
AcDbEntity
  8
9
  6
CONTINUOUS
 62
     7
100
AcDbLine
 10
225.2278783205511
 20
539.2382439254711
 30
0.0
 11
224.9112116538849
 21
539.2382439254711
 31
0.0
  0
LINE
  5
CE
330
1F
100
AcDbEntity
  8
9
  6
CONTINUOUS
 62
     7
100
AcDbLine
 10
238.6778783205523
 20
626.104910592137
 30
0.0
 11
231.7778783205531
 21
626.104910592137
 31
0.0
  0
ARC
  5
CF
330
1F
100
AcDbEntity
  8
9
  6
CONTINUOUS
 62
     7
100
AcDbCircle
 10
235.2278783205534
 20
623.1378930482774
 30
0.0
 40
4.550350877192983
100
AcDbArc
 50
40.6956985254073
 51
139.3043014746005
  0
LINE
  5
D0
330
1F
100
AcDbEntity
  8
9
  6
CONTINUOUS
 62
     7
100
AcDbLine
 10
238.6778783205523
 20
625.7882439254704
 30
0.0
 11
238.6778783205523
 21
626.104910592137
 31
0.0
  0
LINE
  5
D1
330
1F
100
AcDbEntity
  8
9
  6
CONTINUOUS
 62
     7
100
AcDbLine
 10
231.7778783205531
 20
625.7882439254704
 30
0.0
 11
231.7778783205531
 21
626.104910592137
 31
0.0
  0
LINE
  5
D2
330
1F
100
AcDbEntity
  8
9
  6
CONTINUOUS
 62
     7
100
AcDbLine
 10
260.1778783205523
 20
626.104910592137
 30
0.0
 11
253.2778783205531
 21
626.104910592137
 31
0.0
  0
ARC
  5
D3
330
1F
100
AcDbEntity
  8
9
  6
CONTINUOUS
 62
     7
100
AcDbCircle
 10
256.7278783205543
 20
623.1378930482774
 30
0.0
 40
4.550350877192955
100
AcDbArc
 50
40.6956985254073
 51
139.3043014746005
  0
LINE
  5
D4
330
1F
100
AcDbEntity
  8
9
  6
CONTINUOUS
 62
     7
100
AcDbLine
 10
260.1778783205523
 20
625.7882439254704
 30
0.0
 11
260.1778783205523
 21
626.104910592137
 31
0.0
  0
LINE
  5
D5
330
1F
100
AcDbEntity
  8
9
  6
CONTINUOUS
 62
     7
100
AcDbLine
 10
253.2778783205531
 20
625.7882439254704
 30
0.0
 11
253.2778783205531
 21
626.104910592137
 31
0.0
  0
LINE
  5
D6
330
1F
100
AcDbEntity
  8
9
  6
CONTINUOUS
 62
     7
100
AcDbLine
 10
755.5445449872191
 20
495.3382439254701
 30
0.0
 11
755.5445449872191
 21
502.2382439254707
 31
0.0
  0
ARC
  5
D7
330
1F
100
AcDbEntity
  8
9
  6
CONTINUOUS
 62
     7
100
AcDbCircle
 10
752.5775274433595
 20
498.7882439254699
 30
0.0
 40
4.550350877192955
100
AcDbArc
 50
310.6956985253978
 51
49.30430147460186
  0
LINE
  5
D8
330
1F
100
AcDbEntity
  8
9
  6
CONTINUOUS
 62
     7
100
AcDbLine
 10
755.2278783205525
 20
495.3382439254701
 30
0.0
 11
755.5445449872191
 21
495.3382439254701
 31
0.0
  0
LINE
  5
D9
330
1F
100
AcDbEntity
  8
9
  6
CONTINUOUS
 62
     7
100
AcDbLine
 10
755.2278783205525
 20
502.2382439254707
 30
0.0
 11
755.5445449872191
 21
502.2382439254707
 31
0.0
  0
LINE
  5
DA
330
1F
100
AcDbEntity
  8
9
  6
CONTINUOUS
 62
     7
100
AcDbLine
 10
755.5445449872191
 20
426.2382439254697
 30
0.0
 11
755.5445449872191
 21
419.3382439254692
 31
0.0
  0
ARC
  5
DB
330
1F
100
AcDbEntity
  8
9
  6
CONTINUOUS
 62
     7
100
AcDbCircle
 10
752.5775274433595
 20
422.7882439254699
 30
0.0
 40
4.550350877192955
100
AcDbArc
 50
310.6956985253978
 51
49.30430147460186
  0
LINE
  5
DC
330
1F
100
AcDbEntity
  8
9
  6
CONTINUOUS
 62
     7
100
AcDbLine
 10
755.2278783205525
 20
426.2382439254697
 30
0.0
 11
755.5445449872191
 21
426.2382439254697
 31
0.0
  0
LINE
  5
DD
330
1F
100
AcDbEntity
  8
9
  6
CONTINUOUS
 62
     7
100
AcDbLine
 10
755.2278783205525
 20
419.3382439254692
 30
0.0
 11
755.5445449872191
 21
419.3382439254692
 31
0.0
  0
LINE
  5
DE
330
1F
100
AcDbEntity
  8
4
  6
DASHDOT
 62
     1
100
AcDbLine
 10
805.2278783205525
 20
460.7882439254699
 30
0.0
 11
210.2278783205511
 21
460.7882439254701
 31
0.0
  0
LINE
  5
DF
330
1F
100
AcDbEntity
  8
4
  6
DASHDOT
 62
     1
100
AcDbLine
 10
490.2278783205525
 20
655.788243925469
 30
0.0
 11
490.2278783205525
 21
265.7882439254711
 31
0.0
  0
LINE
  5
E0
330
1F
100
AcDbEntity
  8
9
  6
CONTINUOUS
 62
     7
100
AcDbLine
 10
740.2278783205525
 20
285.7882439254704
 30
0.0
 11
740.2278783205525
 21
295.7882439254704
 31
0.0
  0
ARC
  5
E1
330
1F
100
AcDbEntity
  8
9
  6
CONTINUOUS
 62
     7
100
AcDbCircle
 10
735.2278783205511
 20
285.7882439254704
 30
0.0
 40
5.0
100
AcDbArc
 50
269.9999999999998
 51
0.0
  0
LINE
  5
E2
330
1F
100
AcDbEntity
  8
9
  6
CONTINUOUS
 62
     7
100
AcDbLine
 10
245.2278783205525
 20
280.7882439254704
 30
0.0
 11
735.2278783205511
 21
280.7882439254718
 31
0.0
  0
LINE
  5
E3
330
1F
100
AcDbEntity
  8
9
  6
CONTINUOUS
 62
     7
100
AcDbLine
 10
240.2278783205525
 20
285.7882439254704
 30
0.0
 11
240.2278783205525
 21
295.7882439254704
 31
0.0
  0
ARC
  5
E4
330
1F
100
AcDbEntity
  8
9
  6
CONTINUOUS
 62
     7
100
AcDbCircle
 10
245.2278783205502
 20
285.7882439254704
 30
0.0
 40
5.0
100
AcDbArc
 50
179.9999999999998
 51
269.9999999999998
  0
CIRCLE
  5
E5
330
1F
100
AcDbEntity
  8
9
  6
CONTINUOUS
 62
     7
100
AcDbCircle
 10
715.2278783205525
 20
287.7882439254704
 30
0.0
 40
3.100000000000023
  0
CIRCLE
  5
E6
330
1F
100
AcDbEntity
  8
9
  6
CONTINUOUS
 62
     7
100
AcDbCircle
 10
602.7278783205525
 20
287.7882439254704
 30
0.0
 40
3.100000000000023
  0
CIRCLE
  5
E7
330
1F
100
AcDbEntity
  8
9
  6
CONTINUOUS
 62
     7
100
AcDbCircle
 10
377.7278783205511
 20
287.7882439254704
 30
0.0
 40
3.100000000000023
  0
CIRCLE
  5
E8
330
1F
100
AcDbEntity
  8
9
  6
CONTINUOUS
 62
     7
100
AcDbCircle
 10
265.2278783205525
 20
287.7882439254704
 30
0.0
 40
3.100000000000023
  0
LINE
  5
E9
330
1F
100
AcDbEntity
  8
9
  6
CONTINUOUS
 62
     7
100
AcDbLine
 10
740.2278783205525
 20
635.7882439254695
 30
0.0
 11
740.2278783205525
 21
625.7882439254695
 31
0.0
  0
ARC
  5
EA
330
1F
100
AcDbEntity
  8
9
  6
CONTINUOUS
 62
     7
100
AcDbCircle
 10
735.2278783205525
 20
635.7882439254695
 30
0.0
 40
5.0
100
AcDbArc
 50
0.0
 51
89.99999999999991
  0
LINE
  5
EB
330
1F
100
AcDbEntity
  8
9
  6
CONTINUOUS
 62
     7
100
AcDbLine
 10
245.2278783205525
 20
640.7882439254697
 30
0.0
 11
735.2278783205525
 21
640.7882439254681
 31
0.0
  0
LINE
  5
EC
330
1F
100
AcDbEntity
  8
9
  6
CONTINUOUS
 62
     7
100
AcDbLine
 10
240.2278783205525
 20
635.7882439254697
 30
0.0
 11
240.2278783205525
 21
625.7882439254695
 31
0.0
  0
ARC
  5
ED
330
1F
100
AcDbEntity
  8
9
  6
CONTINUOUS
 62
     7
100
AcDbCircle
 10
245.2278783205502
 20
635.7882439254697
 30
0.0
 40
5.0
100
AcDbArc
 50
89.99999999999991
 51
179.9999999999998
  0
CIRCLE
  5
EE
330
1F
100
AcDbEntity
  8
9
  6
CONTINUOUS
 62
     7
100
AcDbCircle
 10
715.2278783205525
 20
633.7882439254695
 30
0.0
 40
3.100000000000023
  0
CIRCLE
  5
EF
330
1F
100
AcDbEntity
  8
9
  6
CONTINUOUS
 62
     7
100
AcDbCircle
 10
602.7278783205525
 20
633.7882439254695
 30
0.0
 40
3.100000000000023
  0
CIRCLE
  5
F0
330
1F
100
AcDbEntity
  8
9
  6
CONTINUOUS
 62
     7
100
AcDbCircle
 10
377.7278783205511
 20
633.7882439254697
 30
0.0
 40
3.100000000000023
  0
CIRCLE
  5
F1
330
1F
100
AcDbEntity
  8
9
  6
CONTINUOUS
 62
     7
100
AcDbCircle
 10
265.2278783205525
 20
633.7882439254697
 30
0.0
 40
3.100000000000023
  0
DIMENSION
  5
FE
330
1F
100
AcDbEntity
  8
8
  6
CONTINUOUS
 62
     4
100
AcDbDimension
  2
DIM1
 10
715.2278783205525
 20
242.6787746970872
 30
0.0
 11
670.2278783205525
 21
247.1787746970872
 31
0.0
 70
   160
  1
<>
  3
STANDARD
100
AcDbAlignedDimension
 13
602.7278783205525
 23
277.1882439254707
 33
0.0
 14
715.2278783205525
 24
277.1882439254707
 34
0.0
100
AcDbRotatedDimension
1001
ACAD
1000
DSTYLE
1002
{
1070
   287
1070
     4
1070
     7
1000

1070
     6
1000

1070
   279
1070
     1
1070
   340
1005
F2
1070
   140
1040
9.0
1070
    40
1040
1.0
1070
   147
1040
0.0
1070
    76
1070
     0
1070
    75
1070
     0
1070
   173
1070
     1
1070
   289
1070
     2
1070
   288
1070
     1
1070
    77
1070
     1
1070
   172
1070
     1
1070
   174
1070
     0
1070
    74
1070
     0
1070
    73
1070
     0
1070
   284
1070
     8
1070
    78
1070
     8
1070
    42
1040
3.0
1070
    44
1040
4.5
1070
    43
1040
30.0
1070
   271
1070
     2
1070
    41
1040
6.0
1002
}
  0
LINE
  5
FF
330
1F
100
AcDbEntity
  8
9
  6
CONTINUOUS
 62
     7
100
AcDbLine
 10
1032.616401323368
 20
295.4715772588061
 30
0.0
 11
1025.716401323367
 21
295.4715772588061
 31
0.0
  0
ARC
  5
100
330
1F
100
AcDbEntity
  8
9
  6
CONTINUOUS
 62
     7
100
AcDbCircle
 10
1029.166401323368
 20
298.438594802665
 30
0.0
 40
4.550350877193068
100
AcDbArc
 50
220.6956985253633
 51
319.304301474636
  0
LINE
  5
101
330
1F
100
AcDbEntity
  8
9
  6
CONTINUOUS
 62
     7
100
AcDbLine
 10
1032.616401323368
 20
295.7882439254718
 30
0.0
 11
1032.616401323368
 21
295.4715772588061
 31
0.0
  0
LINE
  5
102
330
1F
100
AcDbEntity
  8
9
  6
CONTINUOUS
 62
     7
100
AcDbLine
 10
1025.716401323367
 20
295.7882439254718
 30
0.0
 11
1025.716401323367
 21
295.4715772588061
 31
0.0
  0
LINE
  5
103
330
1F
100
AcDbEntity
  8
9
  6
CONTINUOUS
 62
     7
100
AcDbLine
 10
994.1664013233681
 20
625.7882439254718
 30
0.0
 11
994.1664013233681
 21
295.7882439254718
 31
0.0
  0
LINE
  5
104
330
1F
100
AcDbEntity
  8
9
  6
CONTINUOUS
 62
     7
100
AcDbLine
 10
1039.166401323368
 20
640.7882439254718
 30
0.0
 11
1039.166401323368
 21
280.7882439254718
 31
0.0
  0
LINE
  5
105
330
1F
100
AcDbEntity
  8
9
  6
CONTINUOUS
 62
     7
100
AcDbLine
 10
1038.166401323368
 20
640.7882439254718
 30
0.0
 11
1038.166401323366
 21
280.7882439254718
 31
0.0
  0
LINE
  5
106
330
1F
100
AcDbEntity
  8
9
  6
CONTINUOUS
 62
     7
100
AcDbLine
 10
994.1664013233681
 20
625.7882439254718
 30
0.0
 11
1038.166401323368
 21
625.7882439254699
 31
0.0
  0
LINE
  5
107
330
1F
100
AcDbEntity
  8
9
  6
CONTINUOUS
 62
     7
100
AcDbLine
 10
1038.166401323368
 20
624.7882439254699
 30
0.0
 11
1039.166401323368
 21
624.7882439254699
 31
0.0
  0
LINE
  5
108
330
1F
100
AcDbEntity
  8
9
  6
CONTINUOUS
 62
     7
100
AcDbLine
 10
1038.166401323368
 20
640.7882439254718
 30
0.0
 11
1039.166401323368
 21
640.7882439254718
 31
0.0
  0
LINE
  5
109
330
1F
100
AcDbEntity
  8
9
  6
CONTINUOUS
 62
     7
100
AcDbLine
 10
994.1664013233681
 20
295.7882439254718
 30
0.0
 11
1038.166401323366
 21
295.7882439254718
 31
0.0
  0
LINE
  5
10A
330
1F
100
AcDbEntity
  8
9
  6
CONTINUOUS
 62
     7
100
AcDbLine
 10
1038.166401323366
 20
296.7882439254718
 30
0.0
 11
1039.166401323368
 21
296.7882439254718
 31
0.0
  0
LINE
  5
10B
330
1F
100
AcDbEntity
  8
9
  6
CONTINUOUS
 62
     7
100
AcDbLine
 10
1038.166401323368
 20
280.7882439254718
 30
0.0
 11
1039.166401323368
 21
280.7882439254718
 31
0.0
  0
LINE
  5
10C
330
1F
100
AcDbEntity
  8
9
  6
CONTINUOUS
 62
     7
100
AcDbLine
 10
1005.666401323368
 20
483.7882439254718
 30
0.0
 11
1038.166401323368
 21
483.7882439254718
 31
0.0
  0
LINE
  5
10D
330
1F
100
AcDbEntity
  8
9
  6
CONTINUOUS
 62
     7
100
AcDbLine
 10
1005.666401323368
 20
483.7882439254718
 30
0.0
 11
1005.666401323368
 21
437.7882439254718
 31
0.0
  0
LINE
  5
10E
330
1F
100
AcDbEntity
  8
9
  6
CONTINUOUS
 62
     7
100
AcDbLine
 10
1005.666401323368
 20
437.7882439254718
 30
0.0
 11
1038.166401323367
 21
437.7882439254718
 31
0.0
  0
LINE
  5
10F
330
1F
100
AcDbEntity
  8
9
  6
CONTINUOUS
 62
     7
100
AcDbLine
 10
1032.516401323369
 20
433.5222372860007
 30
0.0
 11
1032.516401323369
 21
426.2882439254699
 31
0.0
  0
LINE
  5
110
330
1F
100
AcDbEntity
  8
3
  6
CONTINUOUS
 62
     3
100
AcDbLine
 10
1031.977939784906
 20
430.9882439254688
 30
0.0
 11
1032.516401323367
 21
431.9208866680073
 31
0.0
  0
LINE
  5
111
330
1F
100
AcDbEntity
  8
9
  6
CONTINUOUS
 62
     7
100
AcDbLine
 10
1031.716401323367
 20
425.4882439254688
 30
0.0
 11
1032.516401323369
 21
426.2882439254699
 31
0.0
  0
LINE
  5
112
330
1F
100
AcDbEntity
  8
3
  6
CONTINUOUS
 62
     3
100
AcDbLine
 10
1031.977939784906
 20
430.9882439254688
 30
0.0
 11
1031.977939784906
 21
425.7497823870071
 31
0.0
  0
LINE
  5
113
330
1F
100
AcDbEntity
  8
9
  6
CONTINUOUS
 62
     7
100
AcDbLine
 10
1036.166401323368
 20
435.4882439254689
 30
0.0
 11
1036.166401323368
 21
437.7882439254699
 31
0.0
  0
LINE
  5
114
330
1F
100
AcDbEntity
  8
9
  6
CONTINUOUS
 62
     7
100
AcDbLine
 10
1007.166401323368
 20
435.4882439254689
 30
0.0
 11
1007.166401323368
 21
437.7882439254699
 31
0.0
  0
LINE
  5
115
330
1F
100
AcDbEntity
  8
3
  6
CONTINUOUS
 62
     3
100
AcDbLine
 10
1011.354862861829
 20
430.9882439254688
 30
0.0
 11
1010.816401323368
 21
431.9208866680073
 31
0.0
  0
LINE
  5
116
330
1F
100
AcDbEntity
  8
9
  6
CONTINUOUS
 62
     7
100
AcDbLine
 10
1036.166401323368
 20
435.4882439254689
 30
0.0
 11
1007.166401323368
 21
435.4882439254689
 31
0.0
  0
LINE
  5
117
330
1F
100
AcDbEntity
  8
9
  6
CONTINUOUS
 62
     7
100
AcDbLine
 10
1010.816401323368
 20
430.9882439254688
 30
0.0
 11
1032.516401323369
 21
430.9882439254688
 31
0.0
  0
LINE
  5
118
330
1F
100
AcDbEntity
  8
9
  6
CONTINUOUS
 62
     7
100
AcDbLine
 10
1011.616401323367
 20
425.4882439254688
 30
0.0
 11
1010.816401323368
 21
426.2882439254699
 31
0.0
  0
LINE
  5
119
330
1F
100
AcDbEntity
  8
9
  6
CONTINUOUS
 62
     7
100
AcDbLine
 10
1010.816401323368
 20
426.2882439254699
 30
0.0
 11
1032.516401323369
 21
426.2882439254699
 31
0.0
  0
LINE
  5
11A
330
1F
100
AcDbEntity
  8
9
  6
CONTINUOUS
 62
     7
100
AcDbLine
 10
1010.816401323368
 20
433.5149587566812
 30
0.0
 11
1010.816401323368
 21
426.2882439254699
 31
0.0
  0
LINE
  5
11B
330
1F
100
AcDbEntity
  8
3
  6
CONTINUOUS
 62
     3
100
AcDbLine
 10
1011.354862861829
 20
430.9882439254688
 30
0.0
 11
1011.354862861829
 21
425.7497823870071
 31
0.0
  0
LINE
  5
11C
330
1F
100
AcDbEntity
  8
9
  6
CONTINUOUS
 62
     7
100
AcDbLine
 10
1011.616401323367
 20
425.4882439254688
 30
0.0
 11
1031.716401323367
 21
425.4882439254688
 31
0.0
  0
LINE
  5
11D
330
1F
100
AcDbEntity
  8
9
  6
CONTINUOUS
 62
     7
100
AcDbLine
 10
1035.955423455719
 20
435.4882439254689
 30
0.0
 11
1030.455423455719
 21
435.4882439254689
 31
0.0
  0
ARC
  5
11E
330
1F
100
AcDbEntity
  8
9
  6
CONTINUOUS
 62
     7
100
AcDbCircle
 10
1033.205423455719
 20
440.4882439254689
 30
0.0
 40
7.0
100
AcDbArc
 50
253.448644000063
 51
286.5513559999091
  0
LINE
  5
11F
330
1F
100
AcDbEntity
  8
9
  6
CONTINUOUS
 62
     7
100
AcDbLine
 10
1035.955423455719
 20
435.4882439254689
 30
0.0
 11
1035.913301455718
 21
434.684518925469
 31
0.0
  0
ARC
  5
120
330
1F
100
AcDbEntity
  8
9
  6
CONTINUOUS
 62
     7
100
AcDbCircle
 10
1034.914671455718
 20
434.7368549254697
 30
0.0
 40
1.0
100
AcDbArc
 50
286.5513559999089
 51
356.9999999999942
  0
LINE
  5
121
330
1F
100
AcDbEntity
  8
9
  6
CONTINUOUS
 62
     7
100
AcDbLine
 10
1030.455423455719
 20
435.4882439254689
 30
0.0
 11
1030.497545455718
 21
434.684518925469
 31
0.0
  0
ARC
  5
122
330
1F
100
AcDbEntity
  8
9
  6
CONTINUOUS
 62
     7
100
AcDbCircle
 10
1031.496175455718
 20
434.7368549254697
 30
0.0
 40
1.0
100
AcDbArc
 50
183.0000000000051
 51
253.4486440000627
  0
LINE
  5
123
330
1F
100
AcDbEntity
  8
9
  6
CONTINUOUS
 62
     7
100
AcDbLine
 10
1012.955423455719
 20
435.4882439254689
 30
0.0
 11
1007.455423455719
 21
435.4882439254689
 31
0.0
  0
ARC
  5
124
330
1F
100
AcDbEntity
  8
9
  6
CONTINUOUS
 62
     7
100
AcDbCircle
 10
1010.205423455719
 20
440.4882439254689
 30
0.0
 40
7.0
100
AcDbArc
 50
253.448644000063
 51
286.5513559999091
  0
LINE
  5
125
330
1F
100
AcDbEntity
  8
9
  6
CONTINUOUS
 62
     7
100
AcDbLine
 10
1012.955423455719
 20
435.4882439254689
 30
0.0
 11
1012.913301455718
 21
434.684518925469
 31
0.0
  0
ARC
  5
126
330
1F
100
AcDbEntity
  8
9
  6
CONTINUOUS
 62
     7
100
AcDbCircle
 10
1011.914671455718
 20
434.7368549254697
 30
0.0
 40
1.0
100
AcDbArc
 50
286.5513559999089
 51
356.9999999999939
  0
LINE
  5
127
330
1F
100
AcDbEntity
  8
9
  6
CONTINUOUS
 62
     7
100
AcDbLine
 10
1007.455423455719
 20
435.4882439254689
 30
0.0
 11
1007.497545455718
 21
434.684518925469
 31
0.0
  0
ARC
  5
128
330
1F
100
AcDbEntity
  8
9
  6
CONTINUOUS
 62
     7
100
AcDbCircle
 10
1008.496175455718
 20
434.7368549254697
 30
0.0
 40
1.0
100
AcDbArc
 50
183.0000000000054
 51
253.4486440000627
  0
ARC
  5
129
330
1F
100
AcDbEntity
  8
9
  6
CONTINUOUS
 62
     7
100
AcDbCircle
 10
1028.366401323368
 20
497.9882439254707
 30
0.0
 40
0.5
100
AcDbArc
 50
0.0
 51
89.99999999999991
  0
ARC
  5
12A
330
1F
100
AcDbEntity
  8
9
  6
CONTINUOUS
 62
     7
100
AcDbCircle
 10
1029.966401323368
 20
497.9882439254707
 30
0.0
 40
0.5
100
AcDbArc
 50
89.99999999999991
 51
179.9999999999998
  0
CIRCLE
  5
12B
330
1F
100
AcDbEntity
  8
9
  6
CONTINUOUS
 62
     7
100
AcDbCircle
 10
1029.166401323368
 20
498.7882439254699
 30
0.0
 40
3.450000000000045
  0
LINE
  5
12C
330
1F
100
AcDbEntity
  8
9
  6
CONTINUOUS
 62
     7
100
AcDbLine
 10
1028.866401323368
 20
497.9882439254707
 30
0.0
 11
1028.866401323368
 21
497.3382439254692
 31
0.0
  0
LINE
  5
12D
330
1F
100
AcDbEntity
  8
9
  6
CONTINUOUS
 62
     7
100
AcDbLine
 10
1029.466401323368
 20
497.9882439254707
 30
0.0
 11
1029.466401323368
 21
497.3382439254692
 31
0.0
  0
LINE
  5
12E
330
1F
100
AcDbEntity
  8
9
  6
CONTINUOUS
 62
     7
100
AcDbLine
 10
1028.866401323368
 20
497.3382439254692
 30
0.0
 11
1029.466401323368
 21
497.3382439254692
 31
0.0
  0
LINE
  5
12F
330
1F
100
AcDbEntity
  8
9
  6
CONTINUOUS
 62
     7
100
AcDbLine
 10
1028.366401323368
 20
499.0882439254692
 30
0.0
 11
1027.716401323368
 21
499.0882439254692
 31
0.0
  0
LINE
  5
130
330
1F
100
AcDbEntity
  8
9
  6
CONTINUOUS
 62
     7
100
AcDbLine
 10
1028.366401323368
 20
498.4882439254706
 30
0.0
 11
1027.716401323368
 21
498.4882439254706
 31
0.0
  0
ARC
  5
131
330
1F
100
AcDbEntity
  8
9
  6
CONTINUOUS
 62
     7
100
AcDbCircle
 10
1029.966401323368
 20
499.5882439254692
 30
0.0
 40
0.5
100
AcDbArc
 50
179.9999999999998
 51
269.9999999999998
  0
ARC
  5
132
330
1F
100
AcDbEntity
  8
9
  6
CONTINUOUS
 62
     7
100
AcDbCircle
 10
1028.366401323368
 20
499.5882439254692
 30
0.0
 40
0.5
100
AcDbArc
 50
269.9999999999998
 51
0.0
  0
LINE
  5
133
330
1F
100
AcDbEntity
  8
9
  6
CONTINUOUS
 62
     7
100
AcDbLine
 10
1029.466401323368
 20
499.5882439254692
 30
0.0
 11
1029.466401323368
 21
500.2382439254707
 31
0.0
  0
LINE
  5
134
330
1F
100
AcDbEntity
  8
9
  6
CONTINUOUS
 62
     7
100
AcDbLine
 10
1028.866401323368
 20
499.5882439254692
 30
0.0
 11
1028.866401323368
 21
500.2382439254707
 31
0.0
  0
LINE
  5
135
330
1F
100
AcDbEntity
  8
9
  6
CONTINUOUS
 62
     7
100
AcDbLine
 10
1029.966401323368
 20
499.0882439254692
 30
0.0
 11
1030.616401323368
 21
499.0882439254692
 31
0.0
  0
LINE
  5
136
330
1F
100
AcDbEntity
  8
9
  6
CONTINUOUS
 62
     7
100
AcDbLine
 10
1029.966401323368
 20
498.4882439254706
 30
0.0
 11
1030.616401323368
 21
498.4882439254706
 31
0.0
  0
LINE
  5
137
330
1F
100
AcDbEntity
  8
9
  6
CONTINUOUS
 62
     7
100
AcDbLine
 10
1030.616401323368
 20
498.4882439254706
 30
0.0
 11
1030.616401323368
 21
499.0882439254692
 31
0.0
  0
LINE
  5
138
330
1F
100
AcDbEntity
  8
9
  6
CONTINUOUS
 62
     7
100
AcDbLine
 10
1029.466401323368
 20
500.2382439254707
 30
0.0
 11
1028.866401323368
 21
500.2382439254707
 31
0.0
  0
LINE
  5
139
330
1F
100
AcDbEntity
  8
9
  6
CONTINUOUS
 62
     7
100
AcDbLine
 10
1027.716401323368
 20
499.0882439254692
 30
0.0
 11
1027.716401323368
 21
498.4882439254706
 31
0.0
  0
ARC
  5
13A
330
1F
100
AcDbEntity
  8
9
  6
CONTINUOUS
 62
     7
100
AcDbCircle
 10
1028.366401323368
 20
421.9882439254707
 30
0.0
 40
0.5
100
AcDbArc
 50
0.0
 51
89.99999999999991
  0
ARC
  5
13B
330
1F
100
AcDbEntity
  8
9
  6
CONTINUOUS
 62
     7
100
AcDbCircle
 10
1029.966401323368
 20
421.9882439254707
 30
0.0
 40
0.5
100
AcDbArc
 50
89.99999999999991
 51
179.9999999999998
  0
ARC
  5
13C
330
1F
100
AcDbEntity
  8
9
  6
CONTINUOUS
 62
     7
100
AcDbCircle
 10
1029.166401323368
 20
422.7882439254701
 30
0.0
 40
3.450000000000045
100
AcDbArc
 50
128.4999504092908
 51
51.50004959070922
  0
LINE
  5
13D
330
1F
100
AcDbEntity
  8
9
  6
CONTINUOUS
 62
     7
100
AcDbLine
 10
1028.866401323368
 20
421.9882439254707
 30
0.0
 11
1028.866401323368
 21
421.3382439254692
 31
0.0
  0
LINE
  5
13E
330
1F
100
AcDbEntity
  8
9
  6
CONTINUOUS
 62
     7
100
AcDbLine
 10
1029.466401323368
 20
421.9882439254707
 30
0.0
 11
1029.466401323368
 21
421.3382439254692
 31
0.0
  0
LINE
  5
13F
330
1F
100
AcDbEntity
  8
9
  6
CONTINUOUS
 62
     7
100
AcDbLine
 10
1028.866401323368
 20
421.3382439254692
 30
0.0
 11
1029.466401323368
 21
421.3382439254692
 31
0.0
  0
LINE
  5
140
330
1F
100
AcDbEntity
  8
9
  6
CONTINUOUS
 62
     7
100
AcDbLine
 10
1028.366401323368
 20
423.0882439254692
 30
0.0
 11
1027.716401323368
 21
423.0882439254692
 31
0.0
  0
LINE
  5
141
330
1F
100
AcDbEntity
  8
9
  6
CONTINUOUS
 62
     7
100
AcDbLine
 10
1028.366401323368
 20
422.4882439254707
 30
0.0
 11
1027.716401323368
 21
422.4882439254707
 31
0.0
  0
ARC
  5
142
330
1F
100
AcDbEntity
  8
9
  6
CONTINUOUS
 62
     7
100
AcDbCircle
 10
1029.966401323368
 20
423.5882439254692
 30
0.0
 40
0.5
100
AcDbArc
 50
179.9999999999998
 51
269.9999999999998
  0
ARC
  5
143
330
1F
100
AcDbEntity
  8
9
  6
CONTINUOUS
 62
     7
100
AcDbCircle
 10
1028.366401323368
 20
423.5882439254692
 30
0.0
 40
0.5
100
AcDbArc
 50
269.9999999999998
 51
0.0
  0
LINE
  5
144
330
1F
100
AcDbEntity
  8
9
  6
CONTINUOUS
 62
     7
100
AcDbLine
 10
1029.466401323368
 20
423.5882439254692
 30
0.0
 11
1029.466401323368
 21
424.2382439254707
 31
0.0
  0
LINE
  5
145
330
1F
100
AcDbEntity
  8
9
  6
CONTINUOUS
 62
     7
100
AcDbLine
 10
1028.866401323368
 20
423.5882439254692
 30
0.0
 11
1028.866401323368
 21
424.2382439254707
 31
0.0
  0
LINE
  5
146
330
1F
100
AcDbEntity
  8
9
  6
CONTINUOUS
 62
     7
100
AcDbLine
 10
1029.966401323368
 20
423.0882439254692
 30
0.0
 11
1030.616401323368
 21
423.0882439254692
 31
0.0
  0
LINE
  5
147
330
1F
100
AcDbEntity
  8
9
  6
CONTINUOUS
 62
     7
100
AcDbLine
 10
1029.966401323368
 20
422.4882439254707
 30
0.0
 11
1030.616401323368
 21
422.4882439254707
 31
0.0
  0
LINE
  5
148
330
1F
100
AcDbEntity
  8
9
  6
CONTINUOUS
 62
     7
100
AcDbLine
 10
1030.616401323368
 20
422.4882439254707
 30
0.0
 11
1030.616401323368
 21
423.0882439254692
 31
0.0
  0
LINE
  5
149
330
1F
100
AcDbEntity
  8
9
  6
CONTINUOUS
 62
     7
100
AcDbLine
 10
1029.466401323368
 20
424.2382439254707
 30
0.0
 11
1028.866401323368
 21
424.2382439254707
 31
0.0
  0
LINE
  5
14A
330
1F
100
AcDbEntity
  8
9
  6
CONTINUOUS
 62
     7
100
AcDbLine
 10
1027.716401323368
 20
423.0882439254692
 30
0.0
 11
1027.716401323368
 21
422.4882439254707
 31
0.0
  0
LINE
  5
14B
330
1F
100
AcDbEntity
  8
9
  6
CONTINUOUS
 62
     7
100
AcDbLine
 10
1032.616401323368
 20
626.1049105921375
 30
0.0
 11
1025.716401323367
 21
626.1049105921375
 31
0.0
  0
ARC
  5
14C
330
1F
100
AcDbEntity
  8
9
  6
CONTINUOUS
 62
     7
100
AcDbCircle
 10
1029.166401323368
 20
623.1378930482788
 30
0.0
 40
4.550350877193068
100
AcDbArc
 50
40.69569852533728
 51
139.3043014746627
  0
LINE
  5
14D
330
1F
100
AcDbEntity
  8
9
  6
CONTINUOUS
 62
     7
100
AcDbLine
 10
1032.616401323368
 20
625.7882439254718
 30
0.0
 11
1032.616401323368
 21
626.1049105921375
 31
0.0
  0
LINE
  5
14E
330
1F
100
AcDbEntity
  8
9
  6
CONTINUOUS
 62
     7
100
AcDbLine
 10
1025.716401323367
 20
625.7882439254718
 30
0.0
 11
1025.716401323367
 21
626.1049105921375
 31
0.0
  0
LINE
  5
14F
330
1F
100
AcDbEntity
  8
9
  6
CONTINUOUS
 62
     7
100
AcDbLine
 10
741.7778783205508
 20
626.104910592137
 30
0.0
 11
748.6778783205514
 21
626.104910592137
 31
0.0
  0
ARC
  5
150
330
1F
100
AcDbEntity
  8
9
  6
CONTINUOUS
 62
     7
100
AcDbCircle
 10
745.2278783205502
 20
623.1378930482774
 30
0.0
 40
4.550350877192955
100
AcDbArc
 50
40.69569852539923
 51
139.3043014746008
  0
LINE
  5
151
330
1F
100
AcDbEntity
  8
9
  6
CONTINUOUS
 62
     7
100
AcDbLine
 10
741.7778783205508
 20
625.7882439254704
 30
0.0
 11
741.7778783205508
 21
626.104910592137
 31
0.0
  0
LINE
  5
152
330
1F
100
AcDbEntity
  8
9
  6
CONTINUOUS
 62
     7
100
AcDbLine
 10
748.6778783205514
 20
625.7882439254704
 30
0.0
 11
748.6778783205514
 21
626.104910592137
 31
0.0
  0
LINE
  5
153
330
1F
100
AcDbEntity
  8
9
  6
CONTINUOUS
 62
     7
100
AcDbLine
 10
720.2778783205508
 20
626.104910592137
 30
0.0
 11
727.1778783205514
 21
626.104910592137
 31
0.0
  0
ARC
  5
154
330
1F
100
AcDbEntity
  8
9
  6
CONTINUOUS
 62
     7
100
AcDbCircle
 10
723.7278783205502
 20
623.1378930482774
 30
0.0
 40
4.550350877192955
100
AcDbArc
 50
40.69569852539923
 51
139.3043014746008
  0
LINE
  5
155
330
1F
100
AcDbEntity
  8
9
  6
CONTINUOUS
 62
     7
100
AcDbLine
 10
720.2778783205508
 20
625.7882439254704
 30
0.0
 11
720.2778783205508
 21
626.104910592137
 31
0.0
  0
LINE
  5
156
330
1F
100
AcDbEntity
  8
9
  6
CONTINUOUS
 62
     7
100
AcDbLine
 10
727.1778783205514
 20
625.7882439254704
 30
0.0
 11
727.1778783205514
 21
626.104910592137
 31
0.0
  0
LINE
  5
157
330
1F
100
AcDbEntity
  8
9
  6
CONTINUOUS
 62
     7
100
AcDbLine
 10
224.9112116538849
 20
389.2382439254685
 30
0.0
 11
224.9112116538849
 21
382.3382439254688
 31
0.0
  0
ARC
  5
158
330
1F
100
AcDbEntity
  8
9
  6
CONTINUOUS
 62
     7
100
AcDbCircle
 10
227.8782291977441
 20
385.7882439254695
 30
0.0
 40
4.550350877192983
100
AcDbArc
 50
130.6956985253984
 51
229.3043014746012
  0
LINE
  5
159
330
1F
100
AcDbEntity
  8
9
  6
CONTINUOUS
 62
     7
100
AcDbLine
 10
225.2278783205511
 20
389.2382439254685
 30
0.0
 11
224.9112116538849
 21
389.2382439254685
 31
0.0
  0
LINE
  5
15A
330
1F
100
AcDbEntity
  8
9
  6
CONTINUOUS
 62
     7
100
AcDbLine
 10
225.2278783205511
 20
382.3382439254688
 30
0.0
 11
224.9112116538849
 21
382.3382439254688
 31
0.0
  0
LINE
  5
15B
330
1F
100
AcDbEntity
  8
9
  6
CONTINUOUS
 62
     7
100
AcDbLine
 10
238.6778783205523
 20
295.4715772588029
 30
0.0
 11
231.7778783205531
 21
295.4715772588029
 31
0.0
  0
ARC
  5
15C
330
1F
100
AcDbEntity
  8
9
  6
CONTINUOUS
 62
     7
100
AcDbCircle
 10
235.2278783205534
 20
298.4385948026625
 30
0.0
 40
4.550350877192983
100
AcDbArc
 50
220.6956985253985
 51
319.3043014745933
  0
LINE
  5
15D
330
1F
100
AcDbEntity
  8
9
  6
CONTINUOUS
 62
     7
100
AcDbLine
 10
238.6778783205523
 20
295.7882439254695
 30
0.0
 11
238.6778783205523
 21
295.4715772588029
 31
0.0
  0
LINE
  5
15E
330
1F
100
AcDbEntity
  8
9
  6
CONTINUOUS
 62
     7
100
AcDbLine
 10
231.7778783205531
 20
295.7882439254695
 30
0.0
 11
231.7778783205531
 21
295.4715772588029
 31
0.0
  0
LINE
  5
15F
330
1F
100
AcDbEntity
  8
9
  6
CONTINUOUS
 62
     7
100
AcDbLine
 10
260.1778783205523
 20
295.4715772588029
 30
0.0
 11
253.2778783205531
 21
295.4715772588029
 31
0.0
  0
ARC
  5
160
330
1F
100
AcDbEntity
  8
9
  6
CONTINUOUS
 62
     7
100
AcDbCircle
 10
256.7278783205543
 20
298.4385948026625
 30
0.0
 40
4.550350877192955
100
AcDbArc
 50
220.6956985253985
 51
319.3043014745933
  0
LINE
  5
161
330
1F
100
AcDbEntity
  8
9
  6
CONTINUOUS
 62
     7
100
AcDbLine
 10
260.1778783205523
 20
295.7882439254695
 30
0.0
 11
260.1778783205523
 21
295.4715772588029
 31
0.0
  0
LINE
  5
162
330
1F
100
AcDbEntity
  8
9
  6
CONTINUOUS
 62
     7
100
AcDbLine
 10
253.2778783205531
 20
295.7882439254695
 30
0.0
 11
253.2778783205531
 21
295.4715772588029
 31
0.0
  0
LINE
  5
163
330
1F
100
AcDbEntity
  8
9
  6
CONTINUOUS
 62
     7
100
AcDbLine
 10
741.7778783205508
 20
295.4715772588029
 30
0.0
 11
748.6778783205514
 21
295.4715772588029
 31
0.0
  0
ARC
  5
164
330
1F
100
AcDbEntity
  8
9
  6
CONTINUOUS
 62
     7
100
AcDbCircle
 10
745.2278783205502
 20
298.4385948026625
 30
0.0
 40
4.550350877192955
100
AcDbArc
 50
220.6956985253983
 51
319.304301474601
  0
LINE
  5
165
330
1F
100
AcDbEntity
  8
9
  6
CONTINUOUS
 62
     7
100
AcDbLine
 10
741.7778783205508
 20
295.7882439254695
 30
0.0
 11
741.7778783205508
 21
295.4715772588029
 31
0.0
  0
LINE
  5
166
330
1F
100
AcDbEntity
  8
9
  6
CONTINUOUS
 62
     7
100
AcDbLine
 10
748.6778783205514
 20
295.7882439254695
 30
0.0
 11
748.6778783205514
 21
295.4715772588029
 31
0.0
  0
LINE
  5
167
330
1F
100
AcDbEntity
  8
9
  6
CONTINUOUS
 62
     7
100
AcDbLine
 10
720.2778783205508
 20
295.4715772588029
 30
0.0
 11
727.1778783205514
 21
295.4715772588029
 31
0.0
  0
ARC
  5
168
330
1F
100
AcDbEntity
  8
9
  6
CONTINUOUS
 62
     7
100
AcDbCircle
 10
723.7278783205502
 20
298.4385948026625
 30
0.0
 40
4.550350877192955
100
AcDbArc
 50
220.6956985253983
 51
319.304301474601
  0
LINE
  5
169
330
1F
100
AcDbEntity
  8
9
  6
CONTINUOUS
 62
     7
100
AcDbLine
 10
720.2778783205508
 20
295.7882439254695
 30
0.0
 11
720.2778783205508
 21
295.4715772588029
 31
0.0
  0
LINE
  5
16A
330
1F
100
AcDbEntity
  8
9
  6
CONTINUOUS
 62
     7
100
AcDbLine
 10
727.1778783205514
 20
295.7882439254695
 30
0.0
 11
727.1778783205514
 21
295.4715772588029
 31
0.0
  0
CIRCLE
  5
16B
330
1F
100
AcDbEntity
  8
9
  6
CONTINUOUS
 62
     7
100
AcDbCircle
 10
490.2278783205525
 20
287.7882439254704
 30
0.0
 40
3.100000000000023
  0
CIRCLE
  5
16C
330
1F
100
AcDbEntity
  8
9
  6
CONTINUOUS
 62
     7
100
AcDbCircle
 10
490.2278783205525
 20
633.7882439254697
 30
0.0
 40
3.100000000000023
  0
LINE
  5
16D
330
1F
100
AcDbEntity
  8
9
  6
CONTINUOUS
 62
     7
100
AcDbLine
 10
561.7778783205522
 20
626.104910592137
 30
0.0
 11
568.6778783205523
 21
626.104910592137
 31
0.0
  0
ARC
  5
16E
330
1F
100
AcDbEntity
  8
9
  6
CONTINUOUS
 62
     7
100
AcDbCircle
 10
565.2278783205511
 20
623.1378930482774
 30
0.0
 40
4.550350877192955
100
AcDbArc
 50
40.69569852539923
 51
139.3043014746008
  0
LINE
  5
16F
330
1F
100
AcDbEntity
  8
9
  6
CONTINUOUS
 62
     7
100
AcDbLine
 10
561.7778783205522
 20
625.7882439254704
 30
0.0
 11
561.7778783205522
 21
626.104910592137
 31
0.0
  0
LINE
  5
170
330
1F
100
AcDbEntity
  8
9
  6
CONTINUOUS
 62
     7
100
AcDbLine
 10
568.6778783205523
 20
625.7882439254704
 30
0.0
 11
568.6778783205523
 21
626.104910592137
 31
0.0
  0
LINE
  5
171
330
1F
100
AcDbEntity
  8
9
  6
CONTINUOUS
 62
     7
100
AcDbLine
 10
411.7778783205522
 20
626.104910592137
 30
0.0
 11
418.6778783205523
 21
626.104910592137
 31
0.0
  0
ARC
  5
172
330
1F
100
AcDbEntity
  8
9
  6
CONTINUOUS
 62
     7
100
AcDbCircle
 10
415.2278783205511
 20
623.1378930482774
 30
0.0
 40
4.550350877192955
100
AcDbArc
 50
40.6956985253997
 51
139.3043014746003
  0
LINE
  5
173
330
1F
100
AcDbEntity
  8
9
  6
CONTINUOUS
 62
     7
100
AcDbLine
 10
411.7778783205522
 20
625.7882439254704
 30
0.0
 11
411.7778783205522
 21
626.104910592137
 31
0.0
  0
LINE
  5
174
330
1F
100
AcDbEntity
  8
9
  6
CONTINUOUS
 62
     7
100
AcDbLine
 10
418.6778783205523
 20
625.7882439254704
 30
0.0
 11
418.6778783205523
 21
626.104910592137
 31
0.0
  0
LINE
  5
175
330
1F
100
AcDbEntity
  8
9
  6
CONTINUOUS
 62
     7
100
AcDbLine
 10
418.6778783205514
 20
295.4715772588029
 30
0.0
 11
411.7778783205508
 21
295.4715772588029
 31
0.0
  0
ARC
  5
176
330
1F
100
AcDbEntity
  8
9
  6
CONTINUOUS
 62
     7
100
AcDbCircle
 10
415.2278783205525
 20
298.4385948026625
 30
0.0
 40
4.550350877192955
100
AcDbArc
 50
220.6956985253988
 51
319.3043014745933
  0
LINE
  5
177
330
1F
100
AcDbEntity
  8
9
  6
CONTINUOUS
 62
     7
100
AcDbLine
 10
418.6778783205514
 20
295.7882439254695
 30
0.0
 11
418.6778783205514
 21
295.4715772588029
 31
0.0
  0
LINE
  5
178
330
1F
100
AcDbEntity
  8
9
  6
CONTINUOUS
 62
     7
100
AcDbLine
 10
411.7778783205508
 20
295.7882439254695
 30
0.0
 11
411.7778783205508
 21
295.4715772588029
 31
0.0
  0
LINE
  5
179
330
1F
100
AcDbEntity
  8
9
  6
CONTINUOUS
 62
     7
100
AcDbLine
 10
568.6778783205514
 20
295.4715772588029
 30
0.0
 11
561.7778783205508
 21
295.4715772588029
 31
0.0
  0
ARC
  5
17A
330
1F
100
AcDbEntity
  8
9
  6
CONTINUOUS
 62
     7
100
AcDbCircle
 10
565.2278783205525
 20
298.4385948026625
 30
0.0
 40
4.550350877192955
100
AcDbArc
 50
220.6956985253983
 51
319.3043014745929
  0
LINE
  5
17B
330
1F
100
AcDbEntity
  8
9
  6
CONTINUOUS
 62
     7
100
AcDbLine
 10
568.6778783205514
 20
295.7882439254695
 30
0.0
 11
568.6778783205514
 21
295.4715772588029
 31
0.0
  0
LINE
  5
17C
330
1F
100
AcDbEntity
  8
9
  6
CONTINUOUS
 62
     7
100
AcDbLine
 10
561.7778783205508
 20
295.7882439254695
 30
0.0
 11
561.7778783205508
 21
295.4715772588029
 31
0.0
  0
LINE
  5
17D
330
1F
100
AcDbEntity
  8
4
  6
DASHDOT
 62
     1
100
AcDbLine
 10
602.7278783205525
 20
623.1882439254698
 30
0.0
 11
602.7278783205525
 21
644.3882439254696
 31
0.0
  0
LINE
  5
17E
330
1F
100
AcDbEntity
  8
4
  6
DASHDOT
 62
     1
100
AcDbLine
 10
592.1278783205521
 20
633.7882439254695
 30
0.0
 11
613.3278783205519
 21
633.7882439254695
 31
0.0
  0
LINE
  5
17F
330
1F
100
AcDbEntity
  8
4
  6
DASHDOT
 62
     1
100
AcDbLine
 10
715.2278783205525
 20
623.1882439254698
 30
0.0
 11
715.2278783205525
 21
644.3882439254696
 31
0.0
  0
LINE
  5
180
330
1F
100
AcDbEntity
  8
4
  6
DASHDOT
 62
     1
100
AcDbLine
 10
704.6278783205521
 20
633.7882439254695
 30
0.0
 11
725.8278783205519
 21
633.7882439254695
 31
0.0
  0
LINE
  5
181
330
1F
100
AcDbEntity
  8
4
  6
DASHDOT
 62
     1
100
AcDbLine
 10
377.7278783205511
 20
623.1882439254698
 30
0.0
 11
377.7278783205511
 21
644.3882439254696
 31
0.0
  0
LINE
  5
182
330
1F
100
AcDbEntity
  8
4
  6
DASHDOT
 62
     1
100
AcDbLine
 10
367.1278783205521
 20
633.7882439254697
 30
0.0
 11
388.327878320551
 21
633.7882439254697
 31
0.0
  0
LINE
  5
183
330
1F
100
AcDbEntity
  8
4
  6
DASHDOT
 62
     1
100
AcDbLine
 10
265.2278783205511
 20
623.1882439254698
 30
0.0
 11
265.2278783205511
 21
644.3882439254696
 31
0.0
  0
LINE
  5
184
330
1F
100
AcDbEntity
  8
4
  6
DASHDOT
 62
     1
100
AcDbLine
 10
254.6278783205521
 20
633.7882439254697
 30
0.0
 11
275.8278783205519
 21
633.7882439254697
 31
0.0
  0
LINE
  5
185
330
1F
100
AcDbEntity
  8
4
  6
DASHDOT
 62
     1
100
AcDbLine
 10
715.2278783205525
 20
277.1882439254707
 30
0.0
 11
715.2278783205525
 21
298.3882439254705
 31
0.0
  0
LINE
  5
186
330
1F
100
AcDbEntity
  8
4
  6
DASHDOT
 62
     1
100
AcDbLine
 10
704.6278783205521
 20
287.7882439254704
 30
0.0
 11
725.8278783205519
 21
287.7882439254704
 31
0.0
  0
LINE
  5
187
330
1F
100
AcDbEntity
  8
4
  6
DASHDOT
 62
     1
100
AcDbLine
 10
602.7278783205525
 20
277.1882439254707
 30
0.0
 11
602.7278783205525
 21
298.3882439254705
 31
0.0
  0
LINE
  5
188
330
1F
100
AcDbEntity
  8
4
  6
DASHDOT
 62
     1
100
AcDbLine
 10
592.1278783205521
 20
287.7882439254704
 30
0.0
 11
613.3278783205519
 21
287.7882439254704
 31
0.0
  0
LINE
  5
189
330
1F
100
AcDbEntity
  8
4
  6
DASHDOT
 62
     1
100
AcDbLine
 10
377.7278783205511
 20
277.1882439254707
 30
0.0
 11
377.7278783205511
 21
298.3882439254705
 31
0.0
  0
LINE
  5
18A
330
1F
100
AcDbEntity
  8
4
  6
DASHDOT
 62
     1
100
AcDbLine
 10
367.1278783205521
 20
287.7882439254704
 30
0.0
 11
388.327878320551
 21
287.7882439254704
 31
0.0
  0
LINE
  5
18B
330
1F
100
AcDbEntity
  8
4
  6
DASHDOT
 62
     1
100
AcDbLine
 10
265.2278783205511
 20
277.1882439254707
 30
0.0
 11
265.2278783205511
 21
298.3882439254705
 31
0.0
  0
LINE
  5
18C
330
1F
100
AcDbEntity
  8
4
  6
DASHDOT
 62
     1
100
AcDbLine
 10
254.6278783205521
 20
287.7882439254704
 30
0.0
 11
275.8278783205519
 21
287.7882439254704
 31
0.0
  0
LINE
  5
18D
330
1F
100
AcDbEntity
  8
4
  6
DASHDOT
 62
     1
100
AcDbLine
 10
479.6278783205521
 20
287.7882439254704
 30
0.0
 11
500.8278783205519
 21
287.7882439254704
 31
0.0
  0
LINE
  5
18E
330
1F
100
AcDbEntity
  8
4
  6
DASHDOT
 62
     1
100
AcDbLine
 10
479.6278783205521
 20
633.7882439254697
 30
0.0
 11
500.8278783205519
 21
633.7882439254697
 31
0.0
  0
LINE
  5
18F
330
1F
100
AcDbEntity
  8
4
  6
DASHDOT
 62
     1
100
AcDbLine
 10
979.1664013233681
 20
460.7882439254692
 30
0.0
 11
1054.166401323368
 21
460.7882439254724
 31
0.0
  0
CIRCLE
  5
190
330
1F
100
AcDbEntity
  8
9
  6
CONTINUOUS
 62
     7
100
AcDbCircle
 10
490.2278783205552
 20
460.7882439254701
 30
0.0
 40
27.5
  0
CIRCLE
  5
191
330
1F
100
AcDbEntity
  8
3
  6
HIDDEN
 62
     3
100
AcDbCircle
 10
490.2278783205552
 20
460.7882439254701
 30
0.0
 40
32.5
  0
LINE
  5
192
330
1F
100
AcDbEntity
  8
3
  6
HIDDEN
 62
     3
100
AcDbLine
 10
1039.166401323368
 20
488.2882439254715
 30
0.0
 11
994.1664013233681
 21
488.2882439254715
 31
0.0
  0
LINE
  5
193
330
1F
100
AcDbEntity
  8
3
  6
HIDDEN
 62
     3
100
AcDbLine
 10
1038.166401323367
 20
493.2882439254715
 30
0.0
 11
1000.166401323368
 21
493.2882439254715
 31
0.0
  0
LINE
  5
194
330
1F
100
AcDbEntity
  8
3
  6
HIDDEN
 62
     3
100
AcDbLine
 10
1039.166401323368
 20
433.2882439254715
 30
0.0
 11
994.1664013233681
 21
433.2882439254715
 31
0.0
  0
LINE
  5
195
330
1F
100
AcDbEntity
  8
3
  6
HIDDEN
 62
     3
100
AcDbLine
 10
1038.166401323367
 20
428.2882439254715
 30
0.0
 11
1000.166401323368
 21
428.2882439254715
 31
0.0
  0
LINE
  5
196
330
1F
100
AcDbEntity
  8
3
  6
HIDDEN
 62
     3
100
AcDbLine
 10
995.1664013233681
 20
622.788243925472
 30
0.0
 11
995.1664013233681
 21
298.788243925472
 31
0.0
  0
LINE
  5
197
330
1F
100
AcDbEntity
  8
3
  6
HIDDEN
 62
     3
100
AcDbLine
 10
1000.166401323368
 20
622.788243925472
 30
0.0
 11
1000.166401323368
 21
298.788243925472
 31
0.0
  0
LINE
  5
198
330
1F
100
AcDbEntity
  8
3
  6
HIDDEN
 62
     3
100
AcDbLine
 10
995.1664013233681
 20
622.788243925472
 30
0.0
 11
1000.166401323368
 21
622.788243925472
 31
0.0
  0
LINE
  5
199
330
1F
100
AcDbEntity
  8
3
  6
HIDDEN
 62
     3
100
AcDbLine
 10
995.1664013233681
 20
298.788243925472
 30
0.0
 11
1000.166401323368
 21
298.788243925472
 31
0.0
  0
HATCH
  5
19A
330
1F
100
AcDbEntity
  8
10
  6
CONTINUOUS
 62
     2
100
AcDbHatch
 10
0.0
 20
0.0
 30
0.0
210
0.0
220
0.0
230
1.0
  2

 70
     0
 71
     0
 91
        4
 92
        0
 93
       40
 72
     1
 10
490.2278783205558
 20
493.2882439254704
 11
488.8102482311823
 21
493.2573111268808
 72
     1
 10
488.8102482311823
 20
493.2573111268808
 11
487.3953166812568
 21
493.1645716134522
 72
     1
 10
487.3953166812568
 20
493.1645716134522
 11
485.985777073404
 21
493.0102019201192
 72
     1
 10
485.985777073404
 20
493.0102019201192
 11
484.5843125463804
 21
492.7944958983671
 72
     1
 10
484.5843125463804
 20
492.7944958983671
 11
483.1935908675673
 21
492.5178641568683
 72
     1
 10
483.1935908675673
 20
492.5178641568683
 11
481.8162593547237
 21
492.1808332798651
 72
     1
 10
481.8162593547237
 20
492.1808332798651
 11
480.4549398366667
 21
491.7840448247878
 72
     1
 10
480.4549398366667
 20
491.7840448247878
 11
479.1122236624714
 21
491.3282541010124
 72
     1
 10
479.1122236624714
 20
491.3282541010124
 11
477.7906667686901
 21
490.8143287320872
 72
     1
 10
477.7906667686901
 20
490.8143287320872
 11
476.4927848139828
 21
490.2432470041615
 72
     1
 10
476.4927848139828
 20
490.2432470041615
 11
475.2210483904169
 21
489.6160960037626
 72
     1
 10
475.2210483904169
 20
489.6160960037626
 11
473.9778783205555
 21
488.9340695484646
 72
     1
 10
473.9778783205555
 20
488.9340695484646
 11
472.7656410492837
 21
488.1984659143891
 72
     1
 10
472.7656410492837
 20
488.1984659143891
 11
471.5866441391465
 21
487.4106853648626
 72
     1
 10
471.5866441391465
 20
487.4106853648626
 11
470.443131877772
 21
486.5722274849355
 72
     1
 10
470.443131877772
 20
486.5722274849355
 11
469.3372810057429
 21
485.6846883268371
 72
     1
 10
469.3372810057429
 20
485.6846883268371
 11
468.2711965730464
 21
484.7497573717993
 72
     1
 10
468.2711965730464
 20
484.7497573717993
 11
467.2469079319926
 21
483.7692143140331
 72
     1
 10
467.2469079319926
 20
483.7692143140331
 11
466.2663648742263
 21
482.7449256729793
 72
     1
 10
466.2663648742263
 20
482.7449256729793
 11
465.3314339191886
 21
481.6788412402828
 72
     1
 10
465.3314339191886
 20
481.6788412402828
 11
464.4438947610902
 21
480.5729903682537
 72
     1
 10
464.4438947610902
 20
480.5729903682537
 11
463.6054368811631
 21
479.4294781068792
 72
     1
 10
463.6054368811631
 20
479.4294781068792
 11
462.8176563316366
 21
478.250481196742
 72
     1
 10
462.8176563316366
 20
478.250481196742
 11
462.082052697561
 21
477.0382439254702
 72
     1
 10
462.082052697561
 20
477.0382439254702
 11
461.4000262422631
 21
475.7950738556088
 72
     1
 10
461.4000262422631
 20
475.7950738556088
 11
460.7728752418641
 21
474.5233374320429
 72
     1
 10
460.7728752418641
 20
474.5233374320429
 11
460.2017935139385
 21
473.2254554773356
 72
     1
 10
460.2017935139385
 20
473.2254554773356
 11
459.6878681450132
 21
471.9038985835544
 72
     1
 10
459.6878681450132
 20
471.9038985835544
 11
459.2320774212379
 21
470.561182409359
 72
     1
 10
459.2320774212379
 20
470.561182409359
 11
458.8352889661605
 21
469.199862891302
 72
     1
 10
458.8352889661605
 20
469.199862891302
 11
458.4982580891574
 21
467.8225313784585
 72
     1
 10
458.4982580891574
 20
467.8225313784585
 11
458.2216263476585
 21
466.4318096996453
 72
     1
 10
458.2216263476585
 20
466.4318096996453
 11
458.0059203259063
 21
465.0303451726217
 72
     1
 10
458.0059203259063
 20
465.0303451726217
 11
457.8515506325735
 21
463.6208055647689
 72
     1
 10
457.8515506325735
 20
463.6208055647689
 11
457.7588111191448
 21
462.2058740148434
 72
     1
 10
457.7588111191448
 20
462.2058740148434
 11
457.7278783205552
 21
460.78824392547
 72
     1
 10
457.7278783205552
 20
460.7882439254701
 11
240.2278783205525
 21
460.7882439254701
 72
     1
 10
240.2278783205525
 20
460.7882439254701
 11
240.2278783205525
 21
610.7882439254699
 72
     1
 10
240.2278783205525
 20
610.7882439254699
 11
490.2278783205525
 21
610.7882439254699
 72
     1
 10
490.2278783205525
 20
610.7882439254699
 11
490.2278783205525
 21
493.2882439254701
 97
        0
 92
        0
 93
       40
 72
     1
 10
522.7278783205546
 20
460.7882439254683
 11
522.696945521965
 21
462.2058740148418
 72
     1
 10
522.696945521965
 20
462.2058740148418
 11
522.6042060085364
 21
463.6208055647674
 72
     1
 10
522.6042060085364
 20
463.6208055647674
 11
522.4498363152035
 21
465.0303451726202
 72
     1
 10
522.4498363152035
 20
465.0303451726202
 11
522.2341302934514
 21
466.4318096996438
 72
     1
 10
522.2341302934514
 20
466.4318096996438
 11
521.9574985519524
 21
467.822531378457
 72
     1
 10
521.9574985519524
 20
467.822531378457
 11
521.6204676749493
 21
469.1998628913007
 72
     1
 10
521.6204676749493
 20
469.1998628913007
 11
521.2236792198719
 21
470.5611824093577
 72
     1
 10
521.2236792198719
 20
470.5611824093577
 11
520.7678884960966
 21
471.9038985835531
 72
     1
 10
520.7678884960966
 20
471.9038985835531
 11
520.2539631271713
 21
473.2254554773344
 72
     1
 10
520.2539631271713
 20
473.2254554773344
 11
519.6828813992456
 21
474.5233374320418
 72
     1
 10
519.6828813992456
 20
474.5233374320418
 11
519.0557303988467
 21
475.7950738556077
 72
     1
 10
519.0557303988467
 20
475.7950738556077
 11
518.3737039435487
 21
477.0382439254692
 72
     1
 10
518.3737039435487
 20
477.0382439254692
 11
517.6381003094731
 21
478.250481196741
 72
     1
 10
517.6381003094731
 20
478.250481196741
 11
516.8503197599465
 21
479.4294781068783
 72
     1
 10
516.8503197599465
 20
479.4294781068783
 11
516.0118618800194
 21
480.5729903682528
 72
     1
 10
516.0118618800194
 20
480.5729903682528
 11
515.124322721921
 21
481.678841240282
 72
     1
 10
515.124322721921
 20
481.678841240282
 11
514.1893917668832
 21
482.7449256729785
 72
     1
 10
514.1893917668832
 20
482.7449256729785
 11
513.2088487091169
 21
483.7692143140324
 72
     1
 10
513.2088487091169
 20
483.7692143140324
 11
512.184560068063
 21
484.7497573717986
 72
     1
 10
512.184560068063
 20
484.7497573717986
 11
511.1184756353665
 21
485.6846883268365
 72
     1
 10
511.1184756353665
 20
485.6846883268365
 11
510.0126247633374
 21
486.5722274849348
 72
     1
 10
510.0126247633374
 20
486.5722274849348
 11
508.8691125019629
 21
487.410685364862
 72
     1
 10
508.8691125019629
 20
487.410685364862
 11
507.6901155918256
 21
488.1984659143886
 72
     1
 10
507.6901155918256
 20
488.1984659143886
 11
506.4778783205537
 21
488.9340695484641
 72
     1
 10
506.4778783205537
 20
488.9340695484641
 11
505.2347082506923
 21
489.6160960037621
 72
     1
 10
505.2347082506923
 20
489.6160960037621
 11
503.9629718271264
 21
490.243247004161
 72
     1
 10
503.9629718271264
 20
490.243247004161
 11
502.6650898724189
 21
490.8143287320868
 72
     1
 10
502.6650898724189
 20
490.8143287320868
 11
501.3435329786377
 21
491.328254101012
 72
     1
 10
501.3435329786377
 20
491.328254101012
 11
500.0008168044423
 21
491.7840448247874
 72
     1
 10
500.0008168044423
 20
491.7840448247874
 11
498.6394972863852
 21
492.1808332798648
 72
     1
 10
498.6394972863852
 20
492.1808332798648
 11
497.2621657735416
 21
492.5178641568679
 72
     1
 10
497.2621657735416
 20
492.5178641568679
 11
495.8714440947284
 21
492.7944958983668
 72
     1
 10
495.8714440947284
 20
492.7944958983668
 11
494.4699795677047
 21
493.0102019201189
 72
     1
 10
494.4699795677047
 20
493.0102019201189
 11
493.0604399598519
 21
493.1645716134518
 72
     1
 10
493.0604399598519
 20
493.1645716134518
 11
491.6455084099264
 21
493.2573111268805
 72
     1
 10
491.6455084099264
 20
493.2573111268805
 11
490.2278783205529
 21
493.2882439254701
 72
     1
 10
490.2278783205525
 20
493.2882439254701
 11
490.2278783205525
 21
610.7882439254699
 72
     1
 10
490.2278783205525
 20
610.7882439254699
 11
740.2278783205525
 21
610.7882439254699
 72
     1
 10
740.2278783205525
 20
610.7882439254699
 11
740.2278783205525
 21
460.7882439254699
 72
     1
 10
740.2278783205525
 20
460.7882439254699
 11
522.7278783205552
 21
460.7882439254699
 97
        0
 92
        0
 93
       40
 72
     1
 10
490.2278783205525
 20
310.7882439254702
 11
740.2278783205525
 21
310.7882439254702
 72
     1
 10
740.2278783205525
 20
310.7882439254702
 11
740.2278783205525
 21
460.7882439254699
 72
     1
 10
740.2278783205525
 20
460.7882439254699
 11
522.7278783205552
 21
460.7882439254701
 72
     1
 10
522.7278783205552
 20
460.7882439254694
 11
522.6969455219655
 21
459.370613836096
 72
     1
 10
522.6969455219655
 20
459.370613836096
 11
522.604206008537
 21
457.9556822861705
 72
     1
 10
522.604206008537
 20
457.9556822861705
 11
522.449836315204
 21
456.5461426783178
 72
     1
 10
522.449836315204
 20
456.5461426783178
 11
522.2341302934519
 21
455.1446781512943
 72
     1
 10
522.2341302934519
 20
455.1446781512943
 11
521.957498551953
 21
453.7539564724812
 72
     1
 10
521.957498551953
 20
453.7539564724812
 11
521.6204676749499
 21
452.3766249596376
 72
     1
 10
521.6204676749499
 20
452.3766249596376
 11
521.2236792198726
 21
451.0153054415807
 72
     1
 10
521.2236792198726
 20
451.0153054415807
 11
520.7678884960972
 21
449.6725892673854
 72
     1
 10
520.7678884960972
 20
449.6725892673854
 11
520.253963127172
 21
448.3510323736043
 72
     1
 10
520.253963127172
 20
448.3510323736043
 11
519.6828813992463
 21
447.053150418897
 72
     1
 10
519.6828813992463
 20
447.053150418897
 11
519.0557303988473
 21
445.7814139953311
 72
     1
 10
519.0557303988473
 20
445.7814139953311
 11
518.3737039435495
 21
444.5382439254698
 72
     1
 10
518.3737039435495
 20
444.5382439254698
 11
517.638100309474
 21
443.326006654198
 72
     1
 10
517.638100309474
 20
443.326006654198
 11
516.8503197599474
 21
442.1470097440608
 72
     1
 10
516.8503197599474
 20
442.1470097440608
 11
516.0118618800203
 21
441.0034974826864
 72
     1
 10
516.0118618800203
 20
441.0034974826864
 11
515.124322721922
 21
439.8976466106573
 72
     1
 10
515.124322721922
 20
439.8976466106573
 11
514.1893917668842
 21
438.8315621779609
 72
     1
 10
514.1893917668842
 20
438.8315621779609
 11
513.208848709118
 21
437.8072735369071
 72
     1
 10
513.208848709118
 20
437.8072735369071
 11
512.1845600680642
 21
436.8267304791409
 72
     1
 10
512.1845600680642
 20
436.8267304791409
 11
511.1184756353678
 21
435.8917995241032
 72
     1
 10
511.1184756353678
 20
435.8917995241032
 11
510.0126247633387
 21
435.0042603660049
 72
     1
 10
510.0126247633387
 20
435.0042603660049
 11
508.8691125019643
 21
434.1658024860778
 72
     1
 10
508.8691125019643
 20
434.1658024860778
 11
507.6901155918271
 21
433.3780219365512
 72
     1
 10
507.6901155918271
 20
433.3780219365512
 11
506.4778783205554
 21
432.6424183024758
 72
     1
 10
506.4778783205554
 20
432.6424183024758
 11
505.234708250694
 21
431.9603918471779
 72
     1
 10
505.234708250694
 20
431.9603918471779
 11
503.9629718271281
 21
431.3332408467789
 72
     1
 10
503.9629718271281
 20
431.3332408467789
 11
502.6650898724208
 21
430.7621591188533
 72
     1
 10
502.6650898724208
 20
430.7621591188533
 11
501.3435329786397
 21
430.2482337499281
 72
     1
 10
501.3435329786397
 20
430.2482337499281
 11
500.0008168044444
 21
429.7924430261528
 72
     1
 10
500.0008168044444
 20
429.7924430261528
 11
498.6394972863874
 21
429.3956545710755
 72
     1
 10
498.6394972863874
 20
429.3956545710755
 11
497.2621657735439
 21
429.0586236940724
 72
     1
 10
497.2621657735439
 20
429.0586236940724
 11
495.8714440947308
 21
428.7819919525734
 72
     1
 10
495.8714440947308
 20
428.7819919525734
 11
494.4699795677072
 21
428.5662859308214
 72
     1
 10
494.4699795677072
 20
428.5662859308214
 11
493.0604399598545
 21
428.4119162374885
 72
     1
 10
493.0604399598545
 20
428.4119162374885
 11
491.6455084099291
 21
428.3191767240598
 72
     1
 10
491.6455084099291
 20
428.3191767240598
 11
490.2278783205556
 21
428.2882439254702
 72
     1
 10
490.2278783205525
 20
428.2882439254701
 11
490.2278783205525
 21
310.7882439254702
 97
        0
 92
        0
 93
       40
 72
     1
 10
240.2278783205525
 20
310.7882439254702
 11
490.2278783205525
 21
310.7882439254702
 72
     1
 10
490.2278783205525
 20
310.7882439254702
 11
490.2278783205525
 21
428.2882439254701
 72
     1
 10
490.2278783205567
 20
428.2882439254701
 11
488.8102482311832
 21
428.3191767240597
 72
     1
 10
488.8102482311832
 20
428.3191767240597
 11
487.3953166812577
 21
428.4119162374884
 72
     1
 10
487.3953166812577
 20
428.4119162374884
 11
485.9857770734048
 21
428.5662859308213
 72
     1
 10
485.9857770734048
 20
428.5662859308213
 11
484.5843125463812
 21
428.7819919525734
 72
     1
 10
484.5843125463812
 20
428.7819919525734
 11
483.1935908675681
 21
429.0586236940724
 72
     1
 10
483.1935908675681
 20
429.0586236940724
 11
481.8162593547245
 21
429.3956545710755
 72
     1
 10
481.8162593547245
 20
429.3956545710755
 11
480.4549398366674
 21
429.7924430261529
 72
     1
 10
480.4549398366674
 20
429.7924430261529
 11
479.112223662472
 21
430.2482337499282
 72
     1
 10
479.112223662472
 20
430.2482337499282
 11
477.7906667686908
 21
430.7621591188534
 72
     1
 10
477.7906667686908
 20
430.7621591188534
 11
476.4927848139835
 21
431.3332408467792
 72
     1
 10
476.4927848139835
 20
431.3332408467792
 11
475.2210483904175
 21
431.9603918471781
 72
     1
 10
475.2210483904175
 20
431.9603918471781
 11
473.9778783205561
 21
432.6424183024761
 72
     1
 10
473.9778783205561
 20
432.6424183024761
 11
472.7656410492843
 21
433.3780219365516
 72
     1
 10
472.7656410492843
 20
433.3780219365516
 11
471.586644139147
 21
434.1658024860782
 72
     1
 10
471.586644139147
 20
434.1658024860782
 11
470.4431318777725
 21
435.0042603660053
 72
     1
 10
470.4431318777725
 20
435.0042603660053
 11
469.3372810057434
 21
435.8917995241037
 72
     1
 10
469.3372810057434
 20
435.8917995241037
 11
468.271196573047
 21
436.8267304791415
 72
     1
 10
468.271196573047
 20
436.8267304791415
 11
467.2469079319931
 21
437.8072735369078
 72
     1
 10
467.2469079319931
 20
437.8072735369078
 11
466.2663648742268
 21
438.8315621779616
 72
     1
 10
466.2663648742268
 20
438.8315621779616
 11
465.331433919189
 21
439.8976466106581
 72
     1
 10
465.331433919189
 20
439.8976466106581
 11
464.4438947610906
 21
441.0034974826873
 72
     1
 10
464.4438947610906
 20
441.0034974826873
 11
463.6054368811635
 21
442.1470097440617
 72
     1
 10
463.6054368811635
 20
442.1470097440617
 11
462.817656331637
 21
443.326006654199
 72
     1
 10
462.817656331637
 20
443.326006654199
 11
462.0820526975614
 21
444.5382439254709
 72
     1
 10
462.0820526975614
 20
444.5382439254709
 11
461.4000262422635
 21
445.7814139953323
 72
     1
 10
461.4000262422635
 20
445.7814139953323
 11
460.7728752418645
 21
447.0531504188982
 72
     1
 10
460.7728752418645
 20
447.0531504188982
 11
460.2017935139388
 21
448.3510323736056
 72
     1
 10
460.2017935139388
 20
448.3510323736056
 11
459.6878681450136
 21
449.6725892673868
 72
     1
 10
459.6878681450136
 20
449.6725892673868
 11
459.2320774212382
 21
451.0153054415822
 72
     1
 10
459.2320774212382
 20
451.0153054415822
 11
458.8352889661609
 21
452.3766249596392
 72
     1
 10
458.8352889661609
 20
452.3766249596392
 11
458.4982580891577
 21
453.7539564724829
 72
     1
 10
458.4982580891577
 20
453.7539564724829
 11
458.2216263476588
 21
455.144678151296
 72
     1
 10
458.2216263476588
 20
455.144678151296
 11
458.0059203259067
 21
456.5461426783197
 72
     1
 10
458.0059203259067
 20
456.5461426783197
 11
457.8515506325738
 21
457.9556822861725
 72
     1
 10
457.8515506325738
 20
457.9556822861725
 11
457.7588111191452
 21
459.370613836098
 72
     1
 10
457.7588111191452
 20
459.370613836098
 11
457.7278783205556
 21
460.7882439254715
 72
     1
 10
457.7278783205552
 20
460.78824392547
 11
240.2278783205525
 21
460.7882439254701
 72
     1
 10
240.2278783205525
 20
460.7882439254701
 11
240.2278783205525
 21
310.7882439254702
 97
        0
 75
     0
 76
     2
 52
0.0
 41
0.3333333333333333
 77
     0
 78
     2
 53
45.0
 43
-7983.919557695564
 44
10317.48219288452
 45
-10.10278813620243
 46
10.10278813620243
 79
     0
 53
135.0
 43
-7983.919557695564
 44
10317.48219288452
 45
-10.10278813620243
 46
-10.10278813620243
 79
     0
 98
        0
  0
DIMENSION
  5
1A2
330
1F
100
AcDbEntity
  8
8
  6
CONTINUOUS
 62
     4
100
AcDbDimension
  2
DIM2
 10
514.8209354955874
 20
448.482491661362
 30
0.0
 11
198.392697341266
 21
611.8471957524582
 31
0.0
 70
   163
  1
<>
  3
STANDARD
100
AcDbDiametricDimension
 15
465.6348211455224
 25
473.0939961895769
 35
0.0
 40
0.0
1001
ACAD
1000
DSTYLE
1002
{
1070
   287
1070
     2
1070
     7
1000

1070
     6
1000

1070
   340
1005
F2
1070
   140
1040
9.0
1070
    40
1040
1.0
1070
   147
1040
0.0
1070
    76
1070
     0
1070
    75
1070
     0
1070
   173
1070
     1
1070
   289
1070
     2
1070
   288
1070
     1
1070
    77
1070
     1
1070
   172
1070
     1
1070
   174
1070
     0
1070
    74
1070
     0
1070
    73
1070
     0
1070
   284
1070
     8
1070
    78
1070
     8
1070
    42
1040
3.0
1070
    44
1040
4.5
1070
    43
1040
30.0
1070
   271
1070
     2
1070
    41
1040
6.0
1002
}
  0
DIMENSION
  5
1AA
330
1F
100
AcDbEntity
  8
8
  6
CONTINUOUS
 62
     4
100
AcDbDimension
  2
DIM3
 10
520.7597265728292
 20
449.6501901322746
 30
0.0
 11
192.6144781882309
 21
574.1480389713355
 31
0.0
 70
   163
  1
<>
  3
STANDARD
100
AcDbDiametricDimension
 15
459.6960300682812
 25
471.9262977186655
 35
0.0
 40
0.0
1001
ACAD
1000
DSTYLE
1002
{
1070
   287
1070
     2
1070
     7
1000

1070
     6
1000

1070
   340
1005
F2
1070
   140
1040
9.0
1070
    40
1040
1.0
1070
   147
1040
0.0
1070
    76
1070
     0
1070
    75
1070
     0
1070
   173
1070
     1
1070
   289
1070
     2
1070
   288
1070
     1
1070
    77
1070
     1
1070
   172
1070
     1
1070
   174
1070
     0
1070
    74
1070
     0
1070
    73
1070
     0
1070
   284
1070
     8
1070
    78
1070
     8
1070
    42
1040
3.0
1070
    44
1040
4.5
1070
    43
1040
30.0
1070
   271
1070
     2
1070
    41
1040
6.0
1002
}
  0
INSERT
  5
1AB
330
1F
100
AcDbEntity
  8
8
  6
CONTINUOUS
 62
     4
100
AcDbBlockReference
  2
_OPEN
 10
717.0122434715372
 20
636.3232076348647
 30
0.0
 41
18.0
 42
18.0
 43
18.0
 50
234.8582221794619
  0
POLYLINE
  5
1AC
330
1F
100
AcDbEntity
  8
8
  6
CONTINUOUS
 62
     4
100
AcDb2dPolyline
 66
     1
 10
0.0
 20
0.0
 30
0.0
  0
VERTEX
  5
1AD
330
1AC
100
AcDbEntity
  8
8
  6
CONTINUOUS
 62
     4
100
AcDbVertex
100
AcDb2dVertex
 10
717.0122434715372
 20
636.3232076348647
 30
0.0
  0
VERTEX
  5
1AE
330
1AC
100
AcDbEntity
  8
8
  6
CONTINUOUS
 62
     4
100
AcDbVertex
100
AcDb2dVertex
 10
739.0116317660978
 20
667.5767046698305
 30
0.0
  0
VERTEX
  5
1AF
330
1AC
100
AcDbEntity
  8
8
  6
CONTINUOUS
 62
     4
100
AcDbVertex
100
AcDb2dVertex
 10
782.0916317660977
 20
667.5767046698305
 30
0.0
  0
SEQEND
  5
1B0
330
1AC
100
AcDbEntity
  8
8
  6
CONTINUOUS
 62
     4
  0
MTEXT
  5
1B1
330
1F
100
AcDbEntity
  8
8
  6
CONTINUOUS
 62
     4
100
AcDbMText
 10
746.0916317660979
 20
669.3767046698305
 30
0.0
 40
9.0
 41
51.46186499999998
 71
     7
 72
     1
  1
{\fＭＳ ゴシック;\T0.750000;10-φ6.2}
1001
ACAD
1000
ACAD_MTEXT_DEFINED_HEIGHT_BEGIN
1070
    46
1040
9.0
1000
ACAD_MTEXT_DEFINED_HEIGHT_END
  0
DIMENSION
  5
1BB
330
1F
100
AcDbEntity
  8
8
  6
CONTINUOUS
 62
     4
100
AcDbDimension
  2
DIM4
 10
240.2278783205523
 20
214.384807858738
 30
0.0
 11
490.2278783205525
 21
214.384807858738
 31
0.0
 70
   160
  1
<>
  3
STANDARD
100
AcDbAlignedDimension
 13
740.2278783205525
 23
310.7882439254702
 33
0.0
 14
240.2278783205525
 24
310.7882439254702
 34
0.0
 50
179.9999999999998
100
AcDbRotatedDimension
1001
ACAD
1000
DSTYLE
1002
{
1070
   287
1070
     4
1070
     7
1000

1070
     6
1000

1070
   279
1070
     1
1070
   340
1005
F2
1070
   140
1040
9.0
1070
    40
1040
1.0
1070
   147
1040
0.0
1070
    76
1070
     0
1070
    75
1070
     0
1070
   173
1070
     1
1070
   289
1070
     2
1070
   288
1070
     1
1070
    77
1070
     1
1070
   172
1070
     1
1070
   174
1070
     0
1070
    74
1070
     0
1070
    73
1070
     0
1070
   284
1070
     8
1070
    78
1070
     8
1070
    42
1040
3.0
1070
    44
1040
4.5
1070
    43
1040
30.0
1070
   271
1070
     2
1070
    41
1040
6.0
1002
}
  0
DIMENSION
  5
1C5
330
1F
100
AcDbEntity
  8
8
  6
CONTINUOUS
 62
     4
100
AcDbDimension
  2
DIM5
 10
225.2278783205509
 20
189.6987398886577
 30
0.0
 11
490.2278783205526
 21
189.6987398886577
 31
0.0
 70
   160
  1
<>
  3
STANDARD
100
AcDbAlignedDimension
 13
755.2278783205525
 23
295.7882439254702
 33
0.0
 14
225.2278783205511
 24
295.7882439254702
 34
0.0
 50
179.9999999999998
100
AcDbRotatedDimension
1001
ACAD
1000
DSTYLE
1002
{
1070
   287
1070
     4
1070
     7
1000

1070
     6
1000

1070
   279
1070
     1
1070
   340
1005
F2
1070
   140
1040
9.0
1070
    40
1040
1.0
1070
   147
1040
0.0
1070
    76
1070
     0
1070
    75
1070
     0
1070
   173
1070
     1
1070
   289
1070
     2
1070
   288
1070
     1
1070
    77
1070
     1
1070
   172
1070
     1
1070
   174
1070
     0
1070
    74
1070
     0
1070
    73
1070
     0
1070
   284
1070
     8
1070
    78
1070
     8
1070
    42
1040
3.0
1070
    44
1040
4.5
1070
    43
1040
30.0
1070
   271
1070
     2
1070
    41
1040
6.0
1002
}
  0
DIMENSION
  5
1CF
330
1F
100
AcDbEntity
  8
8
  6
CONTINUOUS
 62
     4
100
AcDbDimension
  2
DIM6
 10
755.2278783205522
 20
189.6987398886577
 30
0.0
 11
772.7278783205529
 21
189.6987398886577
 31
0.0
 70
   160
  1
<>
  3
STANDARD
100
AcDbAlignedDimension
 13
790.2278783205534
 23
437.7882439254717
 33
0.0
 14
755.2278783205525
 24
295.7882439254702
 34
0.0
 50
179.9999999999998
100
AcDbRotatedDimension
1001
ACAD
1000
DSTYLE
1002
{
1070
   287
1070
     4
1070
     7
1000

1070
     6
1000

1070
   279
1070
     1
1070
   340
1005
F2
1070
   140
1040
9.0
1070
    40
1040
1.0
1070
   147
1040
0.0
1070
    76
1070
     0
1070
    75
1070
     0
1070
   173
1070
     1
1070
   289
1070
     2
1070
   288
1070
     1
1070
    77
1070
     1
1070
   172
1070
     1
1070
   174
1070
     0
1070
    74
1070
     0
1070
    73
1070
     0
1070
   284
1070
     8
1070
    78
1070
     8
1070
    42
1040
3.0
1070
    44
1040
4.5
1070
    43
1040
30.0
1070
   271
1070
     2
1070
    41
1040
6.0
1002
}
  0
DIMENSION
  5
1D9
330
1F
100
AcDbEntity
  8
8
  6
CONTINUOUS
 62
     4
100
AcDbDimension
  2
DIM7
 10
265.227878320551
 20
242.6787746970872
 30
0.0
 11
321.4778783205511
 21
242.6787746970872
 31
0.0
 70
   160
  1
<>
  3
STANDARD
100
AcDbAlignedDimension
 13
377.7278783205511
 23
277.1882439254707
 33
0.0
 14
265.2278783205511
 24
277.1882439254707
 34
0.0
 50
179.9999999999998
100
AcDbRotatedDimension
1001
ACAD
1000
DSTYLE
1002
{
1070
   287
1070
     4
1070
     7
1000

1070
     6
1000

1070
   279
1070
     1
1070
   340
1005
F2
1070
   140
1040
9.0
1070
    40
1040
1.0
1070
   147
1040
0.0
1070
    76
1070
     0
1070
    75
1070
     0
1070
   173
1070
     1
1070
   289
1070
     2
1070
   288
1070
     1
1070
    77
1070
     1
1070
   172
1070
     1
1070
   174
1070
     0
1070
    74
1070
     0
1070
    73
1070
     0
1070
   284
1070
     8
1070
    78
1070
     8
1070
    42
1040
3.0
1070
    44
1040
4.5
1070
    43
1040
30.0
1070
   271
1070
     2
1070
    41
1040
6.0
1002
}
  0
DIMENSION
  5
1E3
330
1F
100
AcDbEntity
  8
8
  6
CONTINUOUS
 62
     4
100
AcDbDimension
  2
DIM8
 10
1039.166401323368
 20
214.2865917958022
 30
0.0
 11
1016.666401323368
 21
214.2865917958022
 31
0.0
 70
   160
  1
<>
  3
STANDARD
100
AcDbAlignedDimension
 13
994.1664013233681
 23
295.7882439254718
 33
0.0
 14
1039.166401323368
 24
280.7882439254718
 34
0.0
100
AcDbRotatedDimension
1001
ACAD
1000
DSTYLE
1002
{
1070
   287
1070
     4
1070
     7
1000

1070
     6
1000

1070
   279
1070
     1
1070
   340
1005
F2
1070
   140
1040
9.0
1070
    40
1040
1.0
1070
   147
1040
0.0
1070
    76
1070
     0
1070
    75
1070
     0
1070
   173
1070
     1
1070
   289
1070
     2
1070
   288
1070
     1
1070
    77
1070
     1
1070
   172
1070
     1
1070
   174
1070
     0
1070
    74
1070
     0
1070
    73
1070
     0
1070
   284
1070
     8
1070
    78
1070
     8
1070
    42
1040
3.0
1070
    44
1040
4.5
1070
    43
1040
30.0
1070
   271
1070
     2
1070
    41
1040
6.0
1002
}
  0
DIMENSION
  5
1ED
330
1F
100
AcDbEntity
  8
8
  6
CONTINUOUS
 62
     4
100
AcDbDimension
  2
DIM9
 10
1039.166401323368
 20
267.3625545407833
 30
0.0
 11
1055.749778645007
 21
267.3625545407833
 31
0.0
 70
   160
  1
<>
  3
STANDARD
100
AcDbAlignedDimension
 13
1038.166401323368
 23
280.7882439254718
 33
0.0
 14
1039.166401323368
 24
280.7882439254718
 34
0.0
100
AcDbRotatedDimension
1001
ACAD
1000
DSTYLE
1002
{
1070
   287
1070
     4
1070
     7
1000

1070
     6
1000

1070
   279
1070
     1
1070
   340
1005
F2
1070
   140
1040
9.0
1070
    40
1040
1.0
1070
   147
1040
0.0
1070
    76
1070
     0
1070
    75
1070
     0
1070
   173
1070
     1
1070
   289
1070
     2
1070
   288
1070
     1
1070
    77
1070
     1
1070
   172
1070
     1
1070
   174
1070
     0
1070
    74
1070
     0
1070
    73
1070
     0
1070
   284
1070
     8
1070
    78
1070
     8
1070
    42
1040
3.0
1070
    44
1040
4.5
1070
    43
1040
30.0
1070
   271
1070
     2
1070
    41
1040
6.0
1002
}
  0
DIMENSION
  5
1F7
330
1F
100
AcDbEntity
  8
8
  6
CONTINUOUS
 62
     4
100
AcDbDimension
  2
DIM10
 10
1005.666401323368
 20
242.6197894842655
 30
0.0
 11
1022.416401323368
 21
242.6197894842655
 31
0.0
 70
   160
  1
<>
  3
STANDARD
100
AcDbAlignedDimension
 13
1039.166401323368
 23
280.7882439254718
 33
0.0
 14
1005.666401323368
 24
437.7882439254718
 34
0.0
 50
179.9999999999998
100
AcDbRotatedDimension
1001
ACAD
1000
DSTYLE
1002
{
1070
   287
1070
     4
1070
     7
1000

1070
     6
1000

1070
   279
1070
     1
1070
   340
1005
F2
1070
   140
1040
9.0
1070
    40
1040
1.0
1070
   147
1040
0.0
1070
    76
1070
     0
1070
    75
1070
     0
1070
   173
1070
     1
1070
   289
1070
     2
1070
   288
1070
     1
1070
    77
1070
     1
1070
   172
1070
     1
1070
   174
1070
     0
1070
    74
1070
     0
1070
    73
1070
     0
1070
   284
1070
     8
1070
    78
1070
     8
1070
    42
1040
3.0
1070
    44
1040
4.5
1070
    43
1040
30.0
1070
   271
1070
     2
1070
    41
1040
6.0
1002
}
  0
DIMENSION
  5
201
330
1F
100
AcDbEntity
  8
8
  6
CONTINUOUS
 62
     4
100
AcDbDimension
  2
DIM11
 10
490.2278783205525
 20
242.6787746970872
 30
0.0
 11
433.9778783205518
 21
242.6787746970872
 31
0.0
 70
   160
  1
<>
  3
STANDARD
100
AcDbAlignedDimension
 13
377.7278783205511
 23
277.1882439254707
 33
0.0
 14
490.2278783205525
 24
265.7882439254711
 34
0.0
100
AcDbRotatedDimension
1001
ACAD
1000
DSTYLE
1002
{
1070
   287
1070
     4
1070
     7
1000

1070
     6
1000

1070
   279
1070
     1
1070
   340
1005
F2
1070
   140
1040
9.0
1070
    40
1040
1.0
1070
   147
1040
0.0
1070
    76
1070
     0
1070
    75
1070
     0
1070
   173
1070
     1
1070
   289
1070
     2
1070
   288
1070
     1
1070
    77
1070
     1
1070
   172
1070
     1
1070
   174
1070
     0
1070
    74
1070
     0
1070
    73
1070
     0
1070
   284
1070
     8
1070
    78
1070
     8
1070
    42
1040
3.0
1070
    44
1040
4.5
1070
    43
1040
30.0
1070
   271
1070
     2
1070
    41
1040
6.0
1002
}
  0
DIMENSION
  5
20B
330
1F
100
AcDbEntity
  8
8
  6
CONTINUOUS
 62
     4
100
AcDbDimension
  2
DIM12
 10
825.9012638858812
 20
310.7882439254654
 30
0.0
 11
825.901263885881
 21
460.7882439254654
 31
0.0
 70
   160
  1
<>
 53
89.99999999999991
  3
STANDARD
100
AcDbAlignedDimension
 13
740.2278783205525
 23
610.7882439254656
 33
0.0
 14
740.2278783205525
 24
310.7882439254654
 34
0.0
 50
-89.99999999999991
100
AcDbRotatedDimension
1001
ACAD
1000
DSTYLE
1002
{
1070
   287
1070
     4
1070
     7
1000

1070
     6
1000

1070
   279
1070
     1
1070
   340
1005
F2
1070
   140
1040
9.0
1070
    40
1040
1.0
1070
   147
1040
0.0
1070
    76
1070
     0
1070
    75
1070
     0
1070
   173
1070
     1
1070
   289
1070
     2
1070
   288
1070
     1
1070
    77
1070
     1
1070
   172
1070
     1
1070
   174
1070
     0
1070
    74
1070
     0
1070
    73
1070
     0
1070
   284
1070
     8
1070
    78
1070
     8
1070
    42
1040
3.0
1070
    44
1040
4.5
1070
    43
1040
30.0
1070
   271
1070
     2
1070
    41
1040
6.0
1002
}
  0
DIMENSION
  5
215
330
1F
100
AcDbEntity
  8
8
  6
CONTINUOUS
 62
     4
100
AcDbDimension
  2
DIM13
 10
855.2126860350463
 20
295.7882439254702
 30
0.0
 11
855.2126860350461
 21
460.7882439254649
 31
0.0
 70
   160
  1
<>
 53
89.99999999999991
  3
STANDARD
100
AcDbAlignedDimension
 13
755.2278783205525
 23
625.7882439254699
 33
0.0
 14
755.2278783205525
 24
295.7882439254702
 34
0.0
 50
-89.99999999999991
100
AcDbRotatedDimension
1001
ACAD
1000
DSTYLE
1002
{
1070
   287
1070
     4
1070
     7
1000

1070
     6
1000

1070
   279
1070
     1
1070
   340
1005
F2
1070
   140
1040
9.0
1070
    40
1040
1.0
1070
   147
1040
0.0
1070
    76
1070
     0
1070
    75
1070
     0
1070
   173
1070
     1
1070
   289
1070
     2
1070
   288
1070
     1
1070
    77
1070
     1
1070
   172
1070
     1
1070
   174
1070
     0
1070
    74
1070
     0
1070
    73
1070
     0
1070
   284
1070
     8
1070
    78
1070
     8
1070
    42
1040
3.0
1070
    44
1040
4.5
1070
    43
1040
30.0
1070
   271
1070
     2
1070
    41
1040
6.0
1002
}
  0
DIMENSION
  5
21F
330
1F
100
AcDbEntity
  8
8
  6
CONTINUOUS
 62
     4
100
AcDbDimension
  2
DIM14
 10
884.1393259943011
 20
287.7882439254704
 30
0.0
 11
884.1393259943009
 21
460.788243925466
 31
0.0
 70
   160
  1
<>
 53
89.99999999999991
  3
STANDARD
100
AcDbAlignedDimension
 13
725.8278783205519
 23
633.7882439254695
 33
0.0
 14
725.8278783205519
 24
287.7882439254704
 34
0.0
 50
-89.99999999999991
100
AcDbRotatedDimension
1001
ACAD
1000
DSTYLE
1002
{
1070
   287
1070
     4
1070
     7
1000

1070
     6
1000

1070
   279
1070
     1
1070
   340
1005
F2
1070
   140
1040
9.0
1070
    40
1040
1.0
1070
   147
1040
0.0
1070
    76
1070
     0
1070
    75
1070
     0
1070
   173
1070
     1
1070
   289
1070
     2
1070
   288
1070
     1
1070
    77
1070
     1
1070
   172
1070
     1
1070
   174
1070
     0
1070
    74
1070
     0
1070
    73
1070
     0
1070
   284
1070
     8
1070
    78
1070
     8
1070
    42
1040
3.0
1070
    44
1040
4.5
1070
    43
1040
30.0
1070
   271
1070
     2
1070
    41
1040
6.0
1002
}
  0
DIMENSION
  5
229
330
1F
100
AcDbEntity
  8
8
  6
CONTINUOUS
 62
     4
100
AcDbDimension
  2
DIM15
 10
909.7034507280082
 20
280.7882439254718
 30
0.0
 11
909.7034507280079
 21
460.7882439254656
 31
0.0
 70
   160
  1
<>
 53
89.99999999999991
  3
STANDARD
100
AcDbAlignedDimension
 13
735.2278783205525
 23
640.7882439254695
 33
0.0
 14
735.2278783205511
 24
280.7882439254718
 34
0.0
 50
-89.9999999999999
100
AcDbRotatedDimension
1001
ACAD
1000
DSTYLE
1002
{
1070
   287
1070
     4
1070
     7
1000

1070
     6
1000

1070
   279
1070
     1
1070
   340
1005
F2
1070
   140
1040
9.0
1070
    40
1040
1.0
1070
   147
1040
0.0
1070
    76
1070
     0
1070
    75
1070
     0
1070
   173
1070
     1
1070
   289
1070
     2
1070
   288
1070
     1
1070
    77
1070
     1
1070
   172
1070
     1
1070
   174
1070
     0
1070
    74
1070
     0
1070
    73
1070
     0
1070
   284
1070
     8
1070
    78
1070
     8
1070
    42
1040
3.0
1070
    44
1040
4.5
1070
    43
1040
30.0
1070
   271
1070
     2
1070
    41
1040
6.0
1002
}
  0
DIMENSION
  5
233
330
1F
100
AcDbEntity
  8
8
  6
CONTINUOUS
 62
     4
100
AcDbDimension
  2
DIM16
 10
602.7278783205525
 20
242.6787746970872
 30
0.0
 11
546.4778783205525
 21
242.6787746970872
 31
0.0
 70
   160
  1
<>
  3
STANDARD
100
AcDbAlignedDimension
 13
490.2278783205525
 23
265.7882439254711
 33
0.0
 14
602.7278783205525
 24
277.1882439254707
 34
0.0
100
AcDbRotatedDimension
1001
ACAD
1000
DSTYLE
1002
{
1070
   287
1070
     4
1070
     7
1000

1070
     6
1000

1070
   279
1070
     1
1070
   340
1005
F2
1070
   140
1040
9.0
1070
    40
1040
1.0
1070
   147
1040
0.0
1070
    76
1070
     0
1070
    75
1070
     0
1070
   173
1070
     1
1070
   289
1070
     2
1070
   288
1070
     1
1070
    77
1070
     1
1070
   172
1070
     1
1070
   174
1070
     0
1070
    74
1070
     0
1070
    73
1070
     0
1070
   284
1070
     8
1070
    78
1070
     8
1070
    42
1040
3.0
1070
    44
1040
4.5
1070
    43
1040
30.0
1070
   271
1070
     2
1070
    41
1040
6.0
1002
}
  0
VIEWPORT
  5
3F
330
1B
100
AcDbEntity
 67
     1
  8
0
100
AcDbViewport
 10
630.0
 20
445.5
 30
0.0
 40
1260.0
 41
891.0
 68
     1
 69
     1
1001
ACAD
1000
MVIEW
1002
{
1070
    16
1010
0.0
1020
0.0
1030
0.0
1010
0.0
1020
0.0
1030
1.0
1040
0.0
1040
9.0
1040
630.0
1040
445.5
1040
50.0
1040
0.0
1040
0.0
1070
     0
1070
   100
1070
     0
1070
     3
1070
     0
1070
     0
1070
     0
1070
     0
1040
0.0
1040
0.0
1040
0.0
1040
0.5
1040
0.5
1040
0.5
1040
0.5
1070
     0
1002
{
1002
}
1002
}
  0
ENDSEC
  0
SECTION
  2
OBJECTS
  0
DICTIONARY
  5
C
330
0
100
AcDbDictionary
  3
ACAD_GROUP
350
D
  3
ACAD_LAYOUT
350
1A
  3
ACAD_MATERIAL
350
3B
  3
ACAD_MLEADERSTYLE
350
256
  3
ACAD_MLINESTYLE
350
17
  3
ACAD_PLOTSETTINGS
350
19
  3
ACAD_VISUALSTYLE
350
2A
  3
ACDBHEADERROUNDTRIPXREC
350
234
  3
ACDBVARIABLEDICTIONARY
350
254
  0
DICTIONARY
  5
D
102
{ACAD_REACTORS
330
C
102
}
330
C
100
AcDbDictionary
  0
DICTIONARY
  5
1A
102
{ACAD_REACTORS
330
C
102
}
330
C
100
AcDbDictionary
  0
DICTIONARY
  5
3B
102
{ACAD_REACTORS
330
C
102
}
330
C
100
AcDbDictionary
  3
BYBLOCK
350
3D
  3
BYLAYER
350
3C
  3
GLOBAL
350
3E
  0
DICTIONARY
  5
256
102
{ACAD_REACTORS
330
C
102
}
330
C
100
AcDbDictionary
  0
DICTIONARY
  5
17
102
{ACAD_REACTORS
330
C
102
}
330
C
100
AcDbDictionary
  3
STANDARD
350
18
  0
DICTIONARY
  5
19
102
{ACAD_REACTORS
330
C
102
}
330
C
100
AcDbDictionary
  0
DICTIONARY
  5
2A
102
{ACAD_REACTORS
330
C
102
}
330
C
100
AcDbDictionary
  3
2DWIREFRAME
350
2F
  3
3D_HIDDEN
350
31
  3
3DWIREFRAME
350
30
  3
BASIC
350
32
  3
BRIGHTEN
350
36
  3
COLORCHANGE
350
3A
  3
CONCEPTUAL
350
34
  3
DIM
350
35
  3
FACEPATTERN
350
39
  3
FLAT
350
2B
  3
FLATWITHEDGES
350
2C
  3
GOURAUD
350
2D
  3
GOURAUDWITHEDGES
350
2E
  3
LINEPATTERN
350
38
  3
REALISTIC
350
33
  3
THICKEN
350
37
  0
DICTIONARY
  5
234
102
{ACAD_REACTORS
330
C
102
}
330
C
100
AcDbDictionary
  3
CEPSNTYPE
350
23D
  3
DIMSTYLEDATA
350
253
  3
FINGERPRINTGUID
350
23E
  3
HYPERLINKBASE
350
237
  3
INSUNITS
350
23C
  3
LAYOUTDICT
350
239
  3
LWETCUNION
350
23B
  3
PLOTSETDICT
350
23A
  3
PSVPSCALE
350
240
  3
PUCSBASE
350
243
  3
PUCSORGBACK
350
249
  3
PUCSORGBOTTOM
350
245
  3
PUCSORGFRONT
350
248
  3
PUCSORGLEFT
350
246
  3
PUCSORGRIGHT
350
247
  3
PUCSORGTOP
350
244
  3
PUCSORTHOREF
350
241
  3
PUCSORTHOVIEW
350
242
  3
STYLESHEET
350
238
  3
TSTACKALIGN
350
235
  3
TSTACKSIZE
350
236
  3
UCSBASE
350
24C
  3
UCSORGBACK
350
252
  3
UCSORGBOTTOM
350
24E
  3
UCSORGFRONT
350
251
  3
UCSORGLEFT
350
24F
  3
UCSORGRIGHT
350
250
  3
UCSORGTOP
350
24D
  3
UCSORTHOREF
350
24A
  3
UCSORTHOVIEW
350
24B
  3
VERSIONGUID
350
23F
  0
DICTIONARY
  5
254
102
{ACAD_REACTORS
330
C
102
}
330
C
100
AcDbDictionary
  3
DIMASSOC
350
257
  3
HIDETEXT
350
258
  0
MATERIAL
  5
3D
102
{ACAD_REACTORS
330
3B
102
}
102
{ACAD_XDICTIONARY
360
25B
102
}
330
3B
100
AcDbMaterial
  1
ByBlock
  0
MATERIAL
  5
3C
102
{ACAD_REACTORS
330
3B
102
}
102
{ACAD_XDICTIONARY
360
259
102
}
330
3B
100
AcDbMaterial
  1
ByLayer
  0
MATERIAL
  5
3E
102
{ACAD_REACTORS
330
3B
102
}
102
{ACAD_XDICTIONARY
360
25D
102
}
330
3B
100
AcDbMaterial
  1
Global
  0
MLINESTYLE
  5
18
102
{ACAD_REACTORS
330
17
102
}
330
17
100
AcDbMlineStyle
  2
Standard
 70
     0
  3

 62
   256
 51
90.0
 52
90.0
 71
     2
 49
0.5
 62
   256
  6
BYLAYER
 49
-0.5
 62
   256
  6
BYLAYER
  0
ACAD_PROXY_OBJECT
  5
2F
102
{ACAD_REACTORS
330
2A
102
}
330
2A
100
AcDbProxyObject
 90
      499
 91
      501
 93
      436
310
42CC9915DA5C99599C985B595049028333333333333E3BF0000000000000FB0107901411070040501600405405064090741402480A0340
1001
ACAD
1000
AcDbSavedByObjectVersion
1070
     0
  0
ACAD_PROXY_OBJECT
  5
31
102
{ACAD_REACTORS
330
2A
102
}
330
2A
100
AcDbProxyObject
 90
      499
 91
      501
 93
      500
310
424CD108121A5919195B90640502408333333333333E3BF0000000000000FB01079024090700405020000000000001110200405405064090740C02480A0340
1001
ACAD
1000
AcDbSavedByObjectVersion
1070
     0
  0
ACAD_PROXY_OBJECT
  5
30
102
{ACAD_REACTORS
330
2A
102
}
330
2A
100
AcDbProxyObject
 90
      499
 91
      501
 93
      436
310
42CCD915DA5C99599C985B595059028333333333333E3BF0000000000000FB0107901411070040501600405405064090741402480A0340
1001
ACAD
1000
AcDbSavedByObjectVersion
1070
     0
  0
ACAD_PROXY_OBJECT
  5
32
102
{ACAD_REACTORS
330
2A
102
}
330
2A
100
AcDbProxyObject
 90
      499
 91
      501
 93
      388
310
4150985CDA58D07406404333333333333E3BF0000000000000FB0107A41107004050150841D405064090741402480A0350
1001
ACAD
1000
AcDbSavedByObjectVersion
1070
     0
  0
ACAD_PROXY_OBJECT
  5
36
102
{ACAD_REACTORS
330
2A
102
}
330
2A
100
AcDbProxyObject
 90
      499
 91
      501
 93
      428
310
42109C9A59DA1D195B90C409028333333333333E3BF0000000000000FB010790141107004050150841D405064090741402480A029950
1001
ACAD
1000
AcDbSavedByObjectVersion
1070
     0
  0
ACAD_PROXY_OBJECT
  5
3A
102
{ACAD_REACTORS
330
2A
102
}
330
2A
100
AcDbProxyObject
 90
      499
 91
      501
 93
      452
310
42D0DBDB1BDC90DA185B99D95104090240C333333333333E3BF0000000000000FB0108901411070040501508421405064090741402480A0350
1001
ACAD
1000
AcDbSavedByObjectVersion
1070
     0
  0
ACAD_PROXY_OBJECT
  5
34
102
{ACAD_REACTORS
330
2A
102
}
330
2A
100
AcDbProxyObject
 90
      499
 91
      501
 93
      500
310
4290DBDB98D95C1D1D585B10940D028333333333333E3BF0000000000000FB0107902409070040501000000000000111010841D405064090740C02480A0340
1001
ACAD
1000
AcDbSavedByObjectVersion
1070
     0
  0
ACAD_PROXY_OBJECT
  5
35
102
{ACAD_REACTORS
330
2A
102
}
330
2A
100
AcDbProxyObject
 90
      499
 91
      501
 93
      412
310
40D11A5B50B409028333333333333E3BF0000000000000FB010790141107004050150841D405064090741402480A02677FFFFFD0
1001
ACAD
1000
AcDbSavedByObjectVersion
1070
     0
  0
ACAD_PROXY_OBJECT
  5
39
102
{ACAD_REACTORS
330
2A
102
}
330
2A
100
AcDbProxyObject
 90
      499
 91
      501
 93
      444
310
42D19858D95C185D1D195C9B90F409028333333333333E3BF0000000000000FB010790141107004050150841D405064090741402480A0350
1001
ACAD
1000
AcDbSavedByObjectVersion
1070
     0
  0
ACAD_PROXY_OBJECT
  5
2B
102
{ACAD_REACTORS
330
2A
102
}
330
2A
100
AcDbProxyObject
 90
      499
 91
      501
 93
      388
310
41119B185D240901404333333333333E3BF0000000000000F9010740A41107004050150841D405064090741402480A1B50
1001
ACAD
1000
AcDbSavedByObjectVersion
1070
     0
  0
ACAD_PROXY_OBJECT
  5
2C
102
{ACAD_REACTORS
330
2A
102
}
330
2A
100
AcDbProxyObject
 90
      499
 91
      501
 93
      476
310
43519B185D15DA5D1A115919D95CD0140901404333333333333E3BF0000000000000F9010740901411070040501600405405064090741402480A1B50
1001
ACAD
1000
AcDbSavedByObjectVersion
1070
     0
  0
ACAD_PROXY_OBJECT
  5
2D
102
{ACAD_REACTORS
330
2A
102
}
330
2A
100
AcDbProxyObject
 90
      499
 91
      501
 93
      412
310
41D1DBDD5C985D5910240902404333333333333E3BF0000000000000F9010740A411070040501641D405064090741402480A1B50
1001
ACAD
1000
AcDbSavedByObjectVersion
1070
     0
  0
ACAD_PROXY_OBJECT
  5
2E
102
{ACAD_REACTORS
330
2A
102
}
330
2A
100
AcDbProxyObject
 90
      499
 91
      501
 93
      500
310
4411DBDD5C985D5915DA5D1A115919D95CD0340902404333333333333E3BF0000000000000F9010740901411070040501600405405064090741402480A1B50
1001
ACAD
1000
AcDbSavedByObjectVersion
1070
     0
  0
ACAD_PROXY_OBJECT
  5
38
102
{ACAD_REACTORS
330
2A
102
}
330
2A
100
AcDbProxyObject
 90
      499
 91
      501
 93
      444
310
42D31A5B995C185D1D195C9B90E409028333333333333E3BF0000000000000FB010790141107004050750841D405064090741402483A0350
1001
ACAD
1000
AcDbSavedByObjectVersion
1070
     0
  0
ACAD_PROXY_OBJECT
  5
33
102
{ACAD_REACTORS
330
2A
102
}
330
2A
100
AcDbProxyObject
 90
      499
 91
      501
 93
      420
310
425499585B1A5CDD1A58D08409028333333333333E3BF0000000000000FB01079019070040501508421405064090741402480A1B40
1001
ACAD
1000
AcDbSavedByObjectVersion
1070
     0
  0
ACAD_PROXY_OBJECT
  5
37
102
{ACAD_REACTORS
330
2A
102
}
330
2A
100
AcDbProxyObject
 90
      499
 91
      501
 93
      412
310
41D51A1A58DAD95B90D409028333333333333E3BF0000000000000FB010790141107004050150C41D405064090741402480A0350
1001
ACAD
1000
AcDbSavedByObjectVersion
1070
     0
  0
XRECORD
  5
23D
102
{ACAD_REACTORS
330
234
102
}
330
234
100
AcDbXrecord
 90
        0
  0
XRECORD
  5
253
102
{ACAD_REACTORS
330
234
102
}
330
234
100
AcDbXrecord
1000
DSTYLE
1002
{
1070
   171
 70
     2
1070
   143
 40
25.4
1070
   274
 70
     2
1070
    41
 40
1.55291427
1070
   289
 70
     2
1070
   141
 40
0.09
1070
    43
 40
30.0
1070
   278
 70
    46
1070
    44
 40
2.0
1070
    42
 40
2.0
1070
   147
 40
0.09
1070
    77
 70
     3
1070
   272
 70
     4
1070
   146
 40
0.5
1070
   279
 70
     2
1070
   283
 70
     1
1070
   145
 40
0.7
1070
   340
340
11
1070
   140
 40
2.8
1070
   288
 70
     1
1002
}
  0
XRECORD
  5
23E
102
{ACAD_REACTORS
330
234
102
}
330
234
100
AcDbXrecord
  1
{271E6032-AED2-44C7-979E-B45B710D1729}
  0
XRECORD
  5
237
102
{ACAD_REACTORS
330
234
102
}
330
234
100
AcDbXrecord
  1

  0
XRECORD
  5
23C
102
{ACAD_REACTORS
330
234
102
}
330
234
100
AcDbXrecord
 90
        4
  0
XRECORD
  5
239
102
{ACAD_REACTORS
330
234
102
}
330
234
100
AcDbXrecord
340
1A
  0
XRECORD
  5
23B
102
{ACAD_REACTORS
330
234
102
}
330
234
100
AcDbXrecord
 90
    10781
  0
XRECORD
  5
23A
102
{ACAD_REACTORS
330
234
102
}
330
234
100
AcDbXrecord
340
19
  0
XRECORD
  5
240
102
{ACAD_REACTORS
330
234
102
}
330
234
100
AcDbXrecord
 40
0.0
  0
XRECORD
  5
243
102
{ACAD_REACTORS
330
234
102
}
330
234
100
AcDbXrecord
340
0
  0
XRECORD
  5
249
102
{ACAD_REACTORS
330
234
102
}
330
234
100
AcDbXrecord
 10
0.0
 20
0.0
 30
0.0
  0
XRECORD
  5
245
102
{ACAD_REACTORS
330
234
102
}
330
234
100
AcDbXrecord
 10
0.0
 20
0.0
 30
0.0
  0
XRECORD
  5
248
102
{ACAD_REACTORS
330
234
102
}
330
234
100
AcDbXrecord
 10
0.0
 20
0.0
 30
0.0
  0
XRECORD
  5
246
102
{ACAD_REACTORS
330
234
102
}
330
234
100
AcDbXrecord
 10
0.0
 20
0.0
 30
0.0
  0
XRECORD
  5
247
102
{ACAD_REACTORS
330
234
102
}
330
234
100
AcDbXrecord
 10
0.0
 20
0.0
 30
0.0
  0
XRECORD
  5
244
102
{ACAD_REACTORS
330
234
102
}
330
234
100
AcDbXrecord
 10
0.0
 20
0.0
 30
0.0
  0
XRECORD
  5
241
102
{ACAD_REACTORS
330
234
102
}
330
234
100
AcDbXrecord
340
0
  0
XRECORD
  5
242
102
{ACAD_REACTORS
330
234
102
}
330
234
100
AcDbXrecord
 70
     0
  0
XRECORD
  5
238
102
{ACAD_REACTORS
330
234
102
}
330
234
100
AcDbXrecord
  1

  0
XRECORD
  5
235
102
{ACAD_REACTORS
330
234
102
}
330
234
100
AcDbXrecord
 90
        1
  0
XRECORD
  5
236
102
{ACAD_REACTORS
330
234
102
}
330
234
100
AcDbXrecord
 90
       70
  0
XRECORD
  5
24C
102
{ACAD_REACTORS
330
234
102
}
330
234
100
AcDbXrecord
340
0
  0
XRECORD
  5
252
102
{ACAD_REACTORS
330
234
102
}
330
234
100
AcDbXrecord
 10
0.0
 20
0.0
 30
0.0
  0
XRECORD
  5
24E
102
{ACAD_REACTORS
330
234
102
}
330
234
100
AcDbXrecord
 10
0.0
 20
0.0
 30
0.0
  0
XRECORD
  5
251
102
{ACAD_REACTORS
330
234
102
}
330
234
100
AcDbXrecord
 10
0.0
 20
0.0
 30
0.0
  0
XRECORD
  5
24F
102
{ACAD_REACTORS
330
234
102
}
330
234
100
AcDbXrecord
 10
0.0
 20
0.0
 30
0.0
  0
XRECORD
  5
250
102
{ACAD_REACTORS
330
234
102
}
330
234
100
AcDbXrecord
 10
0.0
 20
0.0
 30
0.0
  0
XRECORD
  5
24D
102
{ACAD_REACTORS
330
234
102
}
330
234
100
AcDbXrecord
 10
0.0
 20
0.0
 30
0.0
  0
XRECORD
  5
24A
102
{ACAD_REACTORS
330
234
102
}
330
234
100
AcDbXrecord
340
0
  0
XRECORD
  5
24B
102
{ACAD_REACTORS
330
234
102
}
330
234
100
AcDbXrecord
 70
     0
  0
XRECORD
  5
23F
102
{ACAD_REACTORS
330
234
102
}
330
234
100
AcDbXrecord
  1
{FAEB1C32-E019-11D5-929B-00C0DF256EC4}
  0
DICTIONARYVAR
  5
257
102
{ACAD_REACTORS
330
254
102
}
330
254
100
DictionaryVariables
280
     0
  1
1
  0
DICTIONARYVAR
  5
258
102
{ACAD_REACTORS
330
254
102
}
330
254
100
DictionaryVariables
280
     0
  1
1
  0
DICTIONARY
  5
25B
330
3D
100
AcDbDictionary
280
     1
  3
ACAD_XREC_ROUNDTRIP
360
25C
  0
DICTIONARY
  5
259
330
3C
100
AcDbDictionary
280
     1
  3
ACAD_XREC_ROUNDTRIP
360
25A
  0
DICTIONARY
  5
25D
330
3E
100
AcDbDictionary
280
     1
  3
ACAD_XREC_ROUNDTRIP
360
25E
  0
XRECORD
  5
25C
102
{ACAD_REACTORS
330
25B
102
}
330
25B
100
AcDbXrecord
102
MATERIAL
148
0.0
149
0.0
149
0.0
 93
        0
 94
      127
282
     0
 72
     1
 77
     1
171
     1
175
     1
179
     1
273
     0
  0
XRECORD
  5
25A
102
{ACAD_REACTORS
330
259
102
}
330
259
100
AcDbXrecord
102
MATERIAL
148
0.0
149
0.0
149
0.0
 93
        0
 94
      127
282
     0
 72
     1
 77
     1
171
     1
175
     1
179
     1
273
     0
  0
XRECORD
  5
25E
102
{ACAD_REACTORS
330
25D
102
}
330
25D
100
AcDbXrecord
102
MATERIAL
148
0.0
149
0.0
149
0.0
 93
        0
 94
      127
282
     0
 72
     1
 77
     1
171
     1
175
     1
179
     1
273
     0
  0
ENDSEC
  0
EOF
