  0
SECTION
  2
HEADER
  9
$ACADVER
  1
AC1014
  9
$ACADMAINTVER
 70
     9
  9
$DWGCODEPAGE
  3
ANSI_932
  9
$INSBASE
 10
0.0
 20
0.0
 30
0.0
  9
$EXTMIN
 10
200.2492615385695
 20
133.9833679975436
 30
0.0
  9
$EXTMAX
 10
1059.909231708799
 20
726.6115656729373
 30
0.0
  9
$LIMMIN
 10
0.0
 20
0.0
  9
$LIMMAX
 10
420.0
 20
297.0
  9
$ORTHOMODE
 70
     0
  9
$REGENMODE
 70
     1
  9
$FILLMODE
 70
     1
  9
$QTEXTMODE
 70
     0
  9
$MIRRTEXT
 70
     1
  9
$DRAGMODE
 70
     2
  9
$LTSCALE
 40
0.75
  9
$OSMODE
 70
    37
  9
$ATTMODE
 70
     1
  9
$TEXTSIZE
 40
8.4
  9
$TRACEWID
 40
0.05
  9
$TEXTSTYLE
  7
STANDARD
  9
$CLAYER
  8
0
  9
$CELTYPE
  6
BYLAYER
  9
$CECOLOR
 62
   256
  9
$CELTSCALE
 40
1.0
  9
$DELOBJ
 70
     1
  9
$DISPSILH
 70
     0
  9
$DIMSCALE
 40
1.0
  9
$DIMASZ
 40
1.55291427
  9
$DIMEXO
 40
2.0
  9
$DIMDLI
 40
30.0
  9
$DIMRND
 40
0.0
  9
$DIMDLE
 40
0.0
  9
$DIMEXE
 40
2.0
  9
$DIMTP
 40
0.0
  9
$DIMTM
 40
0.0
  9
$DIMTXT
 40
2.8
  9
$DIMCEN
 40
0.09
  9
$DIMTSZ
 40
0.0
  9
$DIMTOL
 70
     0
  9
$DIMLIM
 70
     0
  9
$DIMTIH
 70
     0
  9
$DIMTOH
 70
     0
  9
$DIMSE1
 70
     0
  9
$DIMSE2
 70
     0
  9
$DIMTAD
 70
     3
  9
$DIMZIN
 70
     8
  9
$DIMBLK
  1

  9
$DIMASO
 70
     1
  9
$DIMSHO
 70
     1
  9
$DIMPOST
  1

  9
$DIMAPOST
  1

  9
$DIMALT
 70
     0
  9
$DIMALTD
 70
     2
  9
$DIMALTF
 40
25.4
  9
$DIMLFAC
 40
1.0
  9
$DIMTOFL
 70
     1
  9
$DIMTVP
 40
0.7
  9
$DIMTIX
 70
     0
  9
$DIMSOXD
 70
     0
  9
$DIMSAH
 70
     0
  9
$DIMBLK1
  1

  9
$DIMBLK2
  1

  9
$DIMSTYLE
  2
STANDARD
  9
$DIMCLRD
 70
     0
  9
$DIMCLRE
 70
     0
  9
$DIMCLRT
 70
     0
  9
$DIMTFAC
 40
0.5
  9
$DIMGAP
 40
0.09
  9
$DIMJUST
 70
     0
  9
$DIMSD1
 70
     0
  9
$DIMSD2
 70
     0
  9
$DIMTOLJ
 70
     1
  9
$DIMTZIN
 70
     8
  9
$DIMALTZ
 70
     0
  9
$DIMALTTZ
 70
     0
  9
$DIMFIT
 70
     5
  9
$DIMUPT
 70
     1
  9
$DIMUNIT
 70
     2
  9
$DIMDEC
 70
     2
  9
$DIMTDEC
 70
     4
  9
$DIMALTU
 70
     2
  9
$DIMALTTD
 70
     2
  9
$DIMTXSTY
  7
STANDARD
  9
$DIMAUNIT
 70
     0
  9
$LUNITS
 70
     2
  9
$LUPREC
 70
     4
  9
$SKETCHINC
 40
0.1
  9
$FILLETRAD
 40
0.5
  9
$AUNITS
 70
     0
  9
$AUPREC
 70
     0
  9
$MENU
  1
.
  9
$ELEVATION
 40
0.0
  9
$PELEVATION
 40
0.0
  9
$THICKNESS
 40
0.0
  9
$LIMCHECK
 70
     0
  9
$CHAMFERA
 40
0.5
  9
$CHAMFERB
 40
0.5
  9
$CHAMFERC
 40
1.0
  9
$CHAMFERD
 40
0.0
  9
$SKPOLY
 70
     0
  9
$TDCREATE
 40
2460154.78744213
  9
$TDUPDATE
 40
2460154.412449028
  9
$TDINDWG
 40
0.0000000116
  9
$TDUSRTIMER
 40
0.0000000116
  9
$USRTIMER
 70
     1
  9
$ANGBASE
 50
0.0
  9
$ANGDIR
 70
     0
  9
$PDMODE
 70
     0
  9
$PDSIZE
 40
0.0
  9
$PLINEWID
 40
0.0
  9
$COORDS
 70
     1
  9
$SPLFRAME
 70
     0
  9
$SPLINETYPE
 70
     6
  9
$SPLINESEGS
 70
     8
  9
$ATTDIA
 70
     0
  9
$ATTREQ
 70
     1
  9
$HANDLING
 70
     1
  9
$HANDSEED
  5
28F
  9
$SURFTAB1
 70
     6
  9
$SURFTAB2
 70
     6
  9
$SURFTYPE
 70
     6
  9
$SURFU
 70
     6
  9
$SURFV
 70
     6
  9
$UCSNAME
  2

  9
$UCSORG
 10
0.0
 20
0.0
 30
0.0
  9
$UCSXDIR
 10
1.0
 20
0.0
 30
0.0
  9
$UCSYDIR
 10
0.0
 20
1.0
 30
0.0
  9
$PUCSNAME
  2

  9
$PUCSORG
 10
0.0
 20
0.0
 30
0.0
  9
$PUCSXDIR
 10
1.0
 20
0.0
 30
0.0
  9
$PUCSYDIR
 10
0.0
 20
1.0
 30
0.0
  9
$USERI1
 70
     0
  9
$USERI2
 70
     0
  9
$USERI3
 70
     0
  9
$USERI4
 70
     0
  9
$USERI5
 70
     0
  9
$USERR1
 40
0.0
  9
$USERR2
 40
0.0
  9
$USERR3
 40
0.0
  9
$USERR4
 40
0.0
  9
$USERR5
 40
0.0
  9
$WORLDVIEW
 70
     1
  9
$SHADEDGE
 70
     3
  9
$SHADEDIF
 70
    70
  9
$TILEMODE
 70
     1
  9
$MAXACTVP
 70
    64
  9
$PINSBASE
 10
0.0
 20
0.0
 30
0.0
  9
$PLIMCHECK
 70
     0
  9
$PEXTMIN
 10
0.0
 20
0.0
 30
0.0
  9
$PEXTMAX
 10
420.0
 20
297.0
 30
0.0
  9
$PLIMMIN
 10
0.0
 20
0.0
  9
$PLIMMAX
 10
420.0
 20
297.0
  9
$UNITMODE
 70
     0
  9
$VISRETAIN
 70
     1
  9
$PLINEGEN
 70
     0
  9
$PSLTSCALE
 70
     1
  9
$TREEDEPTH
 70
  3020
  9
$PICKSTYLE
 70
     1
  9
$CMLSTYLE
  2
STANDARD
  9
$CMLJUST
 70
     0
  9
$CMLSCALE
 40
1.0
  9
$PROXYGRAPHICS
 70
     1
  9
$MEASUREMENT
 70
     1
  0
ENDSEC
  0
SECTION
  2
CLASSES
  0
CLASS
  1
ACDBDICTIONARYWDFLT
  2
AcDbDictionaryWithDefault
  3
ObjectDBX Classes
 90
        0
280
     0
281
     0
  0
CLASS
  1
VISUALSTYLE
  2
AcDbVisualStyle
  3
ObjectDBX Classes
 90
     4095
280
     0
281
     0
  0
CLASS
  1
MATERIAL
  2
AcDbMaterial
  3
ObjectDBX Classes
 90
     1153
280
     0
281
     0
  0
CLASS
  1
DICTIONARYVAR
  2
AcDbDictionaryVar
  3
ObjectDBX Classes
 90
        0
280
     0
281
     0
  0
CLASS
  1
XRECORD
  2
AcDbXrecord
  3
AutoCAD 2000
 90
        0
280
     0
281
     0
  0
CLASS
  1
LWPOLYLINE
  2
AcDbPolyline
  3
AutoCAD 2000
 90
        0
280
     0
281
     1
  0
CLASS
  1
HATCH
  2
AcDbHatch
  3
AutoCAD 2000
 90
        0
280
     0
281
     1
  0
CLASS
  1
ACDBPLACEHOLDER
  2
AcDbPlaceHolder
  3
ObjectDBX Classes
 90
        0
280
     0
281
     0
  0
CLASS
  1
LAYOUT
  2
AcDbLayout
  3
ObjectDBX Classes
 90
        0
280
     0
281
     0
  0
ENDSEC
  0
SECTION
  2
TABLES
  0
TABLE
  2
VPORT
  5
8
330
0
100
AcDbSymbolTable
 70
     1
  0
VPORT
  5
29
330
8
100
AcDbSymbolTableRecord
100
AcDbViewportTableRecord
  2
*ACTIVE
 70
     0
 10
0.0
 20
0.0
 11
1.0
 21
1.0
 12
10.42990654205607
 22
4.5
 13
0.0
 23
0.0
 14
0.5
 24
0.5
 15
0.5
 25
0.5
 16
0.0
 26
0.0
 36
1.0
 17
0.0
 27
0.0
 37
0.0
 40
9.0
 41
1.972972972850329
 42
50.0
 43
0.0
 44
0.0
 50
0.0
 51
0.0
 71
     0
 72
   100
 73
     1
 74
     3
 75
     0
 76
     0
 77
     0
 78
     0
  0
ENDTAB
  0
TABLE
  2
LTYPE
  5
5
330
0
100
AcDbSymbolTable
 70
     9
  0
LTYPE
  5
14
330
5
100
AcDbSymbolTableRecord
100
AcDbLinetypeTableRecord
  2
BYBLOCK
 70
     0
  3

 72
    65
 73
     0
 40
0.0
  0
LTYPE
  5
15
330
5
100
AcDbSymbolTableRecord
100
AcDbLinetypeTableRecord
  2
BYLAYER
 70
     0
  3

 72
    65
 73
     0
 40
0.0
  0
LTYPE
  5
16
330
5
100
AcDbSymbolTableRecord
100
AcDbLinetypeTableRecord
  2
CONTINUOUS
 70
     0
  3
Solid line
 72
    65
 73
     0
 40
0.0
  0
LTYPE
  5
8E
330
5
100
AcDbSymbolTableRecord
100
AcDbLinetypeTableRecord
  2
DOT
 70
     0
  3
DOT
 72
    65
 73
     2
 40
4.0
 49
6.0
 74
     0
 49
-2.0
 74
     0
  0
LTYPE
  5
8F
330
5
100
AcDbSymbolTableRecord
100
AcDbLinetypeTableRecord
  2
HIDDEN
 70
     0
  3
HIDDEN
 72
    65
 73
     2
 40
4.2
 49
8.4
 74
     0
 49
-4.2
 74
     0
  0
LTYPE
  5
90
330
5
100
AcDbSymbolTableRecord
100
AcDbLinetypeTableRecord
  2
DASHDOT
 70
     0
  3
DASHDOT
 72
    65
 73
     4
 40
14.5
 49
30.0
 74
     0
 49
-9.0
 74
     0
 49
2.5
 74
     0
 49
-9.0
 74
     0
  0
LTYPE
  5
91
330
5
100
AcDbSymbolTableRecord
100
AcDbLinetypeTableRecord
  2
PHANTOM
 70
     0
  3
PHANTOM
 72
    65
 73
     6
 40
12.0
 49
30.0
 74
     0
 49
-9.0
 74
     0
 49
2.5
 74
     0
 49
-5.0
 74
     0
 49
2.5
 74
     0
 49
-9.0
 74
     0
  0
LTYPE
  5
92
330
5
100
AcDbSymbolTableRecord
100
AcDbLinetypeTableRecord
  2
ACAD_ISO14W100
 70
     0
  3
ACAD_ISO14W100
 72
    65
 73
     8
 40
1.5
 49
12.0
 74
     0
 49
-3.0
 74
     0
 49
0.5
 74
     0
 49
-3.0
 74
     0
 49
0.5
 74
     0
 49
-3.0
 74
     0
 49
0.5
 74
     0
 49
-3.0
 74
     0
  0
LTYPE
  5
93
330
5
100
AcDbSymbolTableRecord
100
AcDbLinetypeTableRecord
  2
ACAD_ISO06W100
 70
     0
  3
ACAD_ISO06W100
 72
    65
 73
     8
 40
13.5
 49
24.0
 74
     0
 49
-3.0
 74
     0
 49
0.5
 74
     0
 49
-3.0
 74
     0
 49
0.5
 74
     0
 49
-3.0
 74
     0
 49
0.5
 74
     0
 49
-3.0
 74
     0
  0
LTYPE
  5
94
330
5
100
AcDbSymbolTableRecord
100
AcDbLinetypeTableRecord
  2
ACAD_ISO11W100
 70
     0
  3
ACAD_ISO11W100
 72
    65
 73
     6
 40
15.5
 49
12.0
 74
     0
 49
-3.0
 74
     0
 49
12.0
 74
     0
 49
-3.0
 74
     0
 49
0.5
 74
     0
 49
-3.0
 74
     0
  0
LTYPE
  5
95
330
5
100
AcDbSymbolTableRecord
100
AcDbLinetypeTableRecord
  2
ACAD_ISO13W100
 70
     0
  3
ACAD_ISO13W100
 72
    65
 73
     8
 40
13.0
 49
12.0
 74
     0
 49
-3.0
 74
     0
 49
12.0
 74
     0
 49
-3.0
 74
     0
 49
0.5
 74
     0
 49
-3.0
 74
     0
 49
0.5
 74
     0
 49
-3.0
 74
     0
  0
ENDTAB
  0
TABLE
  2
LAYER
  5
2
330
0
100
AcDbSymbolTable
 70
    12
  0
LAYER
  5
10
330
2
100
AcDbSymbolTableRecord
100
AcDbLayerTableRecord
  2
0
 70
     0
 62
     7
  6
CONTINUOUS
  0
LAYER
  5
96
330
2
100
AcDbSymbolTableRecord
100
AcDbLayerTableRecord
  2
1
 70
     0
 62
     7
  6
CONTINUOUS
  0
LAYER
  5
97
330
2
100
AcDbSymbolTableRecord
100
AcDbLayerTableRecord
  2
2
 70
     0
 62
   151
  6
CONTINUOUS
  0
LAYER
  5
98
330
2
100
AcDbSymbolTableRecord
100
AcDbLayerTableRecord
  2
3
 70
     0
 62
     3
  6
HIDDEN
  0
LAYER
  5
99
330
2
100
AcDbSymbolTableRecord
100
AcDbLayerTableRecord
  2
4
 70
     0
 62
     1
  6
DASHDOT
  0
LAYER
  5
9A
330
2
100
AcDbSymbolTableRecord
100
AcDbLayerTableRecord
  2
5
 70
     0
 62
     7
  6
CONTINUOUS
  0
LAYER
  5
9B
330
2
100
AcDbSymbolTableRecord
100
AcDbLayerTableRecord
  2
6
 70
     0
 62
     6
  6
CONTINUOUS
  0
LAYER
  5
9C
330
2
100
AcDbSymbolTableRecord
100
AcDbLayerTableRecord
  2
7
 70
     0
 62
     3
  6
CONTINUOUS
  0
LAYER
  5
9D
330
2
100
AcDbSymbolTableRecord
100
AcDbLayerTableRecord
  2
8
 70
     0
 62
     4
  6
CONTINUOUS
  0
LAYER
  5
9E
330
2
100
AcDbSymbolTableRecord
100
AcDbLayerTableRecord
  2
9
 70
     0
 62
     7
  6
CONTINUOUS
  0
LAYER
  5
9F
330
2
100
AcDbSymbolTableRecord
100
AcDbLayerTableRecord
  2
10
 70
     0
 62
     2
  6
CONTINUOUS
  0
LAYER
  5
A0
330
2
100
AcDbSymbolTableRecord
100
AcDbLayerTableRecord
  2
11
 70
     0
 62
     2
  6
CONTINUOUS
  0
ENDTAB
  0
TABLE
  2
STYLE
  5
3
330
0
100
AcDbSymbolTable
 70
     3
  0
STYLE
  5
11
330
3
100
AcDbSymbolTableRecord
100
AcDbTextStyleTableRecord
  2
STANDARD
 70
     0
 40
0.0
 41
1.0
 50
0.0
 71
     0
 42
8.4
  3
txt
  4
bigfont
  0
STYLE
  5
41
330
3
100
AcDbSymbolTableRecord
100
AcDbTextStyleTableRecord
  2
T_STANDARD
 70
     4
 40
10.0
 41
1.0
 50
0.0
 71
     0
 42
10.0
  3
txt
  4
bigfont
  0
STYLE
  5
1C0
330
3
100
AcDbSymbolTableRecord
100
AcDbTextStyleTableRecord
  2
ＭＳ_ゴシック
 70
     0
 40
0.0
 41
1.0
 50
0.0
 71
     0
 42
0.0
  3

  4

1001
ACAD
1000
ＭＳ ゴシック
1071
      256
  0
ENDTAB
  0
TABLE
  2
VIEW
  5
6
330
0
100
AcDbSymbolTable
 70
     0
  0
ENDTAB
  0
TABLE
  2
UCS
  5
7
330
0
100
AcDbSymbolTable
 70
     0
  0
ENDTAB
  0
TABLE
  2
APPID
  5
9
330
0
100
AcDbSymbolTable
 70
     2
  0
APPID
  5
12
330
9
100
AcDbSymbolTableRecord
100
AcDbRegAppTableRecord
  2
ACAD
 70
     0
  0
APPID
  5
40
330
9
100
AcDbSymbolTableRecord
100
AcDbRegAppTableRecord
  2
ODA
 70
     0
  0
ENDTAB
  0
TABLE
  2
DIMSTYLE
  5
A
330
0
100
AcDbSymbolTable
 70
     1
  0
DIMSTYLE
105
27
102
{ACAD_REACTORS
330
1CA
330
1D4
330
1DE
330
1E8
330
1F2
330
1FC
330
206
330
210
330
21A
330
224
330
22E
330
238
330
242
330
24C
330
25B
330
263
102
}
330
A
100
AcDbSymbolTableRecord
100
AcDbDimStyleTableRecord
  2
STANDARD
 70
     0
  3

  4

  5

  6

  7

 40
1.0
 41
0.18
 42
0.0625
 43
0.38
 44
0.18
 45
0.0
 46
0.0
 47
0.0
 48
0.0
140
0.18
141
0.09
142
0.0
143
25.4
144
1.0
145
0.0
146
1.0
147
0.09
 71
     0
 72
     0
 73
     1
 74
     1
 75
     0
 76
     0
 77
     0
 78
     0
170
     0
171
     2
172
     0
173
     0
174
     0
175
     0
176
     0
177
     0
178
     0
270
     2
271
     4
272
     4
273
     2
274
     2
340
11
275
     0
280
     0
281
     0
282
     0
283
     1
284
     0
285
     0
286
     0
287
     3
288
     0
  0
ENDTAB
  0
TABLE
  2
BLOCK_RECORD
  5
1
330
0
100
AcDbSymbolTable
 70
    32
  0
BLOCK_RECORD
  5
1F
330
1
100
AcDbSymbolTableRecord
100
AcDbBlockTableRecord
  2
*MODEL_SPACE
  0
BLOCK_RECORD
  5
1B
330
1
100
AcDbSymbolTableRecord
100
AcDbBlockTableRecord
  2
*PAPER_SPACE
  0
BLOCK_RECORD
  5
42
330
1
100
AcDbSymbolTableRecord
100
AcDbBlockTableRecord
  2
_ORIGIN
  0
BLOCK_RECORD
  5
47
330
1
100
AcDbSymbolTableRecord
100
AcDbBlockTableRecord
  2
_DOTBLANK
  0
BLOCK_RECORD
  5
4C
330
1
100
AcDbSymbolTableRecord
100
AcDbBlockTableRecord
  2
_DOT
  0
BLOCK_RECORD
  5
51
330
1
100
AcDbSymbolTableRecord
100
AcDbBlockTableRecord
  2
_OPEN
  0
BLOCK_RECORD
  5
57
330
1
100
AcDbSymbolTableRecord
100
AcDbBlockTableRecord
  2
_CLOSED
  0
BLOCK_RECORD
  5
5E
330
1
100
AcDbSymbolTableRecord
100
AcDbBlockTableRecord
  2
_CLOSEDBLANK
  0
BLOCK_RECORD
  5
64
330
1
100
AcDbSymbolTableRecord
100
AcDbBlockTableRecord
  2
_ARROWFILLED
  0
BLOCK_RECORD
  5
68
330
1
100
AcDbSymbolTableRecord
100
AcDbBlockTableRecord
  2
_BOXBLANK
  0
BLOCK_RECORD
  5
70
330
1
100
AcDbSymbolTableRecord
100
AcDbBlockTableRecord
  2
_BOXFILLED
  0
BLOCK_RECORD
  5
75
330
1
100
AcDbSymbolTableRecord
100
AcDbBlockTableRecord
  2
_INTEGRAL
  0
BLOCK_RECORD
  5
7A
330
1
100
AcDbSymbolTableRecord
100
AcDbBlockTableRecord
  2
_OBLIQUE
  0
BLOCK_RECORD
  5
7E
330
1
100
AcDbSymbolTableRecord
100
AcDbBlockTableRecord
  2
_NONE
  0
BLOCK_RECORD
  5
81
330
1
100
AcDbSymbolTableRecord
100
AcDbBlockTableRecord
  2
MARK_OPEN
  0
BLOCK_RECORD
  5
86
330
1
100
AcDbSymbolTableRecord
100
AcDbBlockTableRecord
  2
MARK_ORIGIN
  0
BLOCK_RECORD
  5
8A
330
1
100
AcDbSymbolTableRecord
100
AcDbBlockTableRecord
  2
MARK_DOT
  0
BLOCK_RECORD
  5
1C1
330
1
100
AcDbSymbolTableRecord
100
AcDbBlockTableRecord
  2
DIM1
  0
BLOCK_RECORD
  5
1CB
330
1
100
AcDbSymbolTableRecord
100
AcDbBlockTableRecord
  2
DIM2
  0
BLOCK_RECORD
  5
1D5
330
1
100
AcDbSymbolTableRecord
100
AcDbBlockTableRecord
  2
DIM3
  0
BLOCK_RECORD
  5
1DF
330
1
100
AcDbSymbolTableRecord
100
AcDbBlockTableRecord
  2
DIM4
  0
BLOCK_RECORD
  5
1E9
330
1
100
AcDbSymbolTableRecord
100
AcDbBlockTableRecord
  2
DIM5
  0
BLOCK_RECORD
  5
1F3
330
1
100
AcDbSymbolTableRecord
100
AcDbBlockTableRecord
  2
DIM6
  0
BLOCK_RECORD
  5
1FD
330
1
100
AcDbSymbolTableRecord
100
AcDbBlockTableRecord
  2
DIM7
  0
BLOCK_RECORD
  5
207
330
1
100
AcDbSymbolTableRecord
100
AcDbBlockTableRecord
  2
DIM8
  0
BLOCK_RECORD
  5
211
330
1
100
AcDbSymbolTableRecord
100
AcDbBlockTableRecord
  2
DIM9
  0
BLOCK_RECORD
  5
21B
330
1
100
AcDbSymbolTableRecord
100
AcDbBlockTableRecord
  2
DIM10
  0
BLOCK_RECORD
  5
225
330
1
100
AcDbSymbolTableRecord
100
AcDbBlockTableRecord
  2
DIM11
  0
BLOCK_RECORD
  5
22F
330
1
100
AcDbSymbolTableRecord
100
AcDbBlockTableRecord
  2
DIM12
  0
BLOCK_RECORD
  5
239
330
1
100
AcDbSymbolTableRecord
100
AcDbBlockTableRecord
  2
DIM13
  0
BLOCK_RECORD
  5
243
330
1
100
AcDbSymbolTableRecord
100
AcDbBlockTableRecord
  2
DIM14
  0
BLOCK_RECORD
  5
254
330
1
100
AcDbSymbolTableRecord
100
AcDbBlockTableRecord
  2
DIM15
  0
BLOCK_RECORD
  5
25C
330
1
100
AcDbSymbolTableRecord
100
AcDbBlockTableRecord
  2
DIM16
  0
ENDTAB
  0
ENDSEC
  0
SECTION
  2
BLOCKS
  0
BLOCK
  5
20
330
1F
100
AcDbEntity
  8
0
100
AcDbBlockBegin
  2
*MODEL_SPACE
 70
     0
 10
0.0
 20
0.0
 30
0.0
  3
*MODEL_SPACE
  1

  0
ENDBLK
  5
21
330
1F
100
AcDbEntity
  8
0
100
AcDbBlockEnd
  0
BLOCK
  5
1C
330
1B
100
AcDbEntity
 67
     1
  8
0
100
AcDbBlockBegin
  2
*PAPER_SPACE
 70
     0
 10
0.0
 20
0.0
 30
0.0
  3
*PAPER_SPACE
  1

  0
ENDBLK
  5
1D
330
1B
100
AcDbEntity
 67
     1
  8
0
100
AcDbBlockEnd
  0
BLOCK
  5
45
330
42
100
AcDbEntity
  8
0
100
AcDbBlockBegin
  2
_ORIGIN
 70
     0
 10
0.0
 20
0.0
 30
0.0
  3
_ORIGIN
  1

  0
CIRCLE
  5
43
330
42
100
AcDbEntity
  8
0
 62
     0
100
AcDbCircle
 10
0.0
 20
0.0
 30
0.0
 40
0.5
  0
LINE
  5
44
330
42
100
AcDbEntity
  8
0
 62
     0
100
AcDbLine
 10
0.0
 20
0.0
 30
0.0
 11
-1.0
 21
0.0
 31
0.0
  0
ENDBLK
  5
46
330
42
100
AcDbEntity
  8
0
100
AcDbBlockEnd
  0
BLOCK
  5
4A
330
47
100
AcDbEntity
  8
0
100
AcDbBlockBegin
  2
_DOTBLANK
 70
     0
 10
0.0
 20
0.0
 30
0.0
  3
_DOTBLANK
  1

  0
CIRCLE
  5
48
330
47
100
AcDbEntity
  8
0
 62
     0
100
AcDbCircle
 10
0.0
 20
0.0
 30
0.0
 40
0.5
  0
LINE
  5
49
330
47
100
AcDbEntity
  8
0
 62
     0
100
AcDbLine
 10
-0.5
 20
0.0
 30
0.0
 11
-1.0
 21
0.0
 31
0.0
  0
ENDBLK
  5
4B
330
47
100
AcDbEntity
  8
0
100
AcDbBlockEnd
  0
BLOCK
  5
4F
330
4C
100
AcDbEntity
  8
0
100
AcDbBlockBegin
  2
_DOT
 70
     0
 10
0.0
 20
0.0
 30
0.0
  3
_DOT
  1

  0
LWPOLYLINE
  5
4D
330
4C
100
AcDbEntity
  8
0
 62
     0
100
AcDbPolyline
 90
        2
 70
     1
 43
0.5
 10
-0.25
 20
0.0
 42
1.0
 10
0.25
 20
0.0
 42
1.0
  0
LINE
  5
4E
330
4C
100
AcDbEntity
  8
0
 62
     0
100
AcDbLine
 10
-0.5
 20
0.0
 30
0.0
 11
-1.0
 21
0.0
 31
0.0
  0
ENDBLK
  5
50
330
4C
100
AcDbEntity
  8
0
100
AcDbBlockEnd
  0
BLOCK
  5
55
330
51
100
AcDbEntity
  8
0
100
AcDbBlockBegin
  2
_OPEN
 70
     0
 10
0.0
 20
0.0
 30
0.0
  3
_OPEN
  1

  0
LINE
  5
52
330
51
100
AcDbEntity
  8
0
 62
     0
100
AcDbLine
 10
0.0
 20
0.0
 30
0.0
 11
-1.0
 21
0.1666666666666667
 31
0.0
  0
LINE
  5
53
330
51
100
AcDbEntity
  8
0
 62
     0
100
AcDbLine
 10
0.0
 20
0.0
 30
0.0
 11
-1.0
 21
-0.1666666666666667
 31
0.0
  0
LINE
  5
54
330
51
100
AcDbEntity
  8
0
 62
     0
100
AcDbLine
 10
0.0
 20
0.0
 30
0.0
 11
-1.0
 21
0.0
 31
0.0
  0
ENDBLK
  5
56
330
51
100
AcDbEntity
  8
0
100
AcDbBlockEnd
  0
BLOCK
  5
5C
330
57
100
AcDbEntity
  8
0
100
AcDbBlockBegin
  2
_CLOSED
 70
     0
 10
0.0
 20
0.0
 30
0.0
  3
_CLOSED
  1

  0
LINE
  5
58
330
57
100
AcDbEntity
  8
0
 62
     0
100
AcDbLine
 10
0.0
 20
0.0
 30
0.0
 11
-1.0
 21
0.1666666666666667
 31
0.0
  0
LINE
  5
59
330
57
100
AcDbEntity
  8
0
 62
     0
100
AcDbLine
 10
0.0
 20
0.0
 30
0.0
 11
-1.0
 21
-0.1666666666666667
 31
0.0
  0
LINE
  5
5A
330
57
100
AcDbEntity
  8
0
 62
     0
100
AcDbLine
 10
-1.0
 20
0.1666666666666667
 30
0.0
 11
-1.0
 21
-0.1666666666666667
 31
0.0
  0
LINE
  5
5B
330
57
100
AcDbEntity
  8
0
 62
     0
100
AcDbLine
 10
0.0
 20
0.0
 30
0.0
 11
-1.0
 21
0.0
 31
0.0
  0
ENDBLK
  5
5D
330
57
100
AcDbEntity
  8
0
100
AcDbBlockEnd
  0
BLOCK
  5
62
330
5E
100
AcDbEntity
  8
0
100
AcDbBlockBegin
  2
_CLOSEDBLANK
 70
     0
 10
0.0
 20
0.0
 30
0.0
  3
_CLOSEDBLANK
  1

  0
LINE
  5
5F
330
5E
100
AcDbEntity
  8
0
 62
     0
100
AcDbLine
 10
0.0
 20
0.0
 30
0.0
 11
-1.0
 21
0.1666666666666667
 31
0.0
  0
LINE
  5
60
330
5E
100
AcDbEntity
  8
0
 62
     0
100
AcDbLine
 10
0.0
 20
0.0
 30
0.0
 11
-1.0
 21
-0.1666666666666667
 31
0.0
  0
LINE
  5
61
330
5E
100
AcDbEntity
  8
0
 62
     0
100
AcDbLine
 10
-1.0
 20
0.1666666666666667
 30
0.0
 11
-1.0
 21
-0.1666666666666667
 31
0.0
  0
ENDBLK
  5
63
330
5E
100
AcDbEntity
  8
0
100
AcDbBlockEnd
  0
BLOCK
  5
66
330
64
100
AcDbEntity
  8
0
100
AcDbBlockBegin
  2
_ARROWFILLED
 70
     0
 10
0.0
 20
0.0
 30
0.0
  3
_ARROWFILLED
  1

  0
SOLID
  5
65
330
64
100
AcDbEntity
  8
0
 62
     0
100
AcDbTrace
 10
0.0
 20
0.0
 30
0.0
 11
-1.0
 21
-0.1666666666666667
 31
0.0
 12
-1.0
 22
0.1666666666666667
 32
0.0
 13
0.0
 23
0.0
 33
0.0
  0
ENDBLK
  5
67
330
64
100
AcDbEntity
  8
0
100
AcDbBlockEnd
  0
BLOCK
  5
6E
330
68
100
AcDbEntity
  8
0
100
AcDbBlockBegin
  2
_BOXBLANK
 70
     0
 10
0.0
 20
0.0
 30
0.0
  3
_BOXBLANK
  1

  0
LINE
  5
69
330
68
100
AcDbEntity
  8
0
 62
     0
100
AcDbLine
 10
-0.5
 20
-0.5
 30
0.0
 11
0.5
 21
-0.5
 31
0.0
  0
LINE
  5
6A
330
68
100
AcDbEntity
  8
0
 62
     0
100
AcDbLine
 10
0.5
 20
-0.5
 30
0.0
 11
0.5
 21
0.5
 31
0.0
  0
LINE
  5
6B
330
68
100
AcDbEntity
  8
0
 62
     0
100
AcDbLine
 10
0.5
 20
0.5
 30
0.0
 11
-0.5
 21
0.5
 31
0.0
  0
LINE
  5
6C
330
68
100
AcDbEntity
  8
0
 62
     0
100
AcDbLine
 10
-0.5
 20
0.5
 30
0.0
 11
-0.5
 21
-0.5
 31
0.0
  0
LINE
  5
6D
330
68
100
AcDbEntity
  8
0
 62
     0
100
AcDbLine
 10
-0.5
 20
0.0
 30
0.0
 11
-1.0
 21
0.0
 31
0.0
  0
ENDBLK
  5
6F
330
68
100
AcDbEntity
  8
0
100
AcDbBlockEnd
  0
BLOCK
  5
73
330
70
100
AcDbEntity
  8
0
100
AcDbBlockBegin
  2
_BOXFILLED
 70
     0
 10
0.0
 20
0.0
 30
0.0
  3
_BOXFILLED
  1

  0
SOLID
  5
71
330
70
100
AcDbEntity
  8
0
 62
     0
100
AcDbTrace
 10
-0.5
 20
0.5
 30
0.0
 11
0.5
 21
0.5
 31
0.0
 12
-0.5
 22
-0.5
 32
0.0
 13
0.5
 23
-0.5
 33
0.0
  0
LINE
  5
72
330
70
100
AcDbEntity
  8
0
 62
     0
100
AcDbLine
 10
-0.5
 20
0.0
 30
0.0
 11
-1.0
 21
0.0
 31
0.0
  0
ENDBLK
  5
74
330
70
100
AcDbEntity
  8
0
100
AcDbBlockEnd
  0
BLOCK
  5
78
330
75
100
AcDbEntity
  8
0
100
AcDbBlockBegin
  2
_INTEGRAL
 70
     0
 10
0.0
 20
0.0
 30
0.0
  3
_INTEGRAL
  1

  0
ARC
  5
76
330
75
100
AcDbEntity
  8
0
 62
     0
100
AcDbCircle
 10
0.444888
 20
-0.0913346
 30
0.0
 40
0.4541666
100
AcDbArc
 50
101.9999999999999
 51
167.9999999999998
  0
ARC
  5
77
330
75
100
AcDbEntity
  8
0
 62
     0
100
AcDbCircle
 10
-0.444888
 20
0.0913346
 30
0.0
 40
0.4541666
100
AcDbArc
 50
281.9999999999997
 51
347.9999999999997
  0
ENDBLK
  5
79
330
75
100
AcDbEntity
  8
0
100
AcDbBlockEnd
  0
BLOCK
  5
7C
330
7A
100
AcDbEntity
  8
0
100
AcDbBlockBegin
  2
_OBLIQUE
 70
     0
 10
0.0
 20
0.0
 30
0.0
  3
_OBLIQUE
  1

  0
LINE
  5
7B
330
7A
100
AcDbEntity
  8
0
 62
     0
100
AcDbLine
 10
-0.5
 20
-0.5
 30
0.0
 11
0.5
 21
0.5
 31
0.0
  0
ENDBLK
  5
7D
330
7A
100
AcDbEntity
  8
0
100
AcDbBlockEnd
  0
BLOCK
  5
7F
330
7E
100
AcDbEntity
  8
0
100
AcDbBlockBegin
  2
_NONE
 70
     0
 10
0.0
 20
0.0
 30
0.0
  3
_NONE
  1

  0
ENDBLK
  5
80
330
7E
100
AcDbEntity
  8
0
100
AcDbBlockEnd
  0
BLOCK
  5
84
330
81
100
AcDbEntity
  8
0
100
AcDbBlockBegin
  2
MARK_OPEN
 70
     0
 10
0.0
 20
0.0
 30
0.0
  3
MARK_OPEN
  1

  0
LINE
  5
82
330
81
100
AcDbEntity
  8
0
 62
     0
100
AcDbLine
 10
0.0
 20
0.0
 30
0.0
 11
-1.0
 21
0.1666666666666667
 31
0.0
  0
LINE
  5
83
330
81
100
AcDbEntity
  8
0
 62
     0
100
AcDbLine
 10
0.0
 20
0.0
 30
0.0
 11
-1.0
 21
-0.1666666666666667
 31
0.0
  0
ENDBLK
  5
85
330
81
100
AcDbEntity
  8
0
100
AcDbBlockEnd
  0
BLOCK
  5
88
330
86
100
AcDbEntity
  8
0
100
AcDbBlockBegin
  2
MARK_ORIGIN
 70
     0
 10
0.0
 20
0.0
 30
0.0
  3
MARK_ORIGIN
  1

  0
CIRCLE
  5
87
330
86
100
AcDbEntity
  8
0
 62
     0
100
AcDbCircle
 10
0.0
 20
0.0
 30
0.0
 40
0.5
  0
ENDBLK
  5
89
330
86
100
AcDbEntity
  8
0
100
AcDbBlockEnd
  0
BLOCK
  5
8C
330
8A
100
AcDbEntity
  8
0
100
AcDbBlockBegin
  2
MARK_DOT
 70
     0
 10
0.0
 20
0.0
 30
0.0
  3
MARK_DOT
  1

  0
LWPOLYLINE
  5
8B
330
8A
100
AcDbEntity
  8
0
 62
     0
100
AcDbPolyline
 90
        2
 70
     1
 43
0.5
 10
-0.25
 20
0.0
 42
1.0
 10
0.25
 20
0.0
 42
1.0
  0
ENDBLK
  5
8D
330
8A
100
AcDbEntity
  8
0
100
AcDbBlockEnd
  0
BLOCK
  5
1C2
330
1C1
100
AcDbEntity
  8
0
100
AcDbBlockBegin
  2
DIM1
 70
     0
 10
0.0
 20
0.0
 30
0.0
  3
DIM1
  1

  0
LINE
  5
1C4
330
1C1
100
AcDbEntity
  8
8
  6
CONTINUOUS
 62
     4
100
AcDbLine
 10
570.249261538569
 20
204.4833679975436
 30
0.0
 11
570.249261538569
 21
181.9833679975436
 31
0.0
  0
LINE
  5
1C5
330
1C1
100
AcDbEntity
  8
8
  6
CONTINUOUS
 62
     4
100
AcDbLine
 10
682.749261538569
 20
215.8833679975432
 30
0.0
 11
682.749261538569
 21
181.9833679975436
 31
0.0
  0
LINE
  5
1C6
330
1C1
100
AcDbEntity
  8
8
  6
CONTINUOUS
 62
     4
100
AcDbLine
 10
570.249261538569
 20
186.4833679975436
 30
0.0
 11
682.749261538569
 21
186.4833679975436
 31
0.0
  0
MTEXT
  5
1C7
330
1C1
100
AcDbEntity
  8
8
  6
CONTINUOUS
 62
     4
100
AcDbMText
 10
626.499261538569
 20
186.4833679975436
 30
0.0
 40
9.0
 41
173.5714285714286
 71
     8
 72
     1
  1
112.5
  7
ＭＳ_ゴシック
1001
ACAD
1000
ACAD_MTEXT_DEFINED_HEIGHT_BEGIN
1070
    46
1040
9.0
1000
ACAD_MTEXT_DEFINED_HEIGHT_END
  0
INSERT
  5
1C8
330
1C1
100
AcDbEntity
  8
8
  6
CONTINUOUS
 62
     4
100
AcDbBlockReference
  2
_ARROWFILLED
 10
570.249261538569
 20
186.4833679975436
 30
0.0
 41
6.0
 42
6.0
 43
6.0
 50
179.9999999999998
  0
INSERT
  5
1C9
330
1C1
100
AcDbEntity
  8
8
  6
CONTINUOUS
 62
     4
100
AcDbBlockReference
  2
_ARROWFILLED
 10
682.749261538569
 20
186.4833679975436
 30
0.0
 41
6.0
 42
6.0
 43
6.0
 50
359.9999999999997
  0
ENDBLK
  5
1C3
330
1C1
100
AcDbEntity
  8
0
100
AcDbBlockEnd
  0
BLOCK
  5
1CC
330
1CB
100
AcDbEntity
  8
0
100
AcDbBlockBegin
  2
DIM2
 70
     0
 10
0.0
 20
0.0
 30
0.0
  3
DIM2
  1

  0
LINE
  5
1CE
330
1CB
100
AcDbEntity
  8
8
  6
CONTINUOUS
 62
     4
100
AcDbLine
 10
682.749261538569
 20
215.8833679975432
 30
0.0
 11
682.749261538569
 21
181.9833679975436
 31
0.0
  0
LINE
  5
1CF
330
1CB
100
AcDbEntity
  8
8
  6
CONTINUOUS
 62
     4
100
AcDbLine
 10
795.249261538569
 20
215.8833679975432
 30
0.0
 11
795.249261538569
 21
181.9833679975436
 31
0.0
  0
LINE
  5
1D0
330
1CB
100
AcDbEntity
  8
8
  6
CONTINUOUS
 62
     4
100
AcDbLine
 10
682.749261538569
 20
186.4833679975436
 30
0.0
 11
795.249261538569
 21
186.4833679975436
 31
0.0
  0
MTEXT
  5
1D1
330
1CB
100
AcDbEntity
  8
8
  6
CONTINUOUS
 62
     4
100
AcDbMText
 10
738.999261538569
 20
186.4833679975436
 30
0.0
 40
9.0
 41
173.5714285714286
 71
     8
 72
     1
  1
112.5
  7
ＭＳ_ゴシック
1001
ACAD
1000
ACAD_MTEXT_DEFINED_HEIGHT_BEGIN
1070
    46
1040
9.0
1000
ACAD_MTEXT_DEFINED_HEIGHT_END
  0
INSERT
  5
1D2
330
1CB
100
AcDbEntity
  8
8
  6
CONTINUOUS
 62
     4
100
AcDbBlockReference
  2
_ARROWFILLED
 10
682.749261538569
 20
186.4833679975436
 30
0.0
 41
6.0
 42
6.0
 43
6.0
 50
179.9999999999998
  0
INSERT
  5
1D3
330
1CB
100
AcDbEntity
  8
8
  6
CONTINUOUS
 62
     4
100
AcDbBlockReference
  2
_ARROWFILLED
 10
795.249261538569
 20
186.4833679975436
 30
0.0
 41
6.0
 42
6.0
 43
6.0
 50
359.9999999999997
  0
ENDBLK
  5
1CD
330
1CB
100
AcDbEntity
  8
0
100
AcDbBlockEnd
  0
BLOCK
  5
1D6
330
1D5
100
AcDbEntity
  8
0
100
AcDbBlockBegin
  2
DIM3
 70
     0
 10
0.0
 20
0.0
 30
0.0
  3
DIM3
  1

  0
LINE
  5
1D8
330
1D5
100
AcDbEntity
  8
8
  6
CONTINUOUS
 62
     4
100
AcDbLine
 10
457.7495125969517
 20
215.8833679975432
 30
0.0
 11
457.7495125969517
 21
181.9833679975436
 31
0.0
  0
LINE
  5
1D9
330
1D5
100
AcDbEntity
  8
8
  6
CONTINUOUS
 62
     4
100
AcDbLine
 10
345.249261538569
 20
215.8833679975432
 30
0.0
 11
345.2492615385689
 21
181.9833679975436
 31
0.0
  0
LINE
  5
1DA
330
1D5
100
AcDbEntity
  8
8
  6
CONTINUOUS
 62
     4
100
AcDbLine
 10
457.7495125969517
 20
186.4833679975436
 30
0.0
 11
345.2492615385689
 21
186.4833679975436
 31
0.0
  0
MTEXT
  5
1DB
330
1D5
100
AcDbEntity
  8
8
  6
CONTINUOUS
 62
     4
100
AcDbMText
 10
401.4993870677599
 20
186.4833679975436
 30
0.0
 40
9.0
 41
173.5714285714286
 71
     8
 72
     1
  1
112.5
  7
ＭＳ_ゴシック
1001
ACAD
1000
ACAD_MTEXT_DEFINED_HEIGHT_BEGIN
1070
    46
1040
9.0
1000
ACAD_MTEXT_DEFINED_HEIGHT_END
  0
INSERT
  5
1DC
330
1D5
100
AcDbEntity
  8
8
  6
CONTINUOUS
 62
     4
100
AcDbBlockReference
  2
_ARROWFILLED
 10
457.7495125969517
 20
186.4833679975436
 30
0.0
 41
6.0
 42
6.0
 43
6.0
 50
359.9999999999997
  0
INSERT
  5
1DD
330
1D5
100
AcDbEntity
  8
8
  6
CONTINUOUS
 62
     4
100
AcDbBlockReference
  2
_ARROWFILLED
 10
345.2492615385689
 20
186.4833679975436
 30
0.0
 41
6.0
 42
6.0
 43
6.0
 50
179.9999999999998
  0
ENDBLK
  5
1D7
330
1D5
100
AcDbEntity
  8
0
100
AcDbBlockEnd
  0
BLOCK
  5
1E0
330
1DF
100
AcDbEntity
  8
0
100
AcDbBlockBegin
  2
DIM4
 70
     0
 10
0.0
 20
0.0
 30
0.0
  3
DIM4
  1

  0
LINE
  5
1E2
330
1DF
100
AcDbEntity
  8
8
  6
CONTINUOUS
 62
     4
100
AcDbLine
 10
320.249261538569
 20
249.4833679975436
 30
0.0
 11
320.2492615385688
 21
157.9833679975436
 31
0.0
  0
LINE
  5
1E3
330
1DF
100
AcDbEntity
  8
8
  6
CONTINUOUS
 62
     4
100
AcDbLine
 10
820.249261538569
 20
249.4833679975436
 30
0.0
 11
820.2492615385689
 21
157.9833679975436
 31
0.0
  0
LINE
  5
1E4
330
1DF
100
AcDbEntity
  8
8
  6
CONTINUOUS
 62
     4
100
AcDbLine
 10
320.2492615385688
 20
162.4833679975436
 30
0.0
 11
820.2492615385689
 21
162.4833679975436
 31
0.0
  0
MTEXT
  5
1E5
330
1DF
100
AcDbEntity
  8
8
  6
CONTINUOUS
 62
     4
100
AcDbMText
 10
570.249261538569
 20
162.4833679975436
 30
0.0
 40
9.0
 41
115.7142857142857
 71
     8
 72
     1
  1
500
  7
ＭＳ_ゴシック
1001
ACAD
1000
ACAD_MTEXT_DEFINED_HEIGHT_BEGIN
1070
    46
1040
9.0
1000
ACAD_MTEXT_DEFINED_HEIGHT_END
  0
INSERT
  5
1E6
330
1DF
100
AcDbEntity
  8
8
  6
CONTINUOUS
 62
     4
100
AcDbBlockReference
  2
_ARROWFILLED
 10
320.2492615385688
 20
162.4833679975436
 30
0.0
 41
6.0
 42
6.0
 43
6.0
 50
179.9999999999998
  0
INSERT
  5
1E7
330
1DF
100
AcDbEntity
  8
8
  6
CONTINUOUS
 62
     4
100
AcDbBlockReference
  2
_ARROWFILLED
 10
820.2492615385689
 20
162.4833679975436
 30
0.0
 41
6.0
 42
6.0
 43
6.0
 50
359.9999999999997
  0
ENDBLK
  5
1E1
330
1DF
100
AcDbEntity
  8
0
100
AcDbBlockEnd
  0
BLOCK
  5
1EA
330
1E9
100
AcDbEntity
  8
0
100
AcDbBlockBegin
  2
DIM5
 70
     0
 10
0.0
 20
0.0
 30
0.0
  3
DIM5
  1

  0
LINE
  5
1EC
330
1E9
100
AcDbEntity
  8
8
  6
CONTINUOUS
 62
     4
100
AcDbLine
 10
305.249261538569
 20
234.4833679975436
 30
0.0
 11
305.2492615385688
 21
133.9833679975436
 31
0.0
  0
LINE
  5
1ED
330
1E9
100
AcDbEntity
  8
8
  6
CONTINUOUS
 62
     4
100
AcDbLine
 10
835.249261538569
 20
234.4833679975436
 30
0.0
 11
835.2492615385689
 21
133.9833679975436
 31
0.0
  0
LINE
  5
1EE
330
1E9
100
AcDbEntity
  8
8
  6
CONTINUOUS
 62
     4
100
AcDbLine
 10
305.2492615385688
 20
138.4833679975436
 30
0.0
 11
835.2492615385689
 21
138.4833679975436
 31
0.0
  0
MTEXT
  5
1EF
330
1E9
100
AcDbEntity
  8
8
  6
CONTINUOUS
 62
     4
100
AcDbMText
 10
570.249261538569
 20
138.4833679975436
 30
0.0
 40
9.0
 41
115.7142857142857
 71
     8
 72
     1
  1
530
  7
ＭＳ_ゴシック
1001
ACAD
1000
ACAD_MTEXT_DEFINED_HEIGHT_BEGIN
1070
    46
1040
9.0
1000
ACAD_MTEXT_DEFINED_HEIGHT_END
  0
INSERT
  5
1F0
330
1E9
100
AcDbEntity
  8
8
  6
CONTINUOUS
 62
     4
100
AcDbBlockReference
  2
_ARROWFILLED
 10
305.2492615385688
 20
138.4833679975436
 30
0.0
 41
6.0
 42
6.0
 43
6.0
 50
179.9999999999998
  0
INSERT
  5
1F1
330
1E9
100
AcDbEntity
  8
8
  6
CONTINUOUS
 62
     4
100
AcDbBlockReference
  2
_ARROWFILLED
 10
835.2492615385689
 20
138.4833679975436
 30
0.0
 41
6.0
 42
6.0
 43
6.0
 50
359.9999999999997
  0
ENDBLK
  5
1EB
330
1E9
100
AcDbEntity
  8
0
100
AcDbBlockEnd
  0
BLOCK
  5
1F4
330
1F3
100
AcDbEntity
  8
0
100
AcDbBlockBegin
  2
DIM6
 70
     0
 10
0.0
 20
0.0
 30
0.0
  3
DIM6
  1

  0
LINE
  5
1F6
330
1F3
100
AcDbEntity
  8
8
  6
CONTINUOUS
 62
     4
100
AcDbLine
 10
317.249261538569
 20
252.4833679975436
 30
0.0
 11
276.749261538569
 21
252.4833679975437
 31
0.0
  0
LINE
  5
1F7
330
1F3
100
AcDbEntity
  8
8
  6
CONTINUOUS
 62
     4
100
AcDbLine
 10
317.249261538569
 20
652.4833679975436
 30
0.0
 11
276.749261538569
 21
652.4833679975437
 31
0.0
  0
LINE
  5
1F8
330
1F3
100
AcDbEntity
  8
8
  6
CONTINUOUS
 62
     4
100
AcDbLine
 10
281.249261538569
 20
252.4833679975437
 30
0.0
 11
281.249261538569
 21
652.4833679975437
 31
0.0
  0
MTEXT
  5
1F9
330
1F3
100
AcDbEntity
  8
8
  6
CONTINUOUS
 62
     4
100
AcDbMText
 10
281.249261538569
 20
452.4833679975437
 30
0.0
 40
9.0
 41
115.7142857142857
 71
     8
 72
     1
  1
400
  7
ＭＳ_ゴシック
 11
1.615544574432587E-15
 21
1.0
 31
0.0
1001
ACAD
1000
ACAD_MTEXT_DEFINED_HEIGHT_BEGIN
1070
    46
1040
9.0
1000
ACAD_MTEXT_DEFINED_HEIGHT_END
  0
INSERT
  5
1FA
330
1F3
100
AcDbEntity
  8
8
  6
CONTINUOUS
 62
     4
100
AcDbBlockReference
  2
_ARROWFILLED
 10
281.249261538569
 20
252.4833679975437
 30
0.0
 41
6.0
 42
6.0
 43
6.0
 50
269.9999999999998
  0
INSERT
  5
1FB
330
1F3
100
AcDbEntity
  8
8
  6
CONTINUOUS
 62
     4
100
AcDbBlockReference
  2
_ARROWFILLED
 10
281.249261538569
 20
652.4833679975437
 30
0.0
 41
6.0
 42
6.0
 43
6.0
 50
89.99999999999991
  0
ENDBLK
  5
1F5
330
1F3
100
AcDbEntity
  8
0
100
AcDbBlockEnd
  0
BLOCK
  5
1FE
330
1FD
100
AcDbEntity
  8
0
100
AcDbBlockBegin
  2
DIM7
 70
     0
 10
0.0
 20
0.0
 30
0.0
  3
DIM7
  1

  0
LINE
  5
200
330
1FD
100
AcDbEntity
  8
8
  6
CONTINUOUS
 62
     4
100
AcDbLine
 10
302.249261538569
 20
667.4833679975436
 30
0.0
 11
252.7492615385695
 21
667.4833679975437
 31
0.0
  0
LINE
  5
201
330
1FD
100
AcDbEntity
  8
8
  6
CONTINUOUS
 62
     4
100
AcDbLine
 10
302.249261538569
 20
237.4833679975436
 30
0.0
 11
252.7492615385695
 21
237.4833679975438
 31
0.0
  0
LINE
  5
202
330
1FD
100
AcDbEntity
  8
8
  6
CONTINUOUS
 62
     4
100
AcDbLine
 10
257.2492615385695
 20
667.4833679975437
 30
0.0
 11
257.2492615385695
 21
237.4833679975438
 31
0.0
  0
MTEXT
  5
203
330
1FD
100
AcDbEntity
  8
8
  6
CONTINUOUS
 62
     4
100
AcDbMText
 10
257.2492615385695
 20
452.4833679975436
 30
0.0
 40
9.0
 41
115.7142857142857
 71
     8
 72
     1
  1
430
  7
ＭＳ_ゴシック
 11
1.615544574432587E-15
 21
1.0
 31
0.0
1001
ACAD
1000
ACAD_MTEXT_DEFINED_HEIGHT_BEGIN
1070
    46
1040
9.0
1000
ACAD_MTEXT_DEFINED_HEIGHT_END
  0
INSERT
  5
204
330
1FD
100
AcDbEntity
  8
8
  6
CONTINUOUS
 62
     4
100
AcDbBlockReference
  2
_ARROWFILLED
 10
257.2492615385695
 20
667.4833679975437
 30
0.0
 41
6.0
 42
6.0
 43
6.0
 50
89.99999999999991
  0
INSERT
  5
205
330
1FD
100
AcDbEntity
  8
8
  6
CONTINUOUS
 62
     4
100
AcDbBlockReference
  2
_ARROWFILLED
 10
257.2492615385695
 20
237.4833679975438
 30
0.0
 41
6.0
 42
6.0
 43
6.0
 50
269.9999999999998
  0
ENDBLK
  5
1FF
330
1FD
100
AcDbEntity
  8
0
100
AcDbBlockEnd
  0
BLOCK
  5
208
330
207
100
AcDbEntity
  8
0
100
AcDbBlockBegin
  2
DIM8
 70
     0
 10
0.0
 20
0.0
 30
0.0
  3
DIM8
  1

  0
LINE
  5
20A
330
207
100
AcDbEntity
  8
8
  6
CONTINUOUS
 62
     4
100
AcDbLine
 10
835.249261538569
 20
234.4833679975436
 30
0.0
 11
835.2492615385689
 21
133.9833679975436
 31
0.0
  0
LINE
  5
20B
330
207
100
AcDbEntity
  8
8
  6
CONTINUOUS
 62
     4
100
AcDbLine
 10
870.2492615385727
 20
426.4833679975454
 30
0.0
 11
870.2492615385722
 21
133.9833679975436
 31
0.0
  0
LINE
  5
20C
330
207
100
AcDbEntity
  8
8
  6
CONTINUOUS
 62
     4
100
AcDbLine
 10
835.2492615385689
 20
138.4833679975436
 30
0.0
 11
870.2492615385722
 21
138.4833679975436
 31
0.0
  0
MTEXT
  5
20D
330
207
100
AcDbEntity
  8
8
  6
CONTINUOUS
 62
     4
100
AcDbMText
 10
852.7492615385709
 20
138.4833679975436
 30
0.0
 40
9.0
 41
72.85714285714286
 71
     8
 72
     1
  1
35
  7
ＭＳ_ゴシック
1001
ACAD
1000
ACAD_MTEXT_DEFINED_HEIGHT_BEGIN
1070
    46
1040
9.0
1000
ACAD_MTEXT_DEFINED_HEIGHT_END
  0
INSERT
  5
20E
330
207
100
AcDbEntity
  8
8
  6
CONTINUOUS
 62
     4
100
AcDbBlockReference
  2
_ARROWFILLED
 10
835.2492615385689
 20
138.4833679975436
 30
0.0
 41
6.0
 42
6.0
 43
6.0
 50
179.9999999999998
  0
INSERT
  5
20F
330
207
100
AcDbEntity
  8
8
  6
CONTINUOUS
 62
     4
100
AcDbBlockReference
  2
_ARROWFILLED
 10
870.2492615385722
 20
138.4833679975436
 30
0.0
 41
6.0
 42
6.0
 43
6.0
 50
359.9999999999997
  0
ENDBLK
  5
209
330
207
100
AcDbEntity
  8
0
100
AcDbBlockEnd
  0
BLOCK
  5
212
330
211
100
AcDbEntity
  8
0
100
AcDbBlockBegin
  2
DIM9
 70
     0
 10
0.0
 20
0.0
 30
0.0
  3
DIM9
  1

  0
LINE
  5
214
330
211
100
AcDbEntity
  8
8
  6
CONTINUOUS
 62
     4
100
AcDbLine
 10
322.249261538569
 20
682.4833679975436
 30
0.0
 11
204.7492615385695
 21
682.483367997544
 31
0.0
  0
LINE
  5
215
330
211
100
AcDbEntity
  8
8
  6
CONTINUOUS
 62
     4
100
AcDbLine
 10
322.249261538569
 20
222.4833679975454
 30
0.0
 11
204.7492615385695
 21
222.4833679975458
 31
0.0
  0
LINE
  5
216
330
211
100
AcDbEntity
  8
8
  6
CONTINUOUS
 62
     4
100
AcDbLine
 10
209.2492615385695
 20
682.483367997544
 30
0.0
 11
209.2492615385695
 21
222.4833679975458
 31
0.0
  0
MTEXT
  5
217
330
211
100
AcDbEntity
  8
8
  6
CONTINUOUS
 62
     4
100
AcDbMText
 10
209.2492615385695
 20
452.4833679975436
 30
0.0
 40
9.0
 41
115.7142857142857
 71
     8
 72
     1
  1
460
  7
ＭＳ_ゴシック
 11
1.615544574432587E-15
 21
1.0
 31
0.0
1001
ACAD
1000
ACAD_MTEXT_DEFINED_HEIGHT_BEGIN
1070
    46
1040
9.0
1000
ACAD_MTEXT_DEFINED_HEIGHT_END
  0
INSERT
  5
218
330
211
100
AcDbEntity
  8
8
  6
CONTINUOUS
 62
     4
100
AcDbBlockReference
  2
_ARROWFILLED
 10
209.2492615385695
 20
682.483367997544
 30
0.0
 41
6.0
 42
6.0
 43
6.0
 50
89.99999999999991
  0
INSERT
  5
219
330
211
100
AcDbEntity
  8
8
  6
CONTINUOUS
 62
     4
100
AcDbBlockReference
  2
_ARROWFILLED
 10
209.2492615385695
 20
222.4833679975458
 30
0.0
 41
6.0
 42
6.0
 43
6.0
 50
269.9999999999998
  0
ENDBLK
  5
213
330
211
100
AcDbEntity
  8
0
100
AcDbBlockEnd
  0
BLOCK
  5
21C
330
21B
100
AcDbEntity
  8
0
100
AcDbBlockBegin
  2
DIM10
 70
     0
 10
0.0
 20
0.0
 30
0.0
  3
DIM10
  1

  0
LINE
  5
21E
330
21B
100
AcDbEntity
  8
8
  6
CONTINUOUS
 62
     4
100
AcDbLine
 10
996.159231708798
 20
234.4833679975436
 30
0.0
 11
996.1592317087978
 21
133.9833679975436
 31
0.0
  0
LINE
  5
21F
330
21B
100
AcDbEntity
  8
8
  6
CONTINUOUS
 62
     4
100
AcDbLine
 10
1041.159231708798
 20
219.4833679975436
 30
0.0
 11
1041.159231708798
 21
133.9833679975436
 31
0.0
  0
LINE
  5
220
330
21B
100
AcDbEntity
  8
8
  6
CONTINUOUS
 62
     4
100
AcDbLine
 10
996.1592317087978
 20
138.4833679975436
 30
0.0
 11
1041.159231708798
 21
138.4833679975436
 31
0.0
  0
MTEXT
  5
221
330
21B
100
AcDbEntity
  8
8
  6
CONTINUOUS
 62
     4
100
AcDbMText
 10
1018.659231708798
 20
138.4833679975436
 30
0.0
 40
9.0
 41
72.85714285714286
 71
     8
 72
     1
  1
45
  7
ＭＳ_ゴシック
1001
ACAD
1000
ACAD_MTEXT_DEFINED_HEIGHT_BEGIN
1070
    46
1040
9.0
1000
ACAD_MTEXT_DEFINED_HEIGHT_END
  0
INSERT
  5
222
330
21B
100
AcDbEntity
  8
8
  6
CONTINUOUS
 62
     4
100
AcDbBlockReference
  2
_ARROWFILLED
 10
996.1592317087978
 20
138.4833679975436
 30
0.0
 41
6.0
 42
6.0
 43
6.0
 50
179.9999999999998
  0
INSERT
  5
223
330
21B
100
AcDbEntity
  8
8
  6
CONTINUOUS
 62
     4
100
AcDbBlockReference
  2
_ARROWFILLED
 10
1041.159231708798
 20
138.4833679975436
 30
0.0
 41
6.0
 42
6.0
 43
6.0
 50
359.9999999999997
  0
ENDBLK
  5
21D
330
21B
100
AcDbEntity
  8
0
100
AcDbBlockEnd
  0
BLOCK
  5
226
330
225
100
AcDbEntity
  8
0
100
AcDbBlockBegin
  2
DIM11
 70
     0
 10
0.0
 20
0.0
 30
0.0
  3
DIM11
  1

  0
LINE
  5
228
330
225
100
AcDbEntity
  8
8
  6
CONTINUOUS
 62
     4
100
AcDbLine
 10
1040.159231708799
 20
219.4833679975436
 30
0.0
 11
1040.159231708799
 21
181.9833679975436
 31
0.0
  0
LINE
  5
229
330
225
100
AcDbEntity
  8
8
  6
CONTINUOUS
 62
     4
100
AcDbLine
 10
1041.159231708798
 20
219.4833679975436
 30
0.0
 11
1041.159231708798
 21
181.9833679975436
 31
0.0
  0
LINE
  5
22A
330
225
100
AcDbEntity
  8
8
  6
CONTINUOUS
 62
     4
100
AcDbLine
 10
1028.159231708799
 20
186.4833679975436
 30
0.0
 11
1059.909231708799
 21
186.4833679975436
 31
0.0
  0
MTEXT
  5
22B
330
225
100
AcDbEntity
  8
8
  6
CONTINUOUS
 62
     4
100
AcDbMText
 10
1055.409231708799
 20
186.4833679975436
 30
0.0
 40
9.0
 41
10.71428571428572
 71
     7
 72
     1
  1
1
  7
ＭＳ_ゴシック
1001
ACAD
1000
ACAD_MTEXT_DEFINED_HEIGHT_BEGIN
1070
    46
1040
9.0
1000
ACAD_MTEXT_DEFINED_HEIGHT_END
  0
INSERT
  5
22C
330
225
100
AcDbEntity
  8
8
  6
CONTINUOUS
 62
     4
100
AcDbBlockReference
  2
_ARROWFILLED
 10
1040.159231708799
 20
186.4833679975436
 30
0.0
 41
6.0
 42
6.0
 43
6.0
 50
359.9999999999997
  0
INSERT
  5
22D
330
225
100
AcDbEntity
  8
8
  6
CONTINUOUS
 62
     4
100
AcDbBlockReference
  2
_ARROWFILLED
 10
1041.159231708798
 20
186.4833679975436
 30
0.0
 41
6.0
 42
6.0
 43
6.0
 50
179.9999999999995
  0
ENDBLK
  5
227
330
225
100
AcDbEntity
  8
0
100
AcDbBlockEnd
  0
BLOCK
  5
230
330
22F
100
AcDbEntity
  8
0
100
AcDbBlockBegin
  2
DIM12
 70
     0
 10
0.0
 20
0.0
 30
0.0
  3
DIM12
  1

  0
LINE
  5
232
330
22F
100
AcDbEntity
  8
8
  6
CONTINUOUS
 62
     4
100
AcDbLine
 10
1041.159231708798
 20
219.4833679975436
 30
0.0
 11
1041.159231708798
 21
157.9833679975436
 31
0.0
  0
LINE
  5
233
330
22F
100
AcDbEntity
  8
8
  6
CONTINUOUS
 62
     4
100
AcDbLine
 10
1007.659231708799
 20
426.4833679975436
 30
0.0
 11
1007.659231708799
 21
157.9833679975436
 31
0.0
  0
LINE
  5
234
330
22F
100
AcDbEntity
  8
8
  6
CONTINUOUS
 62
     4
100
AcDbLine
 10
1041.159231708798
 20
162.4833679975436
 30
0.0
 11
1007.659231708799
 21
162.4833679975436
 31
0.0
  0
MTEXT
  5
235
330
22F
100
AcDbEntity
  8
8
  6
CONTINUOUS
 62
     4
100
AcDbMText
 10
1024.409231708798
 20
162.4833679975436
 30
0.0
 40
9.0
 41
137.1428571428571
 71
     8
 72
     1
  1
33.5
  7
ＭＳ_ゴシック
1001
ACAD
1000
ACAD_MTEXT_DEFINED_HEIGHT_BEGIN
1070
    46
1040
9.0
1000
ACAD_MTEXT_DEFINED_HEIGHT_END
  0
INSERT
  5
236
330
22F
100
AcDbEntity
  8
8
  6
CONTINUOUS
 62
     4
100
AcDbBlockReference
  2
_ARROWFILLED
 10
1041.159231708798
 20
162.4833679975436
 30
0.0
 41
6.0
 42
6.0
 43
6.0
 50
359.9999999999997
  0
INSERT
  5
237
330
22F
100
AcDbEntity
  8
8
  6
CONTINUOUS
 62
     4
100
AcDbBlockReference
  2
_ARROWFILLED
 10
1007.659231708799
 20
162.4833679975436
 30
0.0
 41
6.0
 42
6.0
 43
6.0
 50
179.9999999999998
  0
ENDBLK
  5
231
330
22F
100
AcDbEntity
  8
0
100
AcDbBlockEnd
  0
BLOCK
  5
23A
330
239
100
AcDbEntity
  8
0
100
AcDbBlockBegin
  2
DIM13
 70
     0
 10
0.0
 20
0.0
 30
0.0
  3
DIM13
  1

  0
LINE
  5
23C
330
239
100
AcDbEntity
  8
8
  6
CONTINUOUS
 62
     4
100
AcDbLine
 10
331.6492615385691
 20
229.4833679975436
 30
0.0
 11
228.7492615385695
 21
229.483367997544
 31
0.0
  0
LINE
  5
23D
330
239
100
AcDbEntity
  8
8
  6
CONTINUOUS
 62
     4
100
AcDbLine
 10
331.6492615385691
 20
675.4833679975418
 30
0.0
 11
228.7492615385695
 21
675.4833679975421
 31
0.0
  0
LINE
  5
23E
330
239
100
AcDbEntity
  8
8
  6
CONTINUOUS
 62
     4
100
AcDbLine
 10
233.2492615385695
 20
229.483367997544
 30
0.0
 11
233.2492615385695
 21
675.4833679975421
 31
0.0
  0
MTEXT
  5
23F
330
239
100
AcDbEntity
  8
8
  6
CONTINUOUS
 62
     4
100
AcDbMText
 10
233.2492615385695
 20
452.4833679975436
 30
0.0
 40
9.0
 41
115.7142857142857
 71
     8
 72
     1
  1
446
  7
ＭＳ_ゴシック
 11
1.615544574432587E-15
 21
1.0
 31
0.0
1001
ACAD
1000
ACAD_MTEXT_DEFINED_HEIGHT_BEGIN
1070
    46
1040
9.0
1000
ACAD_MTEXT_DEFINED_HEIGHT_END
  0
INSERT
  5
240
330
239
100
AcDbEntity
  8
8
  6
CONTINUOUS
 62
     4
100
AcDbBlockReference
  2
_ARROWFILLED
 10
233.2492615385695
 20
229.483367997544
 30
0.0
 41
6.0
 42
6.0
 43
6.0
 50
269.9999999999998
  0
INSERT
  5
241
330
239
100
AcDbEntity
  8
8
  6
CONTINUOUS
 62
     4
100
AcDbBlockReference
  2
_ARROWFILLED
 10
233.2492615385695
 20
675.4833679975421
 30
0.0
 41
6.0
 42
6.0
 43
6.0
 50
89.99999999999991
  0
ENDBLK
  5
23B
330
239
100
AcDbEntity
  8
0
100
AcDbBlockEnd
  0
BLOCK
  5
244
330
243
100
AcDbEntity
  8
0
100
AcDbBlockBegin
  2
DIM14
 70
     0
 10
0.0
 20
0.0
 30
0.0
  3
DIM14
  1

  0
LINE
  5
246
330
243
100
AcDbEntity
  8
8
  6
CONTINUOUS
 62
     4
100
AcDbLine
 10
457.7495125969517
 20
215.8833679975432
 30
0.0
 11
457.7495125969517
 21
181.9833679975436
 31
0.0
  0
LINE
  5
247
330
243
100
AcDbEntity
  8
8
  6
CONTINUOUS
 62
     4
100
AcDbLine
 10
570.249261538569
 20
204.4833679975436
 30
0.0
 11
570.249261538569
 21
181.9833679975436
 31
0.0
  0
LINE
  5
248
330
243
100
AcDbEntity
  8
8
  6
CONTINUOUS
 62
     4
100
AcDbLine
 10
457.7495125969517
 20
186.4833679975436
 30
0.0
 11
570.249261538569
 21
186.4833679975436
 31
0.0
  0
MTEXT
  5
249
330
243
100
AcDbEntity
  8
8
  6
CONTINUOUS
 62
     4
100
AcDbMText
 10
513.9993870677604
 20
186.4833679975436
 30
0.0
 40
9.0
 41
173.5714285714286
 71
     8
 72
     1
  1
112.5
  7
ＭＳ_ゴシック
1001
ACAD
1000
ACAD_MTEXT_DEFINED_HEIGHT_BEGIN
1070
    46
1040
9.0
1000
ACAD_MTEXT_DEFINED_HEIGHT_END
  0
INSERT
  5
24A
330
243
100
AcDbEntity
  8
8
  6
CONTINUOUS
 62
     4
100
AcDbBlockReference
  2
_ARROWFILLED
 10
457.7495125969517
 20
186.4833679975436
 30
0.0
 41
6.0
 42
6.0
 43
6.0
 50
179.9999999999998
  0
INSERT
  5
24B
330
243
100
AcDbEntity
  8
8
  6
CONTINUOUS
 62
     4
100
AcDbBlockReference
  2
_ARROWFILLED
 10
570.249261538569
 20
186.4833679975436
 30
0.0
 41
6.0
 42
6.0
 43
6.0
 50
359.9999999999997
  0
ENDBLK
  5
245
330
243
100
AcDbEntity
  8
0
100
AcDbBlockEnd
  0
BLOCK
  5
255
330
254
100
AcDbEntity
  8
0
100
AcDbBlockBegin
  2
DIM15
 70
     0
 10
0.0
 20
0.0
 30
0.0
  3
DIM15
  1

  0
LINE
  5
257
330
254
100
AcDbEntity
  8
8
  6
CONTINUOUS
 62
     4
100
AcDbLine
 10
561.459405812728
 20
424.3233176368057
 30
0.0
 11
654.9783707868808
 21
723.9299147735192
 31
0.0
  0
MTEXT
  5
258
330
254
100
AcDbEntity
  8
8
  6
CONTINUOUS
 62
     4
100
AcDbMText
 10
649.6150689880488
 20
706.747511163586
 30
0.0
 40
9.0
 41
111.4285714285714
 71
     7
 72
     1
  1
φ35
  7
ＭＳ_ゴシック
 11
0.2979612110468691
 21
0.9545779783294203
 31
0.0
1001
ACAD
1000
ACAD_MTEXT_DEFINED_HEIGHT_BEGIN
1070
    46
1040
9.0
1000
ACAD_MTEXT_DEFINED_HEIGHT_END
  0
INSERT
  5
259
330
254
100
AcDbEntity
  8
8
  6
CONTINUOUS
 62
     4
100
AcDbBlockReference
  2
_ARROWFILLED
 10
565.0349403452905
 20
435.7782533767588
 30
0.0
 41
6.0
 42
6.0
 43
6.0
 50
72.6648101918473
  0
INSERT
  5
25A
330
254
100
AcDbEntity
  8
8
  6
CONTINUOUS
 62
     4
100
AcDbBlockReference
  2
_ARROWFILLED
 10
575.4635827319325
 20
469.1884826182938
 30
0.0
 41
6.0
 42
6.0
 43
6.0
 50
252.6648101918472
  0
ENDBLK
  5
256
330
254
100
AcDbEntity
  8
0
100
AcDbBlockEnd
  0
BLOCK
  5
25D
330
25C
100
AcDbEntity
  8
0
100
AcDbBlockBegin
  2
DIM16
 70
     0
 10
0.0
 20
0.0
 30
0.0
  3
DIM16
  1

  0
LINE
  5
25F
330
25C
100
AcDbEntity
  8
8
  6
CONTINUOUS
 62
     4
100
AcDbLine
 10
550.6114579683785
 20
424.1177784401665
 30
0.0
 11
754.1677209807631
 21
718.1421782561501
 31
0.0
  0
MTEXT
  5
260
330
25C
100
AcDbEntity
  8
8
  6
CONTINUOUS
 62
     4
100
AcDbMText
 10
743.921910422387
 20
703.3427402262157
 30
0.0
 40
9.0
 41
111.4285714285714
 71
     7
 72
     1
  1
φ45
  7
ＭＳ_ゴシック
 11
0.5692116976878181
 21
0.8221910016628448
 31
0.0
1001
ACAD
1000
ACAD_MTEXT_DEFINED_HEIGHT_BEGIN
1070
    46
1040
9.0
1000
ACAD_MTEXT_DEFINED_HEIGHT_END
  0
INSERT
  5
261
330
25C
100
AcDbEntity
  8
8
  6
CONTINUOUS
 62
     4
100
AcDbBlockReference
  2
_ARROWFILLED
 10
557.4419983406324
 20
433.9840704601206
 30
0.0
 41
6.0
 42
6.0
 43
6.0
 50
55.3047266873409
  0
INSERT
  5
262
330
25C
100
AcDbEntity
  8
8
  6
CONTINUOUS
 62
     4
100
AcDbBlockReference
  2
_ARROWFILLED
 10
583.0565247365829
 20
470.9826655349468
 30
0.0
 41
6.0
 42
6.0
 43
6.0
 50
235.3047266873409
  0
ENDBLK
  5
25E
330
25C
100
AcDbEntity
  8
0
100
AcDbBlockEnd
  0
ENDSEC
  0
SECTION
  2
ENTITIES
  0
POLYLINE
  5
A1
330
1F
100
AcDbEntity
  8
9
  6
CONTINUOUS
 62
     7
100
AcDb2dPolyline
 66
     1
 10
0.0
 20
0.0
 30
0.0
  0
VERTEX
  5
A2
330
A1
100
AcDbEntity
  8
9
  6
CONTINUOUS
 62
     7
100
AcDbVertex
100
AcDb2dVertex
 10
820.249261538569
 20
252.4833679975436
 30
0.0
  0
VERTEX
  5
A3
330
A1
100
AcDbEntity
  8
9
  6
CONTINUOUS
 62
     7
100
AcDbVertex
100
AcDb2dVertex
 10
820.249261538569
 20
652.4833679975436
 30
0.0
  0
VERTEX
  5
A4
330
A1
100
AcDbEntity
  8
9
  6
CONTINUOUS
 62
     7
100
AcDbVertex
100
AcDb2dVertex
 10
320.249261538569
 20
652.4833679975436
 30
0.0
  0
VERTEX
  5
A5
330
A1
100
AcDbEntity
  8
9
  6
CONTINUOUS
 62
     7
100
AcDbVertex
100
AcDb2dVertex
 10
320.249261538569
 20
252.4833679975436
 30
0.0
  0
VERTEX
  5
A6
330
A1
100
AcDbEntity
  8
9
  6
CONTINUOUS
 62
     7
100
AcDbVertex
100
AcDb2dVertex
 10
820.249261538569
 20
252.4833679975436
 30
0.0
  0
SEQEND
  5
A7
330
A1
100
AcDbEntity
  8
9
  6
CONTINUOUS
 62
     7
  0
LINE
  5
A8
330
1F
100
AcDbEntity
  8
9
  6
CONTINUOUS
 62
     7
100
AcDbLine
 10
835.249261538569
 20
667.4833679975436
 30
0.0
 11
835.249261538569
 21
237.4833679975436
 31
0.0
  0
LINE
  5
A9
330
1F
100
AcDbEntity
  8
9
  6
CONTINUOUS
 62
     7
100
AcDbLine
 10
835.249261538569
 20
237.4833679975436
 30
0.0
 11
305.249261538569
 21
237.4833679975436
 31
0.0
  0
LINE
  5
AA
330
1F
100
AcDbEntity
  8
9
  6
CONTINUOUS
 62
     7
100
AcDbLine
 10
835.249261538569
 20
667.4833679975436
 30
0.0
 11
305.249261538569
 21
667.4833679975436
 31
0.0
  0
LINE
  5
AB
330
1F
100
AcDbEntity
  8
9
  6
CONTINUOUS
 62
     7
100
AcDbLine
 10
305.249261538569
 20
667.4833679975436
 30
0.0
 11
305.249261538569
 21
237.4833679975436
 31
0.0
  0
LINE
  5
AC
330
1F
100
AcDbEntity
  8
9
  6
CONTINUOUS
 62
     7
100
AcDbLine
 10
1034.6092317088
 20
237.1667013308779
 30
0.0
 11
1027.709231708798
 21
237.1667013308779
 31
0.0
  0
ARC
  5
AD
330
1F
100
AcDbEntity
  8
9
  6
CONTINUOUS
 62
     7
100
AcDbCircle
 10
1031.159231708798
 20
240.1337188747366
 30
0.0
 40
4.550350877193068
100
AcDbArc
 50
220.6956985254422
 51
319.3043014745571
  0
LINE
  5
AE
330
1F
100
AcDbEntity
  8
9
  6
CONTINUOUS
 62
     7
100
AcDbLine
 10
1034.6092317088
 20
237.4833679975454
 30
0.0
 11
1034.6092317088
 21
237.1667013308779
 31
0.0
  0
LINE
  5
AF
330
1F
100
AcDbEntity
  8
9
  6
CONTINUOUS
 62
     7
100
AcDbLine
 10
1027.709231708798
 20
237.4833679975454
 30
0.0
 11
1027.709231708798
 21
237.1667013308779
 31
0.0
  0
LINE
  5
B0
330
1F
100
AcDbEntity
  8
9
  6
CONTINUOUS
 62
     7
100
AcDbLine
 10
996.159231708798
 20
667.4833679975436
 30
0.0
 11
996.159231708798
 21
237.4833679975436
 31
0.0
  0
LINE
  5
B1
330
1F
100
AcDbEntity
  8
9
  6
CONTINUOUS
 62
     7
100
AcDbLine
 10
1041.159231708798
 20
682.4833679975436
 30
0.0
 11
1041.159231708798
 21
222.4833679975436
 31
0.0
  0
LINE
  5
B2
330
1F
100
AcDbEntity
  8
9
  6
CONTINUOUS
 62
     7
100
AcDbLine
 10
1040.159231708799
 20
682.4833679975436
 30
0.0
 11
1040.159231708799
 21
222.4833679975436
 31
0.0
  0
LINE
  5
B3
330
1F
100
AcDbEntity
  8
9
  6
CONTINUOUS
 62
     7
100
AcDbLine
 10
1040.159231708799
 20
666.4833679975436
 30
0.0
 11
1041.159231708798
 21
666.4833679975436
 31
0.0
  0
LINE
  5
B4
330
1F
100
AcDbEntity
  8
9
  6
CONTINUOUS
 62
     7
100
AcDbLine
 10
996.159231708798
 20
667.4833679975436
 30
0.0
 11
1040.159231708799
 21
667.4833679975436
 31
0.0
  0
LINE
  5
B5
330
1F
100
AcDbEntity
  8
9
  6
CONTINUOUS
 62
     7
100
AcDbLine
 10
1040.159231708799
 20
682.4833679975436
 30
0.0
 11
1041.159231708798
 21
682.4833679975436
 31
0.0
  0
LINE
  5
B6
330
1F
100
AcDbEntity
  8
9
  6
CONTINUOUS
 62
     7
100
AcDbLine
 10
1040.159231708799
 20
238.4833679975436
 30
0.0
 11
1041.159231708798
 21
238.4833679975436
 31
0.0
  0
LINE
  5
B7
330
1F
100
AcDbEntity
  8
9
  6
CONTINUOUS
 62
     7
100
AcDbLine
 10
996.159231708798
 20
237.4833679975436
 30
0.0
 11
1040.159231708799
 21
237.4833679975454
 31
0.0
  0
LINE
  5
B8
330
1F
100
AcDbEntity
  8
9
  6
CONTINUOUS
 62
     7
100
AcDbLine
 10
1040.159231708799
 20
222.4833679975436
 30
0.0
 11
1041.159231708798
 21
222.4833679975436
 31
0.0
  0
LINE
  5
B9
330
1F
100
AcDbEntity
  8
9
  6
CONTINUOUS
 62
     7
100
AcDbLine
 10
820.249261538569
 20
227.4833679975436
 30
0.0
 11
820.249261538569
 21
237.4833679975436
 31
0.0
  0
ARC
  5
BA
330
1F
100
AcDbEntity
  8
9
  6
CONTINUOUS
 62
     7
100
AcDbCircle
 10
815.249261538569
 20
227.4833679975436
 30
0.0
 40
5.0
100
AcDbArc
 50
269.9999999999998
 51
0.0
  0
LINE
  5
BB
330
1F
100
AcDbEntity
  8
9
  6
CONTINUOUS
 62
     7
100
AcDbLine
 10
325.249261538569
 20
222.4833679975436
 30
0.0
 11
815.249261538569
 21
222.4833679975454
 31
0.0
  0
LINE
  5
BC
330
1F
100
AcDbEntity
  8
9
  6
CONTINUOUS
 62
     7
100
AcDbLine
 10
320.249261538569
 20
227.4833679975436
 30
0.0
 11
320.249261538569
 21
237.4833679975436
 31
0.0
  0
ARC
  5
BD
330
1F
100
AcDbEntity
  8
9
  6
CONTINUOUS
 62
     7
100
AcDbCircle
 10
325.249261538569
 20
227.4833679975436
 30
0.0
 40
5.0
100
AcDbArc
 50
179.9999999999998
 51
269.9999999999998
  0
LINE
  5
BE
330
1F
100
AcDbEntity
  8
9
  6
CONTINUOUS
 62
     7
100
AcDbLine
 10
815.249261538569
 20
682.4833679975436
 30
0.0
 11
325.249261538569
 21
682.4833679975436
 31
0.0
  0
LINE
  5
BF
330
1F
100
AcDbEntity
  8
9
  6
CONTINUOUS
 62
     7
100
AcDbLine
 10
820.249261538569
 20
677.4833679975436
 30
0.0
 11
820.249261538569
 21
667.4833679975436
 31
0.0
  0
ARC
  5
C0
330
1F
100
AcDbEntity
  8
9
  6
CONTINUOUS
 62
     7
100
AcDbCircle
 10
815.2492615385709
 20
677.4833679975436
 30
0.0
 40
5.0
100
AcDbArc
 50
0.0
 51
89.99999999999991
  0
LINE
  5
C1
330
1F
100
AcDbEntity
  8
9
  6
CONTINUOUS
 62
     7
100
AcDbLine
 10
320.249261538569
 20
677.4833679975436
 30
0.0
 11
320.249261538569
 21
667.4833679975436
 31
0.0
  0
ARC
  5
C2
330
1F
100
AcDbEntity
  8
9
  6
CONTINUOUS
 62
     7
100
AcDbCircle
 10
325.249261538569
 20
677.4833679975436
 30
0.0
 40
5.0
100
AcDbArc
 50
89.99999999999991
 51
179.9999999999998
  0
LINE
  5
C3
330
1F
100
AcDbEntity
  8
9
  6
CONTINUOUS
 62
     7
100
AcDbLine
 10
870.2492615385727
 20
429.4833679975454
 30
0.0
 11
870.2492615385727
 21
475.4833679975454
 31
0.0
  0
LINE
  5
C4
330
1F
100
AcDbEntity
  8
9
  6
CONTINUOUS
 62
     7
100
AcDbLine
 10
870.2492615385727
 20
473.9833679975454
 30
0.0
 11
835.249261538569
 21
473.9833679975454
 31
0.0
  0
LINE
  5
C5
330
1F
100
AcDbEntity
  8
9
  6
CONTINUOUS
 62
     7
100
AcDbLine
 10
870.2492615385727
 20
475.4833679975454
 30
0.0
 11
835.2492615385727
 21
475.4833679975454
 31
0.0
  0
LINE
  5
C6
330
1F
100
AcDbEntity
  8
9
  6
CONTINUOUS
 62
     7
100
AcDbLine
 10
870.2492615385727
 20
430.9833679975454
 30
0.0
 11
835.249261538569
 21
430.9833679975454
 31
0.0
  0
LINE
  5
C7
330
1F
100
AcDbEntity
  8
9
  6
CONTINUOUS
 62
     7
100
AcDbLine
 10
870.2492615385727
 20
429.4833679975454
 30
0.0
 11
835.2492615385727
 21
429.4833679975454
 31
0.0
  0
LINE
  5
C8
330
1F
100
AcDbEntity
  8
9
  6
CONTINUOUS
 62
     7
100
AcDbLine
 10
863.0992615385712
 20
425.2173613580744
 30
0.0
 11
863.0992615385712
 21
417.9833679975436
 31
0.0
  0
LINE
  5
C9
330
1F
100
AcDbEntity
  8
11
  6
CONTINUOUS
 62
     2
100
AcDbLine
 10
862.5608000001084
 20
422.6833679975425
 30
0.0
 11
863.0992615385694
 21
423.616010740081
 31
0.0
  0
LINE
  5
CA
330
1F
100
AcDbEntity
  8
9
  6
CONTINUOUS
 62
     7
100
AcDbLine
 10
862.2992615385701
 20
417.1833679975425
 30
0.0
 11
863.0992615385712
 21
417.9833679975436
 31
0.0
  0
LINE
  5
CB
330
1F
100
AcDbEntity
  8
11
  6
CONTINUOUS
 62
     2
100
AcDbLine
 10
862.5608000001084
 20
422.6833679975425
 30
0.0
 11
862.5608000001084
 21
417.4449064590808
 31
0.0
  0
LINE
  5
CC
330
1F
100
AcDbEntity
  8
9
  6
CONTINUOUS
 62
     7
100
AcDbLine
 10
866.7492615385709
 20
427.1833679975425
 30
0.0
 11
866.7492615385709
 21
429.4833679975436
 31
0.0
  0
LINE
  5
CD
330
1F
100
AcDbEntity
  8
9
  6
CONTINUOUS
 62
     7
100
AcDbLine
 10
837.7492615385709
 20
427.1833679975425
 30
0.0
 11
837.7492615385709
 21
429.4833679975436
 31
0.0
  0
LINE
  5
CE
330
1F
100
AcDbEntity
  8
11
  6
CONTINUOUS
 62
     2
100
AcDbLine
 10
841.9377230770315
 20
422.6833679975425
 30
0.0
 11
841.3992615385705
 21
423.616010740081
 31
0.0
  0
LINE
  5
CF
330
1F
100
AcDbEntity
  8
9
  6
CONTINUOUS
 62
     7
100
AcDbLine
 10
866.7492615385709
 20
427.1833679975425
 30
0.0
 11
837.7492615385709
 21
427.1833679975425
 31
0.0
  0
LINE
  5
D0
330
1F
100
AcDbEntity
  8
9
  6
CONTINUOUS
 62
     7
100
AcDbLine
 10
841.3992615385705
 20
422.6833679975425
 30
0.0
 11
863.0992615385712
 21
422.6833679975425
 31
0.0
  0
LINE
  5
D1
330
1F
100
AcDbEntity
  8
9
  6
CONTINUOUS
 62
     7
100
AcDbLine
 10
842.1992615385698
 20
417.1833679975425
 30
0.0
 11
841.3992615385705
 21
417.9833679975436
 31
0.0
  0
LINE
  5
D2
330
1F
100
AcDbEntity
  8
9
  6
CONTINUOUS
 62
     7
100
AcDbLine
 10
841.3992615385705
 20
417.9833679975436
 30
0.0
 11
863.0992615385712
 21
417.9833679975436
 31
0.0
  0
LINE
  5
D3
330
1F
100
AcDbEntity
  8
9
  6
CONTINUOUS
 62
     7
100
AcDbLine
 10
841.3992615385705
 20
425.2100828287548
 30
0.0
 11
841.3992615385705
 21
417.9833679975436
 31
0.0
  0
LINE
  5
D4
330
1F
100
AcDbEntity
  8
11
  6
CONTINUOUS
 62
     2
100
AcDbLine
 10
841.9377230770315
 20
422.6833679975425
 30
0.0
 11
841.9377230770315
 21
417.4449064590808
 31
0.0
  0
LINE
  5
D5
330
1F
100
AcDbEntity
  8
9
  6
CONTINUOUS
 62
     7
100
AcDbLine
 10
842.1992615385698
 20
417.1833679975425
 30
0.0
 11
862.2992615385701
 21
417.1833679975425
 31
0.0
  0
ARC
  5
D6
330
1F
100
AcDbEntity
  8
9
  6
CONTINUOUS
 62
     7
100
AcDbCircle
 10
1030.3592317088
 20
601.6833679975443
 30
0.0
 40
0.5
100
AcDbArc
 50
0.0
 51
89.99999999999991
  0
ARC
  5
D7
330
1F
100
AcDbEntity
  8
9
  6
CONTINUOUS
 62
     7
100
AcDbCircle
 10
1031.959231708798
 20
601.6833679975443
 30
0.0
 40
0.5
100
AcDbArc
 50
89.99999999999991
 51
179.9999999999998
  0
CIRCLE
  5
D8
330
1F
100
AcDbEntity
  8
9
  6
CONTINUOUS
 62
     7
100
AcDbCircle
 10
1031.159231708798
 20
602.4833679975436
 30
0.0
 40
3.450000000000045
  0
LINE
  5
D9
330
1F
100
AcDbEntity
  8
9
  6
CONTINUOUS
 62
     7
100
AcDbLine
 10
1030.8592317088
 20
601.6833679975443
 30
0.0
 11
1030.8592317088
 21
601.0333679975429
 31
0.0
  0
LINE
  5
DA
330
1F
100
AcDbEntity
  8
9
  6
CONTINUOUS
 62
     7
100
AcDbLine
 10
1031.459231708798
 20
601.6833679975443
 30
0.0
 11
1031.459231708798
 21
601.0333679975429
 31
0.0
  0
LINE
  5
DB
330
1F
100
AcDbEntity
  8
9
  6
CONTINUOUS
 62
     7
100
AcDbLine
 10
1030.8592317088
 20
601.0333679975429
 30
0.0
 11
1031.459231708798
 21
601.0333679975429
 31
0.0
  0
LINE
  5
DC
330
1F
100
AcDbEntity
  8
9
  6
CONTINUOUS
 62
     7
100
AcDbLine
 10
1030.3592317088
 20
602.7833679975429
 30
0.0
 11
1029.709231708798
 21
602.7833679975429
 31
0.0
  0
LINE
  5
DD
330
1F
100
AcDbEntity
  8
9
  6
CONTINUOUS
 62
     7
100
AcDbLine
 10
1030.3592317088
 20
602.1833679975443
 30
0.0
 11
1029.709231708798
 21
602.1833679975443
 31
0.0
  0
ARC
  5
DE
330
1F
100
AcDbEntity
  8
9
  6
CONTINUOUS
 62
     7
100
AcDbCircle
 10
1031.959231708798
 20
603.2833679975429
 30
0.0
 40
0.5
100
AcDbArc
 50
179.9999999999998
 51
269.9999999999998
  0
ARC
  5
DF
330
1F
100
AcDbEntity
  8
9
  6
CONTINUOUS
 62
     7
100
AcDbCircle
 10
1030.3592317088
 20
603.2833679975429
 30
0.0
 40
0.5
100
AcDbArc
 50
269.9999999999998
 51
0.0
  0
LINE
  5
E0
330
1F
100
AcDbEntity
  8
9
  6
CONTINUOUS
 62
     7
100
AcDbLine
 10
1031.459231708798
 20
603.2833679975429
 30
0.0
 11
1031.459231708798
 21
603.9333679975443
 31
0.0
  0
LINE
  5
E1
330
1F
100
AcDbEntity
  8
9
  6
CONTINUOUS
 62
     7
100
AcDbLine
 10
1030.8592317088
 20
603.2833679975429
 30
0.0
 11
1030.8592317088
 21
603.9333679975443
 31
0.0
  0
LINE
  5
E2
330
1F
100
AcDbEntity
  8
9
  6
CONTINUOUS
 62
     7
100
AcDbLine
 10
1031.959231708798
 20
602.7833679975429
 30
0.0
 11
1032.6092317088
 21
602.7833679975429
 31
0.0
  0
LINE
  5
E3
330
1F
100
AcDbEntity
  8
9
  6
CONTINUOUS
 62
     7
100
AcDbLine
 10
1031.959231708798
 20
602.1833679975443
 30
0.0
 11
1032.6092317088
 21
602.1833679975443
 31
0.0
  0
LINE
  5
E4
330
1F
100
AcDbEntity
  8
9
  6
CONTINUOUS
 62
     7
100
AcDbLine
 10
1032.6092317088
 20
602.1833679975443
 30
0.0
 11
1032.6092317088
 21
602.7833679975429
 31
0.0
  0
LINE
  5
E5
330
1F
100
AcDbEntity
  8
9
  6
CONTINUOUS
 62
     7
100
AcDbLine
 10
1031.459231708798
 20
603.9333679975443
 30
0.0
 11
1030.8592317088
 21
603.9333679975443
 31
0.0
  0
LINE
  5
E6
330
1F
100
AcDbEntity
  8
9
  6
CONTINUOUS
 62
     7
100
AcDbLine
 10
1029.709231708798
 20
602.7833679975429
 30
0.0
 11
1029.709231708798
 21
602.1833679975443
 31
0.0
  0
LINE
  5
E7
330
1F
100
AcDbEntity
  8
9
  6
CONTINUOUS
 62
     7
100
AcDbLine
 10
866.5382836709196
 20
427.1833679975425
 30
0.0
 11
861.0382836709196
 21
427.1833679975425
 31
0.0
  0
ARC
  5
E8
330
1F
100
AcDbEntity
  8
9
  6
CONTINUOUS
 62
     7
100
AcDbCircle
 10
863.7882836709196
 20
432.1833679975425
 30
0.0
 40
7.0
100
AcDbArc
 50
253.4486439999484
 51
286.5513560000509
  0
LINE
  5
E9
330
1F
100
AcDbEntity
  8
9
  6
CONTINUOUS
 62
     7
100
AcDbLine
 10
866.5382836709196
 20
427.1833679975425
 30
0.0
 11
866.4961616709206
 21
426.3796429975428
 31
0.0
  0
ARC
  5
EA
330
1F
100
AcDbEntity
  8
9
  6
CONTINUOUS
 62
     7
100
AcDbCircle
 10
865.4975316709188
 20
426.4319789975434
 30
0.0
 40
1.0
100
AcDbArc
 50
286.551356000052
 51
356.9999999999939
  0
LINE
  5
EB
330
1F
100
AcDbEntity
  8
9
  6
CONTINUOUS
 62
     7
100
AcDbLine
 10
861.0382836709196
 20
427.1833679975425
 30
0.0
 11
861.0804056709203
 21
426.3796429975428
 31
0.0
  0
ARC
  5
EC
330
1F
100
AcDbEntity
  8
9
  6
CONTINUOUS
 62
     7
100
AcDbCircle
 10
862.0790356709203
 20
426.4319789975434
 30
0.0
 40
1.0
100
AcDbArc
 50
183.0000000000054
 51
253.4486439999472
  0
LINE
  5
ED
330
1F
100
AcDbEntity
  8
9
  6
CONTINUOUS
 62
     7
100
AcDbLine
 10
843.5382836709196
 20
427.1833679975425
 30
0.0
 11
838.0382836709196
 21
427.1833679975425
 31
0.0
  0
ARC
  5
EE
330
1F
100
AcDbEntity
  8
9
  6
CONTINUOUS
 62
     7
100
AcDbCircle
 10
840.7882836709196
 20
432.1833679975425
 30
0.0
 40
7.0
100
AcDbArc
 50
253.4486439999484
 51
286.5513560000509
  0
LINE
  5
EF
330
1F
100
AcDbEntity
  8
9
  6
CONTINUOUS
 62
     7
100
AcDbLine
 10
843.5382836709196
 20
427.1833679975425
 30
0.0
 11
843.4961616709206
 21
426.3796429975428
 31
0.0
  0
ARC
  5
F0
330
1F
100
AcDbEntity
  8
9
  6
CONTINUOUS
 62
     7
100
AcDbCircle
 10
842.4975316709188
 20
426.4319789975434
 30
0.0
 40
1.0
100
AcDbArc
 50
286.551356000052
 51
356.9999999999939
  0
LINE
  5
F1
330
1F
100
AcDbEntity
  8
9
  6
CONTINUOUS
 62
     7
100
AcDbLine
 10
838.0382836709196
 20
427.1833679975425
 30
0.0
 11
838.0804056709203
 21
426.3796429975428
 31
0.0
  0
ARC
  5
F2
330
1F
100
AcDbEntity
  8
9
  6
CONTINUOUS
 62
     7
100
AcDbCircle
 10
839.0790356709203
 20
426.4319789975434
 30
0.0
 40
1.0
100
AcDbArc
 50
183.0000000000054
 51
253.4486439999472
  0
LINE
  5
F3
330
1F
100
AcDbEntity
  8
9
  6
CONTINUOUS
 62
     7
100
AcDbLine
 10
318.6992615385698
 20
237.1667013308761
 30
0.0
 11
311.799261538572
 21
237.1667013308761
 31
0.0
  0
ARC
  5
F4
330
1F
100
AcDbEntity
  8
9
  6
CONTINUOUS
 62
     7
100
AcDbCircle
 10
315.2492615385709
 20
240.1337188747366
 30
0.0
 40
4.550350877192955
100
AcDbArc
 50
220.6956985254463
 51
319.304301474553
  0
LINE
  5
F5
330
1F
100
AcDbEntity
  8
9
  6
CONTINUOUS
 62
     7
100
AcDbLine
 10
318.6992615385698
 20
237.4833679975436
 30
0.0
 11
318.6992615385698
 21
237.1667013308761
 31
0.0
  0
LINE
  5
F6
330
1F
100
AcDbEntity
  8
9
  6
CONTINUOUS
 62
     7
100
AcDbLine
 10
311.799261538572
 20
237.4833679975436
 30
0.0
 11
311.799261538572
 21
237.1667013308761
 31
0.0
  0
LINE
  5
F7
330
1F
100
AcDbEntity
  8
9
  6
CONTINUOUS
 62
     7
100
AcDbLine
 10
340.1992615385698
 20
237.1667013308761
 30
0.0
 11
333.299261538572
 21
237.1667013308761
 31
0.0
  0
ARC
  5
F8
330
1F
100
AcDbEntity
  8
9
  6
CONTINUOUS
 62
     7
100
AcDbCircle
 10
336.7492615385709
 20
240.1337188747366
 30
0.0
 40
4.550350877192955
100
AcDbArc
 50
220.6956985254463
 51
319.304301474553
  0
LINE
  5
F9
330
1F
100
AcDbEntity
  8
9
  6
CONTINUOUS
 62
     7
100
AcDbLine
 10
340.1992615385698
 20
237.4833679975436
 30
0.0
 11
340.1992615385698
 21
237.1667013308761
 31
0.0
  0
LINE
  5
FA
330
1F
100
AcDbEntity
  8
9
  6
CONTINUOUS
 62
     7
100
AcDbLine
 10
333.299261538572
 20
237.4833679975436
 30
0.0
 11
333.299261538572
 21
237.1667013308761
 31
0.0
  0
LINE
  5
FB
330
1F
100
AcDbEntity
  8
9
  6
CONTINUOUS
 62
     7
100
AcDbLine
 10
835.5659282052384
 20
487.0333679975429
 30
0.0
 11
835.5659282052384
 21
493.9333679975443
 31
0.0
  0
ARC
  5
FC
330
1F
100
AcDbEntity
  8
9
  6
CONTINUOUS
 62
     7
100
AcDbCircle
 10
832.5989106613779
 20
490.4833679975436
 30
0.0
 40
4.550350877192955
100
AcDbArc
 50
310.6956985252973
 51
49.30430147470232
  0
LINE
  5
FD
330
1F
100
AcDbEntity
  8
9
  6
CONTINUOUS
 62
     7
100
AcDbLine
 10
835.2492615385709
 20
487.0333679975429
 30
0.0
 11
835.5659282052384
 21
487.0333679975429
 31
0.0
  0
LINE
  5
FE
330
1F
100
AcDbEntity
  8
9
  6
CONTINUOUS
 62
     7
100
AcDbLine
 10
835.2492615385709
 20
493.9333679975443
 30
0.0
 11
835.5659282052384
 21
493.9333679975443
 31
0.0
  0
LINE
  5
FF
330
1F
100
AcDbEntity
  8
9
  6
CONTINUOUS
 62
     7
100
AcDbLine
 10
821.7992615385683
 20
237.1667013308761
 30
0.0
 11
828.6992615385698
 21
237.1667013308761
 31
0.0
  0
ARC
  5
100
330
1F
100
AcDbEntity
  8
9
  6
CONTINUOUS
 62
     7
100
AcDbCircle
 10
825.249261538569
 20
240.1337188747366
 30
0.0
 40
4.550350877192955
100
AcDbArc
 50
220.6956985254422
 51
319.3043014745571
  0
LINE
  5
101
330
1F
100
AcDbEntity
  8
9
  6
CONTINUOUS
 62
     7
100
AcDbLine
 10
821.7992615385683
 20
237.4833679975436
 30
0.0
 11
821.7992615385683
 21
237.1667013308761
 31
0.0
  0
LINE
  5
102
330
1F
100
AcDbEntity
  8
9
  6
CONTINUOUS
 62
     7
100
AcDbLine
 10
828.6992615385698
 20
237.4833679975436
 30
0.0
 11
828.6992615385698
 21
237.1667013308761
 31
0.0
  0
LINE
  5
103
330
1F
100
AcDbEntity
  8
9
  6
CONTINUOUS
 62
     7
100
AcDbLine
 10
800.2992615385683
 20
237.1667013308761
 30
0.0
 11
807.1992615385698
 21
237.1667013308761
 31
0.0
  0
ARC
  5
104
330
1F
100
AcDbEntity
  8
9
  6
CONTINUOUS
 62
     7
100
AcDbCircle
 10
803.749261538569
 20
240.1337188747366
 30
0.0
 40
4.550350877192955
100
AcDbArc
 50
220.6956985254422
 51
319.3043014745571
  0
LINE
  5
105
330
1F
100
AcDbEntity
  8
9
  6
CONTINUOUS
 62
     7
100
AcDbLine
 10
800.2992615385683
 20
237.4833679975436
 30
0.0
 11
800.2992615385683
 21
237.1667013308761
 31
0.0
  0
LINE
  5
106
330
1F
100
AcDbEntity
  8
9
  6
CONTINUOUS
 62
     7
100
AcDbLine
 10
807.1992615385698
 20
237.4833679975436
 30
0.0
 11
807.1992615385698
 21
237.1667013308761
 31
0.0
  0
LINE
  5
107
330
1F
100
AcDbEntity
  8
9
  6
CONTINUOUS
 62
     7
100
AcDbLine
 10
835.5659282052384
 20
417.9333679975425
 30
0.0
 11
835.5659282052384
 21
411.0333679975429
 31
0.0
  0
ARC
  5
108
330
1F
100
AcDbEntity
  8
9
  6
CONTINUOUS
 62
     7
100
AcDbCircle
 10
832.5989106613779
 20
414.4833679975436
 30
0.0
 40
4.550350877192955
100
AcDbArc
 50
310.6956985252973
 51
49.30430147470232
  0
LINE
  5
109
330
1F
100
AcDbEntity
  8
9
  6
CONTINUOUS
 62
     7
100
AcDbLine
 10
835.2492615385709
 20
417.9333679975425
 30
0.0
 11
835.5659282052384
 21
417.9333679975425
 31
0.0
  0
LINE
  5
10A
330
1F
100
AcDbEntity
  8
9
  6
CONTINUOUS
 62
     7
100
AcDbLine
 10
835.2492615385709
 20
411.0333679975429
 30
0.0
 11
835.5659282052384
 21
411.0333679975429
 31
0.0
  0
LINE
  5
10B
330
1F
100
AcDbEntity
  8
9
  6
CONTINUOUS
 62
     7
100
AcDbLine
 10
835.249261538569
 20
305.9333679975425
 30
0.0
 11
835.249261538569
 21
299.0333679975429
 31
0.0
  0
LINE
  5
10C
330
1F
100
AcDbEntity
  8
9
  6
CONTINUOUS
 62
     7
100
AcDbLine
 10
835.5659282052384
 20
305.9333679975425
 30
0.0
 11
835.5659282052384
 21
299.0333679975429
 31
0.0
  0
ARC
  5
10D
330
1F
100
AcDbEntity
  8
9
  6
CONTINUOUS
 62
     7
100
AcDbCircle
 10
832.5989106613761
 20
302.4833679975436
 30
0.0
 40
4.550350877192955
100
AcDbArc
 50
310.6956985252973
 51
49.30430147470232
  0
LINE
  5
10E
330
1F
100
AcDbEntity
  8
9
  6
CONTINUOUS
 62
     7
100
AcDbLine
 10
835.249261538569
 20
305.9333679975425
 30
0.0
 11
835.5659282052384
 21
305.9333679975425
 31
0.0
  0
LINE
  5
10F
330
1F
100
AcDbEntity
  8
9
  6
CONTINUOUS
 62
     7
100
AcDbLine
 10
835.249261538569
 20
299.0333679975429
 30
0.0
 11
835.5659282052384
 21
299.0333679975429
 31
0.0
  0
LINE
  5
110
330
1F
100
AcDbEntity
  8
9
  6
CONTINUOUS
 62
     7
100
AcDbLine
 10
835.5659282052384
 20
605.9333679975443
 30
0.0
 11
835.5659282052384
 21
599.0333679975447
 31
0.0
  0
ARC
  5
111
330
1F
100
AcDbEntity
  8
9
  6
CONTINUOUS
 62
     7
100
AcDbCircle
 10
832.5989106613761
 20
602.4833679975454
 30
0.0
 40
4.550350877192955
100
AcDbArc
 50
310.6956985252973
 51
49.30430147470232
  0
LINE
  5
112
330
1F
100
AcDbEntity
  8
9
  6
CONTINUOUS
 62
     7
100
AcDbLine
 10
835.249261538569
 20
605.9333679975443
 30
0.0
 11
835.5659282052384
 21
605.9333679975443
 31
0.0
  0
LINE
  5
113
330
1F
100
AcDbEntity
  8
9
  6
CONTINUOUS
 62
     7
100
AcDbLine
 10
835.249261538569
 20
599.0333679975447
 30
0.0
 11
835.5659282052384
 21
599.0333679975447
 31
0.0
  0
LINE
  5
114
330
1F
100
AcDbEntity
  8
4
  6
DASHDOT
 62
     1
100
AcDbLine
 10
290.249261538569
 20
452.4833679975436
 30
0.0
 11
850.249261538569
 21
452.4833679975436
 31
0.0
  0
LINE
  5
115
330
1F
100
AcDbEntity
  8
4
  6
DASHDOT
 62
     1
100
AcDbLine
 10
570.249261538569
 20
207.4833679975436
 30
0.0
 11
570.249261538569
 21
697.4833679975436
 31
0.0
  0
LINE
  5
116
330
1F
100
AcDbEntity
  8
9
  6
CONTINUOUS
 62
     7
100
AcDbLine
 10
1034.6092317088
 20
667.8000346642111
 30
0.0
 11
1027.709231708798
 21
667.8000346642111
 31
0.0
  0
ARC
  5
117
330
1F
100
AcDbEntity
  8
9
  6
CONTINUOUS
 62
     7
100
AcDbCircle
 10
1031.159231708798
 20
664.8330171203506
 30
0.0
 40
4.550350877193068
100
AcDbArc
 50
40.69569852544286
 51
139.3043014745571
  0
LINE
  5
118
330
1F
100
AcDbEntity
  8
9
  6
CONTINUOUS
 62
     7
100
AcDbLine
 10
1034.6092317088
 20
667.4833679975436
 30
0.0
 11
1034.6092317088
 21
667.8000346642111
 31
0.0
  0
LINE
  5
119
330
1F
100
AcDbEntity
  8
9
  6
CONTINUOUS
 62
     7
100
AcDbLine
 10
1027.709231708798
 20
667.4833679975436
 30
0.0
 11
1027.709231708798
 21
667.8000346642111
 31
0.0
  0
CIRCLE
  5
11A
330
1F
100
AcDbEntity
  8
9
  6
CONTINUOUS
 62
     7
100
AcDbCircle
 10
345.249261538569
 20
229.4833679975436
 30
0.0
 40
3.100000000000023
  0
CIRCLE
  5
11B
330
1F
100
AcDbEntity
  8
9
  6
CONTINUOUS
 62
     7
100
AcDbCircle
 10
570.249261538569
 20
229.4833679975436
 30
0.0
 40
3.100000000000023
  0
CIRCLE
  5
11C
330
1F
100
AcDbEntity
  8
9
  6
CONTINUOUS
 62
     7
100
AcDbCircle
 10
682.749261538569
 20
229.4833679975436
 30
0.0
 40
3.100000000000023
  0
CIRCLE
  5
11D
330
1F
100
AcDbEntity
  8
9
  6
CONTINUOUS
 62
     7
100
AcDbCircle
 10
795.249261538569
 20
229.4833679975436
 30
0.0
 40
3.100000000000023
  0
LINE
  5
11E
330
1F
100
AcDbEntity
  8
9
  6
CONTINUOUS
 62
     7
100
AcDbLine
 10
1007.659231708799
 20
475.4833679975436
 30
0.0
 11
1040.159231708799
 21
475.4833679975436
 31
0.0
  0
LINE
  5
11F
330
1F
100
AcDbEntity
  8
9
  6
CONTINUOUS
 62
     7
100
AcDbLine
 10
1007.659231708799
 20
475.4833679975436
 30
0.0
 11
1007.659231708799
 21
429.4833679975436
 31
0.0
  0
LINE
  5
120
330
1F
100
AcDbEntity
  8
9
  6
CONTINUOUS
 62
     7
100
AcDbLine
 10
1038.159231708799
 20
427.1833679975443
 30
0.0
 11
1038.159231708799
 21
429.4833679975436
 31
0.0
  0
LINE
  5
121
330
1F
100
AcDbEntity
  8
9
  6
CONTINUOUS
 62
     7
100
AcDbLine
 10
1009.159231708799
 20
427.1833679975443
 30
0.0
 11
1009.159231708799
 21
429.4833679975436
 31
0.0
  0
LINE
  5
122
330
1F
100
AcDbEntity
  8
9
  6
CONTINUOUS
 62
     7
100
AcDbLine
 10
1007.659231708799
 20
429.4833679975436
 30
0.0
 11
1040.159231708799
 21
429.4833679975436
 31
0.0
  0
LINE
  5
123
330
1F
100
AcDbEntity
  8
9
  6
CONTINUOUS
 62
     7
100
AcDbLine
 10
1034.509231708797
 20
425.2173613580744
 30
0.0
 11
1034.509231708797
 21
417.9833679975436
 31
0.0
  0
LINE
  5
124
330
1F
100
AcDbEntity
  8
11
  6
CONTINUOUS
 62
     2
100
AcDbLine
 10
1033.970770170336
 20
422.6833679975425
 30
0.0
 11
1034.509231708797
 21
423.616010740081
 31
0.0
  0
LINE
  5
125
330
1F
100
AcDbEntity
  8
9
  6
CONTINUOUS
 62
     7
100
AcDbLine
 10
1033.709231708798
 20
417.1833679975425
 30
0.0
 11
1034.509231708797
 21
417.9833679975436
 31
0.0
  0
LINE
  5
126
330
1F
100
AcDbEntity
  8
11
  6
CONTINUOUS
 62
     2
100
AcDbLine
 10
1033.970770170336
 20
422.6833679975425
 30
0.0
 11
1033.970770170336
 21
417.4449064590808
 31
0.0
  0
LINE
  5
127
330
1F
100
AcDbEntity
  8
11
  6
CONTINUOUS
 62
     2
100
AcDbLine
 10
1013.347693247258
 20
422.6833679975425
 30
0.0
 11
1012.809231708797
 21
423.616010740081
 31
0.0
  0
LINE
  5
128
330
1F
100
AcDbEntity
  8
9
  6
CONTINUOUS
 62
     7
100
AcDbLine
 10
1038.159231708799
 20
427.1833679975425
 30
0.0
 11
1009.159231708799
 21
427.1833679975425
 31
0.0
  0
LINE
  5
129
330
1F
100
AcDbEntity
  8
9
  6
CONTINUOUS
 62
     7
100
AcDbLine
 10
1012.809231708797
 20
422.6833679975425
 30
0.0
 11
1034.509231708797
 21
422.6833679975425
 31
0.0
  0
LINE
  5
12A
330
1F
100
AcDbEntity
  8
9
  6
CONTINUOUS
 62
     7
100
AcDbLine
 10
1013.609231708796
 20
417.1833679975425
 30
0.0
 11
1012.809231708797
 21
417.9833679975436
 31
0.0
  0
LINE
  5
12B
330
1F
100
AcDbEntity
  8
9
  6
CONTINUOUS
 62
     7
100
AcDbLine
 10
1012.809231708797
 20
417.9833679975436
 30
0.0
 11
1034.509231708797
 21
417.9833679975436
 31
0.0
  0
LINE
  5
12C
330
1F
100
AcDbEntity
  8
9
  6
CONTINUOUS
 62
     7
100
AcDbLine
 10
1012.809231708797
 20
425.2100828287548
 30
0.0
 11
1012.809231708797
 21
417.9833679975436
 31
0.0
  0
LINE
  5
12D
330
1F
100
AcDbEntity
  8
11
  6
CONTINUOUS
 62
     2
100
AcDbLine
 10
1013.347693247258
 20
422.6833679975425
 30
0.0
 11
1013.347693247258
 21
417.4449064590808
 31
0.0
  0
LINE
  5
12E
330
1F
100
AcDbEntity
  8
9
  6
CONTINUOUS
 62
     7
100
AcDbLine
 10
1013.609231708796
 20
417.1833679975425
 30
0.0
 11
1033.709231708798
 21
417.1833679975425
 31
0.0
  0
LINE
  5
12F
330
1F
100
AcDbEntity
  8
9
  6
CONTINUOUS
 62
     7
100
AcDbLine
 10
1037.948253841148
 20
427.1833679975425
 30
0.0
 11
1032.448253841148
 21
427.1833679975425
 31
0.0
  0
ARC
  5
130
330
1F
100
AcDbEntity
  8
9
  6
CONTINUOUS
 62
     7
100
AcDbCircle
 10
1035.198253841148
 20
432.1833679975425
 30
0.0
 40
7.0
100
AcDbArc
 50
253.4486439999484
 51
286.5513560000509
  0
LINE
  5
131
330
1F
100
AcDbEntity
  8
9
  6
CONTINUOUS
 62
     7
100
AcDbLine
 10
1037.948253841148
 20
427.1833679975425
 30
0.0
 11
1037.906131841146
 21
426.3796429975428
 31
0.0
  0
ARC
  5
132
330
1F
100
AcDbEntity
  8
9
  6
CONTINUOUS
 62
     7
100
AcDbCircle
 10
1036.907501841146
 20
426.4319789975434
 30
0.0
 40
1.0
100
AcDbArc
 50
286.5513560000583
 51
356.9999999999942
  0
LINE
  5
133
330
1F
100
AcDbEntity
  8
9
  6
CONTINUOUS
 62
     7
100
AcDbLine
 10
1032.448253841148
 20
427.1833679975425
 30
0.0
 11
1032.490375841148
 21
426.3796429975428
 31
0.0
  0
ARC
  5
134
330
1F
100
AcDbEntity
  8
9
  6
CONTINUOUS
 62
     7
100
AcDbCircle
 10
1033.489005841147
 20
426.4319789975434
 30
0.0
 40
1.0
100
AcDbArc
 50
183.0000000000051
 51
253.448643999941
  0
LINE
  5
135
330
1F
100
AcDbEntity
  8
9
  6
CONTINUOUS
 62
     7
100
AcDbLine
 10
1014.948253841148
 20
427.1833679975425
 30
0.0
 11
1009.448253841148
 21
427.1833679975425
 31
0.0
  0
ARC
  5
136
330
1F
100
AcDbEntity
  8
9
  6
CONTINUOUS
 62
     7
100
AcDbCircle
 10
1012.198253841148
 20
432.1833679975425
 30
0.0
 40
7.0
100
AcDbArc
 50
253.4486439999484
 51
286.5513560000509
  0
LINE
  5
137
330
1F
100
AcDbEntity
  8
9
  6
CONTINUOUS
 62
     7
100
AcDbLine
 10
1014.948253841148
 20
427.1833679975425
 30
0.0
 11
1014.906131841146
 21
426.3796429975428
 31
0.0
  0
ARC
  5
138
330
1F
100
AcDbEntity
  8
9
  6
CONTINUOUS
 62
     7
100
AcDbCircle
 10
1013.907501841146
 20
426.4319789975434
 30
0.0
 40
1.0
100
AcDbArc
 50
286.551356000052
 51
356.9999999999939
  0
LINE
  5
139
330
1F
100
AcDbEntity
  8
9
  6
CONTINUOUS
 62
     7
100
AcDbLine
 10
1009.448253841148
 20
427.1833679975425
 30
0.0
 11
1009.490375841148
 21
426.3796429975428
 31
0.0
  0
ARC
  5
13A
330
1F
100
AcDbEntity
  8
9
  6
CONTINUOUS
 62
     7
100
AcDbCircle
 10
1010.489005841147
 20
426.4319789975434
 30
0.0
 40
1.0
100
AcDbArc
 50
183.0000000000054
 51
253.4486439999472
  0
ARC
  5
13B
330
1F
100
AcDbEntity
  8
9
  6
CONTINUOUS
 62
     7
100
AcDbCircle
 10
1030.3592317088
 20
489.6833679975425
 30
0.0
 40
0.5
100
AcDbArc
 50
0.0
 51
89.99999999999991
  0
ARC
  5
13C
330
1F
100
AcDbEntity
  8
9
  6
CONTINUOUS
 62
     7
100
AcDbCircle
 10
1031.959231708798
 20
489.6833679975425
 30
0.0
 40
0.5
100
AcDbArc
 50
89.99999999999991
 51
179.9999999999998
  0
CIRCLE
  5
13D
330
1F
100
AcDbEntity
  8
9
  6
CONTINUOUS
 62
     7
100
AcDbCircle
 10
1031.159231708798
 20
490.4833679975418
 30
0.0
 40
3.450000000000045
  0
LINE
  5
13E
330
1F
100
AcDbEntity
  8
9
  6
CONTINUOUS
 62
     7
100
AcDbLine
 10
1030.8592317088
 20
489.6833679975425
 30
0.0
 11
1030.8592317088
 21
489.0333679975411
 31
0.0
  0
LINE
  5
13F
330
1F
100
AcDbEntity
  8
9
  6
CONTINUOUS
 62
     7
100
AcDbLine
 10
1031.459231708798
 20
489.6833679975425
 30
0.0
 11
1031.459231708798
 21
489.0333679975411
 31
0.0
  0
LINE
  5
140
330
1F
100
AcDbEntity
  8
9
  6
CONTINUOUS
 62
     7
100
AcDbLine
 10
1030.8592317088
 20
489.0333679975411
 30
0.0
 11
1031.459231708798
 21
489.0333679975411
 31
0.0
  0
LINE
  5
141
330
1F
100
AcDbEntity
  8
9
  6
CONTINUOUS
 62
     7
100
AcDbLine
 10
1030.3592317088
 20
490.7833679975411
 30
0.0
 11
1029.709231708798
 21
490.7833679975411
 31
0.0
  0
LINE
  5
142
330
1F
100
AcDbEntity
  8
9
  6
CONTINUOUS
 62
     7
100
AcDbLine
 10
1030.3592317088
 20
490.1833679975425
 30
0.0
 11
1029.709231708798
 21
490.1833679975425
 31
0.0
  0
ARC
  5
143
330
1F
100
AcDbEntity
  8
9
  6
CONTINUOUS
 62
     7
100
AcDbCircle
 10
1031.959231708798
 20
491.2833679975411
 30
0.0
 40
0.5
100
AcDbArc
 50
179.9999999999998
 51
269.9999999999998
  0
ARC
  5
144
330
1F
100
AcDbEntity
  8
9
  6
CONTINUOUS
 62
     7
100
AcDbCircle
 10
1030.3592317088
 20
491.2833679975411
 30
0.0
 40
0.5
100
AcDbArc
 50
269.9999999999998
 51
0.0
  0
LINE
  5
145
330
1F
100
AcDbEntity
  8
9
  6
CONTINUOUS
 62
     7
100
AcDbLine
 10
1031.459231708798
 20
491.2833679975411
 30
0.0
 11
1031.459231708798
 21
491.9333679975425
 31
0.0
  0
LINE
  5
146
330
1F
100
AcDbEntity
  8
9
  6
CONTINUOUS
 62
     7
100
AcDbLine
 10
1030.8592317088
 20
491.2833679975411
 30
0.0
 11
1030.8592317088
 21
491.9333679975425
 31
0.0
  0
LINE
  5
147
330
1F
100
AcDbEntity
  8
9
  6
CONTINUOUS
 62
     7
100
AcDbLine
 10
1031.959231708798
 20
490.7833679975411
 30
0.0
 11
1032.6092317088
 21
490.7833679975411
 31
0.0
  0
LINE
  5
148
330
1F
100
AcDbEntity
  8
9
  6
CONTINUOUS
 62
     7
100
AcDbLine
 10
1031.959231708798
 20
490.1833679975425
 30
0.0
 11
1032.6092317088
 21
490.1833679975425
 31
0.0
  0
LINE
  5
149
330
1F
100
AcDbEntity
  8
9
  6
CONTINUOUS
 62
     7
100
AcDbLine
 10
1032.6092317088
 20
490.1833679975425
 30
0.0
 11
1032.6092317088
 21
490.7833679975411
 31
0.0
  0
LINE
  5
14A
330
1F
100
AcDbEntity
  8
9
  6
CONTINUOUS
 62
     7
100
AcDbLine
 10
1031.459231708798
 20
491.9333679975425
 30
0.0
 11
1030.8592317088
 21
491.9333679975425
 31
0.0
  0
LINE
  5
14B
330
1F
100
AcDbEntity
  8
9
  6
CONTINUOUS
 62
     7
100
AcDbLine
 10
1029.709231708798
 20
490.7833679975411
 30
0.0
 11
1029.709231708798
 21
490.1833679975425
 31
0.0
  0
ARC
  5
14C
330
1F
100
AcDbEntity
  8
9
  6
CONTINUOUS
 62
     7
100
AcDbCircle
 10
1030.359231708796
 20
303.2833679975429
 30
0.0
 40
0.5
100
AcDbArc
 50
269.9999999999998
 51
0.0
  0
ARC
  5
14D
330
1F
100
AcDbEntity
  8
9
  6
CONTINUOUS
 62
     7
100
AcDbCircle
 10
1031.959231708795
 20
303.2833679975429
 30
0.0
 40
0.5
100
AcDbArc
 50
179.9999999999998
 51
269.9999999999998
  0
CIRCLE
  5
14E
330
1F
100
AcDbEntity
  8
9
  6
CONTINUOUS
 62
     7
100
AcDbCircle
 10
1031.159231708795
 20
302.4833679975436
 30
0.0
 40
3.450000000000045
  0
LINE
  5
14F
330
1F
100
AcDbEntity
  8
9
  6
CONTINUOUS
 62
     7
100
AcDbLine
 10
1030.859231708796
 20
303.2833679975429
 30
0.0
 11
1030.859231708796
 21
303.9333679975425
 31
0.0
  0
LINE
  5
150
330
1F
100
AcDbEntity
  8
9
  6
CONTINUOUS
 62
     7
100
AcDbLine
 10
1031.459231708795
 20
303.2833679975429
 30
0.0
 11
1031.459231708795
 21
303.9333679975425
 31
0.0
  0
LINE
  5
151
330
1F
100
AcDbEntity
  8
9
  6
CONTINUOUS
 62
     7
100
AcDbLine
 10
1030.859231708796
 20
303.9333679975425
 30
0.0
 11
1031.459231708795
 21
303.9333679975425
 31
0.0
  0
LINE
  5
152
330
1F
100
AcDbEntity
  8
9
  6
CONTINUOUS
 62
     7
100
AcDbLine
 10
1030.359231708796
 20
302.1833679975425
 30
0.0
 11
1029.709231708795
 21
302.1833679975425
 31
0.0
  0
LINE
  5
153
330
1F
100
AcDbEntity
  8
9
  6
CONTINUOUS
 62
     7
100
AcDbLine
 10
1030.359231708796
 20
302.7833679975429
 30
0.0
 11
1029.709231708795
 21
302.7833679975429
 31
0.0
  0
ARC
  5
154
330
1F
100
AcDbEntity
  8
9
  6
CONTINUOUS
 62
     7
100
AcDbCircle
 10
1031.959231708795
 20
301.6833679975425
 30
0.0
 40
0.5
100
AcDbArc
 50
89.99999999999991
 51
179.9999999999998
  0
ARC
  5
155
330
1F
100
AcDbEntity
  8
9
  6
CONTINUOUS
 62
     7
100
AcDbCircle
 10
1030.359231708796
 20
301.6833679975425
 30
0.0
 40
0.5
100
AcDbArc
 50
0.0
 51
89.99999999999991
  0
LINE
  5
156
330
1F
100
AcDbEntity
  8
9
  6
CONTINUOUS
 62
     7
100
AcDbLine
 10
1031.459231708795
 20
301.6833679975425
 30
0.0
 11
1031.459231708795
 21
301.0333679975429
 31
0.0
  0
LINE
  5
157
330
1F
100
AcDbEntity
  8
9
  6
CONTINUOUS
 62
     7
100
AcDbLine
 10
1030.859231708796
 20
301.6833679975425
 30
0.0
 11
1030.859231708796
 21
301.0333679975429
 31
0.0
  0
LINE
  5
158
330
1F
100
AcDbEntity
  8
9
  6
CONTINUOUS
 62
     7
100
AcDbLine
 10
1031.959231708795
 20
302.1833679975425
 30
0.0
 11
1032.609231708796
 21
302.1833679975425
 31
0.0
  0
LINE
  5
159
330
1F
100
AcDbEntity
  8
9
  6
CONTINUOUS
 62
     7
100
AcDbLine
 10
1031.959231708795
 20
302.7833679975429
 30
0.0
 11
1032.609231708796
 21
302.7833679975429
 31
0.0
  0
LINE
  5
15A
330
1F
100
AcDbEntity
  8
9
  6
CONTINUOUS
 62
     7
100
AcDbLine
 10
1032.609231708796
 20
302.7833679975429
 30
0.0
 11
1032.609231708796
 21
302.1833679975425
 31
0.0
  0
LINE
  5
15B
330
1F
100
AcDbEntity
  8
9
  6
CONTINUOUS
 62
     7
100
AcDbLine
 10
1031.459231708795
 20
301.0333679975429
 30
0.0
 11
1030.859231708796
 21
301.0333679975429
 31
0.0
  0
LINE
  5
15C
330
1F
100
AcDbEntity
  8
9
  6
CONTINUOUS
 62
     7
100
AcDbLine
 10
1029.709231708795
 20
302.1833679975425
 30
0.0
 11
1029.709231708795
 21
302.7833679975429
 31
0.0
  0
ARC
  5
15D
330
1F
100
AcDbEntity
  8
9
  6
CONTINUOUS
 62
     7
100
AcDbCircle
 10
1030.3592317088
 20
415.2833679975447
 30
0.0
 40
0.5
100
AcDbArc
 50
269.9999999999998
 51
0.0
  0
ARC
  5
15E
330
1F
100
AcDbEntity
  8
9
  6
CONTINUOUS
 62
     7
100
AcDbCircle
 10
1031.959231708798
 20
415.2833679975447
 30
0.0
 40
0.5
100
AcDbArc
 50
179.9999999999998
 51
269.9999999999998
  0
ARC
  5
15F
330
1F
100
AcDbEntity
  8
9
  6
CONTINUOUS
 62
     7
100
AcDbCircle
 10
1031.159231708798
 20
414.4833679975454
 30
0.0
 40
3.450000000000045
100
AcDbArc
 50
128.4999504092808
 51
51.50004959071926
  0
LINE
  5
160
330
1F
100
AcDbEntity
  8
9
  6
CONTINUOUS
 62
     7
100
AcDbLine
 10
1030.8592317088
 20
415.2833679975447
 30
0.0
 11
1030.8592317088
 21
415.9333679975443
 31
0.0
  0
LINE
  5
161
330
1F
100
AcDbEntity
  8
9
  6
CONTINUOUS
 62
     7
100
AcDbLine
 10
1031.459231708798
 20
415.2833679975447
 30
0.0
 11
1031.459231708798
 21
415.9333679975443
 31
0.0
  0
LINE
  5
162
330
1F
100
AcDbEntity
  8
9
  6
CONTINUOUS
 62
     7
100
AcDbLine
 10
1030.8592317088
 20
415.9333679975443
 30
0.0
 11
1031.459231708798
 21
415.9333679975443
 31
0.0
  0
LINE
  5
163
330
1F
100
AcDbEntity
  8
9
  6
CONTINUOUS
 62
     7
100
AcDbLine
 10
1030.3592317088
 20
414.1833679975443
 30
0.0
 11
1029.709231708798
 21
414.1833679975443
 31
0.0
  0
LINE
  5
164
330
1F
100
AcDbEntity
  8
9
  6
CONTINUOUS
 62
     7
100
AcDbLine
 10
1030.3592317088
 20
414.7833679975447
 30
0.0
 11
1029.709231708798
 21
414.7833679975447
 31
0.0
  0
ARC
  5
165
330
1F
100
AcDbEntity
  8
9
  6
CONTINUOUS
 62
     7
100
AcDbCircle
 10
1031.959231708798
 20
413.6833679975443
 30
0.0
 40
0.5
100
AcDbArc
 50
89.99999999999991
 51
179.9999999999998
  0
ARC
  5
166
330
1F
100
AcDbEntity
  8
9
  6
CONTINUOUS
 62
     7
100
AcDbCircle
 10
1030.3592317088
 20
413.6833679975443
 30
0.0
 40
0.5
100
AcDbArc
 50
0.0
 51
89.99999999999991
  0
LINE
  5
167
330
1F
100
AcDbEntity
  8
9
  6
CONTINUOUS
 62
     7
100
AcDbLine
 10
1031.459231708798
 20
413.6833679975443
 30
0.0
 11
1031.459231708798
 21
413.0333679975447
 31
0.0
  0
LINE
  5
168
330
1F
100
AcDbEntity
  8
9
  6
CONTINUOUS
 62
     7
100
AcDbLine
 10
1030.8592317088
 20
413.6833679975443
 30
0.0
 11
1030.8592317088
 21
413.0333679975447
 31
0.0
  0
LINE
  5
169
330
1F
100
AcDbEntity
  8
9
  6
CONTINUOUS
 62
     7
100
AcDbLine
 10
1031.959231708798
 20
414.1833679975443
 30
0.0
 11
1032.6092317088
 21
414.1833679975443
 31
0.0
  0
LINE
  5
16A
330
1F
100
AcDbEntity
  8
9
  6
CONTINUOUS
 62
     7
100
AcDbLine
 10
1031.959231708798
 20
414.7833679975447
 30
0.0
 11
1032.6092317088
 21
414.7833679975447
 31
0.0
  0
LINE
  5
16B
330
1F
100
AcDbEntity
  8
9
  6
CONTINUOUS
 62
     7
100
AcDbLine
 10
1032.6092317088
 20
414.7833679975447
 30
0.0
 11
1032.6092317088
 21
414.1833679975443
 31
0.0
  0
LINE
  5
16C
330
1F
100
AcDbEntity
  8
9
  6
CONTINUOUS
 62
     7
100
AcDbLine
 10
1031.459231708798
 20
413.0333679975447
 30
0.0
 11
1030.8592317088
 21
413.0333679975447
 31
0.0
  0
LINE
  5
16D
330
1F
100
AcDbEntity
  8
9
  6
CONTINUOUS
 62
     7
100
AcDbLine
 10
1029.709231708798
 20
414.1833679975443
 30
0.0
 11
1029.709231708798
 21
414.7833679975447
 31
0.0
  0
LINE
  5
16E
330
1F
100
AcDbEntity
  8
9
  6
CONTINUOUS
 62
     7
100
AcDbLine
 10
304.9325948719033
 20
605.9333679975443
 30
0.0
 11
304.9325948719033
 21
599.0333679975447
 31
0.0
  0
ARC
  5
16F
330
1F
100
AcDbEntity
  8
9
  6
CONTINUOUS
 62
     7
100
AcDbCircle
 10
307.899612415762
 20
602.4833679975454
 30
0.0
 40
4.550350877192955
100
AcDbArc
 50
130.6956985252931
 51
229.3043014747066
  0
LINE
  5
170
330
1F
100
AcDbEntity
  8
9
  6
CONTINUOUS
 62
     7
100
AcDbLine
 10
305.249261538569
 20
605.9333679975443
 30
0.0
 11
304.9325948719033
 21
605.9333679975443
 31
0.0
  0
LINE
  5
171
330
1F
100
AcDbEntity
  8
9
  6
CONTINUOUS
 62
     7
100
AcDbLine
 10
305.249261538569
 20
599.0333679975447
 30
0.0
 11
304.9325948719033
 21
599.0333679975447
 31
0.0
  0
LINE
  5
172
330
1F
100
AcDbEntity
  8
9
  6
CONTINUOUS
 62
     7
100
AcDbLine
 10
304.9325948719033
 20
455.9333679975425
 30
0.0
 11
304.9325948719033
 21
449.0333679975429
 31
0.0
  0
ARC
  5
173
330
1F
100
AcDbEntity
  8
9
  6
CONTINUOUS
 62
     7
100
AcDbCircle
 10
307.899612415762
 20
452.4833679975436
 30
0.0
 40
4.550350877192955
100
AcDbArc
 50
130.6956985252931
 51
229.3043014747066
  0
LINE
  5
174
330
1F
100
AcDbEntity
  8
9
  6
CONTINUOUS
 62
     7
100
AcDbLine
 10
305.249261538569
 20
455.9333679975425
 30
0.0
 11
304.9325948719033
 21
455.9333679975425
 31
0.0
  0
LINE
  5
175
330
1F
100
AcDbEntity
  8
9
  6
CONTINUOUS
 62
     7
100
AcDbLine
 10
305.249261538569
 20
449.0333679975429
 30
0.0
 11
304.9325948719033
 21
449.0333679975429
 31
0.0
  0
LINE
  5
176
330
1F
100
AcDbEntity
  8
9
  6
CONTINUOUS
 62
     7
100
AcDbLine
 10
304.9325948719033
 20
305.9333679975425
 30
0.0
 11
304.9325948719033
 21
299.0333679975429
 31
0.0
  0
ARC
  5
177
330
1F
100
AcDbEntity
  8
9
  6
CONTINUOUS
 62
     7
100
AcDbCircle
 10
307.899612415762
 20
302.4833679975436
 30
0.0
 40
4.550350877192955
100
AcDbArc
 50
130.6956985252931
 51
229.3043014747066
  0
LINE
  5
178
330
1F
100
AcDbEntity
  8
9
  6
CONTINUOUS
 62
     7
100
AcDbLine
 10
305.249261538569
 20
305.9333679975425
 30
0.0
 11
304.9325948719033
 21
305.9333679975425
 31
0.0
  0
LINE
  5
179
330
1F
100
AcDbEntity
  8
9
  6
CONTINUOUS
 62
     7
100
AcDbLine
 10
305.249261538569
 20
299.0333679975429
 30
0.0
 11
304.9325948719033
 21
299.0333679975429
 31
0.0
  0
LINE
  5
17A
330
1F
100
AcDbEntity
  8
9
  6
CONTINUOUS
 62
     7
100
AcDbLine
 10
498.699261538568
 20
237.1667013308761
 30
0.0
 11
491.7992615385683
 21
237.1667013308761
 31
0.0
  0
ARC
  5
17B
330
1F
100
AcDbEntity
  8
9
  6
CONTINUOUS
 62
     7
100
AcDbCircle
 10
495.249261538569
 20
240.1337188747366
 30
0.0
 40
4.550350877192955
100
AcDbArc
 50
220.6956985254422
 51
319.3043014745571
  0
LINE
  5
17C
330
1F
100
AcDbEntity
  8
9
  6
CONTINUOUS
 62
     7
100
AcDbLine
 10
498.699261538568
 20
237.4833679975454
 30
0.0
 11
498.699261538568
 21
237.1667013308761
 31
0.0
  0
LINE
  5
17D
330
1F
100
AcDbEntity
  8
9
  6
CONTINUOUS
 62
     7
100
AcDbLine
 10
491.7992615385683
 20
237.4833679975454
 30
0.0
 11
491.7992615385683
 21
237.1667013308761
 31
0.0
  0
LINE
  5
17E
330
1F
100
AcDbEntity
  8
9
  6
CONTINUOUS
 62
     7
100
AcDbLine
 10
648.699261538568
 20
237.1667013308761
 30
0.0
 11
641.7992615385683
 21
237.1667013308761
 31
0.0
  0
ARC
  5
17F
330
1F
100
AcDbEntity
  8
9
  6
CONTINUOUS
 62
     7
100
AcDbCircle
 10
645.249261538569
 20
240.1337188747366
 30
0.0
 40
4.550350877192955
100
AcDbArc
 50
220.6956985254422
 51
319.3043014745571
  0
LINE
  5
180
330
1F
100
AcDbEntity
  8
9
  6
CONTINUOUS
 62
     7
100
AcDbLine
 10
648.699261538568
 20
237.4833679975436
 30
0.0
 11
648.699261538568
 21
237.1667013308761
 31
0.0
  0
LINE
  5
181
330
1F
100
AcDbEntity
  8
9
  6
CONTINUOUS
 62
     7
100
AcDbLine
 10
641.7992615385683
 20
237.4833679975436
 30
0.0
 11
641.7992615385683
 21
237.1667013308761
 31
0.0
  0
CIRCLE
  5
182
330
1F
100
AcDbEntity
  8
9
  6
CONTINUOUS
 62
     7
100
AcDbCircle
 10
457.7495125969517
 20
229.4833679975436
 30
0.0
 40
3.100000000000023
  0
CIRCLE
  5
183
330
1F
100
AcDbEntity
  8
9
  6
CONTINUOUS
 62
     7
100
AcDbCircle
 10
345.249261538569
 20
675.4833679975418
 30
0.0
 40
3.100000000000023
  0
CIRCLE
  5
184
330
1F
100
AcDbEntity
  8
9
  6
CONTINUOUS
 62
     7
100
AcDbCircle
 10
570.249261538569
 20
675.4833679975418
 30
0.0
 40
3.100000000000023
  0
CIRCLE
  5
185
330
1F
100
AcDbEntity
  8
9
  6
CONTINUOUS
 62
     7
100
AcDbCircle
 10
682.749261538569
 20
675.4833679975418
 30
0.0
 40
3.100000000000023
  0
CIRCLE
  5
186
330
1F
100
AcDbEntity
  8
9
  6
CONTINUOUS
 62
     7
100
AcDbCircle
 10
795.249261538569
 20
675.4833679975418
 30
0.0
 40
3.100000000000023
  0
CIRCLE
  5
187
330
1F
100
AcDbEntity
  8
9
  6
CONTINUOUS
 62
     7
100
AcDbCircle
 10
457.7495125969517
 20
675.4833679975418
 30
0.0
 40
3.100000000000023
  0
LINE
  5
188
330
1F
100
AcDbEntity
  8
9
  6
CONTINUOUS
 62
     7
100
AcDbLine
 10
318.6992615385698
 20
667.8000346642093
 30
0.0
 11
311.799261538572
 21
667.8000346642093
 31
0.0
  0
ARC
  5
189
330
1F
100
AcDbEntity
  8
9
  6
CONTINUOUS
 62
     7
100
AcDbCircle
 10
315.2492615385709
 20
664.8330171203488
 30
0.0
 40
4.550350877192955
100
AcDbArc
 50
40.69569852544689
 51
139.3043014745531
  0
LINE
  5
18A
330
1F
100
AcDbEntity
  8
9
  6
CONTINUOUS
 62
     7
100
AcDbLine
 10
318.6992615385698
 20
667.4833679975418
 30
0.0
 11
318.6992615385698
 21
667.8000346642093
 31
0.0
  0
LINE
  5
18B
330
1F
100
AcDbEntity
  8
9
  6
CONTINUOUS
 62
     7
100
AcDbLine
 10
311.799261538572
 20
667.4833679975418
 30
0.0
 11
311.799261538572
 21
667.8000346642093
 31
0.0
  0
LINE
  5
18C
330
1F
100
AcDbEntity
  8
9
  6
CONTINUOUS
 62
     7
100
AcDbLine
 10
340.1992615385698
 20
667.8000346642093
 30
0.0
 11
333.299261538572
 21
667.8000346642093
 31
0.0
  0
ARC
  5
18D
330
1F
100
AcDbEntity
  8
9
  6
CONTINUOUS
 62
     7
100
AcDbCircle
 10
336.7492615385709
 20
664.8330171203488
 30
0.0
 40
4.550350877192955
100
AcDbArc
 50
40.69569852544689
 51
139.3043014745531
  0
LINE
  5
18E
330
1F
100
AcDbEntity
  8
9
  6
CONTINUOUS
 62
     7
100
AcDbLine
 10
340.1992615385698
 20
667.4833679975418
 30
0.0
 11
340.1992615385698
 21
667.8000346642093
 31
0.0
  0
LINE
  5
18F
330
1F
100
AcDbEntity
  8
9
  6
CONTINUOUS
 62
     7
100
AcDbLine
 10
333.299261538572
 20
667.4833679975418
 30
0.0
 11
333.299261538572
 21
667.8000346642093
 31
0.0
  0
LINE
  5
190
330
1F
100
AcDbEntity
  8
9
  6
CONTINUOUS
 62
     7
100
AcDbLine
 10
821.7992615385683
 20
667.8000346642093
 30
0.0
 11
828.6992615385698
 21
667.8000346642093
 31
0.0
  0
ARC
  5
191
330
1F
100
AcDbEntity
  8
9
  6
CONTINUOUS
 62
     7
100
AcDbCircle
 10
825.249261538569
 20
664.8330171203488
 30
0.0
 40
4.550350877192955
100
AcDbArc
 50
40.69569852544286
 51
139.3043014745571
  0
LINE
  5
192
330
1F
100
AcDbEntity
  8
9
  6
CONTINUOUS
 62
     7
100
AcDbLine
 10
821.7992615385683
 20
667.4833679975418
 30
0.0
 11
821.7992615385683
 21
667.8000346642093
 31
0.0
  0
LINE
  5
193
330
1F
100
AcDbEntity
  8
9
  6
CONTINUOUS
 62
     7
100
AcDbLine
 10
828.6992615385698
 20
667.4833679975418
 30
0.0
 11
828.6992615385698
 21
667.8000346642093
 31
0.0
  0
LINE
  5
194
330
1F
100
AcDbEntity
  8
9
  6
CONTINUOUS
 62
     7
100
AcDbLine
 10
800.2992615385683
 20
667.8000346642093
 30
0.0
 11
807.1992615385698
 21
667.8000346642093
 31
0.0
  0
ARC
  5
195
330
1F
100
AcDbEntity
  8
9
  6
CONTINUOUS
 62
     7
100
AcDbCircle
 10
803.749261538569
 20
664.8330171203488
 30
0.0
 40
4.550350877192955
100
AcDbArc
 50
40.69569852544286
 51
139.3043014745571
  0
LINE
  5
196
330
1F
100
AcDbEntity
  8
9
  6
CONTINUOUS
 62
     7
100
AcDbLine
 10
800.2992615385683
 20
667.4833679975418
 30
0.0
 11
800.2992615385683
 21
667.8000346642093
 31
0.0
  0
LINE
  5
197
330
1F
100
AcDbEntity
  8
9
  6
CONTINUOUS
 62
     7
100
AcDbLine
 10
807.1992615385698
 20
667.4833679975418
 30
0.0
 11
807.1992615385698
 21
667.8000346642093
 31
0.0
  0
LINE
  5
198
330
1F
100
AcDbEntity
  8
9
  6
CONTINUOUS
 62
     7
100
AcDbLine
 10
498.699261538568
 20
667.8000346642093
 30
0.0
 11
491.7992615385683
 21
667.8000346642093
 31
0.0
  0
ARC
  5
199
330
1F
100
AcDbEntity
  8
9
  6
CONTINUOUS
 62
     7
100
AcDbCircle
 10
495.249261538569
 20
664.8330171203488
 30
0.0
 40
4.550350877192955
100
AcDbArc
 50
40.69569852544286
 51
139.3043014745571
  0
LINE
  5
19A
330
1F
100
AcDbEntity
  8
9
  6
CONTINUOUS
 62
     7
100
AcDbLine
 10
498.699261538568
 20
667.4833679975418
 30
0.0
 11
498.699261538568
 21
667.8000346642093
 31
0.0
  0
LINE
  5
19B
330
1F
100
AcDbEntity
  8
9
  6
CONTINUOUS
 62
     7
100
AcDbLine
 10
491.7992615385683
 20
667.4833679975418
 30
0.0
 11
491.7992615385683
 21
667.8000346642093
 31
0.0
  0
LINE
  5
19C
330
1F
100
AcDbEntity
  8
9
  6
CONTINUOUS
 62
     7
100
AcDbLine
 10
648.699261538568
 20
667.8000346642093
 30
0.0
 11
641.7992615385683
 21
667.8000346642093
 31
0.0
  0
ARC
  5
19D
330
1F
100
AcDbEntity
  8
9
  6
CONTINUOUS
 62
     7
100
AcDbCircle
 10
645.249261538569
 20
664.8330171203488
 30
0.0
 40
4.550350877192955
100
AcDbArc
 50
40.69569852544286
 51
139.3043014745571
  0
LINE
  5
19E
330
1F
100
AcDbEntity
  8
9
  6
CONTINUOUS
 62
     7
100
AcDbLine
 10
648.699261538568
 20
667.4833679975418
 30
0.0
 11
648.699261538568
 21
667.8000346642093
 31
0.0
  0
LINE
  5
19F
330
1F
100
AcDbEntity
  8
9
  6
CONTINUOUS
 62
     7
100
AcDbLine
 10
641.7992615385683
 20
667.4833679975418
 30
0.0
 11
641.7992615385683
 21
667.8000346642093
 31
0.0
  0
LINE
  5
1A0
330
1F
100
AcDbEntity
  8
4
  6
DASHDOT
 62
     1
100
AcDbLine
 10
981.159231708798
 20
452.4833679975436
 30
0.0
 11
1056.159231708799
 21
452.4833679975436
 31
0.0
  0
LINE
  5
1A1
330
1F
100
AcDbEntity
  8
4
  6
DASHDOT
 62
     1
100
AcDbLine
 10
334.6492615385691
 20
675.4833679975418
 30
0.0
 11
355.849261538569
 21
675.4833679975418
 31
0.0
  0
LINE
  5
1A2
330
1F
100
AcDbEntity
  8
4
  6
DASHDOT
 62
     1
100
AcDbLine
 10
345.249261538569
 20
686.0833679975422
 30
0.0
 11
345.249261538569
 21
664.8833679975432
 31
0.0
  0
LINE
  5
1A3
330
1F
100
AcDbEntity
  8
4
  6
DASHDOT
 62
     1
100
AcDbLine
 10
447.1495125969514
 20
675.4833679975418
 30
0.0
 11
468.3495125969521
 21
675.4833679975418
 31
0.0
  0
LINE
  5
1A4
330
1F
100
AcDbEntity
  8
4
  6
DASHDOT
 62
     1
100
AcDbLine
 10
457.7495125969517
 20
686.0833679975422
 30
0.0
 11
457.7495125969517
 21
664.8833679975432
 31
0.0
  0
LINE
  5
1A5
330
1F
100
AcDbEntity
  8
4
  6
DASHDOT
 62
     1
100
AcDbLine
 10
559.6492615385687
 20
675.4833679975418
 30
0.0
 11
580.8492615385685
 21
675.4833679975418
 31
0.0
  0
LINE
  5
1A6
330
1F
100
AcDbEntity
  8
4
  6
DASHDOT
 62
     1
100
AcDbLine
 10
672.1492615385696
 20
675.4833679975418
 30
0.0
 11
693.3492615385685
 21
675.4833679975418
 31
0.0
  0
LINE
  5
1A7
330
1F
100
AcDbEntity
  8
4
  6
DASHDOT
 62
     1
100
AcDbLine
 10
682.749261538569
 20
686.0833679975422
 30
0.0
 11
682.749261538569
 21
664.8833679975432
 31
0.0
  0
LINE
  5
1A8
330
1F
100
AcDbEntity
  8
4
  6
DASHDOT
 62
     1
100
AcDbLine
 10
784.6492615385696
 20
675.4833679975418
 30
0.0
 11
805.8492615385685
 21
675.4833679975418
 31
0.0
  0
LINE
  5
1A9
330
1F
100
AcDbEntity
  8
4
  6
DASHDOT
 62
     1
100
AcDbLine
 10
795.249261538569
 20
686.0833679975422
 30
0.0
 11
795.249261538569
 21
664.8833679975432
 31
0.0
  0
LINE
  5
1AA
330
1F
100
AcDbEntity
  8
4
  6
DASHDOT
 62
     1
100
AcDbLine
 10
784.6492615385696
 20
229.4833679975436
 30
0.0
 11
805.8492615385685
 21
229.4833679975436
 31
0.0
  0
LINE
  5
1AB
330
1F
100
AcDbEntity
  8
4
  6
DASHDOT
 62
     1
100
AcDbLine
 10
795.249261538569
 20
240.083367997544
 30
0.0
 11
795.249261538569
 21
218.8833679975432
 31
0.0
  0
LINE
  5
1AC
330
1F
100
AcDbEntity
  8
4
  6
DASHDOT
 62
     1
100
AcDbLine
 10
672.1492615385696
 20
229.4833679975436
 30
0.0
 11
693.3492615385685
 21
229.4833679975436
 31
0.0
  0
LINE
  5
1AD
330
1F
100
AcDbEntity
  8
4
  6
DASHDOT
 62
     1
100
AcDbLine
 10
682.749261538569
 20
240.083367997544
 30
0.0
 11
682.749261538569
 21
218.8833679975432
 31
0.0
  0
LINE
  5
1AE
330
1F
100
AcDbEntity
  8
4
  6
DASHDOT
 62
     1
100
AcDbLine
 10
559.6492615385687
 20
229.4833679975436
 30
0.0
 11
580.8492615385685
 21
229.4833679975436
 31
0.0
  0
LINE
  5
1AF
330
1F
100
AcDbEntity
  8
4
  6
DASHDOT
 62
     1
100
AcDbLine
 10
447.1495125969514
 20
229.4833679975436
 30
0.0
 11
468.3495125969521
 21
229.4833679975436
 31
0.0
  0
LINE
  5
1B0
330
1F
100
AcDbEntity
  8
4
  6
DASHDOT
 62
     1
100
AcDbLine
 10
457.7495125969517
 20
240.083367997544
 30
0.0
 11
457.7495125969517
 21
218.8833679975432
 31
0.0
  0
LINE
  5
1B1
330
1F
100
AcDbEntity
  8
4
  6
DASHDOT
 62
     1
100
AcDbLine
 10
334.6492615385691
 20
229.4833679975436
 30
0.0
 11
355.849261538569
 21
229.4833679975436
 31
0.0
  0
LINE
  5
1B2
330
1F
100
AcDbEntity
  8
4
  6
DASHDOT
 62
     1
100
AcDbLine
 10
345.249261538569
 20
240.083367997544
 30
0.0
 11
345.249261538569
 21
218.8833679975432
 31
0.0
  0
LINE
  5
1B3
330
1F
100
AcDbEntity
  8
4
  6
DASHDOT
 62
     1
100
AcDbLine
 10
1032.659231708798
 20
675.4833679975418
 30
0.0
 11
1048.659231708798
 21
675.4833679975418
 31
0.0
  0
LINE
  5
1B4
330
1F
100
AcDbEntity
  8
4
  6
DASHDOT
 62
     1
100
AcDbLine
 10
1032.659231708798
 20
229.4833679975436
 30
0.0
 11
1048.659231708798
 21
229.4833679975436
 31
0.0
  0
CIRCLE
  5
1B5
330
1F
100
AcDbEntity
  8
9
  6
CONTINUOUS
 62
     7
100
AcDbCircle
 10
570.2492615386072
 20
452.4833679975272
 30
0.0
 40
17.5
  0
CIRCLE
  5
1B6
330
1F
100
AcDbEntity
  8
3
  6
HIDDEN
 62
     3
100
AcDbCircle
 10
570.2492615386072
 20
452.4833679975272
 30
0.0
 40
22.5
  0
LINE
  5
1B7
330
1F
100
AcDbEntity
  8
3
  6
HIDDEN
 62
     3
100
AcDbLine
 10
997.159231708798
 20
664.4833679975454
 30
0.0
 11
997.159231708798
 21
240.4833679975454
 31
0.0
  0
LINE
  5
1B8
330
1F
100
AcDbEntity
  8
3
  6
HIDDEN
 62
     3
100
AcDbLine
 10
1002.159231708798
 20
664.4833679975454
 30
0.0
 11
1002.159231708798
 21
240.4833679975454
 31
0.0
  0
LINE
  5
1B9
330
1F
100
AcDbEntity
  8
3
  6
HIDDEN
 62
     3
100
AcDbLine
 10
997.159231708798
 20
664.4833679975454
 30
0.0
 11
1002.159231708798
 21
664.4833679975454
 31
0.0
  0
LINE
  5
1BA
330
1F
100
AcDbEntity
  8
3
  6
HIDDEN
 62
     3
100
AcDbLine
 10
997.159231708798
 20
240.4833679975454
 30
0.0
 11
1002.159231708798
 21
240.4833679975454
 31
0.0
  0
LINE
  5
1BB
330
1F
100
AcDbEntity
  8
3
  6
HIDDEN
 62
     3
100
AcDbLine
 10
1041.159231708798
 20
434.9833679975418
 30
0.0
 11
996.159231708798
 21
434.9833679975418
 31
0.0
  0
LINE
  5
1BC
330
1F
100
AcDbEntity
  8
3
  6
HIDDEN
 62
     3
100
AcDbLine
 10
1040.159231708797
 20
429.9833679975418
 30
0.0
 11
1002.159231708798
 21
429.9833679975418
 31
0.0
  0
LINE
  5
1BD
330
1F
100
AcDbEntity
  8
3
  6
HIDDEN
 62
     3
100
AcDbLine
 10
1041.159231708798
 20
469.9833679975454
 30
0.0
 11
996.159231708798
 21
469.9833679975454
 31
0.0
  0
LINE
  5
1BE
330
1F
100
AcDbEntity
  8
3
  6
HIDDEN
 62
     3
100
AcDbLine
 10
1040.159231708797
 20
474.9833679975454
 30
0.0
 11
1002.159231708798
 21
474.9833679975454
 31
0.0
  0
HATCH
  5
1BF
330
1F
100
AcDbEntity
  8
10
  6
CONTINUOUS
 62
     2
100
AcDbHatch
 10
0.0
 20
0.0
 30
0.0
210
0.0
220
0.0
230
1.0
  2

 70
     0
 71
     0
 91
        4
 92
        0
 93
       40
 72
     1
 10
570.249261538569
 20
652.4833679975436
 11
320.249261538569
 21
652.4833679975436
 72
     1
 10
320.249261538569
 20
652.4833679975436
 11
320.249261538569
 21
452.4833679975436
 72
     1
 10
320.249261538569
 20
452.4833679975436
 11
547.7492615386072
 21
452.4833679975436
 72
     1
 10
547.7492615386072
 20
452.4833679975301
 11
547.7706765530154
 21
453.46480421325
 72
     1
 10
547.7706765530154
 20
453.46480421325
 11
547.8348808315429
 21
454.4443722093522
 72
     1
 10
547.8348808315429
 20
454.4443722093522
 11
547.9417521576964
 21
455.4202073224809
 72
     1
 10
547.9417521576964
 20
455.4202073224809
 11
548.0910870958326
 21
456.3904519950356
 72
     1
 10
548.0910870958326
 20
456.3904519950356
 11
548.2826013784087
 21
457.3532593111369
 72
     1
 10
548.2826013784087
 20
457.3532593111369
 11
548.5159304471032
 21
458.3067965123362
 72
     1
 10
548.5159304471032
 20
458.3067965123362
 11
548.7906301467721
 21
459.2492484863754
 72
     1
 10
548.7906301467721
 20
459.2492484863754
 11
549.1061775709242
 21
460.1788212223568
 72
     1
 10
549.1061775709242
 20
460.1788212223568
 11
549.4619720571031
 21
461.0937452257436
 72
     1
 10
549.4619720571031
 20
461.0937452257436
 11
549.8573363302825
 21
461.9922788866947
 72
     1
 10
549.8573363302825
 20
461.9922788866947
 11
550.291517792097
 21
462.8727117953172
 72
     1
 10
550.291517792097
 20
462.8727117953172
 11
550.7636899534571
 21
463.7333679975288
 72
     1
 10
550.7636899534571
 20
463.7333679975288
 11
551.2729540078169
 21
464.5726091853323
 72
     1
 10
551.2729540078169
 20
464.5726091853323
 11
551.8183405421045
 21
465.3888378154272
 72
     1
 10
551.8183405421045
 20
465.3888378154272
 11
552.398811382054
 21
466.1805001502248
 72
     1
 10
552.398811382054
 20
466.1805001502248
 11
553.0132615684297
 21
466.9460892154756
 72
     1
 10
553.0132615684297
 20
466.9460892154756
 11
553.6605214603788
 21
467.6841476688807
 72
     1
 10
553.6605214603788
 20
467.6841476688807
 11
554.3393589619093
 21
468.3932705742256
 72
     1
 10
554.3393589619093
 20
468.3932705742256
 11
555.0484818672542
 21
469.072108075756
 72
     1
 10
555.0484818672542
 20
469.072108075756
 11
555.7865403206592
 21
469.7193679677051
 72
     1
 10
555.7865403206592
 20
469.7193679677051
 11
556.5521293859101
 21
470.3338181540809
 72
     1
 10
556.5521293859101
 20
470.3338181540809
 11
557.3437917207077
 21
470.9142889940303
 72
     1
 10
557.3437917207077
 20
470.9142889940303
 11
558.1600203508026
 21
471.4596755283179
 72
     1
 10
558.1600203508026
 20
471.4596755283179
 11
558.999261538606
 21
471.9689395826778
 72
     1
 10
558.999261538606
 20
471.9689395826778
 11
559.8599177408177
 21
472.4411117440378
 72
     1
 10
559.8599177408177
 20
472.4411117440378
 11
560.7403506494401
 21
472.8752932058524
 72
     1
 10
560.7403506494401
 20
472.8752932058524
 11
561.6388843103912
 21
473.2706574790317
 72
     1
 10
561.6388843103912
 20
473.2706574790317
 11
562.5538083137781
 21
473.6264519652106
 72
     1
 10
562.5538083137781
 20
473.6264519652106
 11
563.4833810497594
 21
473.9419993893628
 72
     1
 10
563.4833810497594
 20
473.9419993893628
 11
564.4258330237988
 21
474.2166990890316
 72
     1
 10
564.4258330237988
 20
474.2166990890316
 11
565.379370224998
 21
474.4500281577261
 72
     1
 10
565.379370224998
 20
474.4500281577261
 11
566.3421775410993
 21
474.6415424403023
 72
     1
 10
566.3421775410993
 20
474.6415424403023
 11
567.3124222136539
 21
474.7908773784383
 72
     1
 10
567.3124222136539
 20
474.7908773784383
 11
568.2882573267827
 21
474.8977487045918
 72
     1
 10
568.2882573267827
 20
474.8977487045918
 11
569.2678253228848
 21
474.9619529831193
 72
     1
 10
569.2678253228848
 20
474.9619529831193
 11
570.2492615386047
 21
474.9833679975275
 72
     1
 10
570.249261538569
 20
474.9833679975272
 11
570.249261538569
 21
652.4833679975436
 97
        0
 92
        0
 93
       40
 72
     1
 10
820.249261538569
 20
652.4833679975436
 11
570.249261538569
 21
652.4833679975436
 72
     1
 10
570.249261538569
 20
652.4833679975436
 11
570.249261538569
 21
474.9833679975272
 72
     1
 10
570.2492615386102
 20
474.9833679975272
 11
571.2306977543302
 21
474.961952983119
 72
     1
 10
571.2306977543302
 20
474.961952983119
 11
572.2102657504323
 21
474.8977487045914
 72
     1
 10
572.2102657504323
 20
474.8977487045914
 11
573.1861008635611
 21
474.7908773784379
 72
     1
 10
573.1861008635611
 20
474.7908773784379
 11
574.1563455361157
 21
474.6415424403019
 72
     1
 10
574.1563455361157
 20
474.6415424403019
 11
575.119152852217
 21
474.4500281577257
 72
     1
 10
575.119152852217
 20
474.4500281577257
 11
576.0726900534163
 21
474.2166990890313
 72
     1
 10
576.0726900534163
 20
474.2166990890313
 11
577.0151420274557
 21
473.9419993893624
 72
     1
 10
577.0151420274557
 20
473.9419993893624
 11
577.944714763437
 21
473.6264519652103
 72
     1
 10
577.944714763437
 20
473.6264519652103
 11
578.8596387668239
 21
473.2706574790313
 72
     1
 10
578.8596387668239
 20
473.2706574790313
 11
579.758172427775
 21
472.875293205852
 72
     1
 10
579.758172427775
 20
472.875293205852
 11
580.6386053363974
 21
472.4411117440374
 72
     1
 10
580.6386053363974
 20
472.4411117440374
 11
581.4992615386091
 21
471.9689395826774
 72
     1
 10
581.4992615386091
 20
471.9689395826774
 11
582.3385027264125
 21
471.4596755283175
 72
     1
 10
582.3385027264125
 20
471.4596755283175
 11
583.1547313565073
 21
470.9142889940299
 72
     1
 10
583.1547313565073
 20
470.9142889940299
 11
583.9463936913049
 21
470.3338181540805
 72
     1
 10
583.9463936913049
 20
470.3338181540805
 11
584.7119827565558
 21
469.7193679677047
 72
     1
 10
584.7119827565558
 20
469.7193679677047
 11
585.450041209961
 21
469.0721080757556
 72
     1
 10
585.450041209961
 20
469.0721080757556
 11
586.1591641153059
 21
468.3932705742252
 72
     1
 10
586.1591641153059
 20
468.3932705742252
 11
586.8380016168362
 21
467.6841476688803
 72
     1
 10
586.8380016168362
 20
467.6841476688803
 11
587.4852615087854
 21
466.9460892154752
 72
     1
 10
587.4852615087854
 20
466.9460892154752
 11
588.0997116951611
 21
466.1805001502243
 72
     1
 10
588.0997116951611
 20
466.1805001502243
 11
588.6801825351106
 21
465.3888378154267
 72
     1
 10
588.6801825351106
 20
465.3888378154267
 11
589.2255690693981
 21
464.5726091853318
 72
     1
 10
589.2255690693981
 20
464.5726091853318
 11
589.734833123758
 21
463.7333679975284
 72
     1
 10
589.734833123758
 20
463.7333679975284
 11
590.207005285118
 21
462.8727117953167
 72
     1
 10
590.207005285118
 20
462.8727117953167
 11
590.6411867469327
 21
461.9922788866943
 72
     1
 10
590.6411867469327
 20
461.9922788866943
 11
591.0365510201119
 21
461.0937452257432
 72
     1
 10
591.0365510201119
 20
461.0937452257432
 11
591.3923455062909
 21
460.1788212223563
 72
     1
 10
591.3923455062909
 20
460.1788212223563
 11
591.707892930443
 21
459.249248486375
 72
     1
 10
591.707892930443
 20
459.249248486375
 11
591.982592630112
 21
458.3067965123357
 72
     1
 10
591.982592630112
 20
458.3067965123357
 11
592.2159216988064
 21
457.3532593111364
 72
     1
 10
592.2159216988064
 20
457.3532593111364
 11
592.4074359813825
 21
456.3904519950351
 72
     1
 10
592.4074359813825
 20
456.3904519950351
 11
592.5567709195186
 21
455.4202073224804
 72
     1
 10
592.5567709195186
 20
455.4202073224804
 11
592.6636422456721
 21
454.4443722093517
 72
     1
 10
592.6636422456721
 20
454.4443722093517
 11
592.7278465241997
 21
453.4648042132495
 72
     1
 10
592.7278465241997
 20
453.4648042132495
 11
592.7492615386078
 21
452.4833679975296
 72
     1
 10
592.7492615386072
 20
452.4833679975436
 11
820.249261538569
 21
452.4833679975436
 72
     1
 10
820.249261538569
 20
452.4833679975436
 11
820.249261538569
 21
652.4833679975436
 97
        0
 92
        0
 93
       40
 72
     1
 10
820.249261538569
 20
452.4833679975436
 11
592.7492615386072
 21
452.4833679975436
 72
     1
 10
592.7492615386072
 20
452.4833679975258
 11
592.727846524199
 21
451.5019317818058
 72
     1
 10
592.727846524199
 20
451.5019317818058
 11
592.6636422456716
 21
450.5223637857035
 72
     1
 10
592.6636422456716
 20
450.5223637857035
 11
592.5567709195179
 21
449.5465286725746
 72
     1
 10
592.5567709195179
 20
449.5465286725746
 11
592.4074359813819
 21
448.5762840000198
 72
     1
 10
592.4074359813819
 20
448.5762840000198
 11
592.2159216988057
 21
447.6134766839184
 72
     1
 10
592.2159216988057
 20
447.6134766839184
 11
591.9825926301112
 21
446.659939482719
 72
     1
 10
591.9825926301112
 20
446.659939482719
 11
591.7078929304423
 21
445.7174875086795
 72
     1
 10
591.7078929304423
 20
445.7174875086795
 11
591.3923455062901
 21
444.7879147726981
 72
     1
 10
591.3923455062901
 20
444.7879147726981
 11
591.0365510201111
 21
443.8729907693111
 72
     1
 10
591.0365510201111
 20
443.8729907693111
 11
590.6411867469318
 21
442.9744571083598
 72
     1
 10
590.6411867469318
 20
442.9744571083598
 11
590.2070052851171
 21
442.0940241997373
 72
     1
 10
590.2070052851171
 20
442.0940241997373
 11
589.734833123757
 21
441.2333679975255
 72
     1
 10
589.734833123757
 20
441.2333679975255
 11
589.225569069397
 21
440.394126809722
 72
     1
 10
589.225569069397
 20
440.394126809722
 11
588.6801825351093
 21
439.577898179627
 72
     1
 10
588.6801825351093
 20
439.577898179627
 11
588.0997116951598
 21
438.7862358448293
 72
     1
 10
588.0997116951598
 20
438.7862358448293
 11
587.485261508784
 21
438.0206467795783
 72
     1
 10
587.485261508784
 20
438.0206467795783
 11
586.8380016168347
 21
437.2825883261731
 72
     1
 10
586.8380016168347
 20
437.2825883261731
 11
586.1591641153043
 21
436.5734654208281
 72
     1
 10
586.1591641153043
 20
436.5734654208281
 11
585.4500412099593
 21
435.8946279192976
 72
     1
 10
585.4500412099593
 20
435.8946279192976
 11
584.711982756554
 21
435.2473680273484
 72
     1
 10
584.711982756554
 20
435.2473680273484
 11
583.9463936913031
 21
434.6329178409726
 72
     1
 10
583.9463936913031
 20
434.6329178409726
 11
583.1547313565054
 21
434.052447001023
 72
     1
 10
583.1547313565054
 20
434.052447001023
 11
582.3385027264104
 21
433.5070604667354
 72
     1
 10
582.3385027264104
 20
433.5070604667354
 11
581.4992615386068
 21
432.9977964123755
 72
     1
 10
581.4992615386068
 20
432.9977964123755
 11
580.638605336395
 21
432.5256242510154
 72
     1
 10
580.638605336395
 20
432.5256242510154
 11
579.7581724277725
 21
432.0914427892007
 72
     1
 10
579.7581724277725
 20
432.0914427892007
 11
578.8596387668213
 21
431.6960785160214
 72
     1
 10
578.8596387668213
 20
431.6960785160214
 11
577.9447147634343
 21
431.3402840298424
 72
     1
 10
577.9447147634343
 20
431.3402840298424
 11
577.0151420274528
 21
431.0247366056902
 72
     1
 10
577.0151420274528
 20
431.0247366056902
 11
576.0726900534133
 21
430.7500369060213
 72
     1
 10
576.0726900534133
 20
430.7500369060213
 11
575.1191528522139
 21
430.5167078373268
 72
     1
 10
575.1191528522139
 20
430.5167078373268
 11
574.1563455361126
 21
430.3251935547506
 72
     1
 10
574.1563455361126
 20
430.3251935547506
 11
573.1861008635577
 21
430.1758586166146
 72
     1
 10
573.1861008635577
 20
430.1758586166146
 11
572.2102657504288
 21
430.068987290461
 72
     1
 10
572.2102657504288
 20
430.068987290461
 11
571.2306977543266
 21
430.0047830119335
 72
     1
 10
571.2306977543266
 20
430.0047830119335
 11
570.2492615386064
 21
429.9833679975253
 72
     1
 10
570.249261538569
 20
429.9833679975272
 11
570.249261538569
 21
252.4833679975436
 72
     1
 10
570.249261538569
 20
252.4833679975436
 11
820.249261538569
 21
252.4833679975436
 72
     1
 10
820.249261538569
 20
252.4833679975436
 11
820.249261538569
 21
452.4833679975436
 97
        0
 92
        0
 93
       40
 72
     1
 10
547.7492615386075
 20
452.4833679975317
 11
547.7706765530156
 21
451.5019317818115
 72
     1
 10
547.7706765530156
 20
451.5019317818115
 11
547.8348808315432
 21
450.522363785709
 72
     1
 10
547.8348808315432
 20
450.522363785709
 11
547.9417521576967
 21
449.54652867258
 72
     1
 10
547.9417521576967
 20
449.54652867258
 11
548.0910870958328
 21
448.5762840000251
 72
     1
 10
548.0910870958328
 20
448.5762840000251
 11
548.282601378409
 21
447.6134766839235
 72
     1
 10
548.282601378409
 20
447.6134766839235
 11
548.5159304471035
 21
446.6599394827239
 72
     1
 10
548.5159304471035
 20
446.6599394827239
 11
548.7906301467725
 21
445.7174875086843
 72
     1
 10
548.7906301467725
 20
445.7174875086843
 11
549.1061775709247
 21
444.7879147727027
 72
     1
 10
549.1061775709247
 20
444.7879147727027
 11
549.4619720571038
 21
443.8729907693155
 72
     1
 10
549.4619720571038
 20
443.8729907693155
 11
549.8573363302831
 21
442.9744571083641
 72
     1
 10
549.8573363302831
 20
442.9744571083641
 11
550.2915177920979
 21
442.0940241997414
 72
     1
 10
550.2915177920979
 20
442.0940241997414
 11
550.7636899534581
 21
441.2333679975295
 72
     1
 10
550.7636899534581
 20
441.2333679975295
 11
551.2729540078182
 21
440.3941268097258
 72
     1
 10
551.2729540078182
 20
440.3941268097258
 11
551.8183405421058
 21
439.5778981796306
 72
     1
 10
551.8183405421058
 20
439.5778981796306
 11
552.3988113820554
 21
438.7862358448328
 72
     1
 10
552.3988113820554
 20
438.7862358448328
 11
553.0132615684314
 21
438.0206467795817
 72
     1
 10
553.0132615684314
 20
438.0206467795817
 11
553.6605214603808
 21
437.2825883261763
 72
     1
 10
553.6605214603808
 20
437.2825883261763
 11
554.3393589619113
 21
436.5734654208313
 72
     1
 10
554.3393589619113
 20
436.5734654208313
 11
555.0484818672564
 21
435.8946279193007
 72
     1
 10
555.0484818672564
 20
435.8946279193007
 11
555.7865403206619
 21
435.2473680273513
 72
     1
 10
555.7865403206619
 20
435.2473680273513
 11
556.5521293859128
 21
434.6329178409754
 72
     1
 10
556.5521293859128
 20
434.6329178409754
 11
557.3437917207107
 21
434.0524470010257
 72
     1
 10
557.3437917207107
 20
434.0524470010257
 11
558.1600203508059
 21
433.507060466738
 72
     1
 10
558.1600203508059
 20
433.507060466738
 11
558.9992615386096
 21
432.997796412378
 72
     1
 10
558.9992615386096
 20
432.997796412378
 11
559.8599177408215
 21
432.5256242510177
 72
     1
 10
559.8599177408215
 20
432.5256242510177
 11
560.7403506494442
 21
432.091442789203
 72
     1
 10
560.7403506494442
 20
432.091442789203
 11
561.6388843103956
 21
431.6960785160236
 72
     1
 10
561.6388843103956
 20
431.6960785160236
 11
562.5538083137827
 21
431.3402840298446
 72
     1
 10
562.5538083137827
 20
431.3402840298446
 11
563.4833810497643
 21
431.0247366056923
 72
     1
 10
563.4833810497643
 20
431.0247366056923
 11
564.4258330238039
 21
430.7500369060233
 72
     1
 10
564.4258330238039
 20
430.7500369060233
 11
565.3793702250035
 21
430.5167078373288
 72
     1
 10
565.3793702250035
 20
430.5167078373288
 11
566.3421775411051
 21
430.3251935547526
 72
     1
 10
566.3421775411051
 20
430.3251935547526
 11
567.31242221366
 21
430.1758586166165
 72
     1
 10
567.31242221366
 20
430.1758586166165
 11
568.2882573267891
 21
430.0689872904629
 72
     1
 10
568.2882573267891
 20
430.0689872904629
 11
569.2678253228916
 21
430.0047830119354
 72
     1
 10
569.2678253228916
 20
430.0047830119354
 11
570.2492615386118
 21
429.9833679975272
 72
     1
 10
570.249261538569
 20
429.9833679975272
 11
570.249261538569
 21
252.4833679975436
 72
     1
 10
570.249261538569
 20
252.4833679975436
 11
320.249261538569
 21
252.4833679975436
 72
     1
 10
320.249261538569
 20
252.4833679975436
 11
320.249261538569
 21
452.4833679975436
 72
     1
 10
320.249261538569
 20
452.4833679975436
 11
547.7492615386072
 21
452.4833679975436
 97
        0
 75
     0
 76
     2
 52
0.0
 41
0.3333333333333333
 77
     0
 78
     2
 53
45.0
 43
-3699.559753911371
 44
10368.29370212873
 45
-10.10278813620243
 46
10.10278813620243
 79
     0
 53
135.0
 43
-3699.559753911371
 44
10368.29370212873
 45
-10.10278813620289
 46
-10.10278813620243
 79
     0
 98
        0
  0
DIMENSION
  5
1CA
330
1F
100
AcDbEntity
  8
8
  6
CONTINUOUS
 62
     4
100
AcDbDimension
  2
DIM1
 10
682.749261538569
 20
186.4833679975436
 30
0.0
 11
626.499261538569
 21
186.4833679975436
 31
0.0
 70
   160
  1
<>
  3
STANDARD
100
AcDbAlignedDimension
 13
570.249261538569
 23
207.4833679975436
 33
0.0
 14
682.749261538569
 24
218.8833679975432
 34
0.0
100
AcDbRotatedDimension
1001
ACAD
1000
DSTYLE
1002
{
1070
   287
1070
     4
1070
     7
1000

1070
     6
1000

1070
   279
1070
     1
1070
   340
1005
1C0
1070
   140
1040
9.0
1070
    40
1040
1.0
1070
   147
1040
0.0
1070
    76
1070
     0
1070
    75
1070
     0
1070
   173
1070
     1
1070
   289
1070
     2
1070
   288
1070
     1
1070
    77
1070
     1
1070
   172
1070
     1
1070
   174
1070
     0
1070
    74
1070
     0
1070
    73
1070
     0
1070
   284
1070
     8
1070
    78
1070
     8
1070
    42
1040
3.0
1070
    44
1040
4.5
1070
    43
1040
30.0
1070
   271
1070
     2
1070
    41
1040
6.0
1002
}
  0
DIMENSION
  5
1D4
330
1F
100
AcDbEntity
  8
8
  6
CONTINUOUS
 62
     4
100
AcDbDimension
  2
DIM2
 10
795.249261538569
 20
186.4833679975436
 30
0.0
 11
738.999261538569
 21
186.4833679975436
 31
0.0
 70
   160
  1
<>
  3
STANDARD
100
AcDbAlignedDimension
 13
682.749261538569
 23
218.8833679975432
 33
0.0
 14
795.249261538569
 24
218.8833679975432
 34
0.0
100
AcDbRotatedDimension
1001
ACAD
1000
DSTYLE
1002
{
1070
   287
1070
     4
1070
     7
1000

1070
     6
1000

1070
   279
1070
     1
1070
   340
1005
1C0
1070
   140
1040
9.0
1070
    40
1040
1.0
1070
   147
1040
0.0
1070
    76
1070
     0
1070
    75
1070
     0
1070
   173
1070
     1
1070
   289
1070
     2
1070
   288
1070
     1
1070
    77
1070
     1
1070
   172
1070
     1
1070
   174
1070
     0
1070
    74
1070
     0
1070
    73
1070
     0
1070
   284
1070
     8
1070
    78
1070
     8
1070
    42
1040
3.0
1070
    44
1040
4.5
1070
    43
1040
30.0
1070
   271
1070
     2
1070
    41
1040
6.0
1002
}
  0
DIMENSION
  5
1DE
330
1F
100
AcDbEntity
  8
8
  6
CONTINUOUS
 62
     4
100
AcDbDimension
  2
DIM3
 10
345.2492615385689
 20
186.4833679975436
 30
0.0
 11
401.4993870677599
 21
186.4833679975436
 31
0.0
 70
   160
  1
<>
  3
STANDARD
100
AcDbAlignedDimension
 13
457.7495125969517
 23
218.8833679975432
 33
0.0
 14
345.249261538569
 24
218.8833679975432
 34
0.0
 50
179.9999999999998
100
AcDbRotatedDimension
1001
ACAD
1000
DSTYLE
1002
{
1070
   287
1070
     4
1070
     7
1000

1070
     6
1000

1070
   279
1070
     1
1070
   340
1005
1C0
1070
   140
1040
9.0
1070
    40
1040
1.0
1070
   147
1040
0.0
1070
    76
1070
     0
1070
    75
1070
     0
1070
   173
1070
     1
1070
   289
1070
     2
1070
   288
1070
     1
1070
    77
1070
     1
1070
   172
1070
     1
1070
   174
1070
     0
1070
    74
1070
     0
1070
    73
1070
     0
1070
   284
1070
     8
1070
    78
1070
     8
1070
    42
1040
3.0
1070
    44
1040
4.5
1070
    43
1040
30.0
1070
   271
1070
     2
1070
    41
1040
6.0
1002
}
  0
DIMENSION
  5
1E8
330
1F
100
AcDbEntity
  8
8
  6
CONTINUOUS
 62
     4
100
AcDbDimension
  2
DIM4
 10
820.2492615385689
 20
162.4833679975436
 30
0.0
 11
570.249261538569
 21
162.4833679975436
 31
0.0
 70
   160
  1
<>
  3
STANDARD
100
AcDbAlignedDimension
 13
320.249261538569
 23
252.4833679975436
 33
0.0
 14
820.249261538569
 24
252.4833679975436
 34
0.0
100
AcDbRotatedDimension
1001
ACAD
1000
DSTYLE
1002
{
1070
   287
1070
     4
1070
     7
1000

1070
     6
1000

1070
   279
1070
     1
1070
   340
1005
1C0
1070
   140
1040
9.0
1070
    40
1040
1.0
1070
   147
1040
0.0
1070
    76
1070
     0
1070
    75
1070
     0
1070
   173
1070
     1
1070
   289
1070
     2
1070
   288
1070
     1
1070
    77
1070
     1
1070
   172
1070
     1
1070
   174
1070
     0
1070
    74
1070
     0
1070
    73
1070
     0
1070
   284
1070
     8
1070
    78
1070
     8
1070
    42
1040
3.0
1070
    44
1040
4.5
1070
    43
1040
30.0
1070
   271
1070
     2
1070
    41
1040
6.0
1002
}
  0
DIMENSION
  5
1F2
330
1F
100
AcDbEntity
  8
8
  6
CONTINUOUS
 62
     4
100
AcDbDimension
  2
DIM5
 10
835.2492615385689
 20
138.4833679975436
 30
0.0
 11
570.249261538569
 21
138.4833679975436
 31
0.0
 70
   160
  1
<>
  3
STANDARD
100
AcDbAlignedDimension
 13
305.249261538569
 23
237.4833679975436
 33
0.0
 14
835.249261538569
 24
237.4833679975436
 34
0.0
100
AcDbRotatedDimension
1001
ACAD
1000
DSTYLE
1002
{
1070
   287
1070
     4
1070
     7
1000

1070
     6
1000

1070
   279
1070
     1
1070
   340
1005
1C0
1070
   140
1040
9.0
1070
    40
1040
1.0
1070
   147
1040
0.0
1070
    76
1070
     0
1070
    75
1070
     0
1070
   173
1070
     1
1070
   289
1070
     2
1070
   288
1070
     1
1070
    77
1070
     1
1070
   172
1070
     1
1070
   174
1070
     0
1070
    74
1070
     0
1070
    73
1070
     0
1070
   284
1070
     8
1070
    78
1070
     8
1070
    42
1040
3.0
1070
    44
1040
4.5
1070
    43
1040
30.0
1070
   271
1070
     2
1070
    41
1040
6.0
1002
}
  0
DIMENSION
  5
1FC
330
1F
100
AcDbEntity
  8
8
  6
CONTINUOUS
 62
     4
100
AcDbDimension
  2
DIM6
 10
281.249261538569
 20
652.4833679975437
 30
0.0
 11
281.249261538569
 21
452.4833679975437
 31
0.0
 70
   160
  1
<>
  3
STANDARD
100
AcDbAlignedDimension
 13
320.249261538569
 23
252.4833679975436
 33
0.0
 14
320.249261538569
 24
652.4833679975436
 34
0.0
 50
89.99999999999991
100
AcDbRotatedDimension
1001
ACAD
1000
DSTYLE
1002
{
1070
   287
1070
     4
1070
     7
1000

1070
     6
1000

1070
   279
1070
     1
1070
   340
1005
1C0
1070
   140
1040
9.0
1070
    40
1040
1.0
1070
   147
1040
0.0
1070
    76
1070
     0
1070
    75
1070
     0
1070
   173
1070
     1
1070
   289
1070
     2
1070
   288
1070
     1
1070
    77
1070
     1
1070
   172
1070
     1
1070
   174
1070
     0
1070
    74
1070
     0
1070
    73
1070
     0
1070
   284
1070
     8
1070
    78
1070
     8
1070
    42
1040
3.0
1070
    44
1040
4.5
1070
    43
1040
30.0
1070
   271
1070
     2
1070
    41
1040
6.0
1002
}
  0
DIMENSION
  5
206
330
1F
100
AcDbEntity
  8
8
  6
CONTINUOUS
 62
     4
100
AcDbDimension
  2
DIM7
 10
257.2492615385695
 20
237.4833679975438
 30
0.0
 11
257.2492615385695
 21
452.4833679975436
 31
0.0
 70
   160
  1
<>
 53
89.99999999999991
  3
STANDARD
100
AcDbAlignedDimension
 13
305.249261538569
 23
667.4833679975436
 33
0.0
 14
305.249261538569
 24
237.4833679975436
 34
0.0
 50
-89.99999999999991
100
AcDbRotatedDimension
1001
ACAD
1000
DSTYLE
1002
{
1070
   287
1070
     4
1070
     7
1000

1070
     6
1000

1070
   279
1070
     1
1070
   340
1005
1C0
1070
   140
1040
9.0
1070
    40
1040
1.0
1070
   147
1040
0.0
1070
    76
1070
     0
1070
    75
1070
     0
1070
   173
1070
     1
1070
   289
1070
     2
1070
   288
1070
     1
1070
    77
1070
     1
1070
   172
1070
     1
1070
   174
1070
     0
1070
    74
1070
     0
1070
    73
1070
     0
1070
   284
1070
     8
1070
    78
1070
     8
1070
    42
1040
3.0
1070
    44
1040
4.5
1070
    43
1040
30.0
1070
   271
1070
     2
1070
    41
1040
6.0
1002
}
  0
DIMENSION
  5
210
330
1F
100
AcDbEntity
  8
8
  6
CONTINUOUS
 62
     4
100
AcDbDimension
  2
DIM8
 10
870.2492615385722
 20
138.4833679975436
 30
0.0
 11
852.7492615385709
 21
138.4833679975436
 31
0.0
 70
   160
  1
<>
  3
STANDARD
100
AcDbAlignedDimension
 13
835.249261538569
 23
237.4833679975436
 33
0.0
 14
870.2492615385727
 24
429.4833679975454
 34
0.0
100
AcDbRotatedDimension
1001
ACAD
1000
DSTYLE
1002
{
1070
   287
1070
     4
1070
     7
1000

1070
     6
1000

1070
   279
1070
     1
1070
   340
1005
1C0
1070
   140
1040
9.0
1070
    40
1040
1.0
1070
   147
1040
0.0
1070
    76
1070
     0
1070
    75
1070
     0
1070
   173
1070
     1
1070
   289
1070
     2
1070
   288
1070
     1
1070
    77
1070
     1
1070
   172
1070
     1
1070
   174
1070
     0
1070
    74
1070
     0
1070
    73
1070
     0
1070
   284
1070
     8
1070
    78
1070
     8
1070
    42
1040
3.0
1070
    44
1040
4.5
1070
    43
1040
30.0
1070
   271
1070
     2
1070
    41
1040
6.0
1002
}
  0
DIMENSION
  5
21A
330
1F
100
AcDbEntity
  8
8
  6
CONTINUOUS
 62
     4
100
AcDbDimension
  2
DIM9
 10
209.2492615385695
 20
222.4833679975458
 30
0.0
 11
209.2492615385695
 21
452.4833679975436
 31
0.0
 70
   160
  1
<>
 53
89.99999999999991
  3
STANDARD
100
AcDbAlignedDimension
 13
325.249261538569
 23
682.4833679975436
 33
0.0
 14
325.249261538569
 24
222.4833679975454
 34
0.0
 50
-89.99999999999991
100
AcDbRotatedDimension
1001
ACAD
1000
DSTYLE
1002
{
1070
   287
1070
     4
1070
     7
1000

1070
     6
1000

1070
   279
1070
     1
1070
   340
1005
1C0
1070
   140
1040
9.0
1070
    40
1040
1.0
1070
   147
1040
0.0
1070
    76
1070
     0
1070
    75
1070
     0
1070
   173
1070
     1
1070
   289
1070
     2
1070
   288
1070
     1
1070
    77
1070
     1
1070
   172
1070
     1
1070
   174
1070
     0
1070
    74
1070
     0
1070
    73
1070
     0
1070
   284
1070
     8
1070
    78
1070
     8
1070
    42
1040
3.0
1070
    44
1040
4.5
1070
    43
1040
30.0
1070
   271
1070
     2
1070
    41
1040
6.0
1002
}
  0
DIMENSION
  5
224
330
1F
100
AcDbEntity
  8
8
  6
CONTINUOUS
 62
     4
100
AcDbDimension
  2
DIM10
 10
1041.159231708798
 20
138.4833679975436
 30
0.0
 11
1018.659231708798
 21
138.4833679975436
 31
0.0
 70
   160
  1
<>
  3
STANDARD
100
AcDbAlignedDimension
 13
996.159231708798
 23
237.4833679975436
 33
0.0
 14
1041.159231708798
 24
222.4833679975436
 34
0.0
100
AcDbRotatedDimension
1001
ACAD
1000
DSTYLE
1002
{
1070
   287
1070
     4
1070
     7
1000

1070
     6
1000

1070
   279
1070
     1
1070
   340
1005
1C0
1070
   140
1040
9.0
1070
    40
1040
1.0
1070
   147
1040
0.0
1070
    76
1070
     0
1070
    75
1070
     0
1070
   173
1070
     1
1070
   289
1070
     2
1070
   288
1070
     1
1070
    77
1070
     1
1070
   172
1070
     1
1070
   174
1070
     0
1070
    74
1070
     0
1070
    73
1070
     0
1070
   284
1070
     8
1070
    78
1070
     8
1070
    42
1040
3.0
1070
    44
1040
4.5
1070
    43
1040
30.0
1070
   271
1070
     2
1070
    41
1040
6.0
1002
}
  0
DIMENSION
  5
22E
330
1F
100
AcDbEntity
  8
8
  6
CONTINUOUS
 62
     4
100
AcDbDimension
  2
DIM11
 10
1041.159231708798
 20
186.4833679975436
 30
0.0
 11
1057.659231708799
 21
186.4833679975436
 31
0.0
 70
   160
  1
<>
  3
STANDARD
100
AcDbAlignedDimension
 13
1040.159231708799
 23
222.4833679975436
 33
0.0
 14
1041.159231708798
 24
222.4833679975436
 34
0.0
100
AcDbRotatedDimension
1001
ACAD
1000
DSTYLE
1002
{
1070
   287
1070
     4
1070
     7
1000

1070
     6
1000

1070
   279
1070
     1
1070
   340
1005
1C0
1070
   140
1040
9.0
1070
    40
1040
1.0
1070
   147
1040
0.0
1070
    76
1070
     0
1070
    75
1070
     0
1070
   173
1070
     1
1070
   289
1070
     2
1070
   288
1070
     1
1070
    77
1070
     1
1070
   172
1070
     1
1070
   174
1070
     0
1070
    74
1070
     0
1070
    73
1070
     0
1070
   284
1070
     8
1070
    78
1070
     8
1070
    42
1040
3.0
1070
    44
1040
4.5
1070
    43
1040
30.0
1070
   271
1070
     2
1070
    41
1040
6.0
1002
}
  0
DIMENSION
  5
238
330
1F
100
AcDbEntity
  8
8
  6
CONTINUOUS
 62
     4
100
AcDbDimension
  2
DIM12
 10
1007.659231708799
 20
162.4833679975436
 30
0.0
 11
1024.409231708798
 21
162.4833679975436
 31
0.0
 70
   160
  1
<>
  3
STANDARD
100
AcDbAlignedDimension
 13
1041.159231708798
 23
222.4833679975436
 33
0.0
 14
1007.659231708799
 24
429.4833679975436
 34
0.0
 50
179.9999999999998
100
AcDbRotatedDimension
1001
ACAD
1000
DSTYLE
1002
{
1070
   287
1070
     4
1070
     7
1000

1070
     6
1000

1070
   279
1070
     1
1070
   340
1005
1C0
1070
   140
1040
9.0
1070
    40
1040
1.0
1070
   147
1040
0.0
1070
    76
1070
     0
1070
    75
1070
     0
1070
   173
1070
     1
1070
   289
1070
     2
1070
   288
1070
     1
1070
    77
1070
     1
1070
   172
1070
     1
1070
   174
1070
     0
1070
    74
1070
     0
1070
    73
1070
     0
1070
   284
1070
     8
1070
    78
1070
     8
1070
    42
1040
3.0
1070
    44
1040
4.5
1070
    43
1040
30.0
1070
   271
1070
     2
1070
    41
1040
6.0
1002
}
  0
DIMENSION
  5
242
330
1F
100
AcDbEntity
  8
8
  6
CONTINUOUS
 62
     4
100
AcDbDimension
  2
DIM13
 10
233.2492615385695
 20
675.4833679975421
 30
0.0
 11
233.2492615385695
 21
452.4833679975436
 31
0.0
 70
   160
  1
<>
  3
STANDARD
100
AcDbAlignedDimension
 13
334.6492615385691
 23
229.4833679975436
 33
0.0
 14
334.6492615385691
 24
675.4833679975418
 34
0.0
 50
89.99999999999991
100
AcDbRotatedDimension
1001
ACAD
1000
DSTYLE
1002
{
1070
   287
1070
     4
1070
     7
1000

1070
     6
1000

1070
   279
1070
     1
1070
   340
1005
1C0
1070
   140
1040
9.0
1070
    40
1040
1.0
1070
   147
1040
0.0
1070
    76
1070
     0
1070
    75
1070
     0
1070
   173
1070
     1
1070
   289
1070
     2
1070
   288
1070
     1
1070
    77
1070
     1
1070
   172
1070
     1
1070
   174
1070
     0
1070
    74
1070
     0
1070
    73
1070
     0
1070
   284
1070
     8
1070
    78
1070
     8
1070
    42
1040
3.0
1070
    44
1040
4.5
1070
    43
1040
30.0
1070
   271
1070
     2
1070
    41
1040
6.0
1002
}
  0
DIMENSION
  5
24C
330
1F
100
AcDbEntity
  8
8
  6
CONTINUOUS
 62
     4
100
AcDbDimension
  2
DIM14
 10
570.249261538569
 20
186.4833679975436
 30
0.0
 11
513.9993870677604
 21
186.4833679975436
 31
0.0
 70
   160
  1
<>
  3
STANDARD
100
AcDbAlignedDimension
 13
457.7495125969517
 23
218.8833679975432
 33
0.0
 14
570.249261538569
 24
207.4833679975436
 34
0.0
100
AcDbRotatedDimension
1001
ACAD
1000
DSTYLE
1002
{
1070
   287
1070
     4
1070
     7
1000

1070
     6
1000

1070
   279
1070
     1
1070
   340
1005
1C0
1070
   140
1040
9.0
1070
    40
1040
1.0
1070
   147
1040
0.0
1070
    76
1070
     0
1070
    75
1070
     0
1070
   173
1070
     1
1070
   289
1070
     2
1070
   288
1070
     1
1070
    77
1070
     1
1070
   172
1070
     1
1070
   174
1070
     0
1070
    74
1070
     0
1070
    73
1070
     0
1070
   284
1070
     8
1070
    78
1070
     8
1070
    42
1040
3.0
1070
    44
1040
4.5
1070
    43
1040
30.0
1070
   271
1070
     2
1070
    41
1040
6.0
1002
}
  0
INSERT
  5
24D
330
1F
100
AcDbEntity
  8
8
  6
CONTINUOUS
 62
     4
100
AcDbBlockReference
  2
_OPEN
 10
346.7992615385692
 20
678.1680467492733
 30
0.0
 41
18.0
 42
18.0
 43
18.0
 50
240.0000000000004
  0
POLYLINE
  5
24E
330
1F
100
AcDbEntity
  8
8
  6
CONTINUOUS
 62
     4
100
AcDb2dPolyline
 66
     1
 10
0.0
 20
0.0
 30
0.0
  0
VERTEX
  5
24F
330
24E
100
AcDbEntity
  8
8
  6
CONTINUOUS
 62
     4
100
AcDbVertex
100
AcDb2dVertex
 10
346.7992615385692
 20
678.1680467492733
 30
0.0
  0
VERTEX
  5
250
330
24E
100
AcDbEntity
  8
8
  6
CONTINUOUS
 62
     4
100
AcDbVertex
100
AcDb2dVertex
 10
367.0492615385692
 20
713.242075602544
 30
0.0
  0
VERTEX
  5
251
330
24E
100
AcDbEntity
  8
8
  6
CONTINUOUS
 62
     4
100
AcDbVertex
100
AcDb2dVertex
 10
410.1292615385692
 20
713.242075602544
 30
0.0
  0
SEQEND
  5
252
330
24E
100
AcDbEntity
  8
8
  6
CONTINUOUS
 62
     4
  0
MTEXT
  5
253
330
1F
100
AcDbEntity
  8
8
  6
CONTINUOUS
 62
     4
100
AcDbMText
 10
374.1292615385692
 20
715.042075602544
 30
0.0
 40
9.0
 41
51.46186499999998
 71
     7
 72
     1
  1
{\fＭＳ ゴシック;\T0.750000;10-φ6.2}
1001
ACAD
1000
ACAD_MTEXT_DEFINED_HEIGHT_BEGIN
1070
    46
1040
9.0
1000
ACAD_MTEXT_DEFINED_HEIGHT_END
  0
DIMENSION
  5
25B
330
1F
100
AcDbEntity
  8
8
  6
CONTINUOUS
 62
     4
100
AcDbDimension
  2
DIM15
 10
565.0349403452905
 20
435.7782533767588
 30
0.0
 11
648.0011189849882
 21
716.6795384182617
 31
0.0
 70
   163
  1
<>
  3
STANDARD
100
AcDbDiametricDimension
 15
575.4635827319325
 25
469.1884826182938
 35
0.0
 40
0.0
1001
ACAD
1000
DSTYLE
1002
{
1070
   287
1070
     2
1070
     7
1000

1070
     6
1000

1070
   340
1005
1C0
1070
   140
1040
9.0
1070
    40
1040
1.0
1070
   147
1040
0.0
1070
    76
1070
     0
1070
    75
1070
     0
1070
   173
1070
     1
1070
   289
1070
     2
1070
   288
1070
     1
1070
    77
1070
     1
1070
   172
1070
     1
1070
   174
1070
     0
1070
    74
1070
     0
1070
    73
1070
     0
1070
   284
1070
     8
1070
    78
1070
     8
1070
    42
1040
3.0
1070
    44
1040
4.5
1070
    43
1040
30.0
1070
   271
1070
     2
1070
    41
1040
6.0
1002
}
  0
DIMENSION
  5
263
330
1F
100
AcDbEntity
  8
8
  6
CONTINUOUS
 62
     4
100
AcDbDimension
  2
DIM16
 10
557.4419983406324
 20
433.9840704601206
 30
0.0
 11
745.3449561940945
 21
713.3039118807765
 31
0.0
 70
   163
  1
<>
  3
STANDARD
100
AcDbDiametricDimension
 15
583.0565247365829
 25
470.9826655349468
 35
0.0
 40
0.0
1001
ACAD
1000
DSTYLE
1002
{
1070
   287
1070
     2
1070
     7
1000

1070
     6
1000

1070
   340
1005
1C0
1070
   140
1040
9.0
1070
    40
1040
1.0
1070
   147
1040
0.0
1070
    76
1070
     0
1070
    75
1070
     0
1070
   173
1070
     1
1070
   289
1070
     2
1070
   288
1070
     1
1070
    77
1070
     1
1070
   172
1070
     1
1070
   174
1070
     0
1070
    74
1070
     0
1070
    73
1070
     0
1070
   284
1070
     8
1070
    78
1070
     8
1070
    42
1040
3.0
1070
    44
1040
4.5
1070
    43
1040
30.0
1070
   271
1070
     2
1070
    41
1040
6.0
1002
}
  0
VIEWPORT
  5
3F
330
1B
100
AcDbEntity
 67
     1
  8
0
100
AcDbViewport
 10
630.0
 20
445.5
 30
0.0
 40
1260.0
 41
891.0
 68
     1
 69
     1
1001
ACAD
1000
MVIEW
1002
{
1070
    16
1010
0.0
1020
0.0
1030
0.0
1010
0.0
1020
0.0
1030
1.0
1040
0.0
1040
9.0
1040
630.0
1040
445.5
1040
50.0
1040
0.0
1040
0.0
1070
     0
1070
   100
1070
     0
1070
     3
1070
     0
1070
     0
1070
     0
1070
     0
1040
0.0
1040
0.0
1040
0.0
1040
0.5
1040
0.5
1040
0.5
1040
0.5
1070
     0
1002
{
1002
}
1002
}
  0
ENDSEC
  0
SECTION
  2
OBJECTS
  0
DICTIONARY
  5
C
330
0
100
AcDbDictionary
  3
ACAD_GROUP
350
D
  3
ACAD_LAYOUT
350
1A
  3
ACAD_MATERIAL
350
3B
  3
ACAD_MLEADERSTYLE
350
286
  3
ACAD_MLINESTYLE
350
17
  3
ACAD_PLOTSETTINGS
350
19
  3
ACAD_VISUALSTYLE
350
2A
  3
ACDBHEADERROUNDTRIPXREC
350
264
  3
ACDBVARIABLEDICTIONARY
350
284
  0
DICTIONARY
  5
D
102
{ACAD_REACTORS
330
C
102
}
330
C
100
AcDbDictionary
  0
DICTIONARY
  5
1A
102
{ACAD_REACTORS
330
C
102
}
330
C
100
AcDbDictionary
  0
DICTIONARY
  5
3B
102
{ACAD_REACTORS
330
C
102
}
330
C
100
AcDbDictionary
  3
BYBLOCK
350
3D
  3
BYLAYER
350
3C
  3
GLOBAL
350
3E
  0
DICTIONARY
  5
286
102
{ACAD_REACTORS
330
C
102
}
330
C
100
AcDbDictionary
  0
DICTIONARY
  5
17
102
{ACAD_REACTORS
330
C
102
}
330
C
100
AcDbDictionary
  3
STANDARD
350
18
  0
DICTIONARY
  5
19
102
{ACAD_REACTORS
330
C
102
}
330
C
100
AcDbDictionary
  0
DICTIONARY
  5
2A
102
{ACAD_REACTORS
330
C
102
}
330
C
100
AcDbDictionary
  3
2DWIREFRAME
350
2F
  3
3D_HIDDEN
350
31
  3
3DWIREFRAME
350
30
  3
BASIC
350
32
  3
BRIGHTEN
350
36
  3
COLORCHANGE
350
3A
  3
CONCEPTUAL
350
34
  3
DIM
350
35
  3
FACEPATTERN
350
39
  3
FLAT
350
2B
  3
FLATWITHEDGES
350
2C
  3
GOURAUD
350
2D
  3
GOURAUDWITHEDGES
350
2E
  3
LINEPATTERN
350
38
  3
REALISTIC
350
33
  3
THICKEN
350
37
  0
DICTIONARY
  5
264
102
{ACAD_REACTORS
330
C
102
}
330
C
100
AcDbDictionary
  3
CEPSNTYPE
350
26D
  3
DIMSTYLEDATA
350
283
  3
FINGERPRINTGUID
350
26E
  3
HYPERLINKBASE
350
267
  3
INSUNITS
350
26C
  3
LAYOUTDICT
350
269
  3
LWETCUNION
350
26B
  3
PLOTSETDICT
350
26A
  3
PSVPSCALE
350
270
  3
PUCSBASE
350
273
  3
PUCSORGBACK
350
279
  3
PUCSORGBOTTOM
350
275
  3
PUCSORGFRONT
350
278
  3
PUCSORGLEFT
350
276
  3
PUCSORGRIGHT
350
277
  3
PUCSORGTOP
350
274
  3
PUCSORTHOREF
350
271
  3
PUCSORTHOVIEW
350
272
  3
STYLESHEET
350
268
  3
TSTACKALIGN
350
265
  3
TSTACKSIZE
350
266
  3
UCSBASE
350
27C
  3
UCSORGBACK
350
282
  3
UCSORGBOTTOM
350
27E
  3
UCSORGFRONT
350
281
  3
UCSORGLEFT
350
27F
  3
UCSORGRIGHT
350
280
  3
UCSORGTOP
350
27D
  3
UCSORTHOREF
350
27A
  3
UCSORTHOVIEW
350
27B
  3
VERSIONGUID
350
26F
  0
DICTIONARY
  5
284
102
{ACAD_REACTORS
330
C
102
}
330
C
100
AcDbDictionary
  3
DIMASSOC
350
287
  3
HIDETEXT
350
288
  0
MATERIAL
  5
3D
102
{ACAD_REACTORS
330
3B
102
}
102
{ACAD_XDICTIONARY
360
28B
102
}
330
3B
100
AcDbMaterial
  1
ByBlock
  0
MATERIAL
  5
3C
102
{ACAD_REACTORS
330
3B
102
}
102
{ACAD_XDICTIONARY
360
289
102
}
330
3B
100
AcDbMaterial
  1
ByLayer
  0
MATERIAL
  5
3E
102
{ACAD_REACTORS
330
3B
102
}
102
{ACAD_XDICTIONARY
360
28D
102
}
330
3B
100
AcDbMaterial
  1
Global
  0
MLINESTYLE
  5
18
102
{ACAD_REACTORS
330
17
102
}
330
17
100
AcDbMlineStyle
  2
Standard
 70
     0
  3

 62
   256
 51
90.0
 52
90.0
 71
     2
 49
0.5
 62
   256
  6
BYLAYER
 49
-0.5
 62
   256
  6
BYLAYER
  0
ACAD_PROXY_OBJECT
  5
2F
102
{ACAD_REACTORS
330
2A
102
}
330
2A
100
AcDbProxyObject
 90
      499
 91
      501
 93
      436
310
42CC9915DA5C99599C985B595049028333333333333E3BF0000000000000FB0107901411070040501600405405064090741402480A0340
1001
ACAD
1000
AcDbSavedByObjectVersion
1070
     0
  0
ACAD_PROXY_OBJECT
  5
31
102
{ACAD_REACTORS
330
2A
102
}
330
2A
100
AcDbProxyObject
 90
      499
 91
      501
 93
      500
310
424CD108121A5919195B90640502408333333333333E3BF0000000000000FB01079024090700405020000000000001110200405405064090740C02480A0340
1001
ACAD
1000
AcDbSavedByObjectVersion
1070
     0
  0
ACAD_PROXY_OBJECT
  5
30
102
{ACAD_REACTORS
330
2A
102
}
330
2A
100
AcDbProxyObject
 90
      499
 91
      501
 93
      436
310
42CCD915DA5C99599C985B595059028333333333333E3BF0000000000000FB0107901411070040501600405405064090741402480A0340
1001
ACAD
1000
AcDbSavedByObjectVersion
1070
     0
  0
ACAD_PROXY_OBJECT
  5
32
102
{ACAD_REACTORS
330
2A
102
}
330
2A
100
AcDbProxyObject
 90
      499
 91
      501
 93
      388
310
4150985CDA58D07406404333333333333E3BF0000000000000FB0107A41107004050150841D405064090741402480A0350
1001
ACAD
1000
AcDbSavedByObjectVersion
1070
     0
  0
ACAD_PROXY_OBJECT
  5
36
102
{ACAD_REACTORS
330
2A
102
}
330
2A
100
AcDbProxyObject
 90
      499
 91
      501
 93
      428
310
42109C9A59DA1D195B90C409028333333333333E3BF0000000000000FB010790141107004050150841D405064090741402480A029950
1001
ACAD
1000
AcDbSavedByObjectVersion
1070
     0
  0
ACAD_PROXY_OBJECT
  5
3A
102
{ACAD_REACTORS
330
2A
102
}
330
2A
100
AcDbProxyObject
 90
      499
 91
      501
 93
      452
310
42D0DBDB1BDC90DA185B99D95104090240C333333333333E3BF0000000000000FB0108901411070040501508421405064090741402480A0350
1001
ACAD
1000
AcDbSavedByObjectVersion
1070
     0
  0
ACAD_PROXY_OBJECT
  5
34
102
{ACAD_REACTORS
330
2A
102
}
330
2A
100
AcDbProxyObject
 90
      499
 91
      501
 93
      500
310
4290DBDB98D95C1D1D585B10940D028333333333333E3BF0000000000000FB0107902409070040501000000000000111010841D405064090740C02480A0340
1001
ACAD
1000
AcDbSavedByObjectVersion
1070
     0
  0
ACAD_PROXY_OBJECT
  5
35
102
{ACAD_REACTORS
330
2A
102
}
330
2A
100
AcDbProxyObject
 90
      499
 91
      501
 93
      412
310
40D11A5B50B409028333333333333E3BF0000000000000FB010790141107004050150841D405064090741402480A02677FFFFFD0
1001
ACAD
1000
AcDbSavedByObjectVersion
1070
     0
  0
ACAD_PROXY_OBJECT
  5
39
102
{ACAD_REACTORS
330
2A
102
}
330
2A
100
AcDbProxyObject
 90
      499
 91
      501
 93
      444
310
42D19858D95C185D1D195C9B90F409028333333333333E3BF0000000000000FB010790141107004050150841D405064090741402480A0350
1001
ACAD
1000
AcDbSavedByObjectVersion
1070
     0
  0
ACAD_PROXY_OBJECT
  5
2B
102
{ACAD_REACTORS
330
2A
102
}
330
2A
100
AcDbProxyObject
 90
      499
 91
      501
 93
      388
310
41119B185D240901404333333333333E3BF0000000000000F9010740A41107004050150841D405064090741402480A1B50
1001
ACAD
1000
AcDbSavedByObjectVersion
1070
     0
  0
ACAD_PROXY_OBJECT
  5
2C
102
{ACAD_REACTORS
330
2A
102
}
330
2A
100
AcDbProxyObject
 90
      499
 91
      501
 93
      476
310
43519B185D15DA5D1A115919D95CD0140901404333333333333E3BF0000000000000F9010740901411070040501600405405064090741402480A1B50
1001
ACAD
1000
AcDbSavedByObjectVersion
1070
     0
  0
ACAD_PROXY_OBJECT
  5
2D
102
{ACAD_REACTORS
330
2A
102
}
330
2A
100
AcDbProxyObject
 90
      499
 91
      501
 93
      412
310
41D1DBDD5C985D5910240902404333333333333E3BF0000000000000F9010740A411070040501641D405064090741402480A1B50
1001
ACAD
1000
AcDbSavedByObjectVersion
1070
     0
  0
ACAD_PROXY_OBJECT
  5
2E
102
{ACAD_REACTORS
330
2A
102
}
330
2A
100
AcDbProxyObject
 90
      499
 91
      501
 93
      500
310
4411DBDD5C985D5915DA5D1A115919D95CD0340902404333333333333E3BF0000000000000F9010740901411070040501600405405064090741402480A1B50
1001
ACAD
1000
AcDbSavedByObjectVersion
1070
     0
  0
ACAD_PROXY_OBJECT
  5
38
102
{ACAD_REACTORS
330
2A
102
}
330
2A
100
AcDbProxyObject
 90
      499
 91
      501
 93
      444
310
42D31A5B995C185D1D195C9B90E409028333333333333E3BF0000000000000FB010790141107004050750841D405064090741402483A0350
1001
ACAD
1000
AcDbSavedByObjectVersion
1070
     0
  0
ACAD_PROXY_OBJECT
  5
33
102
{ACAD_REACTORS
330
2A
102
}
330
2A
100
AcDbProxyObject
 90
      499
 91
      501
 93
      420
310
425499585B1A5CDD1A58D08409028333333333333E3BF0000000000000FB01079019070040501508421405064090741402480A1B40
1001
ACAD
1000
AcDbSavedByObjectVersion
1070
     0
  0
ACAD_PROXY_OBJECT
  5
37
102
{ACAD_REACTORS
330
2A
102
}
330
2A
100
AcDbProxyObject
 90
      499
 91
      501
 93
      412
310
41D51A1A58DAD95B90D409028333333333333E3BF0000000000000FB010790141107004050150C41D405064090741402480A0350
1001
ACAD
1000
AcDbSavedByObjectVersion
1070
     0
  0
XRECORD
  5
26D
102
{ACAD_REACTORS
330
264
102
}
330
264
100
AcDbXrecord
 90
        0
  0
XRECORD
  5
283
102
{ACAD_REACTORS
330
264
102
}
330
264
100
AcDbXrecord
1000
DSTYLE
1002
{
1070
   171
 70
     2
1070
   143
 40
25.4
1070
   274
 70
     2
1070
    41
 40
1.55291427
1070
   289
 70
     2
1070
   141
 40
0.09
1070
    43
 40
30.0
1070
   278
 70
    46
1070
    44
 40
2.0
1070
    42
 40
2.0
1070
   147
 40
0.09
1070
    77
 70
     3
1070
   272
 70
     4
1070
   146
 40
0.5
1070
   279
 70
     2
1070
   283
 70
     1
1070
   145
 40
0.7
1070
   340
340
11
1070
   140
 40
2.8
1070
   288
 70
     1
1002
}
  0
XRECORD
  5
26E
102
{ACAD_REACTORS
330
264
102
}
330
264
100
AcDbXrecord
  1
{95313702-87F2-4A64-BB99-AF9D5D463230}
  0
XRECORD
  5
267
102
{ACAD_REACTORS
330
264
102
}
330
264
100
AcDbXrecord
  1

  0
XRECORD
  5
26C
102
{ACAD_REACTORS
330
264
102
}
330
264
100
AcDbXrecord
 90
        4
  0
XRECORD
  5
269
102
{ACAD_REACTORS
330
264
102
}
330
264
100
AcDbXrecord
340
1A
  0
XRECORD
  5
26B
102
{ACAD_REACTORS
330
264
102
}
330
264
100
AcDbXrecord
 90
    10781
  0
XRECORD
  5
26A
102
{ACAD_REACTORS
330
264
102
}
330
264
100
AcDbXrecord
340
19
  0
XRECORD
  5
270
102
{ACAD_REACTORS
330
264
102
}
330
264
100
AcDbXrecord
 40
0.0
  0
XRECORD
  5
273
102
{ACAD_REACTORS
330
264
102
}
330
264
100
AcDbXrecord
340
0
  0
XRECORD
  5
279
102
{ACAD_REACTORS
330
264
102
}
330
264
100
AcDbXrecord
 10
0.0
 20
0.0
 30
0.0
  0
XRECORD
  5
275
102
{ACAD_REACTORS
330
264
102
}
330
264
100
AcDbXrecord
 10
0.0
 20
0.0
 30
0.0
  0
XRECORD
  5
278
102
{ACAD_REACTORS
330
264
102
}
330
264
100
AcDbXrecord
 10
0.0
 20
0.0
 30
0.0
  0
XRECORD
  5
276
102
{ACAD_REACTORS
330
264
102
}
330
264
100
AcDbXrecord
 10
0.0
 20
0.0
 30
0.0
  0
XRECORD
  5
277
102
{ACAD_REACTORS
330
264
102
}
330
264
100
AcDbXrecord
 10
0.0
 20
0.0
 30
0.0
  0
XRECORD
  5
274
102
{ACAD_REACTORS
330
264
102
}
330
264
100
AcDbXrecord
 10
0.0
 20
0.0
 30
0.0
  0
XRECORD
  5
271
102
{ACAD_REACTORS
330
264
102
}
330
264
100
AcDbXrecord
340
0
  0
XRECORD
  5
272
102
{ACAD_REACTORS
330
264
102
}
330
264
100
AcDbXrecord
 70
     0
  0
XRECORD
  5
268
102
{ACAD_REACTORS
330
264
102
}
330
264
100
AcDbXrecord
  1

  0
XRECORD
  5
265
102
{ACAD_REACTORS
330
264
102
}
330
264
100
AcDbXrecord
 90
        1
  0
XRECORD
  5
266
102
{ACAD_REACTORS
330
264
102
}
330
264
100
AcDbXrecord
 90
       70
  0
XRECORD
  5
27C
102
{ACAD_REACTORS
330
264
102
}
330
264
100
AcDbXrecord
340
0
  0
XRECORD
  5
282
102
{ACAD_REACTORS
330
264
102
}
330
264
100
AcDbXrecord
 10
0.0
 20
0.0
 30
0.0
  0
XRECORD
  5
27E
102
{ACAD_REACTORS
330
264
102
}
330
264
100
AcDbXrecord
 10
0.0
 20
0.0
 30
0.0
  0
XRECORD
  5
281
102
{ACAD_REACTORS
330
264
102
}
330
264
100
AcDbXrecord
 10
0.0
 20
0.0
 30
0.0
  0
XRECORD
  5
27F
102
{ACAD_REACTORS
330
264
102
}
330
264
100
AcDbXrecord
 10
0.0
 20
0.0
 30
0.0
  0
XRECORD
  5
280
102
{ACAD_REACTORS
330
264
102
}
330
264
100
AcDbXrecord
 10
0.0
 20
0.0
 30
0.0
  0
XRECORD
  5
27D
102
{ACAD_REACTORS
330
264
102
}
330
264
100
AcDbXrecord
 10
0.0
 20
0.0
 30
0.0
  0
XRECORD
  5
27A
102
{ACAD_REACTORS
330
264
102
}
330
264
100
AcDbXrecord
340
0
  0
XRECORD
  5
27B
102
{ACAD_REACTORS
330
264
102
}
330
264
100
AcDbXrecord
 70
     0
  0
XRECORD
  5
26F
102
{ACAD_REACTORS
330
264
102
}
330
264
100
AcDbXrecord
  1
{FAEB1C32-E019-11D5-929B-00C0DF256EC4}
  0
DICTIONARYVAR
  5
287
102
{ACAD_REACTORS
330
284
102
}
330
284
100
DictionaryVariables
280
     0
  1
1
  0
DICTIONARYVAR
  5
288
102
{ACAD_REACTORS
330
284
102
}
330
284
100
DictionaryVariables
280
     0
  1
1
  0
DICTIONARY
  5
28B
330
3D
100
AcDbDictionary
280
     1
  3
ACAD_XREC_ROUNDTRIP
360
28C
  0
DICTIONARY
  5
289
330
3C
100
AcDbDictionary
280
     1
  3
ACAD_XREC_ROUNDTRIP
360
28A
  0
DICTIONARY
  5
28D
330
3E
100
AcDbDictionary
280
     1
  3
ACAD_XREC_ROUNDTRIP
360
28E
  0
XRECORD
  5
28C
102
{ACAD_REACTORS
330
28B
102
}
330
28B
100
AcDbXrecord
102
MATERIAL
148
0.0
149
0.0
149
0.0
 93
        0
 94
      127
282
     0
 72
     1
 77
     1
171
     1
175
     1
179
     1
273
     0
  0
XRECORD
  5
28A
102
{ACAD_REACTORS
330
289
102
}
330
289
100
AcDbXrecord
102
MATERIAL
148
0.0
149
0.0
149
0.0
 93
        0
 94
      127
282
     0
 72
     1
 77
     1
171
     1
175
     1
179
     1
273
     0
  0
XRECORD
  5
28E
102
{ACAD_REACTORS
330
28D
102
}
330
28D
100
AcDbXrecord
102
MATERIAL
148
0.0
149
0.0
149
0.0
 93
        0
 94
      127
282
     0
 72
     1
 77
     1
171
     1
175
     1
179
     1
273
     0
  0
ENDSEC
  0
EOF
