  0
SECTION
  2
HEADER
  9
$ACADVER
  1
AC1014
  9
$ACADMAINTVER
 70
     9
  9
$DWGCODEPAGE
  3
ANSI_932
  9
$INSBASE
 10
0.0
 20
0.0
 30
0.0
  9
$EXTMIN
 10
200.249261538569
 20
110.3521027794523
 30
0.0
  9
$EXTMAX
 10
1059.909231708799
 20
700.4108103844526
 30
0.0
  9
$LIMMIN
 10
0.0
 20
0.0
  9
$LIMMAX
 10
420.0
 20
297.0
  9
$ORTHOMODE
 70
     0
  9
$REGENMODE
 70
     1
  9
$FILLMODE
 70
     1
  9
$QTEXTMODE
 70
     0
  9
$MIRRTEXT
 70
     1
  9
$DRAGMODE
 70
     2
  9
$LTSCALE
 40
0.75
  9
$OSMODE
 70
    37
  9
$ATTMODE
 70
     1
  9
$TEXTSIZE
 40
8.4
  9
$TRACEWID
 40
0.05
  9
$TEXTSTYLE
  7
STANDARD
  9
$CLAYER
  8
0
  9
$CELTYPE
  6
BYLAYER
  9
$CECOLOR
 62
   256
  9
$CELTSCALE
 40
1.0
  9
$DELOBJ
 70
     1
  9
$DISPSILH
 70
     0
  9
$DIMSCALE
 40
1.0
  9
$DIMASZ
 40
1.55291427
  9
$DIMEXO
 40
2.0
  9
$DIMDLI
 40
30.0
  9
$DIMRND
 40
0.0
  9
$DIMDLE
 40
0.0
  9
$DIMEXE
 40
2.0
  9
$DIMTP
 40
0.0
  9
$DIMTM
 40
0.0
  9
$DIMTXT
 40
2.8
  9
$DIMCEN
 40
0.09
  9
$DIMTSZ
 40
0.0
  9
$DIMTOL
 70
     0
  9
$DIMLIM
 70
     0
  9
$DIMTIH
 70
     0
  9
$DIMTOH
 70
     0
  9
$DIMSE1
 70
     0
  9
$DIMSE2
 70
     0
  9
$DIMTAD
 70
     3
  9
$DIMZIN
 70
     8
  9
$DIMBLK
  1

  9
$DIMASO
 70
     1
  9
$DIMSHO
 70
     1
  9
$DIMPOST
  1

  9
$DIMAPOST
  1

  9
$DIMALT
 70
     0
  9
$DIMALTD
 70
     2
  9
$DIMALTF
 40
25.4
  9
$DIMLFAC
 40
1.0
  9
$DIMTOFL
 70
     1
  9
$DIMTVP
 40
0.7
  9
$DIMTIX
 70
     0
  9
$DIMSOXD
 70
     0
  9
$DIMSAH
 70
     0
  9
$DIMBLK1
  1

  9
$DIMBLK2
  1

  9
$DIMSTYLE
  2
STANDARD
  9
$DIMCLRD
 70
     0
  9
$DIMCLRE
 70
     0
  9
$DIMCLRT
 70
     0
  9
$DIMTFAC
 40
0.5
  9
$DIMGAP
 40
0.09
  9
$DIMJUST
 70
     0
  9
$DIMSD1
 70
     0
  9
$DIMSD2
 70
     0
  9
$DIMTOLJ
 70
     1
  9
$DIMTZIN
 70
     8
  9
$DIMALTZ
 70
     0
  9
$DIMALTTZ
 70
     0
  9
$DIMFIT
 70
     5
  9
$DIMUPT
 70
     1
  9
$DIMUNIT
 70
     2
  9
$DIMDEC
 70
     2
  9
$DIMTDEC
 70
     4
  9
$DIMALTU
 70
     2
  9
$DIMALTTD
 70
     2
  9
$DIMTXSTY
  7
STANDARD
  9
$DIMAUNIT
 70
     0
  9
$LUNITS
 70
     2
  9
$LUPREC
 70
     4
  9
$SKETCHINC
 40
0.1
  9
$FILLETRAD
 40
0.5
  9
$AUNITS
 70
     0
  9
$AUPREC
 70
     0
  9
$MENU
  1
.
  9
$ELEVATION
 40
0.0
  9
$PELEVATION
 40
0.0
  9
$THICKNESS
 40
0.0
  9
$LIMCHECK
 70
     0
  9
$CHAMFERA
 40
0.5
  9
$CHAMFERB
 40
0.5
  9
$CHAMFERC
 40
1.0
  9
$CHAMFERD
 40
0.0
  9
$SKPOLY
 70
     0
  9
$TDCREATE
 40
2460154.791099537
  9
$TDUPDATE
 40
2460154.416101864
  9
$TDINDWG
 40
0.0000000116
  9
$TDUSRTIMER
 40
0.0000000116
  9
$USRTIMER
 70
     1
  9
$ANGBASE
 50
0.0
  9
$ANGDIR
 70
     0
  9
$PDMODE
 70
     0
  9
$PDSIZE
 40
0.0
  9
$PLINEWID
 40
0.0
  9
$COORDS
 70
     1
  9
$SPLFRAME
 70
     0
  9
$SPLINETYPE
 70
     6
  9
$SPLINESEGS
 70
     8
  9
$ATTDIA
 70
     0
  9
$ATTREQ
 70
     1
  9
$HANDLING
 70
     1
  9
$HANDSEED
  5
28F
  9
$SURFTAB1
 70
     6
  9
$SURFTAB2
 70
     6
  9
$SURFTYPE
 70
     6
  9
$SURFU
 70
     6
  9
$SURFV
 70
     6
  9
$UCSNAME
  2

  9
$UCSORG
 10
0.0
 20
0.0
 30
0.0
  9
$UCSXDIR
 10
1.0
 20
0.0
 30
0.0
  9
$UCSYDIR
 10
0.0
 20
1.0
 30
0.0
  9
$PUCSNAME
  2

  9
$PUCSORG
 10
0.0
 20
0.0
 30
0.0
  9
$PUCSXDIR
 10
1.0
 20
0.0
 30
0.0
  9
$PUCSYDIR
 10
0.0
 20
1.0
 30
0.0
  9
$USERI1
 70
     0
  9
$USERI2
 70
     0
  9
$USERI3
 70
     0
  9
$USERI4
 70
     0
  9
$USERI5
 70
     0
  9
$USERR1
 40
0.0
  9
$USERR2
 40
0.0
  9
$USERR3
 40
0.0
  9
$USERR4
 40
0.0
  9
$USERR5
 40
0.0
  9
$WORLDVIEW
 70
     1
  9
$SHADEDGE
 70
     3
  9
$SHADEDIF
 70
    70
  9
$TILEMODE
 70
     1
  9
$MAXACTVP
 70
    64
  9
$PINSBASE
 10
0.0
 20
0.0
 30
0.0
  9
$PLIMCHECK
 70
     0
  9
$PEXTMIN
 10
0.0
 20
0.0
 30
0.0
  9
$PEXTMAX
 10
420.0
 20
297.0
 30
0.0
  9
$PLIMMIN
 10
0.0
 20
0.0
  9
$PLIMMAX
 10
420.0
 20
297.0
  9
$UNITMODE
 70
     0
  9
$VISRETAIN
 70
     1
  9
$PLINEGEN
 70
     0
  9
$PSLTSCALE
 70
     1
  9
$TREEDEPTH
 70
  3020
  9
$PICKSTYLE
 70
     1
  9
$CMLSTYLE
  2
STANDARD
  9
$CMLJUST
 70
     0
  9
$CMLSCALE
 40
1.0
  9
$PROXYGRAPHICS
 70
     1
  9
$MEASUREMENT
 70
     1
  0
ENDSEC
  0
SECTION
  2
CLASSES
  0
CLASS
  1
ACDBDICTIONARYWDFLT
  2
AcDbDictionaryWithDefault
  3
ObjectDBX Classes
 90
        0
280
     0
281
     0
  0
CLASS
  1
VISUALSTYLE
  2
AcDbVisualStyle
  3
ObjectDBX Classes
 90
     4095
280
     0
281
     0
  0
CLASS
  1
MATERIAL
  2
AcDbMaterial
  3
ObjectDBX Classes
 90
     1153
280
     0
281
     0
  0
CLASS
  1
DICTIONARYVAR
  2
AcDbDictionaryVar
  3
ObjectDBX Classes
 90
        0
280
     0
281
     0
  0
CLASS
  1
XRECORD
  2
AcDbXrecord
  3
AutoCAD 2000
 90
        0
280
     0
281
     0
  0
CLASS
  1
LWPOLYLINE
  2
AcDbPolyline
  3
AutoCAD 2000
 90
        0
280
     0
281
     1
  0
CLASS
  1
HATCH
  2
AcDbHatch
  3
AutoCAD 2000
 90
        0
280
     0
281
     1
  0
CLASS
  1
ACDBPLACEHOLDER
  2
AcDbPlaceHolder
  3
ObjectDBX Classes
 90
        0
280
     0
281
     0
  0
CLASS
  1
LAYOUT
  2
AcDbLayout
  3
ObjectDBX Classes
 90
        0
280
     0
281
     0
  0
ENDSEC
  0
SECTION
  2
TABLES
  0
TABLE
  2
VPORT
  5
8
330
0
100
AcDbSymbolTable
 70
     1
  0
VPORT
  5
29
330
8
100
AcDbSymbolTableRecord
100
AcDbViewportTableRecord
  2
*ACTIVE
 70
     0
 10
0.0
 20
0.0
 11
1.0
 21
1.0
 12
10.42990654205607
 22
4.5
 13
0.0
 23
0.0
 14
0.5
 24
0.5
 15
0.5
 25
0.5
 16
0.0
 26
0.0
 36
1.0
 17
0.0
 27
0.0
 37
0.0
 40
9.0
 41
1.972972972850329
 42
50.0
 43
0.0
 44
0.0
 50
0.0
 51
0.0
 71
     0
 72
   100
 73
     1
 74
     3
 75
     0
 76
     0
 77
     0
 78
     0
  0
ENDTAB
  0
TABLE
  2
LTYPE
  5
5
330
0
100
AcDbSymbolTable
 70
     9
  0
LTYPE
  5
14
330
5
100
AcDbSymbolTableRecord
100
AcDbLinetypeTableRecord
  2
BYBLOCK
 70
     0
  3

 72
    65
 73
     0
 40
0.0
  0
LTYPE
  5
15
330
5
100
AcDbSymbolTableRecord
100
AcDbLinetypeTableRecord
  2
BYLAYER
 70
     0
  3

 72
    65
 73
     0
 40
0.0
  0
LTYPE
  5
16
330
5
100
AcDbSymbolTableRecord
100
AcDbLinetypeTableRecord
  2
CONTINUOUS
 70
     0
  3
Solid line
 72
    65
 73
     0
 40
0.0
  0
LTYPE
  5
8E
330
5
100
AcDbSymbolTableRecord
100
AcDbLinetypeTableRecord
  2
DOT
 70
     0
  3
DOT
 72
    65
 73
     2
 40
4.0
 49
6.0
 74
     0
 49
-2.0
 74
     0
  0
LTYPE
  5
8F
330
5
100
AcDbSymbolTableRecord
100
AcDbLinetypeTableRecord
  2
HIDDEN
 70
     0
  3
HIDDEN
 72
    65
 73
     2
 40
4.2
 49
8.4
 74
     0
 49
-4.2
 74
     0
  0
LTYPE
  5
90
330
5
100
AcDbSymbolTableRecord
100
AcDbLinetypeTableRecord
  2
DASHDOT
 70
     0
  3
DASHDOT
 72
    65
 73
     4
 40
14.5
 49
30.0
 74
     0
 49
-9.0
 74
     0
 49
2.5
 74
     0
 49
-9.0
 74
     0
  0
LTYPE
  5
91
330
5
100
AcDbSymbolTableRecord
100
AcDbLinetypeTableRecord
  2
PHANTOM
 70
     0
  3
PHANTOM
 72
    65
 73
     6
 40
12.0
 49
30.0
 74
     0
 49
-9.0
 74
     0
 49
2.5
 74
     0
 49
-5.0
 74
     0
 49
2.5
 74
     0
 49
-9.0
 74
     0
  0
LTYPE
  5
92
330
5
100
AcDbSymbolTableRecord
100
AcDbLinetypeTableRecord
  2
ACAD_ISO14W100
 70
     0
  3
ACAD_ISO14W100
 72
    65
 73
     8
 40
1.5
 49
12.0
 74
     0
 49
-3.0
 74
     0
 49
0.5
 74
     0
 49
-3.0
 74
     0
 49
0.5
 74
     0
 49
-3.0
 74
     0
 49
0.5
 74
     0
 49
-3.0
 74
     0
  0
LTYPE
  5
93
330
5
100
AcDbSymbolTableRecord
100
AcDbLinetypeTableRecord
  2
ACAD_ISO06W100
 70
     0
  3
ACAD_ISO06W100
 72
    65
 73
     8
 40
13.5
 49
24.0
 74
     0
 49
-3.0
 74
     0
 49
0.5
 74
     0
 49
-3.0
 74
     0
 49
0.5
 74
     0
 49
-3.0
 74
     0
 49
0.5
 74
     0
 49
-3.0
 74
     0
  0
LTYPE
  5
94
330
5
100
AcDbSymbolTableRecord
100
AcDbLinetypeTableRecord
  2
ACAD_ISO11W100
 70
     0
  3
ACAD_ISO11W100
 72
    65
 73
     6
 40
15.5
 49
12.0
 74
     0
 49
-3.0
 74
     0
 49
12.0
 74
     0
 49
-3.0
 74
     0
 49
0.5
 74
     0
 49
-3.0
 74
     0
  0
LTYPE
  5
95
330
5
100
AcDbSymbolTableRecord
100
AcDbLinetypeTableRecord
  2
ACAD_ISO13W100
 70
     0
  3
ACAD_ISO13W100
 72
    65
 73
     8
 40
13.0
 49
12.0
 74
     0
 49
-3.0
 74
     0
 49
12.0
 74
     0
 49
-3.0
 74
     0
 49
0.5
 74
     0
 49
-3.0
 74
     0
 49
0.5
 74
     0
 49
-3.0
 74
     0
  0
ENDTAB
  0
TABLE
  2
LAYER
  5
2
330
0
100
AcDbSymbolTable
 70
    12
  0
LAYER
  5
10
330
2
100
AcDbSymbolTableRecord
100
AcDbLayerTableRecord
  2
0
 70
     0
 62
     7
  6
CONTINUOUS
  0
LAYER
  5
96
330
2
100
AcDbSymbolTableRecord
100
AcDbLayerTableRecord
  2
1
 70
     0
 62
     7
  6
CONTINUOUS
  0
LAYER
  5
97
330
2
100
AcDbSymbolTableRecord
100
AcDbLayerTableRecord
  2
2
 70
     0
 62
   151
  6
CONTINUOUS
  0
LAYER
  5
98
330
2
100
AcDbSymbolTableRecord
100
AcDbLayerTableRecord
  2
3
 70
     0
 62
     3
  6
HIDDEN
  0
LAYER
  5
99
330
2
100
AcDbSymbolTableRecord
100
AcDbLayerTableRecord
  2
4
 70
     0
 62
     1
  6
DASHDOT
  0
LAYER
  5
9A
330
2
100
AcDbSymbolTableRecord
100
AcDbLayerTableRecord
  2
5
 70
     0
 62
     7
  6
CONTINUOUS
  0
LAYER
  5
9B
330
2
100
AcDbSymbolTableRecord
100
AcDbLayerTableRecord
  2
6
 70
     0
 62
     6
  6
CONTINUOUS
  0
LAYER
  5
9C
330
2
100
AcDbSymbolTableRecord
100
AcDbLayerTableRecord
  2
7
 70
     0
 62
     3
  6
CONTINUOUS
  0
LAYER
  5
9D
330
2
100
AcDbSymbolTableRecord
100
AcDbLayerTableRecord
  2
8
 70
     0
 62
     4
  6
CONTINUOUS
  0
LAYER
  5
9E
330
2
100
AcDbSymbolTableRecord
100
AcDbLayerTableRecord
  2
9
 70
     0
 62
     7
  6
CONTINUOUS
  0
LAYER
  5
9F
330
2
100
AcDbSymbolTableRecord
100
AcDbLayerTableRecord
  2
10
 70
     0
 62
     2
  6
CONTINUOUS
  0
LAYER
  5
A0
330
2
100
AcDbSymbolTableRecord
100
AcDbLayerTableRecord
  2
11
 70
     0
 62
     2
  6
CONTINUOUS
  0
ENDTAB
  0
TABLE
  2
STYLE
  5
3
330
0
100
AcDbSymbolTable
 70
     3
  0
STYLE
  5
11
330
3
100
AcDbSymbolTableRecord
100
AcDbTextStyleTableRecord
  2
STANDARD
 70
     0
 40
0.0
 41
1.0
 50
0.0
 71
     0
 42
8.4
  3
txt
  4
bigfont
  0
STYLE
  5
41
330
3
100
AcDbSymbolTableRecord
100
AcDbTextStyleTableRecord
  2
T_STANDARD
 70
     4
 40
10.0
 41
1.0
 50
0.0
 71
     0
 42
10.0
  3
txt
  4
bigfont
  0
STYLE
  5
1C0
330
3
100
AcDbSymbolTableRecord
100
AcDbTextStyleTableRecord
  2
ＭＳ_ゴシック
 70
     0
 40
0.0
 41
1.0
 50
0.0
 71
     0
 42
0.0
  3

  4

1001
ACAD
1000
ＭＳ ゴシック
1071
      256
  0
ENDTAB
  0
TABLE
  2
VIEW
  5
6
330
0
100
AcDbSymbolTable
 70
     0
  0
ENDTAB
  0
TABLE
  2
UCS
  5
7
330
0
100
AcDbSymbolTable
 70
     0
  0
ENDTAB
  0
TABLE
  2
APPID
  5
9
330
0
100
AcDbSymbolTable
 70
     2
  0
APPID
  5
12
330
9
100
AcDbSymbolTableRecord
100
AcDbRegAppTableRecord
  2
ACAD
 70
     0
  0
APPID
  5
40
330
9
100
AcDbSymbolTableRecord
100
AcDbRegAppTableRecord
  2
ODA
 70
     0
  0
ENDTAB
  0
TABLE
  2
DIMSTYLE
  5
A
330
0
100
AcDbSymbolTable
 70
     1
  0
DIMSTYLE
105
27
102
{ACAD_REACTORS
330
1C8
330
1D0
330
1E1
330
1EB
330
1F5
330
1FF
330
209
330
213
330
21D
330
227
330
231
330
23B
330
245
330
24F
330
259
330
263
102
}
330
A
100
AcDbSymbolTableRecord
100
AcDbDimStyleTableRecord
  2
STANDARD
 70
     0
  3

  4

  5

  6

  7

 40
1.0
 41
0.18
 42
0.0625
 43
0.38
 44
0.18
 45
0.0
 46
0.0
 47
0.0
 48
0.0
140
0.18
141
0.09
142
0.0
143
25.4
144
1.0
145
0.0
146
1.0
147
0.09
 71
     0
 72
     0
 73
     1
 74
     1
 75
     0
 76
     0
 77
     0
 78
     0
170
     0
171
     2
172
     0
173
     0
174
     0
175
     0
176
     0
177
     0
178
     0
270
     2
271
     4
272
     4
273
     2
274
     2
340
11
275
     0
280
     0
281
     0
282
     0
283
     1
284
     0
285
     0
286
     0
287
     3
288
     0
  0
ENDTAB
  0
TABLE
  2
BLOCK_RECORD
  5
1
330
0
100
AcDbSymbolTable
 70
    32
  0
BLOCK_RECORD
  5
1F
330
1
100
AcDbSymbolTableRecord
100
AcDbBlockTableRecord
  2
*MODEL_SPACE
  0
BLOCK_RECORD
  5
1B
330
1
100
AcDbSymbolTableRecord
100
AcDbBlockTableRecord
  2
*PAPER_SPACE
  0
BLOCK_RECORD
  5
42
330
1
100
AcDbSymbolTableRecord
100
AcDbBlockTableRecord
  2
_ORIGIN
  0
BLOCK_RECORD
  5
47
330
1
100
AcDbSymbolTableRecord
100
AcDbBlockTableRecord
  2
_DOTBLANK
  0
BLOCK_RECORD
  5
4C
330
1
100
AcDbSymbolTableRecord
100
AcDbBlockTableRecord
  2
_DOT
  0
BLOCK_RECORD
  5
51
330
1
100
AcDbSymbolTableRecord
100
AcDbBlockTableRecord
  2
_OPEN
  0
BLOCK_RECORD
  5
57
330
1
100
AcDbSymbolTableRecord
100
AcDbBlockTableRecord
  2
_CLOSED
  0
BLOCK_RECORD
  5
5E
330
1
100
AcDbSymbolTableRecord
100
AcDbBlockTableRecord
  2
_CLOSEDBLANK
  0
BLOCK_RECORD
  5
64
330
1
100
AcDbSymbolTableRecord
100
AcDbBlockTableRecord
  2
_ARROWFILLED
  0
BLOCK_RECORD
  5
68
330
1
100
AcDbSymbolTableRecord
100
AcDbBlockTableRecord
  2
_BOXBLANK
  0
BLOCK_RECORD
  5
70
330
1
100
AcDbSymbolTableRecord
100
AcDbBlockTableRecord
  2
_BOXFILLED
  0
BLOCK_RECORD
  5
75
330
1
100
AcDbSymbolTableRecord
100
AcDbBlockTableRecord
  2
_INTEGRAL
  0
BLOCK_RECORD
  5
7A
330
1
100
AcDbSymbolTableRecord
100
AcDbBlockTableRecord
  2
_OBLIQUE
  0
BLOCK_RECORD
  5
7E
330
1
100
AcDbSymbolTableRecord
100
AcDbBlockTableRecord
  2
_NONE
  0
BLOCK_RECORD
  5
81
330
1
100
AcDbSymbolTableRecord
100
AcDbBlockTableRecord
  2
MARK_OPEN
  0
BLOCK_RECORD
  5
86
330
1
100
AcDbSymbolTableRecord
100
AcDbBlockTableRecord
  2
MARK_ORIGIN
  0
BLOCK_RECORD
  5
8A
330
1
100
AcDbSymbolTableRecord
100
AcDbBlockTableRecord
  2
MARK_DOT
  0
BLOCK_RECORD
  5
1C1
330
1
100
AcDbSymbolTableRecord
100
AcDbBlockTableRecord
  2
DIM1
  0
BLOCK_RECORD
  5
1C9
330
1
100
AcDbSymbolTableRecord
100
AcDbBlockTableRecord
  2
DIM2
  0
BLOCK_RECORD
  5
1D8
330
1
100
AcDbSymbolTableRecord
100
AcDbBlockTableRecord
  2
DIM3
  0
BLOCK_RECORD
  5
1E2
330
1
100
AcDbSymbolTableRecord
100
AcDbBlockTableRecord
  2
DIM4
  0
BLOCK_RECORD
  5
1EC
330
1
100
AcDbSymbolTableRecord
100
AcDbBlockTableRecord
  2
DIM5
  0
BLOCK_RECORD
  5
1F6
330
1
100
AcDbSymbolTableRecord
100
AcDbBlockTableRecord
  2
DIM6
  0
BLOCK_RECORD
  5
200
330
1
100
AcDbSymbolTableRecord
100
AcDbBlockTableRecord
  2
DIM7
  0
BLOCK_RECORD
  5
20A
330
1
100
AcDbSymbolTableRecord
100
AcDbBlockTableRecord
  2
DIM8
  0
BLOCK_RECORD
  5
214
330
1
100
AcDbSymbolTableRecord
100
AcDbBlockTableRecord
  2
DIM9
  0
BLOCK_RECORD
  5
21E
330
1
100
AcDbSymbolTableRecord
100
AcDbBlockTableRecord
  2
DIM10
  0
BLOCK_RECORD
  5
228
330
1
100
AcDbSymbolTableRecord
100
AcDbBlockTableRecord
  2
DIM11
  0
BLOCK_RECORD
  5
232
330
1
100
AcDbSymbolTableRecord
100
AcDbBlockTableRecord
  2
DIM12
  0
BLOCK_RECORD
  5
23C
330
1
100
AcDbSymbolTableRecord
100
AcDbBlockTableRecord
  2
DIM13
  0
BLOCK_RECORD
  5
246
330
1
100
AcDbSymbolTableRecord
100
AcDbBlockTableRecord
  2
DIM14
  0
BLOCK_RECORD
  5
250
330
1
100
AcDbSymbolTableRecord
100
AcDbBlockTableRecord
  2
DIM15
  0
BLOCK_RECORD
  5
25A
330
1
100
AcDbSymbolTableRecord
100
AcDbBlockTableRecord
  2
DIM16
  0
ENDTAB
  0
ENDSEC
  0
SECTION
  2
BLOCKS
  0
BLOCK
  5
20
330
1F
100
AcDbEntity
  8
0
100
AcDbBlockBegin
  2
*MODEL_SPACE
 70
     0
 10
0.0
 20
0.0
 30
0.0
  3
*MODEL_SPACE
  1

  0
ENDBLK
  5
21
330
1F
100
AcDbEntity
  8
0
100
AcDbBlockEnd
  0
BLOCK
  5
1C
330
1B
100
AcDbEntity
 67
     1
  8
0
100
AcDbBlockBegin
  2
*PAPER_SPACE
 70
     0
 10
0.0
 20
0.0
 30
0.0
  3
*PAPER_SPACE
  1

  0
ENDBLK
  5
1D
330
1B
100
AcDbEntity
 67
     1
  8
0
100
AcDbBlockEnd
  0
BLOCK
  5
45
330
42
100
AcDbEntity
  8
0
100
AcDbBlockBegin
  2
_ORIGIN
 70
     0
 10
0.0
 20
0.0
 30
0.0
  3
_ORIGIN
  1

  0
CIRCLE
  5
43
330
42
100
AcDbEntity
  8
0
 62
     0
100
AcDbCircle
 10
0.0
 20
0.0
 30
0.0
 40
0.5
  0
LINE
  5
44
330
42
100
AcDbEntity
  8
0
 62
     0
100
AcDbLine
 10
0.0
 20
0.0
 30
0.0
 11
-1.0
 21
0.0
 31
0.0
  0
ENDBLK
  5
46
330
42
100
AcDbEntity
  8
0
100
AcDbBlockEnd
  0
BLOCK
  5
4A
330
47
100
AcDbEntity
  8
0
100
AcDbBlockBegin
  2
_DOTBLANK
 70
     0
 10
0.0
 20
0.0
 30
0.0
  3
_DOTBLANK
  1

  0
CIRCLE
  5
48
330
47
100
AcDbEntity
  8
0
 62
     0
100
AcDbCircle
 10
0.0
 20
0.0
 30
0.0
 40
0.5
  0
LINE
  5
49
330
47
100
AcDbEntity
  8
0
 62
     0
100
AcDbLine
 10
-0.5
 20
0.0
 30
0.0
 11
-1.0
 21
0.0
 31
0.0
  0
ENDBLK
  5
4B
330
47
100
AcDbEntity
  8
0
100
AcDbBlockEnd
  0
BLOCK
  5
4F
330
4C
100
AcDbEntity
  8
0
100
AcDbBlockBegin
  2
_DOT
 70
     0
 10
0.0
 20
0.0
 30
0.0
  3
_DOT
  1

  0
LWPOLYLINE
  5
4D
330
4C
100
AcDbEntity
  8
0
 62
     0
100
AcDbPolyline
 90
        2
 70
     1
 43
0.5
 10
-0.25
 20
0.0
 42
1.0
 10
0.25
 20
0.0
 42
1.0
  0
LINE
  5
4E
330
4C
100
AcDbEntity
  8
0
 62
     0
100
AcDbLine
 10
-0.5
 20
0.0
 30
0.0
 11
-1.0
 21
0.0
 31
0.0
  0
ENDBLK
  5
50
330
4C
100
AcDbEntity
  8
0
100
AcDbBlockEnd
  0
BLOCK
  5
55
330
51
100
AcDbEntity
  8
0
100
AcDbBlockBegin
  2
_OPEN
 70
     0
 10
0.0
 20
0.0
 30
0.0
  3
_OPEN
  1

  0
LINE
  5
52
330
51
100
AcDbEntity
  8
0
 62
     0
100
AcDbLine
 10
0.0
 20
0.0
 30
0.0
 11
-1.0
 21
0.1666666666666667
 31
0.0
  0
LINE
  5
53
330
51
100
AcDbEntity
  8
0
 62
     0
100
AcDbLine
 10
0.0
 20
0.0
 30
0.0
 11
-1.0
 21
-0.1666666666666667
 31
0.0
  0
LINE
  5
54
330
51
100
AcDbEntity
  8
0
 62
     0
100
AcDbLine
 10
0.0
 20
0.0
 30
0.0
 11
-1.0
 21
0.0
 31
0.0
  0
ENDBLK
  5
56
330
51
100
AcDbEntity
  8
0
100
AcDbBlockEnd
  0
BLOCK
  5
5C
330
57
100
AcDbEntity
  8
0
100
AcDbBlockBegin
  2
_CLOSED
 70
     0
 10
0.0
 20
0.0
 30
0.0
  3
_CLOSED
  1

  0
LINE
  5
58
330
57
100
AcDbEntity
  8
0
 62
     0
100
AcDbLine
 10
0.0
 20
0.0
 30
0.0
 11
-1.0
 21
0.1666666666666667
 31
0.0
  0
LINE
  5
59
330
57
100
AcDbEntity
  8
0
 62
     0
100
AcDbLine
 10
0.0
 20
0.0
 30
0.0
 11
-1.0
 21
-0.1666666666666667
 31
0.0
  0
LINE
  5
5A
330
57
100
AcDbEntity
  8
0
 62
     0
100
AcDbLine
 10
-1.0
 20
0.1666666666666667
 30
0.0
 11
-1.0
 21
-0.1666666666666667
 31
0.0
  0
LINE
  5
5B
330
57
100
AcDbEntity
  8
0
 62
     0
100
AcDbLine
 10
0.0
 20
0.0
 30
0.0
 11
-1.0
 21
0.0
 31
0.0
  0
ENDBLK
  5
5D
330
57
100
AcDbEntity
  8
0
100
AcDbBlockEnd
  0
BLOCK
  5
62
330
5E
100
AcDbEntity
  8
0
100
AcDbBlockBegin
  2
_CLOSEDBLANK
 70
     0
 10
0.0
 20
0.0
 30
0.0
  3
_CLOSEDBLANK
  1

  0
LINE
  5
5F
330
5E
100
AcDbEntity
  8
0
 62
     0
100
AcDbLine
 10
0.0
 20
0.0
 30
0.0
 11
-1.0
 21
0.1666666666666667
 31
0.0
  0
LINE
  5
60
330
5E
100
AcDbEntity
  8
0
 62
     0
100
AcDbLine
 10
0.0
 20
0.0
 30
0.0
 11
-1.0
 21
-0.1666666666666667
 31
0.0
  0
LINE
  5
61
330
5E
100
AcDbEntity
  8
0
 62
     0
100
AcDbLine
 10
-1.0
 20
0.1666666666666667
 30
0.0
 11
-1.0
 21
-0.1666666666666667
 31
0.0
  0
ENDBLK
  5
63
330
5E
100
AcDbEntity
  8
0
100
AcDbBlockEnd
  0
BLOCK
  5
66
330
64
100
AcDbEntity
  8
0
100
AcDbBlockBegin
  2
_ARROWFILLED
 70
     0
 10
0.0
 20
0.0
 30
0.0
  3
_ARROWFILLED
  1

  0
SOLID
  5
65
330
64
100
AcDbEntity
  8
0
 62
     0
100
AcDbTrace
 10
0.0
 20
0.0
 30
0.0
 11
-1.0
 21
-0.1666666666666667
 31
0.0
 12
-1.0
 22
0.1666666666666667
 32
0.0
 13
0.0
 23
0.0
 33
0.0
  0
ENDBLK
  5
67
330
64
100
AcDbEntity
  8
0
100
AcDbBlockEnd
  0
BLOCK
  5
6E
330
68
100
AcDbEntity
  8
0
100
AcDbBlockBegin
  2
_BOXBLANK
 70
     0
 10
0.0
 20
0.0
 30
0.0
  3
_BOXBLANK
  1

  0
LINE
  5
69
330
68
100
AcDbEntity
  8
0
 62
     0
100
AcDbLine
 10
-0.5
 20
-0.5
 30
0.0
 11
0.5
 21
-0.5
 31
0.0
  0
LINE
  5
6A
330
68
100
AcDbEntity
  8
0
 62
     0
100
AcDbLine
 10
0.5
 20
-0.5
 30
0.0
 11
0.5
 21
0.5
 31
0.0
  0
LINE
  5
6B
330
68
100
AcDbEntity
  8
0
 62
     0
100
AcDbLine
 10
0.5
 20
0.5
 30
0.0
 11
-0.5
 21
0.5
 31
0.0
  0
LINE
  5
6C
330
68
100
AcDbEntity
  8
0
 62
     0
100
AcDbLine
 10
-0.5
 20
0.5
 30
0.0
 11
-0.5
 21
-0.5
 31
0.0
  0
LINE
  5
6D
330
68
100
AcDbEntity
  8
0
 62
     0
100
AcDbLine
 10
-0.5
 20
0.0
 30
0.0
 11
-1.0
 21
0.0
 31
0.0
  0
ENDBLK
  5
6F
330
68
100
AcDbEntity
  8
0
100
AcDbBlockEnd
  0
BLOCK
  5
73
330
70
100
AcDbEntity
  8
0
100
AcDbBlockBegin
  2
_BOXFILLED
 70
     0
 10
0.0
 20
0.0
 30
0.0
  3
_BOXFILLED
  1

  0
SOLID
  5
71
330
70
100
AcDbEntity
  8
0
 62
     0
100
AcDbTrace
 10
-0.5
 20
0.5
 30
0.0
 11
0.5
 21
0.5
 31
0.0
 12
-0.5
 22
-0.5
 32
0.0
 13
0.5
 23
-0.5
 33
0.0
  0
LINE
  5
72
330
70
100
AcDbEntity
  8
0
 62
     0
100
AcDbLine
 10
-0.5
 20
0.0
 30
0.0
 11
-1.0
 21
0.0
 31
0.0
  0
ENDBLK
  5
74
330
70
100
AcDbEntity
  8
0
100
AcDbBlockEnd
  0
BLOCK
  5
78
330
75
100
AcDbEntity
  8
0
100
AcDbBlockBegin
  2
_INTEGRAL
 70
     0
 10
0.0
 20
0.0
 30
0.0
  3
_INTEGRAL
  1

  0
ARC
  5
76
330
75
100
AcDbEntity
  8
0
 62
     0
100
AcDbCircle
 10
0.444888
 20
-0.0913346
 30
0.0
 40
0.4541666
100
AcDbArc
 50
101.9999999999999
 51
167.9999999999998
  0
ARC
  5
77
330
75
100
AcDbEntity
  8
0
 62
     0
100
AcDbCircle
 10
-0.444888
 20
0.0913346
 30
0.0
 40
0.4541666
100
AcDbArc
 50
281.9999999999997
 51
347.9999999999997
  0
ENDBLK
  5
79
330
75
100
AcDbEntity
  8
0
100
AcDbBlockEnd
  0
BLOCK
  5
7C
330
7A
100
AcDbEntity
  8
0
100
AcDbBlockBegin
  2
_OBLIQUE
 70
     0
 10
0.0
 20
0.0
 30
0.0
  3
_OBLIQUE
  1

  0
LINE
  5
7B
330
7A
100
AcDbEntity
  8
0
 62
     0
100
AcDbLine
 10
-0.5
 20
-0.5
 30
0.0
 11
0.5
 21
0.5
 31
0.0
  0
ENDBLK
  5
7D
330
7A
100
AcDbEntity
  8
0
100
AcDbBlockEnd
  0
BLOCK
  5
7F
330
7E
100
AcDbEntity
  8
0
100
AcDbBlockBegin
  2
_NONE
 70
     0
 10
0.0
 20
0.0
 30
0.0
  3
_NONE
  1

  0
ENDBLK
  5
80
330
7E
100
AcDbEntity
  8
0
100
AcDbBlockEnd
  0
BLOCK
  5
84
330
81
100
AcDbEntity
  8
0
100
AcDbBlockBegin
  2
MARK_OPEN
 70
     0
 10
0.0
 20
0.0
 30
0.0
  3
MARK_OPEN
  1

  0
LINE
  5
82
330
81
100
AcDbEntity
  8
0
 62
     0
100
AcDbLine
 10
0.0
 20
0.0
 30
0.0
 11
-1.0
 21
0.1666666666666667
 31
0.0
  0
LINE
  5
83
330
81
100
AcDbEntity
  8
0
 62
     0
100
AcDbLine
 10
0.0
 20
0.0
 30
0.0
 11
-1.0
 21
-0.1666666666666667
 31
0.0
  0
ENDBLK
  5
85
330
81
100
AcDbEntity
  8
0
100
AcDbBlockEnd
  0
BLOCK
  5
88
330
86
100
AcDbEntity
  8
0
100
AcDbBlockBegin
  2
MARK_ORIGIN
 70
     0
 10
0.0
 20
0.0
 30
0.0
  3
MARK_ORIGIN
  1

  0
CIRCLE
  5
87
330
86
100
AcDbEntity
  8
0
 62
     0
100
AcDbCircle
 10
0.0
 20
0.0
 30
0.0
 40
0.5
  0
ENDBLK
  5
89
330
86
100
AcDbEntity
  8
0
100
AcDbBlockEnd
  0
BLOCK
  5
8C
330
8A
100
AcDbEntity
  8
0
100
AcDbBlockBegin
  2
MARK_DOT
 70
     0
 10
0.0
 20
0.0
 30
0.0
  3
MARK_DOT
  1

  0
LWPOLYLINE
  5
8B
330
8A
100
AcDbEntity
  8
0
 62
     0
100
AcDbPolyline
 90
        2
 70
     1
 43
0.5
 10
-0.25
 20
0.0
 42
1.0
 10
0.25
 20
0.0
 42
1.0
  0
ENDBLK
  5
8D
330
8A
100
AcDbEntity
  8
0
100
AcDbBlockEnd
  0
BLOCK
  5
1C2
330
1C1
100
AcDbEntity
  8
0
100
AcDbBlockBegin
  2
DIM1
 70
     0
 10
0.0
 20
0.0
 30
0.0
  3
DIM1
  1

  0
LINE
  5
1C4
330
1C1
100
AcDbEntity
  8
8
  6
CONTINUOUS
 62
     4
100
AcDbLine
 10
559.4344786588614
 20
390.8614398309933
 30
0.0
 11
645.5068086081174
 21
693.2202493094298
 31
0.0
  0
MTEXT
  5
1C5
330
1C1
100
AcDbEntity
  8
8
  6
CONTINUOUS
 62
     4
100
AcDbMText
 10
640.5785531186114
 20
675.9080484721546
 30
0.0
 40
9.0
 41
111.4285714285714
 71
     7
 72
     1
  1
φ55
  7
ＭＳ_ゴシック
 11
0.2737919716394158
 21
0.9617889354041256
 31
0.0
1001
ACAD
1000
ACAD_MTEXT_DEFINED_HEIGHT_BEGIN
1070
    46
1040
9.0
1000
ACAD_MTEXT_DEFINED_HEIGHT_END
  0
INSERT
  5
1C6
330
1C1
100
AcDbEntity
  8
8
  6
CONTINUOUS
 62
     4
100
AcDbBlockReference
  2
_ARROWFILLED
 10
562.7199823185343
 20
402.4029070558428
 30
0.0
 41
6.0
 42
6.0
 43
6.0
 50
74.10996350358877
  0
INSERT
  5
1C7
330
1C1
100
AcDbEntity
  8
8
  6
CONTINUOUS
 62
     4
100
AcDbBlockReference
  2
_ARROWFILLED
 10
577.778540758702
 20
455.3012985030689
 30
0.0
 41
6.0
 42
6.0
 43
6.0
 50
254.1099635035888
  0
ENDBLK
  5
1C3
330
1C1
100
AcDbEntity
  8
0
100
AcDbBlockEnd
  0
BLOCK
  5
1CA
330
1C9
100
AcDbEntity
  8
0
100
AcDbBlockBegin
  2
DIM2
 70
     0
 10
0.0
 20
0.0
 30
0.0
  3
DIM2
  1

  0
LINE
  5
1CC
330
1C9
100
AcDbEntity
  8
8
  6
CONTINUOUS
 62
     4
100
AcDbLine
 10
546.0276535988974
 20
391.5216365512526
 30
0.0
 11
740.1343099736108
 21
690.6798096377427
 31
0.0
  0
MTEXT
  5
1CD
330
1C9
100
AcDbEntity
  8
8
  6
CONTINUOUS
 62
     4
100
AcDbMText
 10
730.336805638445
 20
675.5798457701567
 30
0.0
 40
9.0
 41
111.4285714285714
 71
     7
 72
     1
  1
φ65
  7
ＭＳ_ゴシック
 11
0.5443057963982264
 21
0.838886881532482
 31
0.0
1001
ACAD
1000
ACAD_MTEXT_DEFINED_HEIGHT_BEGIN
1070
    46
1040
9.0
1000
ACAD_MTEXT_DEFINED_HEIGHT_END
  0
INSERT
  5
1CE
330
1C9
100
AcDbEntity
  8
8
  6
CONTINUOUS
 62
     4
100
AcDbBlockReference
  2
_ARROWFILLED
 10
552.5593231556761
 20
401.5882791296424
 30
0.0
 41
6.0
 42
6.0
 43
6.0
 50
57.02276305478297
  0
INSERT
  5
1CF
330
1C9
100
AcDbEntity
  8
8
  6
CONTINUOUS
 62
     4
100
AcDbBlockReference
  2
_ARROWFILLED
 10
587.9391999215638
 20
456.1159264292584
 30
0.0
 41
6.0
 42
6.0
 43
6.0
 50
237.022763054783
  0
ENDBLK
  5
1CB
330
1C9
100
AcDbEntity
  8
0
100
AcDbBlockEnd
  0
BLOCK
  5
1D9
330
1D8
100
AcDbEntity
  8
0
100
AcDbBlockBegin
  2
DIM3
 70
     0
 10
0.0
 20
0.0
 30
0.0
  3
DIM3
  1

  0
LINE
  5
1DB
330
1D8
100
AcDbEntity
  8
8
  6
CONTINUOUS
 62
     4
100
AcDbLine
 10
570.249261538569
 20
180.8521027794523
 30
0.0
 11
570.249261538569
 21
158.3521027794523
 31
0.0
  0
LINE
  5
1DC
330
1D8
100
AcDbEntity
  8
8
  6
CONTINUOUS
 62
     4
100
AcDbLine
 10
682.749261538569
 20
192.2521027794519
 30
0.0
 11
682.749261538569
 21
158.3521027794523
 31
0.0
  0
LINE
  5
1DD
330
1D8
100
AcDbEntity
  8
8
  6
CONTINUOUS
 62
     4
100
AcDbLine
 10
570.249261538569
 20
162.8521027794523
 30
0.0
 11
682.749261538569
 21
162.8521027794523
 31
0.0
  0
MTEXT
  5
1DE
330
1D8
100
AcDbEntity
  8
8
  6
CONTINUOUS
 62
     4
100
AcDbMText
 10
626.499261538569
 20
162.8521027794523
 30
0.0
 40
9.0
 41
173.5714285714286
 71
     8
 72
     1
  1
112.5
  7
ＭＳ_ゴシック
1001
ACAD
1000
ACAD_MTEXT_DEFINED_HEIGHT_BEGIN
1070
    46
1040
9.0
1000
ACAD_MTEXT_DEFINED_HEIGHT_END
  0
INSERT
  5
1DF
330
1D8
100
AcDbEntity
  8
8
  6
CONTINUOUS
 62
     4
100
AcDbBlockReference
  2
_ARROWFILLED
 10
570.249261538569
 20
162.8521027794523
 30
0.0
 41
6.0
 42
6.0
 43
6.0
 50
179.9999999999998
  0
INSERT
  5
1E0
330
1D8
100
AcDbEntity
  8
8
  6
CONTINUOUS
 62
     4
100
AcDbBlockReference
  2
_ARROWFILLED
 10
682.749261538569
 20
162.8521027794523
 30
0.0
 41
6.0
 42
6.0
 43
6.0
 50
359.9999999999997
  0
ENDBLK
  5
1DA
330
1D8
100
AcDbEntity
  8
0
100
AcDbBlockEnd
  0
BLOCK
  5
1E3
330
1E2
100
AcDbEntity
  8
0
100
AcDbBlockBegin
  2
DIM4
 70
     0
 10
0.0
 20
0.0
 30
0.0
  3
DIM4
  1

  0
LINE
  5
1E5
330
1E2
100
AcDbEntity
  8
8
  6
CONTINUOUS
 62
     4
100
AcDbLine
 10
682.749261538569
 20
192.2521027794519
 30
0.0
 11
682.749261538569
 21
158.3521027794523
 31
0.0
  0
LINE
  5
1E6
330
1E2
100
AcDbEntity
  8
8
  6
CONTINUOUS
 62
     4
100
AcDbLine
 10
795.249261538569
 20
192.2521027794519
 30
0.0
 11
795.249261538569
 21
158.3521027794523
 31
0.0
  0
LINE
  5
1E7
330
1E2
100
AcDbEntity
  8
8
  6
CONTINUOUS
 62
     4
100
AcDbLine
 10
682.749261538569
 20
162.8521027794523
 30
0.0
 11
795.249261538569
 21
162.8521027794523
 31
0.0
  0
MTEXT
  5
1E8
330
1E2
100
AcDbEntity
  8
8
  6
CONTINUOUS
 62
     4
100
AcDbMText
 10
738.999261538569
 20
162.8521027794523
 30
0.0
 40
9.0
 41
173.5714285714286
 71
     8
 72
     1
  1
112.5
  7
ＭＳ_ゴシック
1001
ACAD
1000
ACAD_MTEXT_DEFINED_HEIGHT_BEGIN
1070
    46
1040
9.0
1000
ACAD_MTEXT_DEFINED_HEIGHT_END
  0
INSERT
  5
1E9
330
1E2
100
AcDbEntity
  8
8
  6
CONTINUOUS
 62
     4
100
AcDbBlockReference
  2
_ARROWFILLED
 10
682.749261538569
 20
162.8521027794523
 30
0.0
 41
6.0
 42
6.0
 43
6.0
 50
179.9999999999998
  0
INSERT
  5
1EA
330
1E2
100
AcDbEntity
  8
8
  6
CONTINUOUS
 62
     4
100
AcDbBlockReference
  2
_ARROWFILLED
 10
795.249261538569
 20
162.8521027794523
 30
0.0
 41
6.0
 42
6.0
 43
6.0
 50
359.9999999999997
  0
ENDBLK
  5
1E4
330
1E2
100
AcDbEntity
  8
0
100
AcDbBlockEnd
  0
BLOCK
  5
1ED
330
1EC
100
AcDbEntity
  8
0
100
AcDbBlockBegin
  2
DIM5
 70
     0
 10
0.0
 20
0.0
 30
0.0
  3
DIM5
  1

  0
LINE
  5
1EF
330
1EC
100
AcDbEntity
  8
8
  6
CONTINUOUS
 62
     4
100
AcDbLine
 10
457.7495125969517
 20
192.2521027794519
 30
0.0
 11
457.7495125969517
 21
158.3521027794523
 31
0.0
  0
LINE
  5
1F0
330
1EC
100
AcDbEntity
  8
8
  6
CONTINUOUS
 62
     4
100
AcDbLine
 10
345.249261538569
 20
192.2521027794519
 30
0.0
 11
345.2492615385689
 21
158.3521027794523
 31
0.0
  0
LINE
  5
1F1
330
1EC
100
AcDbEntity
  8
8
  6
CONTINUOUS
 62
     4
100
AcDbLine
 10
457.7495125969517
 20
162.8521027794523
 30
0.0
 11
345.2492615385689
 21
162.8521027794523
 31
0.0
  0
MTEXT
  5
1F2
330
1EC
100
AcDbEntity
  8
8
  6
CONTINUOUS
 62
     4
100
AcDbMText
 10
401.4993870677599
 20
162.8521027794523
 30
0.0
 40
9.0
 41
173.5714285714286
 71
     8
 72
     1
  1
112.5
  7
ＭＳ_ゴシック
1001
ACAD
1000
ACAD_MTEXT_DEFINED_HEIGHT_BEGIN
1070
    46
1040
9.0
1000
ACAD_MTEXT_DEFINED_HEIGHT_END
  0
INSERT
  5
1F3
330
1EC
100
AcDbEntity
  8
8
  6
CONTINUOUS
 62
     4
100
AcDbBlockReference
  2
_ARROWFILLED
 10
457.7495125969517
 20
162.8521027794523
 30
0.0
 41
6.0
 42
6.0
 43
6.0
 50
359.9999999999997
  0
INSERT
  5
1F4
330
1EC
100
AcDbEntity
  8
8
  6
CONTINUOUS
 62
     4
100
AcDbBlockReference
  2
_ARROWFILLED
 10
345.2492615385689
 20
162.8521027794523
 30
0.0
 41
6.0
 42
6.0
 43
6.0
 50
179.9999999999998
  0
ENDBLK
  5
1EE
330
1EC
100
AcDbEntity
  8
0
100
AcDbBlockEnd
  0
BLOCK
  5
1F7
330
1F6
100
AcDbEntity
  8
0
100
AcDbBlockBegin
  2
DIM6
 70
     0
 10
0.0
 20
0.0
 30
0.0
  3
DIM6
  1

  0
LINE
  5
1F9
330
1F6
100
AcDbEntity
  8
8
  6
CONTINUOUS
 62
     4
100
AcDbLine
 10
320.249261538569
 20
225.8521027794523
 30
0.0
 11
320.2492615385688
 21
134.3521027794523
 31
0.0
  0
LINE
  5
1FA
330
1F6
100
AcDbEntity
  8
8
  6
CONTINUOUS
 62
     4
100
AcDbLine
 10
820.249261538569
 20
225.8521027794523
 30
0.0
 11
820.2492615385689
 21
134.3521027794523
 31
0.0
  0
LINE
  5
1FB
330
1F6
100
AcDbEntity
  8
8
  6
CONTINUOUS
 62
     4
100
AcDbLine
 10
320.2492615385688
 20
138.8521027794523
 30
0.0
 11
820.2492615385689
 21
138.8521027794523
 31
0.0
  0
MTEXT
  5
1FC
330
1F6
100
AcDbEntity
  8
8
  6
CONTINUOUS
 62
     4
100
AcDbMText
 10
570.249261538569
 20
138.8521027794523
 30
0.0
 40
9.0
 41
115.7142857142857
 71
     8
 72
     1
  1
500
  7
ＭＳ_ゴシック
1001
ACAD
1000
ACAD_MTEXT_DEFINED_HEIGHT_BEGIN
1070
    46
1040
9.0
1000
ACAD_MTEXT_DEFINED_HEIGHT_END
  0
INSERT
  5
1FD
330
1F6
100
AcDbEntity
  8
8
  6
CONTINUOUS
 62
     4
100
AcDbBlockReference
  2
_ARROWFILLED
 10
320.2492615385688
 20
138.8521027794523
 30
0.0
 41
6.0
 42
6.0
 43
6.0
 50
179.9999999999998
  0
INSERT
  5
1FE
330
1F6
100
AcDbEntity
  8
8
  6
CONTINUOUS
 62
     4
100
AcDbBlockReference
  2
_ARROWFILLED
 10
820.2492615385689
 20
138.8521027794523
 30
0.0
 41
6.0
 42
6.0
 43
6.0
 50
359.9999999999997
  0
ENDBLK
  5
1F8
330
1F6
100
AcDbEntity
  8
0
100
AcDbBlockEnd
  0
BLOCK
  5
201
330
200
100
AcDbEntity
  8
0
100
AcDbBlockBegin
  2
DIM7
 70
     0
 10
0.0
 20
0.0
 30
0.0
  3
DIM7
  1

  0
LINE
  5
203
330
200
100
AcDbEntity
  8
8
  6
CONTINUOUS
 62
     4
100
AcDbLine
 10
305.249261538569
 20
210.8521027794523
 30
0.0
 11
305.2492615385688
 21
110.3521027794523
 31
0.0
  0
LINE
  5
204
330
200
100
AcDbEntity
  8
8
  6
CONTINUOUS
 62
     4
100
AcDbLine
 10
835.249261538569
 20
210.8521027794523
 30
0.0
 11
835.2492615385689
 21
110.3521027794523
 31
0.0
  0
LINE
  5
205
330
200
100
AcDbEntity
  8
8
  6
CONTINUOUS
 62
     4
100
AcDbLine
 10
305.2492615385688
 20
114.8521027794523
 30
0.0
 11
835.2492615385689
 21
114.8521027794523
 31
0.0
  0
MTEXT
  5
206
330
200
100
AcDbEntity
  8
8
  6
CONTINUOUS
 62
     4
100
AcDbMText
 10
570.249261538569
 20
114.8521027794523
 30
0.0
 40
9.0
 41
115.7142857142857
 71
     8
 72
     1
  1
530
  7
ＭＳ_ゴシック
1001
ACAD
1000
ACAD_MTEXT_DEFINED_HEIGHT_BEGIN
1070
    46
1040
9.0
1000
ACAD_MTEXT_DEFINED_HEIGHT_END
  0
INSERT
  5
207
330
200
100
AcDbEntity
  8
8
  6
CONTINUOUS
 62
     4
100
AcDbBlockReference
  2
_ARROWFILLED
 10
305.2492615385688
 20
114.8521027794523
 30
0.0
 41
6.0
 42
6.0
 43
6.0
 50
179.9999999999998
  0
INSERT
  5
208
330
200
100
AcDbEntity
  8
8
  6
CONTINUOUS
 62
     4
100
AcDbBlockReference
  2
_ARROWFILLED
 10
835.2492615385689
 20
114.8521027794523
 30
0.0
 41
6.0
 42
6.0
 43
6.0
 50
359.9999999999997
  0
ENDBLK
  5
202
330
200
100
AcDbEntity
  8
0
100
AcDbBlockEnd
  0
BLOCK
  5
20B
330
20A
100
AcDbEntity
  8
0
100
AcDbBlockBegin
  2
DIM8
 70
     0
 10
0.0
 20
0.0
 30
0.0
  3
DIM8
  1

  0
LINE
  5
20D
330
20A
100
AcDbEntity
  8
8
  6
CONTINUOUS
 62
     4
100
AcDbLine
 10
317.249261538569
 20
228.8521027794523
 30
0.0
 11
276.749261538569
 21
228.8521027794524
 31
0.0
  0
LINE
  5
20E
330
20A
100
AcDbEntity
  8
8
  6
CONTINUOUS
 62
     4
100
AcDbLine
 10
317.249261538569
 20
628.8521027794523
 30
0.0
 11
276.749261538569
 21
628.8521027794524
 31
0.0
  0
LINE
  5
20F
330
20A
100
AcDbEntity
  8
8
  6
CONTINUOUS
 62
     4
100
AcDbLine
 10
281.249261538569
 20
228.8521027794524
 30
0.0
 11
281.249261538569
 21
628.8521027794524
 31
0.0
  0
MTEXT
  5
210
330
20A
100
AcDbEntity
  8
8
  6
CONTINUOUS
 62
     4
100
AcDbMText
 10
281.249261538569
 20
428.8521027794523
 30
0.0
 40
9.0
 41
115.7142857142857
 71
     8
 72
     1
  1
400
  7
ＭＳ_ゴシック
 11
1.615544574432587E-15
 21
1.0
 31
0.0
1001
ACAD
1000
ACAD_MTEXT_DEFINED_HEIGHT_BEGIN
1070
    46
1040
9.0
1000
ACAD_MTEXT_DEFINED_HEIGHT_END
  0
INSERT
  5
211
330
20A
100
AcDbEntity
  8
8
  6
CONTINUOUS
 62
     4
100
AcDbBlockReference
  2
_ARROWFILLED
 10
281.249261538569
 20
228.8521027794524
 30
0.0
 41
6.0
 42
6.0
 43
6.0
 50
269.9999999999998
  0
INSERT
  5
212
330
20A
100
AcDbEntity
  8
8
  6
CONTINUOUS
 62
     4
100
AcDbBlockReference
  2
_ARROWFILLED
 10
281.249261538569
 20
628.8521027794524
 30
0.0
 41
6.0
 42
6.0
 43
6.0
 50
89.99999999999991
  0
ENDBLK
  5
20C
330
20A
100
AcDbEntity
  8
0
100
AcDbBlockEnd
  0
BLOCK
  5
215
330
214
100
AcDbEntity
  8
0
100
AcDbBlockBegin
  2
DIM9
 70
     0
 10
0.0
 20
0.0
 30
0.0
  3
DIM9
  1

  0
LINE
  5
217
330
214
100
AcDbEntity
  8
8
  6
CONTINUOUS
 62
     4
100
AcDbLine
 10
302.249261538569
 20
643.8521027794523
 30
0.0
 11
252.749261538569
 21
643.8521027794524
 31
0.0
  0
LINE
  5
218
330
214
100
AcDbEntity
  8
8
  6
CONTINUOUS
 62
     4
100
AcDbLine
 10
302.249261538569
 20
213.8521027794523
 30
0.0
 11
252.749261538569
 21
213.8521027794525
 31
0.0
  0
LINE
  5
219
330
214
100
AcDbEntity
  8
8
  6
CONTINUOUS
 62
     4
100
AcDbLine
 10
257.249261538569
 20
643.8521027794524
 30
0.0
 11
257.249261538569
 21
213.8521027794525
 31
0.0
  0
MTEXT
  5
21A
330
214
100
AcDbEntity
  8
8
  6
CONTINUOUS
 62
     4
100
AcDbMText
 10
257.249261538569
 20
428.8521027794524
 30
0.0
 40
9.0
 41
115.7142857142857
 71
     8
 72
     1
  1
430
  7
ＭＳ_ゴシック
 11
1.615544574432587E-15
 21
1.0
 31
0.0
1001
ACAD
1000
ACAD_MTEXT_DEFINED_HEIGHT_BEGIN
1070
    46
1040
9.0
1000
ACAD_MTEXT_DEFINED_HEIGHT_END
  0
INSERT
  5
21B
330
214
100
AcDbEntity
  8
8
  6
CONTINUOUS
 62
     4
100
AcDbBlockReference
  2
_ARROWFILLED
 10
257.249261538569
 20
643.8521027794524
 30
0.0
 41
6.0
 42
6.0
 43
6.0
 50
89.99999999999991
  0
INSERT
  5
21C
330
214
100
AcDbEntity
  8
8
  6
CONTINUOUS
 62
     4
100
AcDbBlockReference
  2
_ARROWFILLED
 10
257.249261538569
 20
213.8521027794525
 30
0.0
 41
6.0
 42
6.0
 43
6.0
 50
269.9999999999998
  0
ENDBLK
  5
216
330
214
100
AcDbEntity
  8
0
100
AcDbBlockEnd
  0
BLOCK
  5
21F
330
21E
100
AcDbEntity
  8
0
100
AcDbBlockBegin
  2
DIM10
 70
     0
 10
0.0
 20
0.0
 30
0.0
  3
DIM10
  1

  0
LINE
  5
221
330
21E
100
AcDbEntity
  8
8
  6
CONTINUOUS
 62
     4
100
AcDbLine
 10
835.249261538569
 20
210.8521027794523
 30
0.0
 11
835.2492615385689
 21
110.3521027794523
 31
0.0
  0
LINE
  5
222
330
21E
100
AcDbEntity
  8
8
  6
CONTINUOUS
 62
     4
100
AcDbLine
 10
870.2492615385727
 20
402.8521027794541
 30
0.0
 11
870.2492615385722
 21
110.3521027794523
 31
0.0
  0
LINE
  5
223
330
21E
100
AcDbEntity
  8
8
  6
CONTINUOUS
 62
     4
100
AcDbLine
 10
835.2492615385689
 20
114.8521027794523
 30
0.0
 11
870.2492615385722
 21
114.8521027794523
 31
0.0
  0
MTEXT
  5
224
330
21E
100
AcDbEntity
  8
8
  6
CONTINUOUS
 62
     4
100
AcDbMText
 10
852.7492615385709
 20
114.8521027794523
 30
0.0
 40
9.0
 41
72.85714285714286
 71
     8
 72
     1
  1
35
  7
ＭＳ_ゴシック
1001
ACAD
1000
ACAD_MTEXT_DEFINED_HEIGHT_BEGIN
1070
    46
1040
9.0
1000
ACAD_MTEXT_DEFINED_HEIGHT_END
  0
INSERT
  5
225
330
21E
100
AcDbEntity
  8
8
  6
CONTINUOUS
 62
     4
100
AcDbBlockReference
  2
_ARROWFILLED
 10
835.2492615385689
 20
114.8521027794523
 30
0.0
 41
6.0
 42
6.0
 43
6.0
 50
179.9999999999998
  0
INSERT
  5
226
330
21E
100
AcDbEntity
  8
8
  6
CONTINUOUS
 62
     4
100
AcDbBlockReference
  2
_ARROWFILLED
 10
870.2492615385722
 20
114.8521027794523
 30
0.0
 41
6.0
 42
6.0
 43
6.0
 50
359.9999999999997
  0
ENDBLK
  5
220
330
21E
100
AcDbEntity
  8
0
100
AcDbBlockEnd
  0
BLOCK
  5
229
330
228
100
AcDbEntity
  8
0
100
AcDbBlockBegin
  2
DIM11
 70
     0
 10
0.0
 20
0.0
 30
0.0
  3
DIM11
  1

  0
LINE
  5
22B
330
228
100
AcDbEntity
  8
8
  6
CONTINUOUS
 62
     4
100
AcDbLine
 10
322.249261538569
 20
658.8521027794523
 30
0.0
 11
204.749261538569
 21
658.8521027794526
 31
0.0
  0
LINE
  5
22C
330
228
100
AcDbEntity
  8
8
  6
CONTINUOUS
 62
     4
100
AcDbLine
 10
322.249261538569
 20
198.8521027794541
 30
0.0
 11
204.749261538569
 21
198.8521027794545
 31
0.0
  0
LINE
  5
22D
330
228
100
AcDbEntity
  8
8
  6
CONTINUOUS
 62
     4
100
AcDbLine
 10
209.249261538569
 20
658.8521027794526
 30
0.0
 11
209.249261538569
 21
198.8521027794545
 31
0.0
  0
MTEXT
  5
22E
330
228
100
AcDbEntity
  8
8
  6
CONTINUOUS
 62
     4
100
AcDbMText
 10
209.249261538569
 20
428.8521027794523
 30
0.0
 40
9.0
 41
115.7142857142857
 71
     8
 72
     1
  1
460
  7
ＭＳ_ゴシック
 11
1.615544574432587E-15
 21
1.0
 31
0.0
1001
ACAD
1000
ACAD_MTEXT_DEFINED_HEIGHT_BEGIN
1070
    46
1040
9.0
1000
ACAD_MTEXT_DEFINED_HEIGHT_END
  0
INSERT
  5
22F
330
228
100
AcDbEntity
  8
8
  6
CONTINUOUS
 62
     4
100
AcDbBlockReference
  2
_ARROWFILLED
 10
209.249261538569
 20
658.8521027794526
 30
0.0
 41
6.0
 42
6.0
 43
6.0
 50
89.99999999999991
  0
INSERT
  5
230
330
228
100
AcDbEntity
  8
8
  6
CONTINUOUS
 62
     4
100
AcDbBlockReference
  2
_ARROWFILLED
 10
209.249261538569
 20
198.8521027794545
 30
0.0
 41
6.0
 42
6.0
 43
6.0
 50
269.9999999999998
  0
ENDBLK
  5
22A
330
228
100
AcDbEntity
  8
0
100
AcDbBlockEnd
  0
BLOCK
  5
233
330
232
100
AcDbEntity
  8
0
100
AcDbBlockBegin
  2
DIM12
 70
     0
 10
0.0
 20
0.0
 30
0.0
  3
DIM12
  1

  0
LINE
  5
235
330
232
100
AcDbEntity
  8
8
  6
CONTINUOUS
 62
     4
100
AcDbLine
 10
996.159231708798
 20
210.8521027794523
 30
0.0
 11
996.1592317087978
 21
110.3521027794523
 31
0.0
  0
LINE
  5
236
330
232
100
AcDbEntity
  8
8
  6
CONTINUOUS
 62
     4
100
AcDbLine
 10
1041.159231708798
 20
195.8521027794523
 30
0.0
 11
1041.159231708798
 21
110.3521027794523
 31
0.0
  0
LINE
  5
237
330
232
100
AcDbEntity
  8
8
  6
CONTINUOUS
 62
     4
100
AcDbLine
 10
996.1592317087978
 20
114.8521027794523
 30
0.0
 11
1041.159231708798
 21
114.8521027794523
 31
0.0
  0
MTEXT
  5
238
330
232
100
AcDbEntity
  8
8
  6
CONTINUOUS
 62
     4
100
AcDbMText
 10
1018.659231708798
 20
114.8521027794523
 30
0.0
 40
9.0
 41
72.85714285714286
 71
     8
 72
     1
  1
45
  7
ＭＳ_ゴシック
1001
ACAD
1000
ACAD_MTEXT_DEFINED_HEIGHT_BEGIN
1070
    46
1040
9.0
1000
ACAD_MTEXT_DEFINED_HEIGHT_END
  0
INSERT
  5
239
330
232
100
AcDbEntity
  8
8
  6
CONTINUOUS
 62
     4
100
AcDbBlockReference
  2
_ARROWFILLED
 10
996.1592317087978
 20
114.8521027794523
 30
0.0
 41
6.0
 42
6.0
 43
6.0
 50
179.9999999999998
  0
INSERT
  5
23A
330
232
100
AcDbEntity
  8
8
  6
CONTINUOUS
 62
     4
100
AcDbBlockReference
  2
_ARROWFILLED
 10
1041.159231708798
 20
114.8521027794523
 30
0.0
 41
6.0
 42
6.0
 43
6.0
 50
359.9999999999997
  0
ENDBLK
  5
234
330
232
100
AcDbEntity
  8
0
100
AcDbBlockEnd
  0
BLOCK
  5
23D
330
23C
100
AcDbEntity
  8
0
100
AcDbBlockBegin
  2
DIM13
 70
     0
 10
0.0
 20
0.0
 30
0.0
  3
DIM13
  1

  0
LINE
  5
23F
330
23C
100
AcDbEntity
  8
8
  6
CONTINUOUS
 62
     4
100
AcDbLine
 10
1040.159231708799
 20
195.8521027794523
 30
0.0
 11
1040.159231708799
 21
158.3521027794523
 31
0.0
  0
LINE
  5
240
330
23C
100
AcDbEntity
  8
8
  6
CONTINUOUS
 62
     4
100
AcDbLine
 10
1041.159231708798
 20
195.8521027794523
 30
0.0
 11
1041.159231708798
 21
158.3521027794523
 31
0.0
  0
LINE
  5
241
330
23C
100
AcDbEntity
  8
8
  6
CONTINUOUS
 62
     4
100
AcDbLine
 10
1028.159231708799
 20
162.8521027794523
 30
0.0
 11
1059.909231708799
 21
162.8521027794523
 31
0.0
  0
MTEXT
  5
242
330
23C
100
AcDbEntity
  8
8
  6
CONTINUOUS
 62
     4
100
AcDbMText
 10
1055.409231708799
 20
162.8521027794523
 30
0.0
 40
9.0
 41
10.71428571428572
 71
     7
 72
     1
  1
1
  7
ＭＳ_ゴシック
1001
ACAD
1000
ACAD_MTEXT_DEFINED_HEIGHT_BEGIN
1070
    46
1040
9.0
1000
ACAD_MTEXT_DEFINED_HEIGHT_END
  0
INSERT
  5
243
330
23C
100
AcDbEntity
  8
8
  6
CONTINUOUS
 62
     4
100
AcDbBlockReference
  2
_ARROWFILLED
 10
1040.159231708799
 20
162.8521027794523
 30
0.0
 41
6.0
 42
6.0
 43
6.0
 50
359.9999999999997
  0
INSERT
  5
244
330
23C
100
AcDbEntity
  8
8
  6
CONTINUOUS
 62
     4
100
AcDbBlockReference
  2
_ARROWFILLED
 10
1041.159231708798
 20
162.8521027794523
 30
0.0
 41
6.0
 42
6.0
 43
6.0
 50
179.9999999999995
  0
ENDBLK
  5
23E
330
23C
100
AcDbEntity
  8
0
100
AcDbBlockEnd
  0
BLOCK
  5
247
330
246
100
AcDbEntity
  8
0
100
AcDbBlockBegin
  2
DIM14
 70
     0
 10
0.0
 20
0.0
 30
0.0
  3
DIM14
  1

  0
LINE
  5
249
330
246
100
AcDbEntity
  8
8
  6
CONTINUOUS
 62
     4
100
AcDbLine
 10
1041.159231708798
 20
195.8521027794523
 30
0.0
 11
1041.159231708798
 21
134.3521027794523
 31
0.0
  0
LINE
  5
24A
330
246
100
AcDbEntity
  8
8
  6
CONTINUOUS
 62
     4
100
AcDbLine
 10
1007.659231708799
 20
402.8521027794523
 30
0.0
 11
1007.659231708799
 21
134.3521027794523
 31
0.0
  0
LINE
  5
24B
330
246
100
AcDbEntity
  8
8
  6
CONTINUOUS
 62
     4
100
AcDbLine
 10
1041.159231708798
 20
138.8521027794523
 30
0.0
 11
1007.659231708799
 21
138.8521027794523
 31
0.0
  0
MTEXT
  5
24C
330
246
100
AcDbEntity
  8
8
  6
CONTINUOUS
 62
     4
100
AcDbMText
 10
1024.409231708798
 20
138.8521027794523
 30
0.0
 40
9.0
 41
137.1428571428571
 71
     8
 72
     1
  1
33.5
  7
ＭＳ_ゴシック
1001
ACAD
1000
ACAD_MTEXT_DEFINED_HEIGHT_BEGIN
1070
    46
1040
9.0
1000
ACAD_MTEXT_DEFINED_HEIGHT_END
  0
INSERT
  5
24D
330
246
100
AcDbEntity
  8
8
  6
CONTINUOUS
 62
     4
100
AcDbBlockReference
  2
_ARROWFILLED
 10
1041.159231708798
 20
138.8521027794523
 30
0.0
 41
6.0
 42
6.0
 43
6.0
 50
359.9999999999997
  0
INSERT
  5
24E
330
246
100
AcDbEntity
  8
8
  6
CONTINUOUS
 62
     4
100
AcDbBlockReference
  2
_ARROWFILLED
 10
1007.659231708799
 20
138.8521027794523
 30
0.0
 41
6.0
 42
6.0
 43
6.0
 50
179.9999999999998
  0
ENDBLK
  5
248
330
246
100
AcDbEntity
  8
0
100
AcDbBlockEnd
  0
BLOCK
  5
251
330
250
100
AcDbEntity
  8
0
100
AcDbBlockBegin
  2
DIM15
 70
     0
 10
0.0
 20
0.0
 30
0.0
  3
DIM15
  1

  0
LINE
  5
253
330
250
100
AcDbEntity
  8
8
  6
CONTINUOUS
 62
     4
100
AcDbLine
 10
331.6492615385687
 20
205.8521027794523
 30
0.0
 11
228.749261538569
 21
205.8521027794527
 31
0.0
  0
LINE
  5
254
330
250
100
AcDbEntity
  8
8
  6
CONTINUOUS
 62
     4
100
AcDbLine
 10
331.6492615385687
 20
651.8521027794504
 30
0.0
 11
228.749261538569
 21
651.8521027794508
 31
0.0
  0
LINE
  5
255
330
250
100
AcDbEntity
  8
8
  6
CONTINUOUS
 62
     4
100
AcDbLine
 10
233.249261538569
 20
205.8521027794527
 30
0.0
 11
233.249261538569
 21
651.8521027794508
 31
0.0
  0
MTEXT
  5
256
330
250
100
AcDbEntity
  8
8
  6
CONTINUOUS
 62
     4
100
AcDbMText
 10
233.249261538569
 20
428.8521027794523
 30
0.0
 40
9.0
 41
115.7142857142857
 71
     8
 72
     1
  1
446
  7
ＭＳ_ゴシック
 11
1.615544574432587E-15
 21
1.0
 31
0.0
1001
ACAD
1000
ACAD_MTEXT_DEFINED_HEIGHT_BEGIN
1070
    46
1040
9.0
1000
ACAD_MTEXT_DEFINED_HEIGHT_END
  0
INSERT
  5
257
330
250
100
AcDbEntity
  8
8
  6
CONTINUOUS
 62
     4
100
AcDbBlockReference
  2
_ARROWFILLED
 10
233.249261538569
 20
205.8521027794527
 30
0.0
 41
6.0
 42
6.0
 43
6.0
 50
269.9999999999998
  0
INSERT
  5
258
330
250
100
AcDbEntity
  8
8
  6
CONTINUOUS
 62
     4
100
AcDbBlockReference
  2
_ARROWFILLED
 10
233.249261538569
 20
651.8521027794508
 30
0.0
 41
6.0
 42
6.0
 43
6.0
 50
89.99999999999991
  0
ENDBLK
  5
252
330
250
100
AcDbEntity
  8
0
100
AcDbBlockEnd
  0
BLOCK
  5
25B
330
25A
100
AcDbEntity
  8
0
100
AcDbBlockBegin
  2
DIM16
 70
     0
 10
0.0
 20
0.0
 30
0.0
  3
DIM16
  1

  0
LINE
  5
25D
330
25A
100
AcDbEntity
  8
8
  6
CONTINUOUS
 62
     4
100
AcDbLine
 10
457.7495125969517
 20
192.2521027794519
 30
0.0
 11
457.7495125969517
 21
158.3521027794523
 31
0.0
  0
LINE
  5
25E
330
25A
100
AcDbEntity
  8
8
  6
CONTINUOUS
 62
     4
100
AcDbLine
 10
570.249261538569
 20
180.8521027794523
 30
0.0
 11
570.249261538569
 21
158.3521027794523
 31
0.0
  0
LINE
  5
25F
330
25A
100
AcDbEntity
  8
8
  6
CONTINUOUS
 62
     4
100
AcDbLine
 10
457.7495125969517
 20
162.8521027794523
 30
0.0
 11
570.249261538569
 21
162.8521027794523
 31
0.0
  0
MTEXT
  5
260
330
25A
100
AcDbEntity
  8
8
  6
CONTINUOUS
 62
     4
100
AcDbMText
 10
513.9993870677604
 20
162.8521027794523
 30
0.0
 40
9.0
 41
173.5714285714286
 71
     8
 72
     1
  1
112.5
  7
ＭＳ_ゴシック
1001
ACAD
1000
ACAD_MTEXT_DEFINED_HEIGHT_BEGIN
1070
    46
1040
9.0
1000
ACAD_MTEXT_DEFINED_HEIGHT_END
  0
INSERT
  5
261
330
25A
100
AcDbEntity
  8
8
  6
CONTINUOUS
 62
     4
100
AcDbBlockReference
  2
_ARROWFILLED
 10
457.7495125969517
 20
162.8521027794523
 30
0.0
 41
6.0
 42
6.0
 43
6.0
 50
179.9999999999998
  0
INSERT
  5
262
330
25A
100
AcDbEntity
  8
8
  6
CONTINUOUS
 62
     4
100
AcDbBlockReference
  2
_ARROWFILLED
 10
570.249261538569
 20
162.8521027794523
 30
0.0
 41
6.0
 42
6.0
 43
6.0
 50
359.9999999999997
  0
ENDBLK
  5
25C
330
25A
100
AcDbEntity
  8
0
100
AcDbBlockEnd
  0
ENDSEC
  0
SECTION
  2
ENTITIES
  0
POLYLINE
  5
A1
330
1F
100
AcDbEntity
  8
9
  6
CONTINUOUS
 62
     7
100
AcDb2dPolyline
 66
     1
 10
0.0
 20
0.0
 30
0.0
  0
VERTEX
  5
A2
330
A1
100
AcDbEntity
  8
9
  6
CONTINUOUS
 62
     7
100
AcDbVertex
100
AcDb2dVertex
 10
820.249261538569
 20
228.8521027794523
 30
0.0
  0
VERTEX
  5
A3
330
A1
100
AcDbEntity
  8
9
  6
CONTINUOUS
 62
     7
100
AcDbVertex
100
AcDb2dVertex
 10
820.249261538569
 20
628.8521027794523
 30
0.0
  0
VERTEX
  5
A4
330
A1
100
AcDbEntity
  8
9
  6
CONTINUOUS
 62
     7
100
AcDbVertex
100
AcDb2dVertex
 10
320.249261538569
 20
628.8521027794523
 30
0.0
  0
VERTEX
  5
A5
330
A1
100
AcDbEntity
  8
9
  6
CONTINUOUS
 62
     7
100
AcDbVertex
100
AcDb2dVertex
 10
320.249261538569
 20
228.8521027794523
 30
0.0
  0
VERTEX
  5
A6
330
A1
100
AcDbEntity
  8
9
  6
CONTINUOUS
 62
     7
100
AcDbVertex
100
AcDb2dVertex
 10
820.249261538569
 20
228.8521027794523
 30
0.0
  0
SEQEND
  5
A7
330
A1
100
AcDbEntity
  8
9
  6
CONTINUOUS
 62
     7
  0
LINE
  5
A8
330
1F
100
AcDbEntity
  8
9
  6
CONTINUOUS
 62
     7
100
AcDbLine
 10
835.249261538569
 20
643.8521027794523
 30
0.0
 11
835.249261538569
 21
213.8521027794523
 31
0.0
  0
LINE
  5
A9
330
1F
100
AcDbEntity
  8
9
  6
CONTINUOUS
 62
     7
100
AcDbLine
 10
835.249261538569
 20
213.8521027794523
 30
0.0
 11
305.249261538569
 21
213.8521027794523
 31
0.0
  0
LINE
  5
AA
330
1F
100
AcDbEntity
  8
9
  6
CONTINUOUS
 62
     7
100
AcDbLine
 10
835.249261538569
 20
643.8521027794523
 30
0.0
 11
305.249261538569
 21
643.8521027794523
 31
0.0
  0
LINE
  5
AB
330
1F
100
AcDbEntity
  8
9
  6
CONTINUOUS
 62
     7
100
AcDbLine
 10
305.249261538569
 20
643.8521027794523
 30
0.0
 11
305.249261538569
 21
213.8521027794523
 31
0.0
  0
LINE
  5
AC
330
1F
100
AcDbEntity
  8
9
  6
CONTINUOUS
 62
     7
100
AcDbLine
 10
1034.6092317088
 20
213.5354361127866
 30
0.0
 11
1027.709231708798
 21
213.5354361127866
 31
0.0
  0
ARC
  5
AD
330
1F
100
AcDbEntity
  8
9
  6
CONTINUOUS
 62
     7
100
AcDbCircle
 10
1031.159231708798
 20
216.5024536566452
 30
0.0
 40
4.550350877193068
100
AcDbArc
 50
220.6956985254509
 51
319.3043014745485
  0
LINE
  5
AE
330
1F
100
AcDbEntity
  8
9
  6
CONTINUOUS
 62
     7
100
AcDbLine
 10
1034.6092317088
 20
213.8521027794541
 30
0.0
 11
1034.6092317088
 21
213.5354361127866
 31
0.0
  0
LINE
  5
AF
330
1F
100
AcDbEntity
  8
9
  6
CONTINUOUS
 62
     7
100
AcDbLine
 10
1027.709231708798
 20
213.8521027794541
 30
0.0
 11
1027.709231708798
 21
213.5354361127866
 31
0.0
  0
LINE
  5
B0
330
1F
100
AcDbEntity
  8
9
  6
CONTINUOUS
 62
     7
100
AcDbLine
 10
996.159231708798
 20
643.8521027794523
 30
0.0
 11
996.159231708798
 21
213.8521027794523
 31
0.0
  0
LINE
  5
B1
330
1F
100
AcDbEntity
  8
9
  6
CONTINUOUS
 62
     7
100
AcDbLine
 10
1041.159231708798
 20
658.8521027794523
 30
0.0
 11
1041.159231708798
 21
198.8521027794523
 31
0.0
  0
LINE
  5
B2
330
1F
100
AcDbEntity
  8
9
  6
CONTINUOUS
 62
     7
100
AcDbLine
 10
1040.159231708799
 20
658.8521027794523
 30
0.0
 11
1040.159231708799
 21
198.8521027794523
 31
0.0
  0
LINE
  5
B3
330
1F
100
AcDbEntity
  8
9
  6
CONTINUOUS
 62
     7
100
AcDbLine
 10
1040.159231708799
 20
642.8521027794523
 30
0.0
 11
1041.159231708798
 21
642.8521027794523
 31
0.0
  0
LINE
  5
B4
330
1F
100
AcDbEntity
  8
9
  6
CONTINUOUS
 62
     7
100
AcDbLine
 10
996.159231708798
 20
643.8521027794523
 30
0.0
 11
1040.159231708799
 21
643.8521027794523
 31
0.0
  0
LINE
  5
B5
330
1F
100
AcDbEntity
  8
9
  6
CONTINUOUS
 62
     7
100
AcDbLine
 10
1040.159231708799
 20
658.8521027794523
 30
0.0
 11
1041.159231708798
 21
658.8521027794523
 31
0.0
  0
LINE
  5
B6
330
1F
100
AcDbEntity
  8
9
  6
CONTINUOUS
 62
     7
100
AcDbLine
 10
1040.159231708799
 20
214.8521027794523
 30
0.0
 11
1041.159231708798
 21
214.8521027794523
 31
0.0
  0
LINE
  5
B7
330
1F
100
AcDbEntity
  8
9
  6
CONTINUOUS
 62
     7
100
AcDbLine
 10
996.159231708798
 20
213.8521027794523
 30
0.0
 11
1040.159231708799
 21
213.8521027794541
 31
0.0
  0
LINE
  5
B8
330
1F
100
AcDbEntity
  8
9
  6
CONTINUOUS
 62
     7
100
AcDbLine
 10
1040.159231708799
 20
198.8521027794523
 30
0.0
 11
1041.159231708798
 21
198.8521027794523
 31
0.0
  0
LINE
  5
B9
330
1F
100
AcDbEntity
  8
9
  6
CONTINUOUS
 62
     7
100
AcDbLine
 10
820.249261538569
 20
203.8521027794523
 30
0.0
 11
820.249261538569
 21
213.8521027794523
 31
0.0
  0
ARC
  5
BA
330
1F
100
AcDbEntity
  8
9
  6
CONTINUOUS
 62
     7
100
AcDbCircle
 10
815.249261538569
 20
203.8521027794523
 30
0.0
 40
5.0
100
AcDbArc
 50
269.9999999999998
 51
0.0
  0
LINE
  5
BB
330
1F
100
AcDbEntity
  8
9
  6
CONTINUOUS
 62
     7
100
AcDbLine
 10
325.249261538569
 20
198.8521027794523
 30
0.0
 11
815.249261538569
 21
198.8521027794541
 31
0.0
  0
LINE
  5
BC
330
1F
100
AcDbEntity
  8
9
  6
CONTINUOUS
 62
     7
100
AcDbLine
 10
320.249261538569
 20
203.8521027794523
 30
0.0
 11
320.249261538569
 21
213.8521027794523
 31
0.0
  0
ARC
  5
BD
330
1F
100
AcDbEntity
  8
9
  6
CONTINUOUS
 62
     7
100
AcDbCircle
 10
325.249261538569
 20
203.8521027794523
 30
0.0
 40
5.0
100
AcDbArc
 50
179.9999999999998
 51
269.9999999999998
  0
LINE
  5
BE
330
1F
100
AcDbEntity
  8
9
  6
CONTINUOUS
 62
     7
100
AcDbLine
 10
815.249261538569
 20
658.8521027794523
 30
0.0
 11
325.249261538569
 21
658.8521027794523
 31
0.0
  0
LINE
  5
BF
330
1F
100
AcDbEntity
  8
9
  6
CONTINUOUS
 62
     7
100
AcDbLine
 10
820.249261538569
 20
653.8521027794523
 30
0.0
 11
820.249261538569
 21
643.8521027794523
 31
0.0
  0
ARC
  5
C0
330
1F
100
AcDbEntity
  8
9
  6
CONTINUOUS
 62
     7
100
AcDbCircle
 10
815.2492615385709
 20
653.8521027794523
 30
0.0
 40
5.0
100
AcDbArc
 50
0.0
 51
89.99999999999991
  0
LINE
  5
C1
330
1F
100
AcDbEntity
  8
9
  6
CONTINUOUS
 62
     7
100
AcDbLine
 10
320.249261538569
 20
653.8521027794523
 30
0.0
 11
320.249261538569
 21
643.8521027794523
 31
0.0
  0
ARC
  5
C2
330
1F
100
AcDbEntity
  8
9
  6
CONTINUOUS
 62
     7
100
AcDbCircle
 10
325.249261538569
 20
653.8521027794523
 30
0.0
 40
5.0
100
AcDbArc
 50
89.99999999999991
 51
179.9999999999998
  0
LINE
  5
C3
330
1F
100
AcDbEntity
  8
9
  6
CONTINUOUS
 62
     7
100
AcDbLine
 10
870.2492615385727
 20
405.8521027794541
 30
0.0
 11
870.2492615385727
 21
451.8521027794541
 31
0.0
  0
LINE
  5
C4
330
1F
100
AcDbEntity
  8
9
  6
CONTINUOUS
 62
     7
100
AcDbLine
 10
870.2492615385727
 20
450.3521027794541
 30
0.0
 11
835.249261538569
 21
450.3521027794541
 31
0.0
  0
LINE
  5
C5
330
1F
100
AcDbEntity
  8
9
  6
CONTINUOUS
 62
     7
100
AcDbLine
 10
870.2492615385727
 20
451.8521027794541
 30
0.0
 11
835.2492615385727
 21
451.8521027794541
 31
0.0
  0
LINE
  5
C6
330
1F
100
AcDbEntity
  8
9
  6
CONTINUOUS
 62
     7
100
AcDbLine
 10
870.2492615385727
 20
407.3521027794541
 30
0.0
 11
835.249261538569
 21
407.3521027794541
 31
0.0
  0
LINE
  5
C7
330
1F
100
AcDbEntity
  8
9
  6
CONTINUOUS
 62
     7
100
AcDbLine
 10
870.2492615385727
 20
405.8521027794541
 30
0.0
 11
835.2492615385727
 21
405.8521027794541
 31
0.0
  0
LINE
  5
C8
330
1F
100
AcDbEntity
  8
9
  6
CONTINUOUS
 62
     7
100
AcDbLine
 10
863.0992615385712
 20
401.5860961399831
 30
0.0
 11
863.0992615385712
 21
394.3521027794523
 31
0.0
  0
LINE
  5
C9
330
1F
100
AcDbEntity
  8
11
  6
CONTINUOUS
 62
     2
100
AcDbLine
 10
862.5608000001084
 20
399.0521027794512
 30
0.0
 11
863.0992615385694
 21
399.9847455219897
 31
0.0
  0
LINE
  5
CA
330
1F
100
AcDbEntity
  8
9
  6
CONTINUOUS
 62
     7
100
AcDbLine
 10
862.2992615385701
 20
393.5521027794512
 30
0.0
 11
863.0992615385712
 21
394.3521027794523
 31
0.0
  0
LINE
  5
CB
330
1F
100
AcDbEntity
  8
11
  6
CONTINUOUS
 62
     2
100
AcDbLine
 10
862.5608000001084
 20
399.0521027794512
 30
0.0
 11
862.5608000001084
 21
393.8136412409895
 31
0.0
  0
LINE
  5
CC
330
1F
100
AcDbEntity
  8
9
  6
CONTINUOUS
 62
     7
100
AcDbLine
 10
866.7492615385709
 20
403.5521027794512
 30
0.0
 11
866.7492615385709
 21
405.8521027794523
 31
0.0
  0
LINE
  5
CD
330
1F
100
AcDbEntity
  8
9
  6
CONTINUOUS
 62
     7
100
AcDbLine
 10
837.7492615385709
 20
403.5521027794512
 30
0.0
 11
837.7492615385709
 21
405.8521027794523
 31
0.0
  0
LINE
  5
CE
330
1F
100
AcDbEntity
  8
11
  6
CONTINUOUS
 62
     2
100
AcDbLine
 10
841.9377230770315
 20
399.0521027794512
 30
0.0
 11
841.3992615385705
 21
399.9847455219897
 31
0.0
  0
LINE
  5
CF
330
1F
100
AcDbEntity
  8
9
  6
CONTINUOUS
 62
     7
100
AcDbLine
 10
866.7492615385709
 20
403.5521027794512
 30
0.0
 11
837.7492615385709
 21
403.5521027794512
 31
0.0
  0
LINE
  5
D0
330
1F
100
AcDbEntity
  8
9
  6
CONTINUOUS
 62
     7
100
AcDbLine
 10
841.3992615385705
 20
399.0521027794512
 30
0.0
 11
863.0992615385712
 21
399.0521027794512
 31
0.0
  0
LINE
  5
D1
330
1F
100
AcDbEntity
  8
9
  6
CONTINUOUS
 62
     7
100
AcDbLine
 10
842.1992615385698
 20
393.5521027794512
 30
0.0
 11
841.3992615385705
 21
394.3521027794523
 31
0.0
  0
LINE
  5
D2
330
1F
100
AcDbEntity
  8
9
  6
CONTINUOUS
 62
     7
100
AcDbLine
 10
841.3992615385705
 20
394.3521027794523
 30
0.0
 11
863.0992615385712
 21
394.3521027794523
 31
0.0
  0
LINE
  5
D3
330
1F
100
AcDbEntity
  8
9
  6
CONTINUOUS
 62
     7
100
AcDbLine
 10
841.3992615385705
 20
401.5788176106635
 30
0.0
 11
841.3992615385705
 21
394.3521027794523
 31
0.0
  0
LINE
  5
D4
330
1F
100
AcDbEntity
  8
11
  6
CONTINUOUS
 62
     2
100
AcDbLine
 10
841.9377230770315
 20
399.0521027794512
 30
0.0
 11
841.9377230770315
 21
393.8136412409895
 31
0.0
  0
LINE
  5
D5
330
1F
100
AcDbEntity
  8
9
  6
CONTINUOUS
 62
     7
100
AcDbLine
 10
842.1992615385698
 20
393.5521027794512
 30
0.0
 11
862.2992615385701
 21
393.5521027794512
 31
0.0
  0
ARC
  5
D6
330
1F
100
AcDbEntity
  8
9
  6
CONTINUOUS
 62
     7
100
AcDbCircle
 10
1030.3592317088
 20
578.052102779453
 30
0.0
 40
0.5
100
AcDbArc
 50
0.0
 51
89.99999999999991
  0
ARC
  5
D7
330
1F
100
AcDbEntity
  8
9
  6
CONTINUOUS
 62
     7
100
AcDbCircle
 10
1031.959231708798
 20
578.052102779453
 30
0.0
 40
0.5
100
AcDbArc
 50
89.99999999999991
 51
179.9999999999998
  0
CIRCLE
  5
D8
330
1F
100
AcDbEntity
  8
9
  6
CONTINUOUS
 62
     7
100
AcDbCircle
 10
1031.159231708798
 20
578.8521027794523
 30
0.0
 40
3.450000000000045
  0
LINE
  5
D9
330
1F
100
AcDbEntity
  8
9
  6
CONTINUOUS
 62
     7
100
AcDbLine
 10
1030.8592317088
 20
578.052102779453
 30
0.0
 11
1030.8592317088
 21
577.4021027794515
 31
0.0
  0
LINE
  5
DA
330
1F
100
AcDbEntity
  8
9
  6
CONTINUOUS
 62
     7
100
AcDbLine
 10
1031.459231708798
 20
578.052102779453
 30
0.0
 11
1031.459231708798
 21
577.4021027794515
 31
0.0
  0
LINE
  5
DB
330
1F
100
AcDbEntity
  8
9
  6
CONTINUOUS
 62
     7
100
AcDbLine
 10
1030.8592317088
 20
577.4021027794515
 30
0.0
 11
1031.459231708798
 21
577.4021027794515
 31
0.0
  0
LINE
  5
DC
330
1F
100
AcDbEntity
  8
9
  6
CONTINUOUS
 62
     7
100
AcDbLine
 10
1030.3592317088
 20
579.1521027794515
 30
0.0
 11
1029.709231708798
 21
579.1521027794515
 31
0.0
  0
LINE
  5
DD
330
1F
100
AcDbEntity
  8
9
  6
CONTINUOUS
 62
     7
100
AcDbLine
 10
1030.3592317088
 20
578.552102779453
 30
0.0
 11
1029.709231708798
 21
578.552102779453
 31
0.0
  0
ARC
  5
DE
330
1F
100
AcDbEntity
  8
9
  6
CONTINUOUS
 62
     7
100
AcDbCircle
 10
1031.959231708798
 20
579.6521027794515
 30
0.0
 40
0.5
100
AcDbArc
 50
179.9999999999998
 51
269.9999999999998
  0
ARC
  5
DF
330
1F
100
AcDbEntity
  8
9
  6
CONTINUOUS
 62
     7
100
AcDbCircle
 10
1030.3592317088
 20
579.6521027794515
 30
0.0
 40
0.5
100
AcDbArc
 50
269.9999999999998
 51
0.0
  0
LINE
  5
E0
330
1F
100
AcDbEntity
  8
9
  6
CONTINUOUS
 62
     7
100
AcDbLine
 10
1031.459231708798
 20
579.6521027794515
 30
0.0
 11
1031.459231708798
 21
580.302102779453
 31
0.0
  0
LINE
  5
E1
330
1F
100
AcDbEntity
  8
9
  6
CONTINUOUS
 62
     7
100
AcDbLine
 10
1030.8592317088
 20
579.6521027794515
 30
0.0
 11
1030.8592317088
 21
580.302102779453
 31
0.0
  0
LINE
  5
E2
330
1F
100
AcDbEntity
  8
9
  6
CONTINUOUS
 62
     7
100
AcDbLine
 10
1031.959231708798
 20
579.1521027794515
 30
0.0
 11
1032.6092317088
 21
579.1521027794515
 31
0.0
  0
LINE
  5
E3
330
1F
100
AcDbEntity
  8
9
  6
CONTINUOUS
 62
     7
100
AcDbLine
 10
1031.959231708798
 20
578.552102779453
 30
0.0
 11
1032.6092317088
 21
578.552102779453
 31
0.0
  0
LINE
  5
E4
330
1F
100
AcDbEntity
  8
9
  6
CONTINUOUS
 62
     7
100
AcDbLine
 10
1032.6092317088
 20
578.552102779453
 30
0.0
 11
1032.6092317088
 21
579.1521027794515
 31
0.0
  0
LINE
  5
E5
330
1F
100
AcDbEntity
  8
9
  6
CONTINUOUS
 62
     7
100
AcDbLine
 10
1031.459231708798
 20
580.302102779453
 30
0.0
 11
1030.8592317088
 21
580.302102779453
 31
0.0
  0
LINE
  5
E6
330
1F
100
AcDbEntity
  8
9
  6
CONTINUOUS
 62
     7
100
AcDbLine
 10
1029.709231708798
 20
579.1521027794515
 30
0.0
 11
1029.709231708798
 21
578.552102779453
 31
0.0
  0
LINE
  5
E7
330
1F
100
AcDbEntity
  8
9
  6
CONTINUOUS
 62
     7
100
AcDbLine
 10
866.5382836709196
 20
403.5521027794512
 30
0.0
 11
861.0382836709196
 21
403.5521027794512
 31
0.0
  0
ARC
  5
E8
330
1F
100
AcDbEntity
  8
9
  6
CONTINUOUS
 62
     7
100
AcDbCircle
 10
863.7882836709196
 20
408.5521027794512
 30
0.0
 40
7.0
100
AcDbArc
 50
253.4486439999553
 51
286.5513560000439
  0
LINE
  5
E9
330
1F
100
AcDbEntity
  8
9
  6
CONTINUOUS
 62
     7
100
AcDbLine
 10
866.5382836709196
 20
403.5521027794512
 30
0.0
 11
866.4961616709206
 21
402.7483777794514
 31
0.0
  0
ARC
  5
EA
330
1F
100
AcDbEntity
  8
9
  6
CONTINUOUS
 62
     7
100
AcDbCircle
 10
865.4975316709188
 20
402.8007137794521
 30
0.0
 40
1.0
100
AcDbArc
 50
286.551356000052
 51
356.9999999999939
  0
LINE
  5
EB
330
1F
100
AcDbEntity
  8
9
  6
CONTINUOUS
 62
     7
100
AcDbLine
 10
861.0382836709196
 20
403.5521027794512
 30
0.0
 11
861.0804056709203
 21
402.7483777794514
 31
0.0
  0
ARC
  5
EC
330
1F
100
AcDbEntity
  8
9
  6
CONTINUOUS
 62
     7
100
AcDbCircle
 10
862.0790356709203
 20
402.8007137794521
 30
0.0
 40
1.0
100
AcDbArc
 50
183.0000000000054
 51
253.4486439999472
  0
LINE
  5
ED
330
1F
100
AcDbEntity
  8
9
  6
CONTINUOUS
 62
     7
100
AcDbLine
 10
843.5382836709196
 20
403.5521027794512
 30
0.0
 11
838.0382836709196
 21
403.5521027794512
 31
0.0
  0
ARC
  5
EE
330
1F
100
AcDbEntity
  8
9
  6
CONTINUOUS
 62
     7
100
AcDbCircle
 10
840.7882836709196
 20
408.5521027794512
 30
0.0
 40
7.0
100
AcDbArc
 50
253.4486439999553
 51
286.5513560000439
  0
LINE
  5
EF
330
1F
100
AcDbEntity
  8
9
  6
CONTINUOUS
 62
     7
100
AcDbLine
 10
843.5382836709196
 20
403.5521027794512
 30
0.0
 11
843.4961616709206
 21
402.7483777794514
 31
0.0
  0
ARC
  5
F0
330
1F
100
AcDbEntity
  8
9
  6
CONTINUOUS
 62
     7
100
AcDbCircle
 10
842.4975316709188
 20
402.8007137794521
 30
0.0
 40
1.0
100
AcDbArc
 50
286.551356000052
 51
356.9999999999939
  0
LINE
  5
F1
330
1F
100
AcDbEntity
  8
9
  6
CONTINUOUS
 62
     7
100
AcDbLine
 10
838.0382836709196
 20
403.5521027794512
 30
0.0
 11
838.0804056709203
 21
402.7483777794514
 31
0.0
  0
ARC
  5
F2
330
1F
100
AcDbEntity
  8
9
  6
CONTINUOUS
 62
     7
100
AcDbCircle
 10
839.0790356709203
 20
402.8007137794521
 30
0.0
 40
1.0
100
AcDbArc
 50
183.0000000000054
 51
253.4486439999472
  0
LINE
  5
F3
330
1F
100
AcDbEntity
  8
9
  6
CONTINUOUS
 62
     7
100
AcDbLine
 10
318.6992615385698
 20
213.5354361127847
 30
0.0
 11
311.799261538572
 21
213.5354361127847
 31
0.0
  0
ARC
  5
F4
330
1F
100
AcDbEntity
  8
9
  6
CONTINUOUS
 62
     7
100
AcDbCircle
 10
315.2492615385709
 20
216.5024536566452
 30
0.0
 40
4.550350877192955
100
AcDbArc
 50
220.6956985254501
 51
319.3043014745492
  0
LINE
  5
F5
330
1F
100
AcDbEntity
  8
9
  6
CONTINUOUS
 62
     7
100
AcDbLine
 10
318.6992615385698
 20
213.8521027794523
 30
0.0
 11
318.6992615385698
 21
213.5354361127847
 31
0.0
  0
LINE
  5
F6
330
1F
100
AcDbEntity
  8
9
  6
CONTINUOUS
 62
     7
100
AcDbLine
 10
311.799261538572
 20
213.8521027794523
 30
0.0
 11
311.799261538572
 21
213.5354361127847
 31
0.0
  0
LINE
  5
F7
330
1F
100
AcDbEntity
  8
9
  6
CONTINUOUS
 62
     7
100
AcDbLine
 10
340.1992615385698
 20
213.5354361127847
 30
0.0
 11
333.299261538572
 21
213.5354361127847
 31
0.0
  0
ARC
  5
F8
330
1F
100
AcDbEntity
  8
9
  6
CONTINUOUS
 62
     7
100
AcDbCircle
 10
336.7492615385709
 20
216.5024536566452
 30
0.0
 40
4.550350877192955
100
AcDbArc
 50
220.6956985254501
 51
319.3043014745492
  0
LINE
  5
F9
330
1F
100
AcDbEntity
  8
9
  6
CONTINUOUS
 62
     7
100
AcDbLine
 10
340.1992615385698
 20
213.8521027794523
 30
0.0
 11
340.1992615385698
 21
213.5354361127847
 31
0.0
  0
LINE
  5
FA
330
1F
100
AcDbEntity
  8
9
  6
CONTINUOUS
 62
     7
100
AcDbLine
 10
333.299261538572
 20
213.8521027794523
 30
0.0
 11
333.299261538572
 21
213.5354361127847
 31
0.0
  0
LINE
  5
FB
330
1F
100
AcDbEntity
  8
9
  6
CONTINUOUS
 62
     7
100
AcDbLine
 10
835.5659282052384
 20
463.4021027794515
 30
0.0
 11
835.5659282052384
 21
470.302102779453
 31
0.0
  0
ARC
  5
FC
330
1F
100
AcDbEntity
  8
9
  6
CONTINUOUS
 62
     7
100
AcDbCircle
 10
832.5989106613779
 20
466.8521027794523
 30
0.0
 40
4.550350877192955
100
AcDbArc
 50
310.6956985252882
 51
49.30430147471147
  0
LINE
  5
FD
330
1F
100
AcDbEntity
  8
9
  6
CONTINUOUS
 62
     7
100
AcDbLine
 10
835.2492615385709
 20
463.4021027794515
 30
0.0
 11
835.5659282052384
 21
463.4021027794515
 31
0.0
  0
LINE
  5
FE
330
1F
100
AcDbEntity
  8
9
  6
CONTINUOUS
 62
     7
100
AcDbLine
 10
835.2492615385709
 20
470.302102779453
 30
0.0
 11
835.5659282052384
 21
470.302102779453
 31
0.0
  0
LINE
  5
FF
330
1F
100
AcDbEntity
  8
9
  6
CONTINUOUS
 62
     7
100
AcDbLine
 10
821.7992615385683
 20
213.5354361127847
 30
0.0
 11
828.6992615385698
 21
213.5354361127847
 31
0.0
  0
ARC
  5
100
330
1F
100
AcDbEntity
  8
9
  6
CONTINUOUS
 62
     7
100
AcDbCircle
 10
825.249261538569
 20
216.5024536566452
 30
0.0
 40
4.550350877192955
100
AcDbArc
 50
220.6956985254509
 51
319.3043014745485
  0
LINE
  5
101
330
1F
100
AcDbEntity
  8
9
  6
CONTINUOUS
 62
     7
100
AcDbLine
 10
821.7992615385683
 20
213.8521027794523
 30
0.0
 11
821.7992615385683
 21
213.5354361127847
 31
0.0
  0
LINE
  5
102
330
1F
100
AcDbEntity
  8
9
  6
CONTINUOUS
 62
     7
100
AcDbLine
 10
828.6992615385698
 20
213.8521027794523
 30
0.0
 11
828.6992615385698
 21
213.5354361127847
 31
0.0
  0
LINE
  5
103
330
1F
100
AcDbEntity
  8
9
  6
CONTINUOUS
 62
     7
100
AcDbLine
 10
800.2992615385683
 20
213.5354361127847
 30
0.0
 11
807.1992615385698
 21
213.5354361127847
 31
0.0
  0
ARC
  5
104
330
1F
100
AcDbEntity
  8
9
  6
CONTINUOUS
 62
     7
100
AcDbCircle
 10
803.749261538569
 20
216.5024536566452
 30
0.0
 40
4.550350877192955
100
AcDbArc
 50
220.6956985254509
 51
319.3043014745485
  0
LINE
  5
105
330
1F
100
AcDbEntity
  8
9
  6
CONTINUOUS
 62
     7
100
AcDbLine
 10
800.2992615385683
 20
213.8521027794523
 30
0.0
 11
800.2992615385683
 21
213.5354361127847
 31
0.0
  0
LINE
  5
106
330
1F
100
AcDbEntity
  8
9
  6
CONTINUOUS
 62
     7
100
AcDbLine
 10
807.1992615385698
 20
213.8521027794523
 30
0.0
 11
807.1992615385698
 21
213.5354361127847
 31
0.0
  0
LINE
  5
107
330
1F
100
AcDbEntity
  8
9
  6
CONTINUOUS
 62
     7
100
AcDbLine
 10
835.5659282052384
 20
394.3021027794512
 30
0.0
 11
835.5659282052384
 21
387.4021027794515
 31
0.0
  0
ARC
  5
108
330
1F
100
AcDbEntity
  8
9
  6
CONTINUOUS
 62
     7
100
AcDbCircle
 10
832.5989106613779
 20
390.8521027794523
 30
0.0
 40
4.550350877192955
100
AcDbArc
 50
310.6956985252882
 51
49.30430147471147
  0
LINE
  5
109
330
1F
100
AcDbEntity
  8
9
  6
CONTINUOUS
 62
     7
100
AcDbLine
 10
835.2492615385709
 20
394.3021027794512
 30
0.0
 11
835.5659282052384
 21
394.3021027794512
 31
0.0
  0
LINE
  5
10A
330
1F
100
AcDbEntity
  8
9
  6
CONTINUOUS
 62
     7
100
AcDbLine
 10
835.2492615385709
 20
387.4021027794515
 30
0.0
 11
835.5659282052384
 21
387.4021027794515
 31
0.0
  0
LINE
  5
10B
330
1F
100
AcDbEntity
  8
9
  6
CONTINUOUS
 62
     7
100
AcDbLine
 10
835.249261538569
 20
282.3021027794512
 30
0.0
 11
835.249261538569
 21
275.4021027794515
 31
0.0
  0
LINE
  5
10C
330
1F
100
AcDbEntity
  8
9
  6
CONTINUOUS
 62
     7
100
AcDbLine
 10
835.5659282052384
 20
282.3021027794512
 30
0.0
 11
835.5659282052384
 21
275.4021027794515
 31
0.0
  0
ARC
  5
10D
330
1F
100
AcDbEntity
  8
9
  6
CONTINUOUS
 62
     7
100
AcDbCircle
 10
832.5989106613761
 20
278.8521027794523
 30
0.0
 40
4.550350877192955
100
AcDbArc
 50
310.6956985252882
 51
49.30430147471147
  0
LINE
  5
10E
330
1F
100
AcDbEntity
  8
9
  6
CONTINUOUS
 62
     7
100
AcDbLine
 10
835.249261538569
 20
282.3021027794512
 30
0.0
 11
835.5659282052384
 21
282.3021027794512
 31
0.0
  0
LINE
  5
10F
330
1F
100
AcDbEntity
  8
9
  6
CONTINUOUS
 62
     7
100
AcDbLine
 10
835.249261538569
 20
275.4021027794515
 30
0.0
 11
835.5659282052384
 21
275.4021027794515
 31
0.0
  0
LINE
  5
110
330
1F
100
AcDbEntity
  8
9
  6
CONTINUOUS
 62
     7
100
AcDbLine
 10
835.5659282052384
 20
582.302102779453
 30
0.0
 11
835.5659282052384
 21
575.4021027794533
 31
0.0
  0
ARC
  5
111
330
1F
100
AcDbEntity
  8
9
  6
CONTINUOUS
 62
     7
100
AcDbCircle
 10
832.5989106613761
 20
578.8521027794541
 30
0.0
 40
4.550350877192955
100
AcDbArc
 50
310.6956985252882
 51
49.30430147471147
  0
LINE
  5
112
330
1F
100
AcDbEntity
  8
9
  6
CONTINUOUS
 62
     7
100
AcDbLine
 10
835.249261538569
 20
582.302102779453
 30
0.0
 11
835.5659282052384
 21
582.302102779453
 31
0.0
  0
LINE
  5
113
330
1F
100
AcDbEntity
  8
9
  6
CONTINUOUS
 62
     7
100
AcDbLine
 10
835.249261538569
 20
575.4021027794533
 30
0.0
 11
835.5659282052384
 21
575.4021027794533
 31
0.0
  0
LINE
  5
114
330
1F
100
AcDbEntity
  8
4
  6
DASHDOT
 62
     1
100
AcDbLine
 10
290.249261538569
 20
428.8521027794523
 30
0.0
 11
850.249261538569
 21
428.8521027794523
 31
0.0
  0
LINE
  5
115
330
1F
100
AcDbEntity
  8
4
  6
DASHDOT
 62
     1
100
AcDbLine
 10
570.249261538569
 20
183.8521027794523
 30
0.0
 11
570.249261538569
 21
673.8521027794523
 31
0.0
  0
LINE
  5
116
330
1F
100
AcDbEntity
  8
9
  6
CONTINUOUS
 62
     7
100
AcDbLine
 10
1034.6092317088
 20
644.1687694461198
 30
0.0
 11
1027.709231708798
 21
644.1687694461198
 31
0.0
  0
ARC
  5
117
330
1F
100
AcDbEntity
  8
9
  6
CONTINUOUS
 62
     7
100
AcDbCircle
 10
1031.159231708798
 20
641.2017519022593
 30
0.0
 40
4.550350877193068
100
AcDbArc
 50
40.69569852545094
 51
139.3043014745491
  0
LINE
  5
118
330
1F
100
AcDbEntity
  8
9
  6
CONTINUOUS
 62
     7
100
AcDbLine
 10
1034.6092317088
 20
643.8521027794523
 30
0.0
 11
1034.6092317088
 21
644.1687694461198
 31
0.0
  0
LINE
  5
119
330
1F
100
AcDbEntity
  8
9
  6
CONTINUOUS
 62
     7
100
AcDbLine
 10
1027.709231708798
 20
643.8521027794523
 30
0.0
 11
1027.709231708798
 21
644.1687694461198
 31
0.0
  0
CIRCLE
  5
11A
330
1F
100
AcDbEntity
  8
9
  6
CONTINUOUS
 62
     7
100
AcDbCircle
 10
345.249261538569
 20
205.8521027794523
 30
0.0
 40
3.100000000000023
  0
CIRCLE
  5
11B
330
1F
100
AcDbEntity
  8
9
  6
CONTINUOUS
 62
     7
100
AcDbCircle
 10
570.249261538569
 20
205.8521027794523
 30
0.0
 40
3.100000000000023
  0
CIRCLE
  5
11C
330
1F
100
AcDbEntity
  8
9
  6
CONTINUOUS
 62
     7
100
AcDbCircle
 10
682.749261538569
 20
205.8521027794523
 30
0.0
 40
3.100000000000023
  0
CIRCLE
  5
11D
330
1F
100
AcDbEntity
  8
9
  6
CONTINUOUS
 62
     7
100
AcDbCircle
 10
795.249261538569
 20
205.8521027794523
 30
0.0
 40
3.100000000000023
  0
LINE
  5
11E
330
1F
100
AcDbEntity
  8
9
  6
CONTINUOUS
 62
     7
100
AcDbLine
 10
1007.659231708799
 20
451.8521027794523
 30
0.0
 11
1040.159231708799
 21
451.8521027794523
 31
0.0
  0
LINE
  5
11F
330
1F
100
AcDbEntity
  8
9
  6
CONTINUOUS
 62
     7
100
AcDbLine
 10
1007.659231708799
 20
451.8521027794523
 30
0.0
 11
1007.659231708799
 21
405.8521027794523
 31
0.0
  0
LINE
  5
120
330
1F
100
AcDbEntity
  8
9
  6
CONTINUOUS
 62
     7
100
AcDbLine
 10
1038.159231708799
 20
403.552102779453
 30
0.0
 11
1038.159231708799
 21
405.8521027794523
 31
0.0
  0
LINE
  5
121
330
1F
100
AcDbEntity
  8
9
  6
CONTINUOUS
 62
     7
100
AcDbLine
 10
1009.159231708799
 20
403.552102779453
 30
0.0
 11
1009.159231708799
 21
405.8521027794523
 31
0.0
  0
LINE
  5
122
330
1F
100
AcDbEntity
  8
9
  6
CONTINUOUS
 62
     7
100
AcDbLine
 10
1007.659231708799
 20
405.8521027794523
 30
0.0
 11
1040.159231708799
 21
405.8521027794523
 31
0.0
  0
LINE
  5
123
330
1F
100
AcDbEntity
  8
9
  6
CONTINUOUS
 62
     7
100
AcDbLine
 10
1034.509231708797
 20
401.5860961399831
 30
0.0
 11
1034.509231708797
 21
394.3521027794523
 31
0.0
  0
LINE
  5
124
330
1F
100
AcDbEntity
  8
11
  6
CONTINUOUS
 62
     2
100
AcDbLine
 10
1033.970770170336
 20
399.0521027794512
 30
0.0
 11
1034.509231708797
 21
399.9847455219897
 31
0.0
  0
LINE
  5
125
330
1F
100
AcDbEntity
  8
9
  6
CONTINUOUS
 62
     7
100
AcDbLine
 10
1033.709231708798
 20
393.5521027794512
 30
0.0
 11
1034.509231708797
 21
394.3521027794523
 31
0.0
  0
LINE
  5
126
330
1F
100
AcDbEntity
  8
11
  6
CONTINUOUS
 62
     2
100
AcDbLine
 10
1033.970770170336
 20
399.0521027794512
 30
0.0
 11
1033.970770170336
 21
393.8136412409895
 31
0.0
  0
LINE
  5
127
330
1F
100
AcDbEntity
  8
11
  6
CONTINUOUS
 62
     2
100
AcDbLine
 10
1013.347693247258
 20
399.0521027794512
 30
0.0
 11
1012.809231708797
 21
399.9847455219897
 31
0.0
  0
LINE
  5
128
330
1F
100
AcDbEntity
  8
9
  6
CONTINUOUS
 62
     7
100
AcDbLine
 10
1038.159231708799
 20
403.5521027794512
 30
0.0
 11
1009.159231708799
 21
403.5521027794512
 31
0.0
  0
LINE
  5
129
330
1F
100
AcDbEntity
  8
9
  6
CONTINUOUS
 62
     7
100
AcDbLine
 10
1012.809231708797
 20
399.0521027794512
 30
0.0
 11
1034.509231708797
 21
399.0521027794512
 31
0.0
  0
LINE
  5
12A
330
1F
100
AcDbEntity
  8
9
  6
CONTINUOUS
 62
     7
100
AcDbLine
 10
1013.609231708796
 20
393.5521027794512
 30
0.0
 11
1012.809231708797
 21
394.3521027794523
 31
0.0
  0
LINE
  5
12B
330
1F
100
AcDbEntity
  8
9
  6
CONTINUOUS
 62
     7
100
AcDbLine
 10
1012.809231708797
 20
394.3521027794523
 30
0.0
 11
1034.509231708797
 21
394.3521027794523
 31
0.0
  0
LINE
  5
12C
330
1F
100
AcDbEntity
  8
9
  6
CONTINUOUS
 62
     7
100
AcDbLine
 10
1012.809231708797
 20
401.5788176106635
 30
0.0
 11
1012.809231708797
 21
394.3521027794523
 31
0.0
  0
LINE
  5
12D
330
1F
100
AcDbEntity
  8
11
  6
CONTINUOUS
 62
     2
100
AcDbLine
 10
1013.347693247258
 20
399.0521027794512
 30
0.0
 11
1013.347693247258
 21
393.8136412409895
 31
0.0
  0
LINE
  5
12E
330
1F
100
AcDbEntity
  8
9
  6
CONTINUOUS
 62
     7
100
AcDbLine
 10
1013.609231708796
 20
393.5521027794512
 30
0.0
 11
1033.709231708798
 21
393.5521027794512
 31
0.0
  0
LINE
  5
12F
330
1F
100
AcDbEntity
  8
9
  6
CONTINUOUS
 62
     7
100
AcDbLine
 10
1037.948253841148
 20
403.5521027794512
 30
0.0
 11
1032.448253841148
 21
403.5521027794512
 31
0.0
  0
ARC
  5
130
330
1F
100
AcDbEntity
  8
9
  6
CONTINUOUS
 62
     7
100
AcDbCircle
 10
1035.198253841148
 20
408.5521027794512
 30
0.0
 40
7.0
100
AcDbArc
 50
253.4486439999561
 51
286.551356000043
  0
LINE
  5
131
330
1F
100
AcDbEntity
  8
9
  6
CONTINUOUS
 62
     7
100
AcDbLine
 10
1037.948253841148
 20
403.5521027794512
 30
0.0
 11
1037.906131841146
 21
402.7483777794514
 31
0.0
  0
ARC
  5
132
330
1F
100
AcDbEntity
  8
9
  6
CONTINUOUS
 62
     7
100
AcDbCircle
 10
1036.907501841146
 20
402.8007137794521
 30
0.0
 40
1.0
100
AcDbArc
 50
286.5513560000583
 51
356.9999999999942
  0
LINE
  5
133
330
1F
100
AcDbEntity
  8
9
  6
CONTINUOUS
 62
     7
100
AcDbLine
 10
1032.448253841148
 20
403.5521027794512
 30
0.0
 11
1032.490375841148
 21
402.7483777794514
 31
0.0
  0
ARC
  5
134
330
1F
100
AcDbEntity
  8
9
  6
CONTINUOUS
 62
     7
100
AcDbCircle
 10
1033.489005841147
 20
402.8007137794521
 30
0.0
 40
1.0
100
AcDbArc
 50
183.0000000000051
 51
253.448643999941
  0
LINE
  5
135
330
1F
100
AcDbEntity
  8
9
  6
CONTINUOUS
 62
     7
100
AcDbLine
 10
1014.948253841148
 20
403.5521027794512
 30
0.0
 11
1009.448253841148
 21
403.5521027794512
 31
0.0
  0
ARC
  5
136
330
1F
100
AcDbEntity
  8
9
  6
CONTINUOUS
 62
     7
100
AcDbCircle
 10
1012.198253841148
 20
408.5521027794512
 30
0.0
 40
7.0
100
AcDbArc
 50
253.4486439999561
 51
286.551356000043
  0
LINE
  5
137
330
1F
100
AcDbEntity
  8
9
  6
CONTINUOUS
 62
     7
100
AcDbLine
 10
1014.948253841148
 20
403.5521027794512
 30
0.0
 11
1014.906131841146
 21
402.7483777794514
 31
0.0
  0
ARC
  5
138
330
1F
100
AcDbEntity
  8
9
  6
CONTINUOUS
 62
     7
100
AcDbCircle
 10
1013.907501841146
 20
402.8007137794521
 30
0.0
 40
1.0
100
AcDbArc
 50
286.5513560000583
 51
356.9999999999939
  0
LINE
  5
139
330
1F
100
AcDbEntity
  8
9
  6
CONTINUOUS
 62
     7
100
AcDbLine
 10
1009.448253841148
 20
403.5521027794512
 30
0.0
 11
1009.490375841148
 21
402.7483777794514
 31
0.0
  0
ARC
  5
13A
330
1F
100
AcDbEntity
  8
9
  6
CONTINUOUS
 62
     7
100
AcDbCircle
 10
1010.489005841147
 20
402.8007137794521
 30
0.0
 40
1.0
100
AcDbArc
 50
183.0000000000054
 51
253.448643999941
  0
ARC
  5
13B
330
1F
100
AcDbEntity
  8
9
  6
CONTINUOUS
 62
     7
100
AcDbCircle
 10
1030.3592317088
 20
466.0521027794512
 30
0.0
 40
0.5
100
AcDbArc
 50
0.0
 51
89.99999999999991
  0
ARC
  5
13C
330
1F
100
AcDbEntity
  8
9
  6
CONTINUOUS
 62
     7
100
AcDbCircle
 10
1031.959231708798
 20
466.0521027794512
 30
0.0
 40
0.5
100
AcDbArc
 50
89.99999999999991
 51
179.9999999999998
  0
CIRCLE
  5
13D
330
1F
100
AcDbEntity
  8
9
  6
CONTINUOUS
 62
     7
100
AcDbCircle
 10
1031.159231708798
 20
466.8521027794504
 30
0.0
 40
3.450000000000045
  0
LINE
  5
13E
330
1F
100
AcDbEntity
  8
9
  6
CONTINUOUS
 62
     7
100
AcDbLine
 10
1030.8592317088
 20
466.0521027794512
 30
0.0
 11
1030.8592317088
 21
465.4021027794497
 31
0.0
  0
LINE
  5
13F
330
1F
100
AcDbEntity
  8
9
  6
CONTINUOUS
 62
     7
100
AcDbLine
 10
1031.459231708798
 20
466.0521027794512
 30
0.0
 11
1031.459231708798
 21
465.4021027794497
 31
0.0
  0
LINE
  5
140
330
1F
100
AcDbEntity
  8
9
  6
CONTINUOUS
 62
     7
100
AcDbLine
 10
1030.8592317088
 20
465.4021027794497
 30
0.0
 11
1031.459231708798
 21
465.4021027794497
 31
0.0
  0
LINE
  5
141
330
1F
100
AcDbEntity
  8
9
  6
CONTINUOUS
 62
     7
100
AcDbLine
 10
1030.3592317088
 20
467.1521027794497
 30
0.0
 11
1029.709231708798
 21
467.1521027794497
 31
0.0
  0
LINE
  5
142
330
1F
100
AcDbEntity
  8
9
  6
CONTINUOUS
 62
     7
100
AcDbLine
 10
1030.3592317088
 20
466.5521027794512
 30
0.0
 11
1029.709231708798
 21
466.5521027794512
 31
0.0
  0
ARC
  5
143
330
1F
100
AcDbEntity
  8
9
  6
CONTINUOUS
 62
     7
100
AcDbCircle
 10
1031.959231708798
 20
467.6521027794497
 30
0.0
 40
0.5
100
AcDbArc
 50
179.9999999999998
 51
269.9999999999998
  0
ARC
  5
144
330
1F
100
AcDbEntity
  8
9
  6
CONTINUOUS
 62
     7
100
AcDbCircle
 10
1030.3592317088
 20
467.6521027794497
 30
0.0
 40
0.5
100
AcDbArc
 50
269.9999999999998
 51
0.0
  0
LINE
  5
145
330
1F
100
AcDbEntity
  8
9
  6
CONTINUOUS
 62
     7
100
AcDbLine
 10
1031.459231708798
 20
467.6521027794497
 30
0.0
 11
1031.459231708798
 21
468.3021027794512
 31
0.0
  0
LINE
  5
146
330
1F
100
AcDbEntity
  8
9
  6
CONTINUOUS
 62
     7
100
AcDbLine
 10
1030.8592317088
 20
467.6521027794497
 30
0.0
 11
1030.8592317088
 21
468.3021027794512
 31
0.0
  0
LINE
  5
147
330
1F
100
AcDbEntity
  8
9
  6
CONTINUOUS
 62
     7
100
AcDbLine
 10
1031.959231708798
 20
467.1521027794497
 30
0.0
 11
1032.6092317088
 21
467.1521027794497
 31
0.0
  0
LINE
  5
148
330
1F
100
AcDbEntity
  8
9
  6
CONTINUOUS
 62
     7
100
AcDbLine
 10
1031.959231708798
 20
466.5521027794512
 30
0.0
 11
1032.6092317088
 21
466.5521027794512
 31
0.0
  0
LINE
  5
149
330
1F
100
AcDbEntity
  8
9
  6
CONTINUOUS
 62
     7
100
AcDbLine
 10
1032.6092317088
 20
466.5521027794512
 30
0.0
 11
1032.6092317088
 21
467.1521027794497
 31
0.0
  0
LINE
  5
14A
330
1F
100
AcDbEntity
  8
9
  6
CONTINUOUS
 62
     7
100
AcDbLine
 10
1031.459231708798
 20
468.3021027794512
 30
0.0
 11
1030.8592317088
 21
468.3021027794512
 31
0.0
  0
LINE
  5
14B
330
1F
100
AcDbEntity
  8
9
  6
CONTINUOUS
 62
     7
100
AcDbLine
 10
1029.709231708798
 20
467.1521027794497
 30
0.0
 11
1029.709231708798
 21
466.5521027794512
 31
0.0
  0
ARC
  5
14C
330
1F
100
AcDbEntity
  8
9
  6
CONTINUOUS
 62
     7
100
AcDbCircle
 10
1030.359231708796
 20
279.6521027794515
 30
0.0
 40
0.5
100
AcDbArc
 50
269.9999999999998
 51
0.0
  0
ARC
  5
14D
330
1F
100
AcDbEntity
  8
9
  6
CONTINUOUS
 62
     7
100
AcDbCircle
 10
1031.959231708795
 20
279.6521027794515
 30
0.0
 40
0.5
100
AcDbArc
 50
179.9999999999998
 51
269.9999999999998
  0
CIRCLE
  5
14E
330
1F
100
AcDbEntity
  8
9
  6
CONTINUOUS
 62
     7
100
AcDbCircle
 10
1031.159231708795
 20
278.8521027794523
 30
0.0
 40
3.450000000000045
  0
LINE
  5
14F
330
1F
100
AcDbEntity
  8
9
  6
CONTINUOUS
 62
     7
100
AcDbLine
 10
1030.859231708796
 20
279.6521027794515
 30
0.0
 11
1030.859231708796
 21
280.3021027794512
 31
0.0
  0
LINE
  5
150
330
1F
100
AcDbEntity
  8
9
  6
CONTINUOUS
 62
     7
100
AcDbLine
 10
1031.459231708795
 20
279.6521027794515
 30
0.0
 11
1031.459231708795
 21
280.3021027794512
 31
0.0
  0
LINE
  5
151
330
1F
100
AcDbEntity
  8
9
  6
CONTINUOUS
 62
     7
100
AcDbLine
 10
1030.859231708796
 20
280.3021027794512
 30
0.0
 11
1031.459231708795
 21
280.3021027794512
 31
0.0
  0
LINE
  5
152
330
1F
100
AcDbEntity
  8
9
  6
CONTINUOUS
 62
     7
100
AcDbLine
 10
1030.359231708796
 20
278.5521027794512
 30
0.0
 11
1029.709231708795
 21
278.5521027794512
 31
0.0
  0
LINE
  5
153
330
1F
100
AcDbEntity
  8
9
  6
CONTINUOUS
 62
     7
100
AcDbLine
 10
1030.359231708796
 20
279.1521027794515
 30
0.0
 11
1029.709231708795
 21
279.1521027794515
 31
0.0
  0
ARC
  5
154
330
1F
100
AcDbEntity
  8
9
  6
CONTINUOUS
 62
     7
100
AcDbCircle
 10
1031.959231708795
 20
278.0521027794512
 30
0.0
 40
0.5
100
AcDbArc
 50
89.99999999999991
 51
179.9999999999998
  0
ARC
  5
155
330
1F
100
AcDbEntity
  8
9
  6
CONTINUOUS
 62
     7
100
AcDbCircle
 10
1030.359231708796
 20
278.0521027794512
 30
0.0
 40
0.5
100
AcDbArc
 50
0.0
 51
89.99999999999991
  0
LINE
  5
156
330
1F
100
AcDbEntity
  8
9
  6
CONTINUOUS
 62
     7
100
AcDbLine
 10
1031.459231708795
 20
278.0521027794512
 30
0.0
 11
1031.459231708795
 21
277.4021027794515
 31
0.0
  0
LINE
  5
157
330
1F
100
AcDbEntity
  8
9
  6
CONTINUOUS
 62
     7
100
AcDbLine
 10
1030.859231708796
 20
278.0521027794512
 30
0.0
 11
1030.859231708796
 21
277.4021027794515
 31
0.0
  0
LINE
  5
158
330
1F
100
AcDbEntity
  8
9
  6
CONTINUOUS
 62
     7
100
AcDbLine
 10
1031.959231708795
 20
278.5521027794512
 30
0.0
 11
1032.609231708796
 21
278.5521027794512
 31
0.0
  0
LINE
  5
159
330
1F
100
AcDbEntity
  8
9
  6
CONTINUOUS
 62
     7
100
AcDbLine
 10
1031.959231708795
 20
279.1521027794515
 30
0.0
 11
1032.609231708796
 21
279.1521027794515
 31
0.0
  0
LINE
  5
15A
330
1F
100
AcDbEntity
  8
9
  6
CONTINUOUS
 62
     7
100
AcDbLine
 10
1032.609231708796
 20
279.1521027794515
 30
0.0
 11
1032.609231708796
 21
278.5521027794512
 31
0.0
  0
LINE
  5
15B
330
1F
100
AcDbEntity
  8
9
  6
CONTINUOUS
 62
     7
100
AcDbLine
 10
1031.459231708795
 20
277.4021027794515
 30
0.0
 11
1030.859231708796
 21
277.4021027794515
 31
0.0
  0
LINE
  5
15C
330
1F
100
AcDbEntity
  8
9
  6
CONTINUOUS
 62
     7
100
AcDbLine
 10
1029.709231708795
 20
278.5521027794512
 30
0.0
 11
1029.709231708795
 21
279.1521027794515
 31
0.0
  0
ARC
  5
15D
330
1F
100
AcDbEntity
  8
9
  6
CONTINUOUS
 62
     7
100
AcDbCircle
 10
1030.3592317088
 20
391.6521027794533
 30
0.0
 40
0.5
100
AcDbArc
 50
269.9999999999998
 51
0.0
  0
ARC
  5
15E
330
1F
100
AcDbEntity
  8
9
  6
CONTINUOUS
 62
     7
100
AcDbCircle
 10
1031.959231708798
 20
391.6521027794533
 30
0.0
 40
0.5
100
AcDbArc
 50
179.9999999999998
 51
269.9999999999998
  0
ARC
  5
15F
330
1F
100
AcDbEntity
  8
9
  6
CONTINUOUS
 62
     7
100
AcDbCircle
 10
1031.159231708798
 20
390.8521027794541
 30
0.0
 40
3.450000000000045
100
AcDbArc
 50
128.4999504092813
 51
51.50004959071926
  0
LINE
  5
160
330
1F
100
AcDbEntity
  8
9
  6
CONTINUOUS
 62
     7
100
AcDbLine
 10
1030.8592317088
 20
391.6521027794533
 30
0.0
 11
1030.8592317088
 21
392.302102779453
 31
0.0
  0
LINE
  5
161
330
1F
100
AcDbEntity
  8
9
  6
CONTINUOUS
 62
     7
100
AcDbLine
 10
1031.459231708798
 20
391.6521027794533
 30
0.0
 11
1031.459231708798
 21
392.302102779453
 31
0.0
  0
LINE
  5
162
330
1F
100
AcDbEntity
  8
9
  6
CONTINUOUS
 62
     7
100
AcDbLine
 10
1030.8592317088
 20
392.302102779453
 30
0.0
 11
1031.459231708798
 21
392.302102779453
 31
0.0
  0
LINE
  5
163
330
1F
100
AcDbEntity
  8
9
  6
CONTINUOUS
 62
     7
100
AcDbLine
 10
1030.3592317088
 20
390.552102779453
 30
0.0
 11
1029.709231708798
 21
390.552102779453
 31
0.0
  0
LINE
  5
164
330
1F
100
AcDbEntity
  8
9
  6
CONTINUOUS
 62
     7
100
AcDbLine
 10
1030.3592317088
 20
391.1521027794533
 30
0.0
 11
1029.709231708798
 21
391.1521027794533
 31
0.0
  0
ARC
  5
165
330
1F
100
AcDbEntity
  8
9
  6
CONTINUOUS
 62
     7
100
AcDbCircle
 10
1031.959231708798
 20
390.052102779453
 30
0.0
 40
0.5
100
AcDbArc
 50
89.99999999999991
 51
179.9999999999998
  0
ARC
  5
166
330
1F
100
AcDbEntity
  8
9
  6
CONTINUOUS
 62
     7
100
AcDbCircle
 10
1030.3592317088
 20
390.052102779453
 30
0.0
 40
0.5
100
AcDbArc
 50
0.0
 51
89.99999999999991
  0
LINE
  5
167
330
1F
100
AcDbEntity
  8
9
  6
CONTINUOUS
 62
     7
100
AcDbLine
 10
1031.459231708798
 20
390.052102779453
 30
0.0
 11
1031.459231708798
 21
389.4021027794533
 31
0.0
  0
LINE
  5
168
330
1F
100
AcDbEntity
  8
9
  6
CONTINUOUS
 62
     7
100
AcDbLine
 10
1030.8592317088
 20
390.052102779453
 30
0.0
 11
1030.8592317088
 21
389.4021027794533
 31
0.0
  0
LINE
  5
169
330
1F
100
AcDbEntity
  8
9
  6
CONTINUOUS
 62
     7
100
AcDbLine
 10
1031.959231708798
 20
390.552102779453
 30
0.0
 11
1032.6092317088
 21
390.552102779453
 31
0.0
  0
LINE
  5
16A
330
1F
100
AcDbEntity
  8
9
  6
CONTINUOUS
 62
     7
100
AcDbLine
 10
1031.959231708798
 20
391.1521027794533
 30
0.0
 11
1032.6092317088
 21
391.1521027794533
 31
0.0
  0
LINE
  5
16B
330
1F
100
AcDbEntity
  8
9
  6
CONTINUOUS
 62
     7
100
AcDbLine
 10
1032.6092317088
 20
391.1521027794533
 30
0.0
 11
1032.6092317088
 21
390.552102779453
 31
0.0
  0
LINE
  5
16C
330
1F
100
AcDbEntity
  8
9
  6
CONTINUOUS
 62
     7
100
AcDbLine
 10
1031.459231708798
 20
389.4021027794533
 30
0.0
 11
1030.8592317088
 21
389.4021027794533
 31
0.0
  0
LINE
  5
16D
330
1F
100
AcDbEntity
  8
9
  6
CONTINUOUS
 62
     7
100
AcDbLine
 10
1029.709231708798
 20
390.552102779453
 30
0.0
 11
1029.709231708798
 21
391.1521027794533
 31
0.0
  0
LINE
  5
16E
330
1F
100
AcDbEntity
  8
9
  6
CONTINUOUS
 62
     7
100
AcDbLine
 10
304.9325948719033
 20
582.302102779453
 30
0.0
 11
304.9325948719033
 21
575.4021027794533
 31
0.0
  0
ARC
  5
16F
330
1F
100
AcDbEntity
  8
9
  6
CONTINUOUS
 62
     7
100
AcDbCircle
 10
307.899612415762
 20
578.8521027794541
 30
0.0
 40
4.550350877192955
100
AcDbArc
 50
130.6956985252891
 51
229.3043014747106
  0
LINE
  5
170
330
1F
100
AcDbEntity
  8
9
  6
CONTINUOUS
 62
     7
100
AcDbLine
 10
305.249261538569
 20
582.302102779453
 30
0.0
 11
304.9325948719033
 21
582.302102779453
 31
0.0
  0
LINE
  5
171
330
1F
100
AcDbEntity
  8
9
  6
CONTINUOUS
 62
     7
100
AcDbLine
 10
305.249261538569
 20
575.4021027794533
 30
0.0
 11
304.9325948719033
 21
575.4021027794533
 31
0.0
  0
LINE
  5
172
330
1F
100
AcDbEntity
  8
9
  6
CONTINUOUS
 62
     7
100
AcDbLine
 10
304.9325948719033
 20
432.3021027794512
 30
0.0
 11
304.9325948719033
 21
425.4021027794515
 31
0.0
  0
ARC
  5
173
330
1F
100
AcDbEntity
  8
9
  6
CONTINUOUS
 62
     7
100
AcDbCircle
 10
307.899612415762
 20
428.8521027794523
 30
0.0
 40
4.550350877192955
100
AcDbArc
 50
130.6956985252891
 51
229.3043014747106
  0
LINE
  5
174
330
1F
100
AcDbEntity
  8
9
  6
CONTINUOUS
 62
     7
100
AcDbLine
 10
305.249261538569
 20
432.3021027794512
 30
0.0
 11
304.9325948719033
 21
432.3021027794512
 31
0.0
  0
LINE
  5
175
330
1F
100
AcDbEntity
  8
9
  6
CONTINUOUS
 62
     7
100
AcDbLine
 10
305.249261538569
 20
425.4021027794515
 30
0.0
 11
304.9325948719033
 21
425.4021027794515
 31
0.0
  0
LINE
  5
176
330
1F
100
AcDbEntity
  8
9
  6
CONTINUOUS
 62
     7
100
AcDbLine
 10
304.9325948719033
 20
282.3021027794512
 30
0.0
 11
304.9325948719033
 21
275.4021027794515
 31
0.0
  0
ARC
  5
177
330
1F
100
AcDbEntity
  8
9
  6
CONTINUOUS
 62
     7
100
AcDbCircle
 10
307.899612415762
 20
278.8521027794523
 30
0.0
 40
4.550350877192955
100
AcDbArc
 50
130.6956985252891
 51
229.3043014747106
  0
LINE
  5
178
330
1F
100
AcDbEntity
  8
9
  6
CONTINUOUS
 62
     7
100
AcDbLine
 10
305.249261538569
 20
282.3021027794512
 30
0.0
 11
304.9325948719033
 21
282.3021027794512
 31
0.0
  0
LINE
  5
179
330
1F
100
AcDbEntity
  8
9
  6
CONTINUOUS
 62
     7
100
AcDbLine
 10
305.249261538569
 20
275.4021027794515
 30
0.0
 11
304.9325948719033
 21
275.4021027794515
 31
0.0
  0
LINE
  5
17A
330
1F
100
AcDbEntity
  8
9
  6
CONTINUOUS
 62
     7
100
AcDbLine
 10
498.699261538568
 20
213.5354361127847
 30
0.0
 11
491.7992615385683
 21
213.5354361127847
 31
0.0
  0
ARC
  5
17B
330
1F
100
AcDbEntity
  8
9
  6
CONTINUOUS
 62
     7
100
AcDbCircle
 10
495.249261538569
 20
216.5024536566452
 30
0.0
 40
4.550350877192955
100
AcDbArc
 50
220.6956985254509
 51
319.3043014745485
  0
LINE
  5
17C
330
1F
100
AcDbEntity
  8
9
  6
CONTINUOUS
 62
     7
100
AcDbLine
 10
498.699261538568
 20
213.8521027794541
 30
0.0
 11
498.699261538568
 21
213.5354361127847
 31
0.0
  0
LINE
  5
17D
330
1F
100
AcDbEntity
  8
9
  6
CONTINUOUS
 62
     7
100
AcDbLine
 10
491.7992615385683
 20
213.8521027794541
 30
0.0
 11
491.7992615385683
 21
213.5354361127847
 31
0.0
  0
LINE
  5
17E
330
1F
100
AcDbEntity
  8
9
  6
CONTINUOUS
 62
     7
100
AcDbLine
 10
648.699261538568
 20
213.5354361127847
 30
0.0
 11
641.7992615385683
 21
213.5354361127847
 31
0.0
  0
ARC
  5
17F
330
1F
100
AcDbEntity
  8
9
  6
CONTINUOUS
 62
     7
100
AcDbCircle
 10
645.249261538569
 20
216.5024536566452
 30
0.0
 40
4.550350877192955
100
AcDbArc
 50
220.6956985254509
 51
319.3043014745485
  0
LINE
  5
180
330
1F
100
AcDbEntity
  8
9
  6
CONTINUOUS
 62
     7
100
AcDbLine
 10
648.699261538568
 20
213.8521027794523
 30
0.0
 11
648.699261538568
 21
213.5354361127847
 31
0.0
  0
LINE
  5
181
330
1F
100
AcDbEntity
  8
9
  6
CONTINUOUS
 62
     7
100
AcDbLine
 10
641.7992615385683
 20
213.8521027794523
 30
0.0
 11
641.7992615385683
 21
213.5354361127847
 31
0.0
  0
CIRCLE
  5
182
330
1F
100
AcDbEntity
  8
9
  6
CONTINUOUS
 62
     7
100
AcDbCircle
 10
457.7495125969517
 20
205.8521027794523
 30
0.0
 40
3.100000000000023
  0
CIRCLE
  5
183
330
1F
100
AcDbEntity
  8
9
  6
CONTINUOUS
 62
     7
100
AcDbCircle
 10
345.249261538569
 20
651.8521027794504
 30
0.0
 40
3.100000000000023
  0
CIRCLE
  5
184
330
1F
100
AcDbEntity
  8
9
  6
CONTINUOUS
 62
     7
100
AcDbCircle
 10
570.249261538569
 20
651.8521027794504
 30
0.0
 40
3.100000000000023
  0
CIRCLE
  5
185
330
1F
100
AcDbEntity
  8
9
  6
CONTINUOUS
 62
     7
100
AcDbCircle
 10
682.749261538569
 20
651.8521027794504
 30
0.0
 40
3.100000000000023
  0
CIRCLE
  5
186
330
1F
100
AcDbEntity
  8
9
  6
CONTINUOUS
 62
     7
100
AcDbCircle
 10
795.249261538569
 20
651.8521027794504
 30
0.0
 40
3.100000000000023
  0
CIRCLE
  5
187
330
1F
100
AcDbEntity
  8
9
  6
CONTINUOUS
 62
     7
100
AcDbCircle
 10
457.7495125969517
 20
651.8521027794504
 30
0.0
 40
3.100000000000023
  0
LINE
  5
188
330
1F
100
AcDbEntity
  8
9
  6
CONTINUOUS
 62
     7
100
AcDbLine
 10
318.6992615385698
 20
644.168769446118
 30
0.0
 11
311.799261538572
 21
644.168769446118
 31
0.0
  0
ARC
  5
189
330
1F
100
AcDbEntity
  8
9
  6
CONTINUOUS
 62
     7
100
AcDbCircle
 10
315.2492615385709
 20
641.2017519022575
 30
0.0
 40
4.550350877192955
100
AcDbArc
 50
40.69569852545047
 51
139.3043014745495
  0
LINE
  5
18A
330
1F
100
AcDbEntity
  8
9
  6
CONTINUOUS
 62
     7
100
AcDbLine
 10
318.6992615385698
 20
643.8521027794504
 30
0.0
 11
318.6992615385698
 21
644.168769446118
 31
0.0
  0
LINE
  5
18B
330
1F
100
AcDbEntity
  8
9
  6
CONTINUOUS
 62
     7
100
AcDbLine
 10
311.799261538572
 20
643.8521027794504
 30
0.0
 11
311.799261538572
 21
644.168769446118
 31
0.0
  0
LINE
  5
18C
330
1F
100
AcDbEntity
  8
9
  6
CONTINUOUS
 62
     7
100
AcDbLine
 10
340.1992615385698
 20
644.168769446118
 30
0.0
 11
333.299261538572
 21
644.168769446118
 31
0.0
  0
ARC
  5
18D
330
1F
100
AcDbEntity
  8
9
  6
CONTINUOUS
 62
     7
100
AcDbCircle
 10
336.7492615385709
 20
641.2017519022575
 30
0.0
 40
4.550350877192955
100
AcDbArc
 50
40.69569852545047
 51
139.3043014745495
  0
LINE
  5
18E
330
1F
100
AcDbEntity
  8
9
  6
CONTINUOUS
 62
     7
100
AcDbLine
 10
340.1992615385698
 20
643.8521027794504
 30
0.0
 11
340.1992615385698
 21
644.168769446118
 31
0.0
  0
LINE
  5
18F
330
1F
100
AcDbEntity
  8
9
  6
CONTINUOUS
 62
     7
100
AcDbLine
 10
333.299261538572
 20
643.8521027794504
 30
0.0
 11
333.299261538572
 21
644.168769446118
 31
0.0
  0
LINE
  5
190
330
1F
100
AcDbEntity
  8
9
  6
CONTINUOUS
 62
     7
100
AcDbLine
 10
821.7992615385683
 20
644.168769446118
 30
0.0
 11
828.6992615385698
 21
644.168769446118
 31
0.0
  0
ARC
  5
191
330
1F
100
AcDbEntity
  8
9
  6
CONTINUOUS
 62
     7
100
AcDbCircle
 10
825.249261538569
 20
641.2017519022575
 30
0.0
 40
4.550350877192955
100
AcDbArc
 50
40.69569852545094
 51
139.3043014745491
  0
LINE
  5
192
330
1F
100
AcDbEntity
  8
9
  6
CONTINUOUS
 62
     7
100
AcDbLine
 10
821.7992615385683
 20
643.8521027794504
 30
0.0
 11
821.7992615385683
 21
644.168769446118
 31
0.0
  0
LINE
  5
193
330
1F
100
AcDbEntity
  8
9
  6
CONTINUOUS
 62
     7
100
AcDbLine
 10
828.6992615385698
 20
643.8521027794504
 30
0.0
 11
828.6992615385698
 21
644.168769446118
 31
0.0
  0
LINE
  5
194
330
1F
100
AcDbEntity
  8
9
  6
CONTINUOUS
 62
     7
100
AcDbLine
 10
800.2992615385683
 20
644.168769446118
 30
0.0
 11
807.1992615385698
 21
644.168769446118
 31
0.0
  0
ARC
  5
195
330
1F
100
AcDbEntity
  8
9
  6
CONTINUOUS
 62
     7
100
AcDbCircle
 10
803.749261538569
 20
641.2017519022575
 30
0.0
 40
4.550350877192955
100
AcDbArc
 50
40.69569852545094
 51
139.3043014745491
  0
LINE
  5
196
330
1F
100
AcDbEntity
  8
9
  6
CONTINUOUS
 62
     7
100
AcDbLine
 10
800.2992615385683
 20
643.8521027794504
 30
0.0
 11
800.2992615385683
 21
644.168769446118
 31
0.0
  0
LINE
  5
197
330
1F
100
AcDbEntity
  8
9
  6
CONTINUOUS
 62
     7
100
AcDbLine
 10
807.1992615385698
 20
643.8521027794504
 30
0.0
 11
807.1992615385698
 21
644.168769446118
 31
0.0
  0
LINE
  5
198
330
1F
100
AcDbEntity
  8
9
  6
CONTINUOUS
 62
     7
100
AcDbLine
 10
498.699261538568
 20
644.168769446118
 30
0.0
 11
491.7992615385683
 21
644.168769446118
 31
0.0
  0
ARC
  5
199
330
1F
100
AcDbEntity
  8
9
  6
CONTINUOUS
 62
     7
100
AcDbCircle
 10
495.249261538569
 20
641.2017519022575
 30
0.0
 40
4.550350877192955
100
AcDbArc
 50
40.69569852545094
 51
139.3043014745491
  0
LINE
  5
19A
330
1F
100
AcDbEntity
  8
9
  6
CONTINUOUS
 62
     7
100
AcDbLine
 10
498.699261538568
 20
643.8521027794504
 30
0.0
 11
498.699261538568
 21
644.168769446118
 31
0.0
  0
LINE
  5
19B
330
1F
100
AcDbEntity
  8
9
  6
CONTINUOUS
 62
     7
100
AcDbLine
 10
491.7992615385683
 20
643.8521027794504
 30
0.0
 11
491.7992615385683
 21
644.168769446118
 31
0.0
  0
LINE
  5
19C
330
1F
100
AcDbEntity
  8
9
  6
CONTINUOUS
 62
     7
100
AcDbLine
 10
648.699261538568
 20
644.168769446118
 30
0.0
 11
641.7992615385683
 21
644.168769446118
 31
0.0
  0
ARC
  5
19D
330
1F
100
AcDbEntity
  8
9
  6
CONTINUOUS
 62
     7
100
AcDbCircle
 10
645.249261538569
 20
641.2017519022575
 30
0.0
 40
4.550350877192955
100
AcDbArc
 50
40.69569852545094
 51
139.3043014745491
  0
LINE
  5
19E
330
1F
100
AcDbEntity
  8
9
  6
CONTINUOUS
 62
     7
100
AcDbLine
 10
648.699261538568
 20
643.8521027794504
 30
0.0
 11
648.699261538568
 21
644.168769446118
 31
0.0
  0
LINE
  5
19F
330
1F
100
AcDbEntity
  8
9
  6
CONTINUOUS
 62
     7
100
AcDbLine
 10
641.7992615385683
 20
643.8521027794504
 30
0.0
 11
641.7992615385683
 21
644.168769446118
 31
0.0
  0
LINE
  5
1A0
330
1F
100
AcDbEntity
  8
4
  6
DASHDOT
 62
     1
100
AcDbLine
 10
981.159231708798
 20
428.8521027794523
 30
0.0
 11
1056.159231708799
 21
428.8521027794523
 31
0.0
  0
LINE
  5
1A1
330
1F
100
AcDbEntity
  8
4
  6
DASHDOT
 62
     1
100
AcDbLine
 10
334.6492615385687
 20
651.8521027794504
 30
0.0
 11
355.8492615385694
 21
651.8521027794504
 31
0.0
  0
LINE
  5
1A2
330
1F
100
AcDbEntity
  8
4
  6
DASHDOT
 62
     1
100
AcDbLine
 10
345.249261538569
 20
662.4521027794508
 30
0.0
 11
345.249261538569
 21
641.2521027794519
 31
0.0
  0
LINE
  5
1A3
330
1F
100
AcDbEntity
  8
4
  6
DASHDOT
 62
     1
100
AcDbLine
 10
447.1495125969514
 20
651.8521027794504
 30
0.0
 11
468.3495125969521
 21
651.8521027794504
 31
0.0
  0
LINE
  5
1A4
330
1F
100
AcDbEntity
  8
4
  6
DASHDOT
 62
     1
100
AcDbLine
 10
457.7495125969517
 20
662.4521027794508
 30
0.0
 11
457.7495125969517
 21
641.2521027794519
 31
0.0
  0
LINE
  5
1A5
330
1F
100
AcDbEntity
  8
4
  6
DASHDOT
 62
     1
100
AcDbLine
 10
559.6492615385687
 20
651.8521027794504
 30
0.0
 11
580.8492615385685
 21
651.8521027794504
 31
0.0
  0
LINE
  5
1A6
330
1F
100
AcDbEntity
  8
4
  6
DASHDOT
 62
     1
100
AcDbLine
 10
672.1492615385696
 20
651.8521027794504
 30
0.0
 11
693.3492615385685
 21
651.8521027794504
 31
0.0
  0
LINE
  5
1A7
330
1F
100
AcDbEntity
  8
4
  6
DASHDOT
 62
     1
100
AcDbLine
 10
682.749261538569
 20
662.4521027794508
 30
0.0
 11
682.749261538569
 21
641.2521027794519
 31
0.0
  0
LINE
  5
1A8
330
1F
100
AcDbEntity
  8
4
  6
DASHDOT
 62
     1
100
AcDbLine
 10
784.6492615385696
 20
651.8521027794504
 30
0.0
 11
805.8492615385685
 21
651.8521027794504
 31
0.0
  0
LINE
  5
1A9
330
1F
100
AcDbEntity
  8
4
  6
DASHDOT
 62
     1
100
AcDbLine
 10
795.249261538569
 20
662.4521027794508
 30
0.0
 11
795.249261538569
 21
641.2521027794519
 31
0.0
  0
LINE
  5
1AA
330
1F
100
AcDbEntity
  8
4
  6
DASHDOT
 62
     1
100
AcDbLine
 10
784.6492615385696
 20
205.8521027794523
 30
0.0
 11
805.8492615385685
 21
205.8521027794523
 31
0.0
  0
LINE
  5
1AB
330
1F
100
AcDbEntity
  8
4
  6
DASHDOT
 62
     1
100
AcDbLine
 10
795.249261538569
 20
216.4521027794526
 30
0.0
 11
795.249261538569
 21
195.2521027794519
 31
0.0
  0
LINE
  5
1AC
330
1F
100
AcDbEntity
  8
4
  6
DASHDOT
 62
     1
100
AcDbLine
 10
672.1492615385696
 20
205.8521027794523
 30
0.0
 11
693.3492615385685
 21
205.8521027794523
 31
0.0
  0
LINE
  5
1AD
330
1F
100
AcDbEntity
  8
4
  6
DASHDOT
 62
     1
100
AcDbLine
 10
682.749261538569
 20
216.4521027794526
 30
0.0
 11
682.749261538569
 21
195.2521027794519
 31
0.0
  0
LINE
  5
1AE
330
1F
100
AcDbEntity
  8
4
  6
DASHDOT
 62
     1
100
AcDbLine
 10
559.6492615385687
 20
205.8521027794523
 30
0.0
 11
580.8492615385685
 21
205.8521027794523
 31
0.0
  0
LINE
  5
1AF
330
1F
100
AcDbEntity
  8
4
  6
DASHDOT
 62
     1
100
AcDbLine
 10
447.1495125969514
 20
205.8521027794523
 30
0.0
 11
468.3495125969521
 21
205.8521027794523
 31
0.0
  0
LINE
  5
1B0
330
1F
100
AcDbEntity
  8
4
  6
DASHDOT
 62
     1
100
AcDbLine
 10
457.7495125969517
 20
216.4521027794526
 30
0.0
 11
457.7495125969517
 21
195.2521027794519
 31
0.0
  0
LINE
  5
1B1
330
1F
100
AcDbEntity
  8
4
  6
DASHDOT
 62
     1
100
AcDbLine
 10
334.6492615385687
 20
205.8521027794523
 30
0.0
 11
355.8492615385694
 21
205.8521027794523
 31
0.0
  0
LINE
  5
1B2
330
1F
100
AcDbEntity
  8
4
  6
DASHDOT
 62
     1
100
AcDbLine
 10
345.249261538569
 20
216.4521027794526
 30
0.0
 11
345.249261538569
 21
195.2521027794519
 31
0.0
  0
LINE
  5
1B3
330
1F
100
AcDbEntity
  8
4
  6
DASHDOT
 62
     1
100
AcDbLine
 10
1032.659231708798
 20
651.8521027794504
 30
0.0
 11
1048.659231708798
 21
651.8521027794504
 31
0.0
  0
LINE
  5
1B4
330
1F
100
AcDbEntity
  8
4
  6
DASHDOT
 62
     1
100
AcDbLine
 10
1032.659231708798
 20
205.8521027794523
 30
0.0
 11
1048.659231708798
 21
205.8521027794523
 31
0.0
  0
LINE
  5
1B5
330
1F
100
AcDbEntity
  8
3
  6
HIDDEN
 62
     3
100
AcDbLine
 10
997.159231708798
 20
640.8521027794541
 30
0.0
 11
997.159231708798
 21
216.8521027794541
 31
0.0
  0
LINE
  5
1B6
330
1F
100
AcDbEntity
  8
3
  6
HIDDEN
 62
     3
100
AcDbLine
 10
1002.159231708798
 20
640.8521027794541
 30
0.0
 11
1002.159231708798
 21
216.8521027794541
 31
0.0
  0
LINE
  5
1B7
330
1F
100
AcDbEntity
  8
3
  6
HIDDEN
 62
     3
100
AcDbLine
 10
997.159231708798
 20
640.8521027794541
 30
0.0
 11
1002.159231708798
 21
640.8521027794541
 31
0.0
  0
LINE
  5
1B8
330
1F
100
AcDbEntity
  8
3
  6
HIDDEN
 62
     3
100
AcDbLine
 10
997.159231708798
 20
216.8521027794541
 30
0.0
 11
1002.159231708798
 21
216.8521027794541
 31
0.0
  0
LINE
  5
1B9
330
1F
100
AcDbEntity
  8
3
  6
HIDDEN
 62
     3
100
AcDbLine
 10
1041.159231708798
 20
456.3521027794523
 30
0.0
 11
996.159231708798
 21
456.3521027794523
 31
0.0
  0
LINE
  5
1BA
330
1F
100
AcDbEntity
  8
3
  6
HIDDEN
 62
     3
100
AcDbLine
 10
1040.159231708797
 20
461.3521027794523
 30
0.0
 11
1002.159231708798
 21
461.3521027794523
 31
0.0
  0
CIRCLE
  5
1BB
330
1F
100
AcDbEntity
  8
9
  6
CONTINUOUS
 62
     7
100
AcDbCircle
 10
570.2492615386191
 20
428.8521027794523
 30
0.0
 40
27.5
  0
CIRCLE
  5
1BC
330
1F
100
AcDbEntity
  8
3
  6
HIDDEN
 62
     3
100
AcDbCircle
 10
570.2492615386191
 20
428.8521027794523
 30
0.0
 40
32.5
  0
LINE
  5
1BD
330
1F
100
AcDbEntity
  8
3
  6
HIDDEN
 62
     3
100
AcDbLine
 10
1041.159231708798
 20
401.3521027794523
 30
0.0
 11
996.159231708798
 21
401.3521027794523
 31
0.0
  0
LINE
  5
1BE
330
1F
100
AcDbEntity
  8
3
  6
HIDDEN
 62
     3
100
AcDbLine
 10
1040.159231708797
 20
396.3521027794523
 30
0.0
 11
1002.159231708798
 21
396.3521027794523
 31
0.0
  0
HATCH
  5
1BF
330
1F
100
AcDbEntity
  8
10
  6
CONTINUOUS
 62
     2
100
AcDbHatch
 10
0.0
 20
0.0
 30
0.0
210
0.0
220
0.0
230
1.0
  2

 70
     0
 71
     0
 91
        4
 92
        0
 93
       40
 72
     1
 10
820.249261538569
 20
628.8521027794523
 11
570.249261538569
 21
628.8521027794523
 72
     1
 10
570.249261538569
 20
628.8521027794523
 11
570.249261538569
 21
461.3521027794523
 72
     1
 10
570.2492615386175
 20
461.3521027794523
 11
571.666891627991
 21
461.3211699808627
 72
     1
 10
571.666891627991
 20
461.3211699808627
 11
573.0818231779166
 21
461.228430467434
 72
     1
 10
573.0818231779166
 20
461.228430467434
 11
574.4913627857694
 21
461.0740607741011
 72
     1
 10
574.4913627857694
 20
461.0740607741011
 11
575.892827312793
 21
460.858354752349
 72
     1
 10
575.892827312793
 20
460.858354752349
 11
577.2835489916062
 21
460.5817230108501
 72
     1
 10
577.2835489916062
 20
460.5817230108501
 11
578.6608805044498
 21
460.244692133847
 72
     1
 10
578.6608805044498
 20
460.244692133847
 11
580.0222000225068
 21
459.8479036787696
 72
     1
 10
580.0222000225068
 20
459.8479036787696
 11
581.3649161967022
 21
459.3921129549942
 72
     1
 10
581.3649161967022
 20
459.3921129549942
 11
582.6864730904834
 21
458.878187586069
 72
     1
 10
582.6864730904834
 20
458.878187586069
 11
583.9843550451908
 21
458.3071058581433
 72
     1
 10
583.9843550451908
 20
458.3071058581433
 11
585.2560914687567
 21
457.6799548577443
 72
     1
 10
585.2560914687567
 20
457.6799548577443
 11
586.4992615386182
 21
456.9979284024463
 72
     1
 10
586.4992615386182
 20
456.9979284024463
 11
587.71149880989
 21
456.2623247683708
 72
     1
 10
587.71149880989
 20
456.2623247683708
 11
588.8904957200273
 21
455.4745442188442
 72
     1
 10
588.8904957200273
 20
455.4745442188442
 11
590.0340079814018
 21
454.6360863389172
 72
     1
 10
590.0340079814018
 20
454.6360863389172
 11
591.139858853431
 21
453.7485471808187
 72
     1
 10
591.139858853431
 20
453.7485471808187
 11
592.2059432861274
 21
452.8136162257809
 72
     1
 10
592.2059432861274
 20
452.8136162257809
 11
593.2302319271813
 21
451.8330731680147
 72
     1
 10
593.2302319271813
 20
451.8330731680147
 11
594.2107749849475
 21
450.8087845269608
 72
     1
 10
594.2107749849475
 20
450.8087845269608
 11
595.1457059399854
 21
449.7427000942643
 72
     1
 10
595.1457059399854
 20
449.7427000942643
 11
596.0332450980837
 21
448.6368492222351
 72
     1
 10
596.0332450980837
 20
448.6368492222351
 11
596.8717029780108
 21
447.4933369608607
 72
     1
 10
596.8717029780108
 20
447.4933369608607
 11
597.6594835275374
 21
446.3143400507234
 72
     1
 10
597.6594835275374
 20
446.3143400507234
 11
598.395087161613
 21
445.1021027794516
 72
     1
 10
598.395087161613
 20
445.1021027794516
 11
599.077113616911
 21
443.8589327095901
 72
     1
 10
599.077113616911
 20
443.8589327095901
 11
599.70426461731
 21
442.5871962860242
 72
     1
 10
599.70426461731
 20
442.5871962860242
 11
600.2753463452356
 21
441.2893143313169
 72
     1
 10
600.2753463452356
 20
441.2893143313169
 11
600.7892717141608
 21
439.9677574375356
 72
     1
 10
600.7892717141608
 20
439.9677574375356
 11
601.2450624379362
 21
438.6250412633402
 72
     1
 10
601.2450624379362
 20
438.6250412633402
 11
601.6418508930136
 21
437.2637217452832
 72
     1
 10
601.6418508930136
 20
437.2637217452832
 11
601.9788817700166
 21
435.8863902324395
 72
     1
 10
601.9788817700166
 20
435.8863902324395
 11
602.2555135115157
 21
434.4956685536264
 72
     1
 10
602.2555135115157
 20
434.4956685536264
 11
602.4712195332677
 21
433.0942040266028
 72
     1
 10
602.4712195332677
 20
433.0942040266028
 11
602.6255892266006
 21
431.6846644187499
 72
     1
 10
602.6255892266006
 20
431.6846644187499
 11
602.7183287400293
 21
430.2697328688243
 72
     1
 10
602.7183287400293
 20
430.2697328688243
 11
602.7492615386188
 21
428.8521027794509
 72
     1
 10
602.7492615386191
 20
428.8521027794523
 11
820.249261538569
 21
428.8521027794523
 72
     1
 10
820.249261538569
 20
428.8521027794523
 11
820.249261538569
 21
628.8521027794523
 97
        0
 92
        0
 93
       40
 72
     1
 10
570.249261538569
 20
628.8521027794523
 11
320.249261538569
 21
628.8521027794523
 72
     1
 10
320.249261538569
 20
628.8521027794523
 11
320.249261538569
 21
428.8521027794523
 72
     1
 10
320.249261538569
 20
428.8521027794523
 11
537.7492615386191
 21
428.8521027794523
 72
     1
 10
537.7492615386191
 20
428.852102779453
 11
537.7801943372087
 21
430.2697328688264
 72
     1
 10
537.7801943372087
 20
430.2697328688264
 11
537.8729338506373
 21
431.6846644187519
 72
     1
 10
537.8729338506373
 20
431.6846644187519
 11
538.0273035439702
 21
433.0942040266046
 72
     1
 10
538.0273035439702
 20
433.0942040266046
 11
538.2430095657223
 21
434.4956685536282
 72
     1
 10
538.2430095657223
 20
434.4956685536282
 11
538.5196413072213
 21
435.8863902324413
 72
     1
 10
538.5196413072213
 20
435.8863902324413
 11
538.8566721842244
 21
437.2637217452849
 72
     1
 10
538.8566721842244
 20
437.2637217452849
 11
539.2534606393017
 21
438.6250412633418
 72
     1
 10
539.2534606393017
 20
438.6250412633418
 11
539.7092513630771
 21
439.9677574375372
 72
     1
 10
539.7092513630771
 20
439.9677574375372
 11
540.2231767320022
 21
441.2893143313184
 72
     1
 10
540.2231767320022
 20
441.2893143313184
 11
540.794258459928
 21
442.5871962860257
 72
     1
 10
540.794258459928
 20
442.5871962860257
 11
541.4214094603269
 21
443.8589327095916
 72
     1
 10
541.4214094603269
 20
443.8589327095916
 11
542.1034359156248
 21
445.1021027794529
 72
     1
 10
542.1034359156248
 20
445.1021027794529
 11
542.8390395497004
 21
446.3143400507247
 72
     1
 10
542.8390395497004
 20
446.3143400507247
 11
543.6268200992268
 21
447.4933369608619
 72
     1
 10
543.6268200992268
 20
447.4933369608619
 11
544.4652779791539
 21
448.6368492222364
 72
     1
 10
544.4652779791539
 20
448.6368492222364
 11
545.3528171372524
 21
449.7427000942654
 72
     1
 10
545.3528171372524
 20
449.7427000942654
 11
546.28774809229
 21
450.8087845269619
 72
     1
 10
546.28774809229
 20
450.8087845269619
 11
547.2682911500564
 21
451.8330731680157
 72
     1
 10
547.2682911500564
 20
451.8330731680157
 11
548.2925797911101
 21
452.813616225782
 72
     1
 10
548.2925797911101
 20
452.813616225782
 11
549.3586642238066
 21
453.7485471808197
 72
     1
 10
549.3586642238066
 20
453.7485471808197
 11
550.4645150958357
 21
454.6360863389181
 72
     1
 10
550.4645150958357
 20
454.6360863389181
 11
551.6080273572102
 21
455.4745442188452
 72
     1
 10
551.6080273572102
 20
455.4745442188452
 11
552.7870242673473
 21
456.2623247683717
 72
     1
 10
552.7870242673473
 20
456.2623247683717
 11
553.9992615386191
 21
456.9979284024471
 72
     1
 10
553.9992615386191
 20
456.9979284024471
 11
555.2424316084805
 21
457.6799548577451
 72
     1
 10
555.2424316084805
 20
457.6799548577451
 11
556.5141680320464
 21
458.307105858144
 72
     1
 10
556.5141680320464
 20
458.307105858144
 11
557.8120499867537
 21
458.8781875860697
 72
     1
 10
557.8120499867537
 20
458.8781875860697
 11
559.1336068805349
 21
459.3921129549949
 72
     1
 10
559.1336068805349
 20
459.3921129549949
 11
560.4763230547303
 21
459.8479036787703
 72
     1
 10
560.4763230547303
 20
459.8479036787703
 11
561.8376425727872
 21
460.2446921338476
 72
     1
 10
561.8376425727872
 20
460.2446921338476
 11
563.2149740856307
 21
460.5817230108507
 72
     1
 10
563.2149740856307
 20
460.5817230108507
 11
564.6056957644439
 21
460.8583547523497
 72
     1
 10
564.6056957644439
 20
460.8583547523497
 11
566.0071602914675
 21
461.0740607741017
 72
     1
 10
566.0071602914675
 20
461.0740607741017
 11
567.4166998993202
 21
461.2284304674346
 72
     1
 10
567.4166998993202
 20
461.2284304674346
 11
568.8316314492457
 21
461.3211699808633
 72
     1
 10
568.8316314492457
 20
461.3211699808633
 11
570.2492615386191
 21
461.3521027794529
 72
     1
 10
570.249261538569
 20
461.3521027794523
 11
570.249261538569
 21
628.8521027794523
 97
        0
 92
        0
 93
       40
 72
     1
 10
537.74926153862
 20
428.8521027794538
 11
537.7801943372095
 21
427.4344726900804
 72
     1
 10
537.7801943372095
 20
427.4344726900804
 11
537.8729338506382
 21
426.0195411401548
 72
     1
 10
537.8729338506382
 20
426.0195411401548
 11
538.0273035439711
 21
424.610001532302
 72
     1
 10
538.0273035439711
 20
424.610001532302
 11
538.2430095657231
 21
423.2085370052783
 72
     1
 10
538.2430095657231
 20
423.2085370052783
 11
538.5196413072221
 21
421.8178153264652
 72
     1
 10
538.5196413072221
 20
421.8178153264652
 11
538.8566721842252
 21
420.4404838136215
 72
     1
 10
538.8566721842252
 20
420.4404838136215
 11
539.2534606393026
 21
419.0791642955645
 72
     1
 10
539.2534606393026
 20
419.0791642955645
 11
539.7092513630779
 21
417.7364481213691
 72
     1
 10
539.7092513630779
 20
417.7364481213691
 11
540.2231767320031
 21
416.4148912275879
 72
     1
 10
540.2231767320031
 20
416.4148912275879
 11
540.7942584599289
 21
415.1170092728805
 72
     1
 10
540.7942584599289
 20
415.1170092728805
 11
541.4214094603278
 21
413.8452728493146
 72
     1
 10
541.4214094603278
 20
413.8452728493146
 11
542.1034359156258
 21
412.6021027794531
 72
     1
 10
542.1034359156258
 20
412.6021027794531
 11
542.8390395497013
 21
411.3898655081813
 72
     1
 10
542.8390395497013
 20
411.3898655081813
 11
543.6268200992279
 21
410.210868598044
 72
     1
 10
543.6268200992279
 20
410.210868598044
 11
544.465277979155
 21
409.0673563366695
 72
     1
 10
544.465277979155
 20
409.0673563366695
 11
545.3528171372534
 21
407.9615054646404
 72
     1
 10
545.3528171372534
 20
407.9615054646404
 11
546.2877480922912
 21
406.8954210319439
 72
     1
 10
546.2877480922912
 20
406.8954210319439
 11
547.2682911500574
 21
405.87113239089
 72
     1
 10
547.2682911500574
 20
405.87113239089
 11
548.2925797911113
 21
404.8905893331237
 72
     1
 10
548.2925797911113
 20
404.8905893331237
 11
549.3586642238078
 21
403.955658378086
 72
     1
 10
549.3586642238078
 20
403.955658378086
 11
550.464515095837
 21
403.0681192199875
 72
     1
 10
550.464515095837
 20
403.0681192199875
 11
551.6080273572114
 21
402.2296613400604
 72
     1
 10
551.6080273572114
 20
402.2296613400604
 11
552.7870242673487
 21
401.4418807905338
 72
     1
 10
552.7870242673487
 20
401.4418807905338
 11
553.9992615386205
 21
400.7062771564583
 72
     1
 10
553.9992615386205
 20
400.7062771564583
 11
555.242431608482
 21
400.0242507011603
 72
     1
 10
555.242431608482
 20
400.0242507011603
 11
556.5141680320479
 21
399.3970997007614
 72
     1
 10
556.5141680320479
 20
399.3970997007614
 11
557.8120499867553
 21
398.8260179728356
 72
     1
 10
557.8120499867553
 20
398.8260179728356
 11
559.1336068805365
 21
398.3120926039104
 72
     1
 10
559.1336068805365
 20
398.3120926039104
 11
560.4763230547319
 21
397.856301880135
 72
     1
 10
560.4763230547319
 20
397.856301880135
 11
561.8376425727889
 21
397.4595134250577
 72
     1
 10
561.8376425727889
 20
397.4595134250577
 11
563.2149740856325
 21
397.1224825480546
 72
     1
 10
563.2149740856325
 20
397.1224825480546
 11
564.6056957644457
 21
396.8458508065556
 72
     1
 10
564.6056957644457
 20
396.8458508065556
 11
566.0071602914693
 21
396.6301447848035
 72
     1
 10
566.0071602914693
 20
396.6301447848035
 11
567.4166998993222
 21
396.4757750914706
 72
     1
 10
567.4166998993222
 20
396.4757750914706
 11
568.8316314492478
 21
396.3830355780419
 72
     1
 10
568.8316314492478
 20
396.3830355780419
 11
570.2492615386212
 21
396.3521027794523
 72
     1
 10
570.249261538569
 20
396.3521027794523
 11
570.249261538569
 21
228.8521027794523
 72
     1
 10
570.249261538569
 20
228.8521027794523
 11
320.249261538569
 21
228.8521027794523
 72
     1
 10
320.249261538569
 20
228.8521027794523
 11
320.249261538569
 21
428.8521027794523
 72
     1
 10
320.249261538569
 20
428.8521027794523
 11
537.7492615386191
 21
428.8521027794523
 97
        0
 92
        0
 93
       40
 72
     1
 10
820.249261538569
 20
428.8521027794523
 11
602.7492615386191
 21
428.8521027794523
 72
     1
 10
602.7492615386191
 20
428.8521027794509
 11
602.7183287400294
 21
427.4344726900775
 72
     1
 10
602.7183287400294
 20
427.4344726900775
 11
602.6255892266008
 21
426.0195411401521
 72
     1
 10
602.6255892266008
 20
426.0195411401521
 11
602.4712195332679
 21
424.6100015322993
 72
     1
 10
602.4712195332679
 20
424.6100015322993
 11
602.2555135115158
 21
423.2085370052757
 72
     1
 10
602.2555135115158
 20
423.2085370052757
 11
601.9788817700169
 21
421.8178153264626
 72
     1
 10
601.9788817700169
 20
421.8178153264626
 11
601.6418508930137
 21
420.440483813619
 72
     1
 10
601.6418508930137
 20
420.440483813619
 11
601.2450624379363
 21
419.0791642955621
 72
     1
 10
601.2450624379363
 20
419.0791642955621
 11
600.789271714161
 21
417.7364481213667
 72
     1
 10
600.789271714161
 20
417.7364481213667
 11
600.2753463452358
 21
416.4148912275855
 72
     1
 10
600.2753463452358
 20
416.4148912275855
 11
599.7042646173101
 21
415.1170092728782
 72
     1
 10
599.7042646173101
 20
415.1170092728782
 11
599.0771136169112
 21
413.8452728493123
 72
     1
 10
599.0771136169112
 20
413.8452728493123
 11
598.3950871616132
 21
412.6021027794509
 72
     1
 10
598.3950871616132
 20
412.6021027794509
 11
597.6594835275378
 21
411.3898655081792
 72
     1
 10
597.6594835275378
 20
411.3898655081792
 11
596.8717029780112
 21
410.2108685980419
 72
     1
 10
596.8717029780112
 20
410.2108685980419
 11
596.0332450980841
 21
409.0673563366676
 72
     1
 10
596.0332450980841
 20
409.0673563366676
 11
595.1457059399858
 21
407.9615054646384
 72
     1
 10
595.1457059399858
 20
407.9615054646384
 11
594.210774984948
 21
406.895421031942
 72
     1
 10
594.210774984948
 20
406.895421031942
 11
593.2302319271816
 21
405.8711323908882
 72
     1
 10
593.2302319271816
 20
405.8711323908882
 11
592.2059432861279
 21
404.890589333122
 72
     1
 10
592.2059432861279
 20
404.890589333122
 11
591.1398588534314
 21
403.9556583780842
 72
     1
 10
591.1398588534314
 20
403.9556583780842
 11
590.0340079814023
 21
403.0681192199858
 72
     1
 10
590.0340079814023
 20
403.0681192199858
 11
588.8904957200278
 21
402.2296613400587
 72
     1
 10
588.8904957200278
 20
402.2296613400587
 11
587.7114988098906
 21
401.4418807905322
 72
     1
 10
587.7114988098906
 20
401.4418807905322
 11
586.4992615386188
 21
400.7062771564567
 72
     1
 10
586.4992615386188
 20
400.7062771564567
 11
585.2560914687574
 21
400.0242507011588
 72
     1
 10
585.2560914687574
 20
400.0242507011588
 11
583.9843550451916
 21
399.3970997007599
 72
     1
 10
583.9843550451916
 20
399.3970997007599
 11
582.6864730904842
 21
398.8260179728342
 72
     1
 10
582.6864730904842
 20
398.8260179728342
 11
581.3649161967031
 21
398.312092603909
 72
     1
 10
581.3649161967031
 20
398.312092603909
 11
580.0222000225077
 21
397.8563018801336
 72
     1
 10
580.0222000225077
 20
397.8563018801336
 11
578.6608805044508
 21
397.4595134250563
 72
     1
 10
578.6608805044508
 20
397.4595134250563
 11
577.2835489916072
 21
397.1224825480532
 72
     1
 10
577.2835489916072
 20
397.1224825480532
 11
575.892827312794
 21
396.8458508065543
 72
     1
 10
575.892827312794
 20
396.8458508065543
 11
574.4913627857704
 21
396.6301447848022
 72
     1
 10
574.4913627857704
 20
396.6301447848022
 11
573.0818231779177
 21
396.4757750914693
 72
     1
 10
573.0818231779177
 20
396.4757750914693
 11
571.6668916279922
 21
396.3830355780407
 72
     1
 10
571.6668916279922
 20
396.3830355780407
 11
570.2492615386188
 21
396.3521027794511
 72
     1
 10
570.249261538569
 20
396.3521027794523
 11
570.249261538569
 21
228.8521027794523
 72
     1
 10
570.249261538569
 20
228.8521027794523
 11
820.249261538569
 21
228.8521027794523
 72
     1
 10
820.249261538569
 20
228.8521027794523
 11
820.249261538569
 21
428.8521027794523
 97
        0
 75
     0
 76
     2
 52
0.0
 41
0.3333333333333333
 77
     0
 78
     2
 53
45.0
 43
-6609.873473919099
 44
10344.66243691063
 45
-10.10278813620243
 46
10.10278813620243
 79
     0
 53
135.0
 43
-6609.873473919099
 44
10344.66243691063
 45
-10.10278813620243
 46
-10.10278813620243
 79
     0
 98
        0
  0
DIMENSION
  5
1C8
330
1F
100
AcDbEntity
  8
8
  6
CONTINUOUS
 62
     4
100
AcDbDimension
  2
DIM1
 10
562.7199823185343
 20
402.4029070558428
 30
0.0
 11
638.7146306540475
 21
685.7962127631691
 31
0.0
 70
   163
  1
<>
  3
STANDARD
100
AcDbDiametricDimension
 15
577.778540758702
 25
455.3012985030689
 35
0.0
 40
0.0
1001
ACAD
1000
DSTYLE
1002
{
1070
   287
1070
     2
1070
     7
1000

1070
     6
1000

1070
   340
1005
1C0
1070
   140
1040
9.0
1070
    40
1040
1.0
1070
   147
1040
0.0
1070
    76
1070
     0
1070
    75
1070
     0
1070
   173
1070
     1
1070
   289
1070
     2
1070
   288
1070
     1
1070
    77
1070
     1
1070
   172
1070
     1
1070
   174
1070
     0
1070
    74
1070
     0
1070
    73
1070
     0
1070
   284
1070
     8
1070
    78
1070
     8
1070
    42
1040
3.0
1070
    44
1040
4.5
1070
    43
1040
30.0
1070
   271
1070
     2
1070
    41
1040
6.0
1002
}
  0
DIMENSION
  5
1D0
330
1F
100
AcDbEntity
  8
8
  6
CONTINUOUS
 62
     4
100
AcDbDimension
  2
DIM2
 10
552.5593231556761
 20
401.5882791296424
 30
0.0
 11
731.4605668391329
 21
685.579203787741
 31
0.0
 70
   163
  1
<>
  3
STANDARD
100
AcDbDiametricDimension
 15
587.9391999215638
 25
456.1159264292584
 35
0.0
 40
0.0
1001
ACAD
1000
DSTYLE
1002
{
1070
   287
1070
     2
1070
     7
1000

1070
     6
1000

1070
   340
1005
1C0
1070
   140
1040
9.0
1070
    40
1040
1.0
1070
   147
1040
0.0
1070
    76
1070
     0
1070
    75
1070
     0
1070
   173
1070
     1
1070
   289
1070
     2
1070
   288
1070
     1
1070
    77
1070
     1
1070
   172
1070
     1
1070
   174
1070
     0
1070
    74
1070
     0
1070
    73
1070
     0
1070
   284
1070
     8
1070
    78
1070
     8
1070
    42
1040
3.0
1070
    44
1040
4.5
1070
    43
1040
30.0
1070
   271
1070
     2
1070
    41
1040
6.0
1002
}
  0
INSERT
  5
1D1
330
1F
100
AcDbEntity
  8
8
  6
CONTINUOUS
 62
     4
100
AcDbBlockReference
  2
_OPEN
 10
346.7992615385692
 20
654.536781531182
 30
0.0
 41
18.0
 42
18.0
 43
18.0
 50
240.0000000000004
  0
POLYLINE
  5
1D2
330
1F
100
AcDbEntity
  8
8
  6
CONTINUOUS
 62
     4
100
AcDb2dPolyline
 66
     1
 10
0.0
 20
0.0
 30
0.0
  0
VERTEX
  5
1D3
330
1D2
100
AcDbEntity
  8
8
  6
CONTINUOUS
 62
     4
100
AcDbVertex
100
AcDb2dVertex
 10
346.7992615385692
 20
654.536781531182
 30
0.0
  0
VERTEX
  5
1D4
330
1D2
100
AcDbEntity
  8
8
  6
CONTINUOUS
 62
     4
100
AcDbVertex
100
AcDb2dVertex
 10
367.0492615385692
 20
689.6108103844526
 30
0.0
  0
VERTEX
  5
1D5
330
1D2
100
AcDbEntity
  8
8
  6
CONTINUOUS
 62
     4
100
AcDbVertex
100
AcDb2dVertex
 10
410.1292615385692
 20
689.6108103844526
 30
0.0
  0
SEQEND
  5
1D6
330
1D2
100
AcDbEntity
  8
8
  6
CONTINUOUS
 62
     4
  0
MTEXT
  5
1D7
330
1F
100
AcDbEntity
  8
8
  6
CONTINUOUS
 62
     4
100
AcDbMText
 10
374.1292615385692
 20
691.4108103844526
 30
0.0
 40
9.0
 41
51.46186499999998
 71
     7
 72
     1
  1
{\fＭＳ ゴシック;\T0.750000;10-φ6.2}
1001
ACAD
1000
ACAD_MTEXT_DEFINED_HEIGHT_BEGIN
1070
    46
1040
9.0
1000
ACAD_MTEXT_DEFINED_HEIGHT_END
  0
DIMENSION
  5
1E1
330
1F
100
AcDbEntity
  8
8
  6
CONTINUOUS
 62
     4
100
AcDbDimension
  2
DIM3
 10
682.749261538569
 20
162.8521027794523
 30
0.0
 11
626.499261538569
 21
162.8521027794523
 31
0.0
 70
   160
  1
<>
  3
STANDARD
100
AcDbAlignedDimension
 13
570.249261538569
 23
183.8521027794523
 33
0.0
 14
682.749261538569
 24
195.2521027794519
 34
0.0
100
AcDbRotatedDimension
1001
ACAD
1000
DSTYLE
1002
{
1070
   287
1070
     4
1070
     7
1000

1070
     6
1000

1070
   279
1070
     1
1070
   340
1005
1C0
1070
   140
1040
9.0
1070
    40
1040
1.0
1070
   147
1040
0.0
1070
    76
1070
     0
1070
    75
1070
     0
1070
   173
1070
     1
1070
   289
1070
     2
1070
   288
1070
     1
1070
    77
1070
     1
1070
   172
1070
     1
1070
   174
1070
     0
1070
    74
1070
     0
1070
    73
1070
     0
1070
   284
1070
     8
1070
    78
1070
     8
1070
    42
1040
3.0
1070
    44
1040
4.5
1070
    43
1040
30.0
1070
   271
1070
     2
1070
    41
1040
6.0
1002
}
  0
DIMENSION
  5
1EB
330
1F
100
AcDbEntity
  8
8
  6
CONTINUOUS
 62
     4
100
AcDbDimension
  2
DIM4
 10
795.249261538569
 20
162.8521027794523
 30
0.0
 11
738.999261538569
 21
162.8521027794523
 31
0.0
 70
   160
  1
<>
  3
STANDARD
100
AcDbAlignedDimension
 13
682.749261538569
 23
195.2521027794519
 33
0.0
 14
795.249261538569
 24
195.2521027794519
 34
0.0
100
AcDbRotatedDimension
1001
ACAD
1000
DSTYLE
1002
{
1070
   287
1070
     4
1070
     7
1000

1070
     6
1000

1070
   279
1070
     1
1070
   340
1005
1C0
1070
   140
1040
9.0
1070
    40
1040
1.0
1070
   147
1040
0.0
1070
    76
1070
     0
1070
    75
1070
     0
1070
   173
1070
     1
1070
   289
1070
     2
1070
   288
1070
     1
1070
    77
1070
     1
1070
   172
1070
     1
1070
   174
1070
     0
1070
    74
1070
     0
1070
    73
1070
     0
1070
   284
1070
     8
1070
    78
1070
     8
1070
    42
1040
3.0
1070
    44
1040
4.5
1070
    43
1040
30.0
1070
   271
1070
     2
1070
    41
1040
6.0
1002
}
  0
DIMENSION
  5
1F5
330
1F
100
AcDbEntity
  8
8
  6
CONTINUOUS
 62
     4
100
AcDbDimension
  2
DIM5
 10
345.2492615385689
 20
162.8521027794523
 30
0.0
 11
401.4993870677599
 21
162.8521027794523
 31
0.0
 70
   160
  1
<>
  3
STANDARD
100
AcDbAlignedDimension
 13
457.7495125969517
 23
195.2521027794519
 33
0.0
 14
345.249261538569
 24
195.2521027794519
 34
0.0
 50
179.9999999999998
100
AcDbRotatedDimension
1001
ACAD
1000
DSTYLE
1002
{
1070
   287
1070
     4
1070
     7
1000

1070
     6
1000

1070
   279
1070
     1
1070
   340
1005
1C0
1070
   140
1040
9.0
1070
    40
1040
1.0
1070
   147
1040
0.0
1070
    76
1070
     0
1070
    75
1070
     0
1070
   173
1070
     1
1070
   289
1070
     2
1070
   288
1070
     1
1070
    77
1070
     1
1070
   172
1070
     1
1070
   174
1070
     0
1070
    74
1070
     0
1070
    73
1070
     0
1070
   284
1070
     8
1070
    78
1070
     8
1070
    42
1040
3.0
1070
    44
1040
4.5
1070
    43
1040
30.0
1070
   271
1070
     2
1070
    41
1040
6.0
1002
}
  0
DIMENSION
  5
1FF
330
1F
100
AcDbEntity
  8
8
  6
CONTINUOUS
 62
     4
100
AcDbDimension
  2
DIM6
 10
820.2492615385689
 20
138.8521027794523
 30
0.0
 11
570.249261538569
 21
138.8521027794523
 31
0.0
 70
   160
  1
<>
  3
STANDARD
100
AcDbAlignedDimension
 13
320.249261538569
 23
228.8521027794523
 33
0.0
 14
820.249261538569
 24
228.8521027794523
 34
0.0
100
AcDbRotatedDimension
1001
ACAD
1000
DSTYLE
1002
{
1070
   287
1070
     4
1070
     7
1000

1070
     6
1000

1070
   279
1070
     1
1070
   340
1005
1C0
1070
   140
1040
9.0
1070
    40
1040
1.0
1070
   147
1040
0.0
1070
    76
1070
     0
1070
    75
1070
     0
1070
   173
1070
     1
1070
   289
1070
     2
1070
   288
1070
     1
1070
    77
1070
     1
1070
   172
1070
     1
1070
   174
1070
     0
1070
    74
1070
     0
1070
    73
1070
     0
1070
   284
1070
     8
1070
    78
1070
     8
1070
    42
1040
3.0
1070
    44
1040
4.5
1070
    43
1040
30.0
1070
   271
1070
     2
1070
    41
1040
6.0
1002
}
  0
DIMENSION
  5
209
330
1F
100
AcDbEntity
  8
8
  6
CONTINUOUS
 62
     4
100
AcDbDimension
  2
DIM7
 10
835.2492615385689
 20
114.8521027794523
 30
0.0
 11
570.249261538569
 21
114.8521027794523
 31
0.0
 70
   160
  1
<>
  3
STANDARD
100
AcDbAlignedDimension
 13
305.249261538569
 23
213.8521027794523
 33
0.0
 14
835.249261538569
 24
213.8521027794523
 34
0.0
100
AcDbRotatedDimension
1001
ACAD
1000
DSTYLE
1002
{
1070
   287
1070
     4
1070
     7
1000

1070
     6
1000

1070
   279
1070
     1
1070
   340
1005
1C0
1070
   140
1040
9.0
1070
    40
1040
1.0
1070
   147
1040
0.0
1070
    76
1070
     0
1070
    75
1070
     0
1070
   173
1070
     1
1070
   289
1070
     2
1070
   288
1070
     1
1070
    77
1070
     1
1070
   172
1070
     1
1070
   174
1070
     0
1070
    74
1070
     0
1070
    73
1070
     0
1070
   284
1070
     8
1070
    78
1070
     8
1070
    42
1040
3.0
1070
    44
1040
4.5
1070
    43
1040
30.0
1070
   271
1070
     2
1070
    41
1040
6.0
1002
}
  0
DIMENSION
  5
213
330
1F
100
AcDbEntity
  8
8
  6
CONTINUOUS
 62
     4
100
AcDbDimension
  2
DIM8
 10
281.249261538569
 20
628.8521027794524
 30
0.0
 11
281.249261538569
 21
428.8521027794523
 31
0.0
 70
   160
  1
<>
  3
STANDARD
100
AcDbAlignedDimension
 13
320.249261538569
 23
228.8521027794523
 33
0.0
 14
320.249261538569
 24
628.8521027794523
 34
0.0
 50
89.99999999999991
100
AcDbRotatedDimension
1001
ACAD
1000
DSTYLE
1002
{
1070
   287
1070
     4
1070
     7
1000

1070
     6
1000

1070
   279
1070
     1
1070
   340
1005
1C0
1070
   140
1040
9.0
1070
    40
1040
1.0
1070
   147
1040
0.0
1070
    76
1070
     0
1070
    75
1070
     0
1070
   173
1070
     1
1070
   289
1070
     2
1070
   288
1070
     1
1070
    77
1070
     1
1070
   172
1070
     1
1070
   174
1070
     0
1070
    74
1070
     0
1070
    73
1070
     0
1070
   284
1070
     8
1070
    78
1070
     8
1070
    42
1040
3.0
1070
    44
1040
4.5
1070
    43
1040
30.0
1070
   271
1070
     2
1070
    41
1040
6.0
1002
}
  0
DIMENSION
  5
21D
330
1F
100
AcDbEntity
  8
8
  6
CONTINUOUS
 62
     4
100
AcDbDimension
  2
DIM9
 10
257.249261538569
 20
213.8521027794525
 30
0.0
 11
257.249261538569
 21
428.8521027794524
 31
0.0
 70
   160
  1
<>
 53
89.99999999999991
  3
STANDARD
100
AcDbAlignedDimension
 13
305.249261538569
 23
643.8521027794523
 33
0.0
 14
305.249261538569
 24
213.8521027794523
 34
0.0
 50
-89.99999999999991
100
AcDbRotatedDimension
1001
ACAD
1000
DSTYLE
1002
{
1070
   287
1070
     4
1070
     7
1000

1070
     6
1000

1070
   279
1070
     1
1070
   340
1005
1C0
1070
   140
1040
9.0
1070
    40
1040
1.0
1070
   147
1040
0.0
1070
    76
1070
     0
1070
    75
1070
     0
1070
   173
1070
     1
1070
   289
1070
     2
1070
   288
1070
     1
1070
    77
1070
     1
1070
   172
1070
     1
1070
   174
1070
     0
1070
    74
1070
     0
1070
    73
1070
     0
1070
   284
1070
     8
1070
    78
1070
     8
1070
    42
1040
3.0
1070
    44
1040
4.5
1070
    43
1040
30.0
1070
   271
1070
     2
1070
    41
1040
6.0
1002
}
  0
DIMENSION
  5
227
330
1F
100
AcDbEntity
  8
8
  6
CONTINUOUS
 62
     4
100
AcDbDimension
  2
DIM10
 10
870.2492615385722
 20
114.8521027794523
 30
0.0
 11
852.7492615385709
 21
114.8521027794523
 31
0.0
 70
   160
  1
<>
  3
STANDARD
100
AcDbAlignedDimension
 13
835.249261538569
 23
213.8521027794523
 33
0.0
 14
870.2492615385727
 24
405.8521027794541
 34
0.0
100
AcDbRotatedDimension
1001
ACAD
1000
DSTYLE
1002
{
1070
   287
1070
     4
1070
     7
1000

1070
     6
1000

1070
   279
1070
     1
1070
   340
1005
1C0
1070
   140
1040
9.0
1070
    40
1040
1.0
1070
   147
1040
0.0
1070
    76
1070
     0
1070
    75
1070
     0
1070
   173
1070
     1
1070
   289
1070
     2
1070
   288
1070
     1
1070
    77
1070
     1
1070
   172
1070
     1
1070
   174
1070
     0
1070
    74
1070
     0
1070
    73
1070
     0
1070
   284
1070
     8
1070
    78
1070
     8
1070
    42
1040
3.0
1070
    44
1040
4.5
1070
    43
1040
30.0
1070
   271
1070
     2
1070
    41
1040
6.0
1002
}
  0
DIMENSION
  5
231
330
1F
100
AcDbEntity
  8
8
  6
CONTINUOUS
 62
     4
100
AcDbDimension
  2
DIM11
 10
209.249261538569
 20
198.8521027794545
 30
0.0
 11
209.249261538569
 21
428.8521027794523
 31
0.0
 70
   160
  1
<>
 53
89.99999999999991
  3
STANDARD
100
AcDbAlignedDimension
 13
325.249261538569
 23
658.8521027794523
 33
0.0
 14
325.249261538569
 24
198.8521027794541
 34
0.0
 50
-89.99999999999991
100
AcDbRotatedDimension
1001
ACAD
1000
DSTYLE
1002
{
1070
   287
1070
     4
1070
     7
1000

1070
     6
1000

1070
   279
1070
     1
1070
   340
1005
1C0
1070
   140
1040
9.0
1070
    40
1040
1.0
1070
   147
1040
0.0
1070
    76
1070
     0
1070
    75
1070
     0
1070
   173
1070
     1
1070
   289
1070
     2
1070
   288
1070
     1
1070
    77
1070
     1
1070
   172
1070
     1
1070
   174
1070
     0
1070
    74
1070
     0
1070
    73
1070
     0
1070
   284
1070
     8
1070
    78
1070
     8
1070
    42
1040
3.0
1070
    44
1040
4.5
1070
    43
1040
30.0
1070
   271
1070
     2
1070
    41
1040
6.0
1002
}
  0
DIMENSION
  5
23B
330
1F
100
AcDbEntity
  8
8
  6
CONTINUOUS
 62
     4
100
AcDbDimension
  2
DIM12
 10
1041.159231708798
 20
114.8521027794523
 30
0.0
 11
1018.659231708798
 21
114.8521027794523
 31
0.0
 70
   160
  1
<>
  3
STANDARD
100
AcDbAlignedDimension
 13
996.159231708798
 23
213.8521027794523
 33
0.0
 14
1041.159231708798
 24
198.8521027794523
 34
0.0
100
AcDbRotatedDimension
1001
ACAD
1000
DSTYLE
1002
{
1070
   287
1070
     4
1070
     7
1000

1070
     6
1000

1070
   279
1070
     1
1070
   340
1005
1C0
1070
   140
1040
9.0
1070
    40
1040
1.0
1070
   147
1040
0.0
1070
    76
1070
     0
1070
    75
1070
     0
1070
   173
1070
     1
1070
   289
1070
     2
1070
   288
1070
     1
1070
    77
1070
     1
1070
   172
1070
     1
1070
   174
1070
     0
1070
    74
1070
     0
1070
    73
1070
     0
1070
   284
1070
     8
1070
    78
1070
     8
1070
    42
1040
3.0
1070
    44
1040
4.5
1070
    43
1040
30.0
1070
   271
1070
     2
1070
    41
1040
6.0
1002
}
  0
DIMENSION
  5
245
330
1F
100
AcDbEntity
  8
8
  6
CONTINUOUS
 62
     4
100
AcDbDimension
  2
DIM13
 10
1041.159231708798
 20
162.8521027794523
 30
0.0
 11
1057.659231708799
 21
162.8521027794523
 31
0.0
 70
   160
  1
<>
  3
STANDARD
100
AcDbAlignedDimension
 13
1040.159231708799
 23
198.8521027794523
 33
0.0
 14
1041.159231708798
 24
198.8521027794523
 34
0.0
100
AcDbRotatedDimension
1001
ACAD
1000
DSTYLE
1002
{
1070
   287
1070
     4
1070
     7
1000

1070
     6
1000

1070
   279
1070
     1
1070
   340
1005
1C0
1070
   140
1040
9.0
1070
    40
1040
1.0
1070
   147
1040
0.0
1070
    76
1070
     0
1070
    75
1070
     0
1070
   173
1070
     1
1070
   289
1070
     2
1070
   288
1070
     1
1070
    77
1070
     1
1070
   172
1070
     1
1070
   174
1070
     0
1070
    74
1070
     0
1070
    73
1070
     0
1070
   284
1070
     8
1070
    78
1070
     8
1070
    42
1040
3.0
1070
    44
1040
4.5
1070
    43
1040
30.0
1070
   271
1070
     2
1070
    41
1040
6.0
1002
}
  0
DIMENSION
  5
24F
330
1F
100
AcDbEntity
  8
8
  6
CONTINUOUS
 62
     4
100
AcDbDimension
  2
DIM14
 10
1007.659231708799
 20
138.8521027794523
 30
0.0
 11
1024.409231708798
 21
138.8521027794523
 31
0.0
 70
   160
  1
<>
  3
STANDARD
100
AcDbAlignedDimension
 13
1041.159231708798
 23
198.8521027794523
 33
0.0
 14
1007.659231708799
 24
405.8521027794523
 34
0.0
 50
179.9999999999998
100
AcDbRotatedDimension
1001
ACAD
1000
DSTYLE
1002
{
1070
   287
1070
     4
1070
     7
1000

1070
     6
1000

1070
   279
1070
     1
1070
   340
1005
1C0
1070
   140
1040
9.0
1070
    40
1040
1.0
1070
   147
1040
0.0
1070
    76
1070
     0
1070
    75
1070
     0
1070
   173
1070
     1
1070
   289
1070
     2
1070
   288
1070
     1
1070
    77
1070
     1
1070
   172
1070
     1
1070
   174
1070
     0
1070
    74
1070
     0
1070
    73
1070
     0
1070
   284
1070
     8
1070
    78
1070
     8
1070
    42
1040
3.0
1070
    44
1040
4.5
1070
    43
1040
30.0
1070
   271
1070
     2
1070
    41
1040
6.0
1002
}
  0
DIMENSION
  5
259
330
1F
100
AcDbEntity
  8
8
  6
CONTINUOUS
 62
     4
100
AcDbDimension
  2
DIM15
 10
233.249261538569
 20
651.8521027794508
 30
0.0
 11
233.249261538569
 21
428.8521027794523
 31
0.0
 70
   160
  1
<>
  3
STANDARD
100
AcDbAlignedDimension
 13
334.6492615385687
 23
205.8521027794523
 33
0.0
 14
334.6492615385687
 24
651.8521027794504
 34
0.0
 50
89.99999999999991
100
AcDbRotatedDimension
1001
ACAD
1000
DSTYLE
1002
{
1070
   287
1070
     4
1070
     7
1000

1070
     6
1000

1070
   279
1070
     1
1070
   340
1005
1C0
1070
   140
1040
9.0
1070
    40
1040
1.0
1070
   147
1040
0.0
1070
    76
1070
     0
1070
    75
1070
     0
1070
   173
1070
     1
1070
   289
1070
     2
1070
   288
1070
     1
1070
    77
1070
     1
1070
   172
1070
     1
1070
   174
1070
     0
1070
    74
1070
     0
1070
    73
1070
     0
1070
   284
1070
     8
1070
    78
1070
     8
1070
    42
1040
3.0
1070
    44
1040
4.5
1070
    43
1040
30.0
1070
   271
1070
     2
1070
    41
1040
6.0
1002
}
  0
DIMENSION
  5
263
330
1F
100
AcDbEntity
  8
8
  6
CONTINUOUS
 62
     4
100
AcDbDimension
  2
DIM16
 10
570.249261538569
 20
162.8521027794523
 30
0.0
 11
513.9993870677604
 21
162.8521027794523
 31
0.0
 70
   160
  1
<>
  3
STANDARD
100
AcDbAlignedDimension
 13
457.7495125969517
 23
195.2521027794519
 33
0.0
 14
570.249261538569
 24
183.8521027794523
 34
0.0
100
AcDbRotatedDimension
1001
ACAD
1000
DSTYLE
1002
{
1070
   287
1070
     4
1070
     7
1000

1070
     6
1000

1070
   279
1070
     1
1070
   340
1005
1C0
1070
   140
1040
9.0
1070
    40
1040
1.0
1070
   147
1040
0.0
1070
    76
1070
     0
1070
    75
1070
     0
1070
   173
1070
     1
1070
   289
1070
     2
1070
   288
1070
     1
1070
    77
1070
     1
1070
   172
1070
     1
1070
   174
1070
     0
1070
    74
1070
     0
1070
    73
1070
     0
1070
   284
1070
     8
1070
    78
1070
     8
1070
    42
1040
3.0
1070
    44
1040
4.5
1070
    43
1040
30.0
1070
   271
1070
     2
1070
    41
1040
6.0
1002
}
  0
VIEWPORT
  5
3F
330
1B
100
AcDbEntity
 67
     1
  8
0
100
AcDbViewport
 10
630.0
 20
445.5
 30
0.0
 40
1260.0
 41
891.0
 68
     1
 69
     1
1001
ACAD
1000
MVIEW
1002
{
1070
    16
1010
0.0
1020
0.0
1030
0.0
1010
0.0
1020
0.0
1030
1.0
1040
0.0
1040
9.0
1040
630.0
1040
445.5
1040
50.0
1040
0.0
1040
0.0
1070
     0
1070
   100
1070
     0
1070
     3
1070
     0
1070
     0
1070
     0
1070
     0
1040
0.0
1040
0.0
1040
0.0
1040
0.5
1040
0.5
1040
0.5
1040
0.5
1070
     0
1002
{
1002
}
1002
}
  0
ENDSEC
  0
SECTION
  2
OBJECTS
  0
DICTIONARY
  5
C
330
0
100
AcDbDictionary
  3
ACAD_GROUP
350
D
  3
ACAD_LAYOUT
350
1A
  3
ACAD_MATERIAL
350
3B
  3
ACAD_MLEADERSTYLE
350
286
  3
ACAD_MLINESTYLE
350
17
  3
ACAD_PLOTSETTINGS
350
19
  3
ACAD_VISUALSTYLE
350
2A
  3
ACDBHEADERROUNDTRIPXREC
350
264
  3
ACDBVARIABLEDICTIONARY
350
284
  0
DICTIONARY
  5
D
102
{ACAD_REACTORS
330
C
102
}
330
C
100
AcDbDictionary
  0
DICTIONARY
  5
1A
102
{ACAD_REACTORS
330
C
102
}
330
C
100
AcDbDictionary
  0
DICTIONARY
  5
3B
102
{ACAD_REACTORS
330
C
102
}
330
C
100
AcDbDictionary
  3
BYBLOCK
350
3D
  3
BYLAYER
350
3C
  3
GLOBAL
350
3E
  0
DICTIONARY
  5
286
102
{ACAD_REACTORS
330
C
102
}
330
C
100
AcDbDictionary
  0
DICTIONARY
  5
17
102
{ACAD_REACTORS
330
C
102
}
330
C
100
AcDbDictionary
  3
STANDARD
350
18
  0
DICTIONARY
  5
19
102
{ACAD_REACTORS
330
C
102
}
330
C
100
AcDbDictionary
  0
DICTIONARY
  5
2A
102
{ACAD_REACTORS
330
C
102
}
330
C
100
AcDbDictionary
  3
2DWIREFRAME
350
2F
  3
3D_HIDDEN
350
31
  3
3DWIREFRAME
350
30
  3
BASIC
350
32
  3
BRIGHTEN
350
36
  3
COLORCHANGE
350
3A
  3
CONCEPTUAL
350
34
  3
DIM
350
35
  3
FACEPATTERN
350
39
  3
FLAT
350
2B
  3
FLATWITHEDGES
350
2C
  3
GOURAUD
350
2D
  3
GOURAUDWITHEDGES
350
2E
  3
LINEPATTERN
350
38
  3
REALISTIC
350
33
  3
THICKEN
350
37
  0
DICTIONARY
  5
264
102
{ACAD_REACTORS
330
C
102
}
330
C
100
AcDbDictionary
  3
CEPSNTYPE
350
26D
  3
DIMSTYLEDATA
350
283
  3
FINGERPRINTGUID
350
26E
  3
HYPERLINKBASE
350
267
  3
INSUNITS
350
26C
  3
LAYOUTDICT
350
269
  3
LWETCUNION
350
26B
  3
PLOTSETDICT
350
26A
  3
PSVPSCALE
350
270
  3
PUCSBASE
350
273
  3
PUCSORGBACK
350
279
  3
PUCSORGBOTTOM
350
275
  3
PUCSORGFRONT
350
278
  3
PUCSORGLEFT
350
276
  3
PUCSORGRIGHT
350
277
  3
PUCSORGTOP
350
274
  3
PUCSORTHOREF
350
271
  3
PUCSORTHOVIEW
350
272
  3
STYLESHEET
350
268
  3
TSTACKALIGN
350
265
  3
TSTACKSIZE
350
266
  3
UCSBASE
350
27C
  3
UCSORGBACK
350
282
  3
UCSORGBOTTOM
350
27E
  3
UCSORGFRONT
350
281
  3
UCSORGLEFT
350
27F
  3
UCSORGRIGHT
350
280
  3
UCSORGTOP
350
27D
  3
UCSORTHOREF
350
27A
  3
UCSORTHOVIEW
350
27B
  3
VERSIONGUID
350
26F
  0
DICTIONARY
  5
284
102
{ACAD_REACTORS
330
C
102
}
330
C
100
AcDbDictionary
  3
DIMASSOC
350
287
  3
HIDETEXT
350
288
  0
MATERIAL
  5
3D
102
{ACAD_REACTORS
330
3B
102
}
102
{ACAD_XDICTIONARY
360
28B
102
}
330
3B
100
AcDbMaterial
  1
ByBlock
  0
MATERIAL
  5
3C
102
{ACAD_REACTORS
330
3B
102
}
102
{ACAD_XDICTIONARY
360
289
102
}
330
3B
100
AcDbMaterial
  1
ByLayer
  0
MATERIAL
  5
3E
102
{ACAD_REACTORS
330
3B
102
}
102
{ACAD_XDICTIONARY
360
28D
102
}
330
3B
100
AcDbMaterial
  1
Global
  0
MLINESTYLE
  5
18
102
{ACAD_REACTORS
330
17
102
}
330
17
100
AcDbMlineStyle
  2
Standard
 70
     0
  3

 62
   256
 51
90.0
 52
90.0
 71
     2
 49
0.5
 62
   256
  6
BYLAYER
 49
-0.5
 62
   256
  6
BYLAYER
  0
ACAD_PROXY_OBJECT
  5
2F
102
{ACAD_REACTORS
330
2A
102
}
330
2A
100
AcDbProxyObject
 90
      499
 91
      501
 93
      436
310
42CC9915DA5C99599C985B595049028333333333333E3BF0000000000000FB0107901411070040501600405405064090741402480A0340
1001
ACAD
1000
AcDbSavedByObjectVersion
1070
     0
  0
ACAD_PROXY_OBJECT
  5
31
102
{ACAD_REACTORS
330
2A
102
}
330
2A
100
AcDbProxyObject
 90
      499
 91
      501
 93
      500
310
424CD108121A5919195B90640502408333333333333E3BF0000000000000FB01079024090700405020000000000001110200405405064090740C02480A0340
1001
ACAD
1000
AcDbSavedByObjectVersion
1070
     0
  0
ACAD_PROXY_OBJECT
  5
30
102
{ACAD_REACTORS
330
2A
102
}
330
2A
100
AcDbProxyObject
 90
      499
 91
      501
 93
      436
310
42CCD915DA5C99599C985B595059028333333333333E3BF0000000000000FB0107901411070040501600405405064090741402480A0340
1001
ACAD
1000
AcDbSavedByObjectVersion
1070
     0
  0
ACAD_PROXY_OBJECT
  5
32
102
{ACAD_REACTORS
330
2A
102
}
330
2A
100
AcDbProxyObject
 90
      499
 91
      501
 93
      388
310
4150985CDA58D07406404333333333333E3BF0000000000000FB0107A41107004050150841D405064090741402480A0350
1001
ACAD
1000
AcDbSavedByObjectVersion
1070
     0
  0
ACAD_PROXY_OBJECT
  5
36
102
{ACAD_REACTORS
330
2A
102
}
330
2A
100
AcDbProxyObject
 90
      499
 91
      501
 93
      428
310
42109C9A59DA1D195B90C409028333333333333E3BF0000000000000FB010790141107004050150841D405064090741402480A029950
1001
ACAD
1000
AcDbSavedByObjectVersion
1070
     0
  0
ACAD_PROXY_OBJECT
  5
3A
102
{ACAD_REACTORS
330
2A
102
}
330
2A
100
AcDbProxyObject
 90
      499
 91
      501
 93
      452
310
42D0DBDB1BDC90DA185B99D95104090240C333333333333E3BF0000000000000FB0108901411070040501508421405064090741402480A0350
1001
ACAD
1000
AcDbSavedByObjectVersion
1070
     0
  0
ACAD_PROXY_OBJECT
  5
34
102
{ACAD_REACTORS
330
2A
102
}
330
2A
100
AcDbProxyObject
 90
      499
 91
      501
 93
      500
310
4290DBDB98D95C1D1D585B10940D028333333333333E3BF0000000000000FB0107902409070040501000000000000111010841D405064090740C02480A0340
1001
ACAD
1000
AcDbSavedByObjectVersion
1070
     0
  0
ACAD_PROXY_OBJECT
  5
35
102
{ACAD_REACTORS
330
2A
102
}
330
2A
100
AcDbProxyObject
 90
      499
 91
      501
 93
      412
310
40D11A5B50B409028333333333333E3BF0000000000000FB010790141107004050150841D405064090741402480A02677FFFFFD0
1001
ACAD
1000
AcDbSavedByObjectVersion
1070
     0
  0
ACAD_PROXY_OBJECT
  5
39
102
{ACAD_REACTORS
330
2A
102
}
330
2A
100
AcDbProxyObject
 90
      499
 91
      501
 93
      444
310
42D19858D95C185D1D195C9B90F409028333333333333E3BF0000000000000FB010790141107004050150841D405064090741402480A0350
1001
ACAD
1000
AcDbSavedByObjectVersion
1070
     0
  0
ACAD_PROXY_OBJECT
  5
2B
102
{ACAD_REACTORS
330
2A
102
}
330
2A
100
AcDbProxyObject
 90
      499
 91
      501
 93
      388
310
41119B185D240901404333333333333E3BF0000000000000F9010740A41107004050150841D405064090741402480A1B50
1001
ACAD
1000
AcDbSavedByObjectVersion
1070
     0
  0
ACAD_PROXY_OBJECT
  5
2C
102
{ACAD_REACTORS
330
2A
102
}
330
2A
100
AcDbProxyObject
 90
      499
 91
      501
 93
      476
310
43519B185D15DA5D1A115919D95CD0140901404333333333333E3BF0000000000000F9010740901411070040501600405405064090741402480A1B50
1001
ACAD
1000
AcDbSavedByObjectVersion
1070
     0
  0
ACAD_PROXY_OBJECT
  5
2D
102
{ACAD_REACTORS
330
2A
102
}
330
2A
100
AcDbProxyObject
 90
      499
 91
      501
 93
      412
310
41D1DBDD5C985D5910240902404333333333333E3BF0000000000000F9010740A411070040501641D405064090741402480A1B50
1001
ACAD
1000
AcDbSavedByObjectVersion
1070
     0
  0
ACAD_PROXY_OBJECT
  5
2E
102
{ACAD_REACTORS
330
2A
102
}
330
2A
100
AcDbProxyObject
 90
      499
 91
      501
 93
      500
310
4411DBDD5C985D5915DA5D1A115919D95CD0340902404333333333333E3BF0000000000000F9010740901411070040501600405405064090741402480A1B50
1001
ACAD
1000
AcDbSavedByObjectVersion
1070
     0
  0
ACAD_PROXY_OBJECT
  5
38
102
{ACAD_REACTORS
330
2A
102
}
330
2A
100
AcDbProxyObject
 90
      499
 91
      501
 93
      444
310
42D31A5B995C185D1D195C9B90E409028333333333333E3BF0000000000000FB010790141107004050750841D405064090741402483A0350
1001
ACAD
1000
AcDbSavedByObjectVersion
1070
     0
  0
ACAD_PROXY_OBJECT
  5
33
102
{ACAD_REACTORS
330
2A
102
}
330
2A
100
AcDbProxyObject
 90
      499
 91
      501
 93
      420
310
425499585B1A5CDD1A58D08409028333333333333E3BF0000000000000FB01079019070040501508421405064090741402480A1B40
1001
ACAD
1000
AcDbSavedByObjectVersion
1070
     0
  0
ACAD_PROXY_OBJECT
  5
37
102
{ACAD_REACTORS
330
2A
102
}
330
2A
100
AcDbProxyObject
 90
      499
 91
      501
 93
      412
310
41D51A1A58DAD95B90D409028333333333333E3BF0000000000000FB010790141107004050150C41D405064090741402480A0350
1001
ACAD
1000
AcDbSavedByObjectVersion
1070
     0
  0
XRECORD
  5
26D
102
{ACAD_REACTORS
330
264
102
}
330
264
100
AcDbXrecord
 90
        0
  0
XRECORD
  5
283
102
{ACAD_REACTORS
330
264
102
}
330
264
100
AcDbXrecord
1000
DSTYLE
1002
{
1070
   171
 70
     2
1070
   143
 40
25.4
1070
   274
 70
     2
1070
    41
 40
1.55291427
1070
   289
 70
     2
1070
   141
 40
0.09
1070
    43
 40
30.0
1070
   278
 70
    46
1070
    44
 40
2.0
1070
    42
 40
2.0
1070
   147
 40
0.09
1070
    77
 70
     3
1070
   272
 70
     4
1070
   146
 40
0.5
1070
   279
 70
     2
1070
   283
 70
     1
1070
   145
 40
0.7
1070
   340
340
11
1070
   140
 40
2.8
1070
   288
 70
     1
1002
}
  0
XRECORD
  5
26E
102
{ACAD_REACTORS
330
264
102
}
330
264
100
AcDbXrecord
  1
{813C8448-9E85-4B90-A3BB-DCC5D44C1092}
  0
XRECORD
  5
267
102
{ACAD_REACTORS
330
264
102
}
330
264
100
AcDbXrecord
  1

  0
XRECORD
  5
26C
102
{ACAD_REACTORS
330
264
102
}
330
264
100
AcDbXrecord
 90
        4
  0
XRECORD
  5
269
102
{ACAD_REACTORS
330
264
102
}
330
264
100
AcDbXrecord
340
1A
  0
XRECORD
  5
26B
102
{ACAD_REACTORS
330
264
102
}
330
264
100
AcDbXrecord
 90
    10781
  0
XRECORD
  5
26A
102
{ACAD_REACTORS
330
264
102
}
330
264
100
AcDbXrecord
340
19
  0
XRECORD
  5
270
102
{ACAD_REACTORS
330
264
102
}
330
264
100
AcDbXrecord
 40
0.0
  0
XRECORD
  5
273
102
{ACAD_REACTORS
330
264
102
}
330
264
100
AcDbXrecord
340
0
  0
XRECORD
  5
279
102
{ACAD_REACTORS
330
264
102
}
330
264
100
AcDbXrecord
 10
0.0
 20
0.0
 30
0.0
  0
XRECORD
  5
275
102
{ACAD_REACTORS
330
264
102
}
330
264
100
AcDbXrecord
 10
0.0
 20
0.0
 30
0.0
  0
XRECORD
  5
278
102
{ACAD_REACTORS
330
264
102
}
330
264
100
AcDbXrecord
 10
0.0
 20
0.0
 30
0.0
  0
XRECORD
  5
276
102
{ACAD_REACTORS
330
264
102
}
330
264
100
AcDbXrecord
 10
0.0
 20
0.0
 30
0.0
  0
XRECORD
  5
277
102
{ACAD_REACTORS
330
264
102
}
330
264
100
AcDbXrecord
 10
0.0
 20
0.0
 30
0.0
  0
XRECORD
  5
274
102
{ACAD_REACTORS
330
264
102
}
330
264
100
AcDbXrecord
 10
0.0
 20
0.0
 30
0.0
  0
XRECORD
  5
271
102
{ACAD_REACTORS
330
264
102
}
330
264
100
AcDbXrecord
340
0
  0
XRECORD
  5
272
102
{ACAD_REACTORS
330
264
102
}
330
264
100
AcDbXrecord
 70
     0
  0
XRECORD
  5
268
102
{ACAD_REACTORS
330
264
102
}
330
264
100
AcDbXrecord
  1

  0
XRECORD
  5
265
102
{ACAD_REACTORS
330
264
102
}
330
264
100
AcDbXrecord
 90
        1
  0
XRECORD
  5
266
102
{ACAD_REACTORS
330
264
102
}
330
264
100
AcDbXrecord
 90
       70
  0
XRECORD
  5
27C
102
{ACAD_REACTORS
330
264
102
}
330
264
100
AcDbXrecord
340
0
  0
XRECORD
  5
282
102
{ACAD_REACTORS
330
264
102
}
330
264
100
AcDbXrecord
 10
0.0
 20
0.0
 30
0.0
  0
XRECORD
  5
27E
102
{ACAD_REACTORS
330
264
102
}
330
264
100
AcDbXrecord
 10
0.0
 20
0.0
 30
0.0
  0
XRECORD
  5
281
102
{ACAD_REACTORS
330
264
102
}
330
264
100
AcDbXrecord
 10
0.0
 20
0.0
 30
0.0
  0
XRECORD
  5
27F
102
{ACAD_REACTORS
330
264
102
}
330
264
100
AcDbXrecord
 10
0.0
 20
0.0
 30
0.0
  0
XRECORD
  5
280
102
{ACAD_REACTORS
330
264
102
}
330
264
100
AcDbXrecord
 10
0.0
 20
0.0
 30
0.0
  0
XRECORD
  5
27D
102
{ACAD_REACTORS
330
264
102
}
330
264
100
AcDbXrecord
 10
0.0
 20
0.0
 30
0.0
  0
XRECORD
  5
27A
102
{ACAD_REACTORS
330
264
102
}
330
264
100
AcDbXrecord
340
0
  0
XRECORD
  5
27B
102
{ACAD_REACTORS
330
264
102
}
330
264
100
AcDbXrecord
 70
     0
  0
XRECORD
  5
26F
102
{ACAD_REACTORS
330
264
102
}
330
264
100
AcDbXrecord
  1
{FAEB1C32-E019-11D5-929B-00C0DF256EC4}
  0
DICTIONARYVAR
  5
287
102
{ACAD_REACTORS
330
284
102
}
330
284
100
DictionaryVariables
280
     0
  1
1
  0
DICTIONARYVAR
  5
288
102
{ACAD_REACTORS
330
284
102
}
330
284
100
DictionaryVariables
280
     0
  1
1
  0
DICTIONARY
  5
28B
330
3D
100
AcDbDictionary
280
     1
  3
ACAD_XREC_ROUNDTRIP
360
28C
  0
DICTIONARY
  5
289
330
3C
100
AcDbDictionary
280
     1
  3
ACAD_XREC_ROUNDTRIP
360
28A
  0
DICTIONARY
  5
28D
330
3E
100
AcDbDictionary
280
     1
  3
ACAD_XREC_ROUNDTRIP
360
28E
  0
XRECORD
  5
28C
102
{ACAD_REACTORS
330
28B
102
}
330
28B
100
AcDbXrecord
102
MATERIAL
148
0.0
149
0.0
149
0.0
 93
        0
 94
      127
282
     0
 72
     1
 77
     1
171
     1
175
     1
179
     1
273
     0
  0
XRECORD
  5
28A
102
{ACAD_REACTORS
330
289
102
}
330
289
100
AcDbXrecord
102
MATERIAL
148
0.0
149
0.0
149
0.0
 93
        0
 94
      127
282
     0
 72
     1
 77
     1
171
     1
175
     1
179
     1
273
     0
  0
XRECORD
  5
28E
102
{ACAD_REACTORS
330
28D
102
}
330
28D
100
AcDbXrecord
102
MATERIAL
148
0.0
149
0.0
149
0.0
 93
        0
 94
      127
282
     0
 72
     1
 77
     1
171
     1
175
     1
179
     1
273
     0
  0
ENDSEC
  0
EOF
