  0
SECTION
  2
HEADER
  9
$ACADVER
  1
AC1014
  9
$ACADMAINTVER
 70
     9
  9
$DWGCODEPAGE
  3
ANSI_932
  9
$INSBASE
 10
0.0
 20
0.0
 30
0.0
  9
$EXTMIN
 10
263.5751868784234
 20
63.86205790110034
 30
0.0
  9
$EXTMAX
 10
1066.622939720987
 20
765.5743155186965
 30
0.0
  9
$LIMMIN
 10
0.0
 20
0.0
  9
$LIMMAX
 10
420.0
 20
297.0
  9
$ORTHOMODE
 70
     0
  9
$REGENMODE
 70
     1
  9
$FILLMODE
 70
     1
  9
$QTEXTMODE
 70
     0
  9
$MIRRTEXT
 70
     1
  9
$DRAGMODE
 70
     2
  9
$LTSCALE
 40
0.75
  9
$OSMODE
 70
    37
  9
$ATTMODE
 70
     1
  9
$TEXTSIZE
 40
8.4
  9
$TRACEWID
 40
0.05
  9
$TEXTSTYLE
  7
STANDARD
  9
$CLAYER
  8
0
  9
$CELTYPE
  6
BYLAYER
  9
$CECOLOR
 62
   256
  9
$CELTSCALE
 40
1.0
  9
$DELOBJ
 70
     1
  9
$DISPSILH
 70
     0
  9
$DIMSCALE
 40
1.0
  9
$DIMASZ
 40
1.55291427
  9
$DIMEXO
 40
2.0
  9
$DIMDLI
 40
30.0
  9
$DIMRND
 40
0.0
  9
$DIMDLE
 40
0.0
  9
$DIMEXE
 40
2.0
  9
$DIMTP
 40
0.0
  9
$DIMTM
 40
0.0
  9
$DIMTXT
 40
2.8
  9
$DIMCEN
 40
0.09
  9
$DIMTSZ
 40
0.0
  9
$DIMTOL
 70
     0
  9
$DIMLIM
 70
     0
  9
$DIMTIH
 70
     0
  9
$DIMTOH
 70
     0
  9
$DIMSE1
 70
     0
  9
$DIMSE2
 70
     0
  9
$DIMTAD
 70
     3
  9
$DIMZIN
 70
     8
  9
$DIMBLK
  1

  9
$DIMASO
 70
     1
  9
$DIMSHO
 70
     1
  9
$DIMPOST
  1

  9
$DIMAPOST
  1

  9
$DIMALT
 70
     0
  9
$DIMALTD
 70
     2
  9
$DIMALTF
 40
25.4
  9
$DIMLFAC
 40
1.0
  9
$DIMTOFL
 70
     1
  9
$DIMTVP
 40
0.7
  9
$DIMTIX
 70
     0
  9
$DIMSOXD
 70
     0
  9
$DIMSAH
 70
     0
  9
$DIMBLK1
  1

  9
$DIMBLK2
  1

  9
$DIMSTYLE
  2
STANDARD
  9
$DIMCLRD
 70
     0
  9
$DIMCLRE
 70
     0
  9
$DIMCLRT
 70
     0
  9
$DIMTFAC
 40
0.5
  9
$DIMGAP
 40
0.09
  9
$DIMJUST
 70
     0
  9
$DIMSD1
 70
     0
  9
$DIMSD2
 70
     0
  9
$DIMTOLJ
 70
     1
  9
$DIMTZIN
 70
     8
  9
$DIMALTZ
 70
     0
  9
$DIMALTTZ
 70
     0
  9
$DIMFIT
 70
     5
  9
$DIMUPT
 70
     1
  9
$DIMUNIT
 70
     2
  9
$DIMDEC
 70
     2
  9
$DIMTDEC
 70
     4
  9
$DIMALTU
 70
     2
  9
$DIMALTTD
 70
     2
  9
$DIMTXSTY
  7
STANDARD
  9
$DIMAUNIT
 70
     0
  9
$LUNITS
 70
     2
  9
$LUPREC
 70
     4
  9
$SKETCHINC
 40
0.1
  9
$FILLETRAD
 40
0.5
  9
$AUNITS
 70
     0
  9
$AUPREC
 70
     0
  9
$MENU
  1
.
  9
$ELEVATION
 40
0.0
  9
$PELEVATION
 40
0.0
  9
$THICKNESS
 40
0.0
  9
$LIMCHECK
 70
     0
  9
$CHAMFERA
 40
0.5
  9
$CHAMFERB
 40
0.5
  9
$CHAMFERC
 40
1.0
  9
$CHAMFERD
 40
0.0
  9
$SKPOLY
 70
     0
  9
$TDCREATE
 40
2460162.007025463
  9
$TDUPDATE
 40
2460161.632025799
  9
$TDINDWG
 40
0.0000000116
  9
$TDUSRTIMER
 40
0.0000000116
  9
$USRTIMER
 70
     1
  9
$ANGBASE
 50
0.0
  9
$ANGDIR
 70
     0
  9
$PDMODE
 70
     0
  9
$PDSIZE
 40
0.0
  9
$PLINEWID
 40
0.0
  9
$COORDS
 70
     1
  9
$SPLFRAME
 70
     0
  9
$SPLINETYPE
 70
     6
  9
$SPLINESEGS
 70
     8
  9
$ATTDIA
 70
     0
  9
$ATTREQ
 70
     1
  9
$HANDLING
 70
     1
  9
$HANDSEED
  5
290
  9
$SURFTAB1
 70
     6
  9
$SURFTAB2
 70
     6
  9
$SURFTYPE
 70
     6
  9
$SURFU
 70
     6
  9
$SURFV
 70
     6
  9
$UCSNAME
  2

  9
$UCSORG
 10
0.0
 20
0.0
 30
0.0
  9
$UCSXDIR
 10
1.0
 20
0.0
 30
0.0
  9
$UCSYDIR
 10
0.0
 20
1.0
 30
0.0
  9
$PUCSNAME
  2

  9
$PUCSORG
 10
0.0
 20
0.0
 30
0.0
  9
$PUCSXDIR
 10
1.0
 20
0.0
 30
0.0
  9
$PUCSYDIR
 10
0.0
 20
1.0
 30
0.0
  9
$USERI1
 70
     0
  9
$USERI2
 70
     0
  9
$USERI3
 70
     0
  9
$USERI4
 70
     0
  9
$USERI5
 70
     0
  9
$USERR1
 40
0.0
  9
$USERR2
 40
0.0
  9
$USERR3
 40
0.0
  9
$USERR4
 40
0.0
  9
$USERR5
 40
0.0
  9
$WORLDVIEW
 70
     1
  9
$SHADEDGE
 70
     3
  9
$SHADEDIF
 70
    70
  9
$TILEMODE
 70
     1
  9
$MAXACTVP
 70
    64
  9
$PINSBASE
 10
0.0
 20
0.0
 30
0.0
  9
$PLIMCHECK
 70
     0
  9
$PEXTMIN
 10
0.0
 20
0.0
 30
0.0
  9
$PEXTMAX
 10
420.0
 20
297.0
 30
0.0
  9
$PLIMMIN
 10
0.0
 20
0.0
  9
$PLIMMAX
 10
420.0
 20
297.0
  9
$UNITMODE
 70
     0
  9
$VISRETAIN
 70
     1
  9
$PLINEGEN
 70
     0
  9
$PSLTSCALE
 70
     1
  9
$TREEDEPTH
 70
  3020
  9
$PICKSTYLE
 70
     1
  9
$CMLSTYLE
  2
STANDARD
  9
$CMLJUST
 70
     0
  9
$CMLSCALE
 40
1.0
  9
$PROXYGRAPHICS
 70
     1
  9
$MEASUREMENT
 70
     1
  0
ENDSEC
  0
SECTION
  2
CLASSES
  0
CLASS
  1
ACDBDICTIONARYWDFLT
  2
AcDbDictionaryWithDefault
  3
ObjectDBX Classes
 90
        0
280
     0
281
     0
  0
CLASS
  1
VISUALSTYLE
  2
AcDbVisualStyle
  3
ObjectDBX Classes
 90
     4095
280
     0
281
     0
  0
CLASS
  1
MATERIAL
  2
AcDbMaterial
  3
ObjectDBX Classes
 90
     1153
280
     0
281
     0
  0
CLASS
  1
DICTIONARYVAR
  2
AcDbDictionaryVar
  3
ObjectDBX Classes
 90
        0
280
     0
281
     0
  0
CLASS
  1
XRECORD
  2
AcDbXrecord
  3
AutoCAD 2000
 90
        0
280
     0
281
     0
  0
CLASS
  1
LWPOLYLINE
  2
AcDbPolyline
  3
AutoCAD 2000
 90
        0
280
     0
281
     1
  0
CLASS
  1
HATCH
  2
AcDbHatch
  3
AutoCAD 2000
 90
        0
280
     0
281
     1
  0
CLASS
  1
ACDBPLACEHOLDER
  2
AcDbPlaceHolder
  3
ObjectDBX Classes
 90
        0
280
     0
281
     0
  0
CLASS
  1
LAYOUT
  2
AcDbLayout
  3
ObjectDBX Classes
 90
        0
280
     0
281
     0
  0
ENDSEC
  0
SECTION
  2
TABLES
  0
TABLE
  2
VPORT
  5
8
330
0
100
AcDbSymbolTable
 70
     1
  0
VPORT
  5
29
330
8
100
AcDbSymbolTableRecord
100
AcDbViewportTableRecord
  2
*ACTIVE
 70
     0
 10
0.0
 20
0.0
 11
1.0
 21
1.0
 12
10.42990654205607
 22
4.5
 13
0.0
 23
0.0
 14
0.5
 24
0.5
 15
0.5
 25
0.5
 16
0.0
 26
0.0
 36
1.0
 17
0.0
 27
0.0
 37
0.0
 40
9.0
 41
1.972972972850329
 42
50.0
 43
0.0
 44
0.0
 50
0.0
 51
0.0
 71
     0
 72
   100
 73
     1
 74
     3
 75
     0
 76
     0
 77
     0
 78
     0
  0
ENDTAB
  0
TABLE
  2
LTYPE
  5
5
330
0
100
AcDbSymbolTable
 70
     9
  0
LTYPE
  5
14
330
5
100
AcDbSymbolTableRecord
100
AcDbLinetypeTableRecord
  2
BYBLOCK
 70
     0
  3

 72
    65
 73
     0
 40
0.0
  0
LTYPE
  5
15
330
5
100
AcDbSymbolTableRecord
100
AcDbLinetypeTableRecord
  2
BYLAYER
 70
     0
  3

 72
    65
 73
     0
 40
0.0
  0
LTYPE
  5
16
330
5
100
AcDbSymbolTableRecord
100
AcDbLinetypeTableRecord
  2
CONTINUOUS
 70
     0
  3
Solid line
 72
    65
 73
     0
 40
0.0
  0
LTYPE
  5
8E
330
5
100
AcDbSymbolTableRecord
100
AcDbLinetypeTableRecord
  2
DOT
 70
     0
  3
DOT
 72
    65
 73
     2
 40
4.0
 49
6.0
 74
     0
 49
-2.0
 74
     0
  0
LTYPE
  5
8F
330
5
100
AcDbSymbolTableRecord
100
AcDbLinetypeTableRecord
  2
HIDDEN
 70
     0
  3
HIDDEN
 72
    65
 73
     2
 40
4.2
 49
8.4
 74
     0
 49
-4.2
 74
     0
  0
LTYPE
  5
90
330
5
100
AcDbSymbolTableRecord
100
AcDbLinetypeTableRecord
  2
DASHDOT
 70
     0
  3
DASHDOT
 72
    65
 73
     4
 40
14.5
 49
30.0
 74
     0
 49
-9.0
 74
     0
 49
2.5
 74
     0
 49
-9.0
 74
     0
  0
LTYPE
  5
91
330
5
100
AcDbSymbolTableRecord
100
AcDbLinetypeTableRecord
  2
PHANTOM
 70
     0
  3
PHANTOM
 72
    65
 73
     6
 40
12.0
 49
30.0
 74
     0
 49
-9.0
 74
     0
 49
2.5
 74
     0
 49
-5.0
 74
     0
 49
2.5
 74
     0
 49
-9.0
 74
     0
  0
LTYPE
  5
92
330
5
100
AcDbSymbolTableRecord
100
AcDbLinetypeTableRecord
  2
ACAD_ISO14W100
 70
     0
  3
ACAD_ISO14W100
 72
    65
 73
     8
 40
1.5
 49
12.0
 74
     0
 49
-3.0
 74
     0
 49
0.5
 74
     0
 49
-3.0
 74
     0
 49
0.5
 74
     0
 49
-3.0
 74
     0
 49
0.5
 74
     0
 49
-3.0
 74
     0
  0
LTYPE
  5
93
330
5
100
AcDbSymbolTableRecord
100
AcDbLinetypeTableRecord
  2
ACAD_ISO06W100
 70
     0
  3
ACAD_ISO06W100
 72
    65
 73
     8
 40
13.5
 49
24.0
 74
     0
 49
-3.0
 74
     0
 49
0.5
 74
     0
 49
-3.0
 74
     0
 49
0.5
 74
     0
 49
-3.0
 74
     0
 49
0.5
 74
     0
 49
-3.0
 74
     0
  0
LTYPE
  5
94
330
5
100
AcDbSymbolTableRecord
100
AcDbLinetypeTableRecord
  2
ACAD_ISO11W100
 70
     0
  3
ACAD_ISO11W100
 72
    65
 73
     6
 40
15.5
 49
12.0
 74
     0
 49
-3.0
 74
     0
 49
12.0
 74
     0
 49
-3.0
 74
     0
 49
0.5
 74
     0
 49
-3.0
 74
     0
  0
LTYPE
  5
95
330
5
100
AcDbSymbolTableRecord
100
AcDbLinetypeTableRecord
  2
ACAD_ISO13W100
 70
     0
  3
ACAD_ISO13W100
 72
    65
 73
     8
 40
13.0
 49
12.0
 74
     0
 49
-3.0
 74
     0
 49
12.0
 74
     0
 49
-3.0
 74
     0
 49
0.5
 74
     0
 49
-3.0
 74
     0
 49
0.5
 74
     0
 49
-3.0
 74
     0
  0
ENDTAB
  0
TABLE
  2
LAYER
  5
2
330
0
100
AcDbSymbolTable
 70
    12
  0
LAYER
  5
10
330
2
100
AcDbSymbolTableRecord
100
AcDbLayerTableRecord
  2
0
 70
     0
 62
     7
  6
CONTINUOUS
  0
LAYER
  5
96
330
2
100
AcDbSymbolTableRecord
100
AcDbLayerTableRecord
  2
1
 70
     0
 62
     7
  6
CONTINUOUS
  0
LAYER
  5
97
330
2
100
AcDbSymbolTableRecord
100
AcDbLayerTableRecord
  2
2
 70
     0
 62
   151
  6
CONTINUOUS
  0
LAYER
  5
98
330
2
100
AcDbSymbolTableRecord
100
AcDbLayerTableRecord
  2
3
 70
     0
 62
     1
  6
DASHDOT
  0
LAYER
  5
99
330
2
100
AcDbSymbolTableRecord
100
AcDbLayerTableRecord
  2
4
 70
     0
 62
     7
  6
CONTINUOUS
  0
LAYER
  5
9A
330
2
100
AcDbSymbolTableRecord
100
AcDbLayerTableRecord
  2
5
 70
     0
 62
     6
  6
CONTINUOUS
  0
LAYER
  5
9B
330
2
100
AcDbSymbolTableRecord
100
AcDbLayerTableRecord
  2
6
 70
     0
 62
     3
  6
CONTINUOUS
  0
LAYER
  5
9C
330
2
100
AcDbSymbolTableRecord
100
AcDbLayerTableRecord
  2
7
 70
     0
 62
     4
  6
CONTINUOUS
  0
LAYER
  5
9D
330
2
100
AcDbSymbolTableRecord
100
AcDbLayerTableRecord
  2
8
 70
     0
 62
     7
  6
CONTINUOUS
  0
LAYER
  5
9E
330
2
100
AcDbSymbolTableRecord
100
AcDbLayerTableRecord
  2
9
 70
     0
 62
     2
  6
CONTINUOUS
  0
LAYER
  5
9F
330
2
100
AcDbSymbolTableRecord
100
AcDbLayerTableRecord
  2
10
 70
     0
 62
     2
  6
CONTINUOUS
  0
LAYER
  5
A0
330
2
100
AcDbSymbolTableRecord
100
AcDbLayerTableRecord
  2
11
 70
     0
 62
     3
  6
HIDDEN
  0
ENDTAB
  0
TABLE
  2
STYLE
  5
3
330
0
100
AcDbSymbolTable
 70
     3
  0
STYLE
  5
11
330
3
100
AcDbSymbolTableRecord
100
AcDbTextStyleTableRecord
  2
STANDARD
 70
     0
 40
0.0
 41
1.0
 50
0.0
 71
     0
 42
8.4
  3
txt
  4
bigfont
  0
STYLE
  5
41
330
3
100
AcDbSymbolTableRecord
100
AcDbTextStyleTableRecord
  2
T_STANDARD
 70
     4
 40
10.0
 41
1.0
 50
0.0
 71
     0
 42
10.0
  3
txt
  4
bigfont
  0
STYLE
  5
1C1
330
3
100
AcDbSymbolTableRecord
100
AcDbTextStyleTableRecord
  2
ＭＳ_ゴシック
 70
     0
 40
0.0
 41
1.0
 50
0.0
 71
     0
 42
0.0
  3

  4

1001
ACAD
1000
ＭＳ ゴシック
1071
      256
  0
ENDTAB
  0
TABLE
  2
VIEW
  5
6
330
0
100
AcDbSymbolTable
 70
     0
  0
ENDTAB
  0
TABLE
  2
UCS
  5
7
330
0
100
AcDbSymbolTable
 70
     0
  0
ENDTAB
  0
TABLE
  2
APPID
  5
9
330
0
100
AcDbSymbolTable
 70
     2
  0
APPID
  5
12
330
9
100
AcDbSymbolTableRecord
100
AcDbRegAppTableRecord
  2
ACAD
 70
     0
  0
APPID
  5
40
330
9
100
AcDbSymbolTableRecord
100
AcDbRegAppTableRecord
  2
ODA
 70
     0
  0
ENDTAB
  0
TABLE
  2
DIMSTYLE
  5
A
330
0
100
AcDbSymbolTable
 70
     1
  0
DIMSTYLE
105
27
102
{ACAD_REACTORS
330
1CB
330
1D5
330
1DF
330
1E9
330
1F3
330
1FD
330
207
330
211
330
21B
330
225
330
22F
330
239
330
243
330
24D
330
25C
330
264
102
}
330
A
100
AcDbSymbolTableRecord
100
AcDbDimStyleTableRecord
  2
STANDARD
 70
     0
  3

  4

  5

  6

  7

 40
1.0
 41
0.18
 42
0.0625
 43
0.38
 44
0.18
 45
0.0
 46
0.0
 47
0.0
 48
0.0
140
0.18
141
0.09
142
0.0
143
25.4
144
1.0
145
0.0
146
1.0
147
0.09
 71
     0
 72
     0
 73
     1
 74
     1
 75
     0
 76
     0
 77
     0
 78
     0
170
     0
171
     2
172
     0
173
     0
174
     0
175
     0
176
     0
177
     0
178
     0
270
     2
271
     4
272
     4
273
     2
274
     2
340
11
275
     0
280
     0
281
     0
282
     0
283
     1
284
     0
285
     0
286
     0
287
     3
288
     0
  0
ENDTAB
  0
TABLE
  2
BLOCK_RECORD
  5
1
330
0
100
AcDbSymbolTable
 70
    32
  0
BLOCK_RECORD
  5
1F
330
1
100
AcDbSymbolTableRecord
100
AcDbBlockTableRecord
  2
*MODEL_SPACE
  0
BLOCK_RECORD
  5
1B
330
1
100
AcDbSymbolTableRecord
100
AcDbBlockTableRecord
  2
*PAPER_SPACE
  0
BLOCK_RECORD
  5
42
330
1
100
AcDbSymbolTableRecord
100
AcDbBlockTableRecord
  2
_ORIGIN
  0
BLOCK_RECORD
  5
47
330
1
100
AcDbSymbolTableRecord
100
AcDbBlockTableRecord
  2
_DOTBLANK
  0
BLOCK_RECORD
  5
4C
330
1
100
AcDbSymbolTableRecord
100
AcDbBlockTableRecord
  2
_DOT
  0
BLOCK_RECORD
  5
51
330
1
100
AcDbSymbolTableRecord
100
AcDbBlockTableRecord
  2
_OPEN
  0
BLOCK_RECORD
  5
57
330
1
100
AcDbSymbolTableRecord
100
AcDbBlockTableRecord
  2
_CLOSED
  0
BLOCK_RECORD
  5
5E
330
1
100
AcDbSymbolTableRecord
100
AcDbBlockTableRecord
  2
_CLOSEDBLANK
  0
BLOCK_RECORD
  5
64
330
1
100
AcDbSymbolTableRecord
100
AcDbBlockTableRecord
  2
_ARROWFILLED
  0
BLOCK_RECORD
  5
68
330
1
100
AcDbSymbolTableRecord
100
AcDbBlockTableRecord
  2
_BOXBLANK
  0
BLOCK_RECORD
  5
70
330
1
100
AcDbSymbolTableRecord
100
AcDbBlockTableRecord
  2
_BOXFILLED
  0
BLOCK_RECORD
  5
75
330
1
100
AcDbSymbolTableRecord
100
AcDbBlockTableRecord
  2
_INTEGRAL
  0
BLOCK_RECORD
  5
7A
330
1
100
AcDbSymbolTableRecord
100
AcDbBlockTableRecord
  2
_OBLIQUE
  0
BLOCK_RECORD
  5
7E
330
1
100
AcDbSymbolTableRecord
100
AcDbBlockTableRecord
  2
_NONE
  0
BLOCK_RECORD
  5
81
330
1
100
AcDbSymbolTableRecord
100
AcDbBlockTableRecord
  2
MARK_OPEN
  0
BLOCK_RECORD
  5
86
330
1
100
AcDbSymbolTableRecord
100
AcDbBlockTableRecord
  2
MARK_ORIGIN
  0
BLOCK_RECORD
  5
8A
330
1
100
AcDbSymbolTableRecord
100
AcDbBlockTableRecord
  2
MARK_DOT
  0
BLOCK_RECORD
  5
1C2
330
1
100
AcDbSymbolTableRecord
100
AcDbBlockTableRecord
  2
DIM1
  0
BLOCK_RECORD
  5
1CC
330
1
100
AcDbSymbolTableRecord
100
AcDbBlockTableRecord
  2
DIM2
  0
BLOCK_RECORD
  5
1D6
330
1
100
AcDbSymbolTableRecord
100
AcDbBlockTableRecord
  2
DIM3
  0
BLOCK_RECORD
  5
1E0
330
1
100
AcDbSymbolTableRecord
100
AcDbBlockTableRecord
  2
DIM4
  0
BLOCK_RECORD
  5
1EA
330
1
100
AcDbSymbolTableRecord
100
AcDbBlockTableRecord
  2
DIM5
  0
BLOCK_RECORD
  5
1F4
330
1
100
AcDbSymbolTableRecord
100
AcDbBlockTableRecord
  2
DIM6
  0
BLOCK_RECORD
  5
1FE
330
1
100
AcDbSymbolTableRecord
100
AcDbBlockTableRecord
  2
DIM7
  0
BLOCK_RECORD
  5
208
330
1
100
AcDbSymbolTableRecord
100
AcDbBlockTableRecord
  2
DIM8
  0
BLOCK_RECORD
  5
212
330
1
100
AcDbSymbolTableRecord
100
AcDbBlockTableRecord
  2
DIM9
  0
BLOCK_RECORD
  5
21C
330
1
100
AcDbSymbolTableRecord
100
AcDbBlockTableRecord
  2
DIM10
  0
BLOCK_RECORD
  5
226
330
1
100
AcDbSymbolTableRecord
100
AcDbBlockTableRecord
  2
DIM11
  0
BLOCK_RECORD
  5
230
330
1
100
AcDbSymbolTableRecord
100
AcDbBlockTableRecord
  2
DIM12
  0
BLOCK_RECORD
  5
23A
330
1
100
AcDbSymbolTableRecord
100
AcDbBlockTableRecord
  2
DIM13
  0
BLOCK_RECORD
  5
244
330
1
100
AcDbSymbolTableRecord
100
AcDbBlockTableRecord
  2
DIM14
  0
BLOCK_RECORD
  5
255
330
1
100
AcDbSymbolTableRecord
100
AcDbBlockTableRecord
  2
DIM15
  0
BLOCK_RECORD
  5
25D
330
1
100
AcDbSymbolTableRecord
100
AcDbBlockTableRecord
  2
DIM16
  0
ENDTAB
  0
ENDSEC
  0
SECTION
  2
BLOCKS
  0
BLOCK
  5
20
330
1F
100
AcDbEntity
  8
0
100
AcDbBlockBegin
  2
*MODEL_SPACE
 70
     0
 10
0.0
 20
0.0
 30
0.0
  3
*MODEL_SPACE
  1

  0
ENDBLK
  5
21
330
1F
100
AcDbEntity
  8
0
100
AcDbBlockEnd
  0
BLOCK
  5
1C
330
1B
100
AcDbEntity
 67
     1
  8
0
100
AcDbBlockBegin
  2
*PAPER_SPACE
 70
     0
 10
0.0
 20
0.0
 30
0.0
  3
*PAPER_SPACE
  1

  0
ENDBLK
  5
1D
330
1B
100
AcDbEntity
 67
     1
  8
0
100
AcDbBlockEnd
  0
BLOCK
  5
45
330
42
100
AcDbEntity
  8
0
100
AcDbBlockBegin
  2
_ORIGIN
 70
     0
 10
0.0
 20
0.0
 30
0.0
  3
_ORIGIN
  1

  0
CIRCLE
  5
43
330
42
100
AcDbEntity
  8
0
 62
     0
100
AcDbCircle
 10
0.0
 20
0.0
 30
0.0
 40
0.5
  0
LINE
  5
44
330
42
100
AcDbEntity
  8
0
 62
     0
100
AcDbLine
 10
0.0
 20
0.0
 30
0.0
 11
-1.0
 21
0.0
 31
0.0
  0
ENDBLK
  5
46
330
42
100
AcDbEntity
  8
0
100
AcDbBlockEnd
  0
BLOCK
  5
4A
330
47
100
AcDbEntity
  8
0
100
AcDbBlockBegin
  2
_DOTBLANK
 70
     0
 10
0.0
 20
0.0
 30
0.0
  3
_DOTBLANK
  1

  0
CIRCLE
  5
48
330
47
100
AcDbEntity
  8
0
 62
     0
100
AcDbCircle
 10
0.0
 20
0.0
 30
0.0
 40
0.5
  0
LINE
  5
49
330
47
100
AcDbEntity
  8
0
 62
     0
100
AcDbLine
 10
-0.5
 20
0.0
 30
0.0
 11
-1.0
 21
0.0
 31
0.0
  0
ENDBLK
  5
4B
330
47
100
AcDbEntity
  8
0
100
AcDbBlockEnd
  0
BLOCK
  5
4F
330
4C
100
AcDbEntity
  8
0
100
AcDbBlockBegin
  2
_DOT
 70
     0
 10
0.0
 20
0.0
 30
0.0
  3
_DOT
  1

  0
LWPOLYLINE
  5
4D
330
4C
100
AcDbEntity
  8
0
 62
     0
100
AcDbPolyline
 90
        2
 70
     1
 43
0.5
 10
-0.25
 20
0.0
 42
1.0
 10
0.25
 20
0.0
 42
1.0
  0
LINE
  5
4E
330
4C
100
AcDbEntity
  8
0
 62
     0
100
AcDbLine
 10
-0.5
 20
0.0
 30
0.0
 11
-1.0
 21
0.0
 31
0.0
  0
ENDBLK
  5
50
330
4C
100
AcDbEntity
  8
0
100
AcDbBlockEnd
  0
BLOCK
  5
55
330
51
100
AcDbEntity
  8
0
100
AcDbBlockBegin
  2
_OPEN
 70
     0
 10
0.0
 20
0.0
 30
0.0
  3
_OPEN
  1

  0
LINE
  5
52
330
51
100
AcDbEntity
  8
0
 62
     0
100
AcDbLine
 10
0.0
 20
0.0
 30
0.0
 11
-1.0
 21
0.1666666666666667
 31
0.0
  0
LINE
  5
53
330
51
100
AcDbEntity
  8
0
 62
     0
100
AcDbLine
 10
0.0
 20
0.0
 30
0.0
 11
-1.0
 21
-0.1666666666666667
 31
0.0
  0
LINE
  5
54
330
51
100
AcDbEntity
  8
0
 62
     0
100
AcDbLine
 10
0.0
 20
0.0
 30
0.0
 11
-1.0
 21
0.0
 31
0.0
  0
ENDBLK
  5
56
330
51
100
AcDbEntity
  8
0
100
AcDbBlockEnd
  0
BLOCK
  5
5C
330
57
100
AcDbEntity
  8
0
100
AcDbBlockBegin
  2
_CLOSED
 70
     0
 10
0.0
 20
0.0
 30
0.0
  3
_CLOSED
  1

  0
LINE
  5
58
330
57
100
AcDbEntity
  8
0
 62
     0
100
AcDbLine
 10
0.0
 20
0.0
 30
0.0
 11
-1.0
 21
0.1666666666666667
 31
0.0
  0
LINE
  5
59
330
57
100
AcDbEntity
  8
0
 62
     0
100
AcDbLine
 10
0.0
 20
0.0
 30
0.0
 11
-1.0
 21
-0.1666666666666667
 31
0.0
  0
LINE
  5
5A
330
57
100
AcDbEntity
  8
0
 62
     0
100
AcDbLine
 10
-1.0
 20
0.1666666666666667
 30
0.0
 11
-1.0
 21
-0.1666666666666667
 31
0.0
  0
LINE
  5
5B
330
57
100
AcDbEntity
  8
0
 62
     0
100
AcDbLine
 10
0.0
 20
0.0
 30
0.0
 11
-1.0
 21
0.0
 31
0.0
  0
ENDBLK
  5
5D
330
57
100
AcDbEntity
  8
0
100
AcDbBlockEnd
  0
BLOCK
  5
62
330
5E
100
AcDbEntity
  8
0
100
AcDbBlockBegin
  2
_CLOSEDBLANK
 70
     0
 10
0.0
 20
0.0
 30
0.0
  3
_CLOSEDBLANK
  1

  0
LINE
  5
5F
330
5E
100
AcDbEntity
  8
0
 62
     0
100
AcDbLine
 10
0.0
 20
0.0
 30
0.0
 11
-1.0
 21
0.1666666666666667
 31
0.0
  0
LINE
  5
60
330
5E
100
AcDbEntity
  8
0
 62
     0
100
AcDbLine
 10
0.0
 20
0.0
 30
0.0
 11
-1.0
 21
-0.1666666666666667
 31
0.0
  0
LINE
  5
61
330
5E
100
AcDbEntity
  8
0
 62
     0
100
AcDbLine
 10
-1.0
 20
0.1666666666666667
 30
0.0
 11
-1.0
 21
-0.1666666666666667
 31
0.0
  0
ENDBLK
  5
63
330
5E
100
AcDbEntity
  8
0
100
AcDbBlockEnd
  0
BLOCK
  5
66
330
64
100
AcDbEntity
  8
0
100
AcDbBlockBegin
  2
_ARROWFILLED
 70
     0
 10
0.0
 20
0.0
 30
0.0
  3
_ARROWFILLED
  1

  0
SOLID
  5
65
330
64
100
AcDbEntity
  8
0
 62
     0
100
AcDbTrace
 10
0.0
 20
0.0
 30
0.0
 11
-1.0
 21
-0.1666666666666667
 31
0.0
 12
-1.0
 22
0.1666666666666667
 32
0.0
 13
0.0
 23
0.0
 33
0.0
  0
ENDBLK
  5
67
330
64
100
AcDbEntity
  8
0
100
AcDbBlockEnd
  0
BLOCK
  5
6E
330
68
100
AcDbEntity
  8
0
100
AcDbBlockBegin
  2
_BOXBLANK
 70
     0
 10
0.0
 20
0.0
 30
0.0
  3
_BOXBLANK
  1

  0
LINE
  5
69
330
68
100
AcDbEntity
  8
0
 62
     0
100
AcDbLine
 10
-0.5
 20
-0.5
 30
0.0
 11
0.5
 21
-0.5
 31
0.0
  0
LINE
  5
6A
330
68
100
AcDbEntity
  8
0
 62
     0
100
AcDbLine
 10
0.5
 20
-0.5
 30
0.0
 11
0.5
 21
0.5
 31
0.0
  0
LINE
  5
6B
330
68
100
AcDbEntity
  8
0
 62
     0
100
AcDbLine
 10
0.5
 20
0.5
 30
0.0
 11
-0.5
 21
0.5
 31
0.0
  0
LINE
  5
6C
330
68
100
AcDbEntity
  8
0
 62
     0
100
AcDbLine
 10
-0.5
 20
0.5
 30
0.0
 11
-0.5
 21
-0.5
 31
0.0
  0
LINE
  5
6D
330
68
100
AcDbEntity
  8
0
 62
     0
100
AcDbLine
 10
-0.5
 20
0.0
 30
0.0
 11
-1.0
 21
0.0
 31
0.0
  0
ENDBLK
  5
6F
330
68
100
AcDbEntity
  8
0
100
AcDbBlockEnd
  0
BLOCK
  5
73
330
70
100
AcDbEntity
  8
0
100
AcDbBlockBegin
  2
_BOXFILLED
 70
     0
 10
0.0
 20
0.0
 30
0.0
  3
_BOXFILLED
  1

  0
SOLID
  5
71
330
70
100
AcDbEntity
  8
0
 62
     0
100
AcDbTrace
 10
-0.5
 20
0.5
 30
0.0
 11
0.5
 21
0.5
 31
0.0
 12
-0.5
 22
-0.5
 32
0.0
 13
0.5
 23
-0.5
 33
0.0
  0
LINE
  5
72
330
70
100
AcDbEntity
  8
0
 62
     0
100
AcDbLine
 10
-0.5
 20
0.0
 30
0.0
 11
-1.0
 21
0.0
 31
0.0
  0
ENDBLK
  5
74
330
70
100
AcDbEntity
  8
0
100
AcDbBlockEnd
  0
BLOCK
  5
78
330
75
100
AcDbEntity
  8
0
100
AcDbBlockBegin
  2
_INTEGRAL
 70
     0
 10
0.0
 20
0.0
 30
0.0
  3
_INTEGRAL
  1

  0
ARC
  5
76
330
75
100
AcDbEntity
  8
0
 62
     0
100
AcDbCircle
 10
0.444888
 20
-0.0913346
 30
0.0
 40
0.4541666
100
AcDbArc
 50
101.9999999999999
 51
167.9999999999998
  0
ARC
  5
77
330
75
100
AcDbEntity
  8
0
 62
     0
100
AcDbCircle
 10
-0.444888
 20
0.0913346
 30
0.0
 40
0.4541666
100
AcDbArc
 50
281.9999999999997
 51
347.9999999999997
  0
ENDBLK
  5
79
330
75
100
AcDbEntity
  8
0
100
AcDbBlockEnd
  0
BLOCK
  5
7C
330
7A
100
AcDbEntity
  8
0
100
AcDbBlockBegin
  2
_OBLIQUE
 70
     0
 10
0.0
 20
0.0
 30
0.0
  3
_OBLIQUE
  1

  0
LINE
  5
7B
330
7A
100
AcDbEntity
  8
0
 62
     0
100
AcDbLine
 10
-0.5
 20
-0.5
 30
0.0
 11
0.5
 21
0.5
 31
0.0
  0
ENDBLK
  5
7D
330
7A
100
AcDbEntity
  8
0
100
AcDbBlockEnd
  0
BLOCK
  5
7F
330
7E
100
AcDbEntity
  8
0
100
AcDbBlockBegin
  2
_NONE
 70
     0
 10
0.0
 20
0.0
 30
0.0
  3
_NONE
  1

  0
ENDBLK
  5
80
330
7E
100
AcDbEntity
  8
0
100
AcDbBlockEnd
  0
BLOCK
  5
84
330
81
100
AcDbEntity
  8
0
100
AcDbBlockBegin
  2
MARK_OPEN
 70
     0
 10
0.0
 20
0.0
 30
0.0
  3
MARK_OPEN
  1

  0
LINE
  5
82
330
81
100
AcDbEntity
  8
0
 62
     0
100
AcDbLine
 10
0.0
 20
0.0
 30
0.0
 11
-1.0
 21
0.1666666666666667
 31
0.0
  0
LINE
  5
83
330
81
100
AcDbEntity
  8
0
 62
     0
100
AcDbLine
 10
0.0
 20
0.0
 30
0.0
 11
-1.0
 21
-0.1666666666666667
 31
0.0
  0
ENDBLK
  5
85
330
81
100
AcDbEntity
  8
0
100
AcDbBlockEnd
  0
BLOCK
  5
88
330
86
100
AcDbEntity
  8
0
100
AcDbBlockBegin
  2
MARK_ORIGIN
 70
     0
 10
0.0
 20
0.0
 30
0.0
  3
MARK_ORIGIN
  1

  0
CIRCLE
  5
87
330
86
100
AcDbEntity
  8
0
 62
     0
100
AcDbCircle
 10
0.0
 20
0.0
 30
0.0
 40
0.5
  0
ENDBLK
  5
89
330
86
100
AcDbEntity
  8
0
100
AcDbBlockEnd
  0
BLOCK
  5
8C
330
8A
100
AcDbEntity
  8
0
100
AcDbBlockBegin
  2
MARK_DOT
 70
     0
 10
0.0
 20
0.0
 30
0.0
  3
MARK_DOT
  1

  0
LWPOLYLINE
  5
8B
330
8A
100
AcDbEntity
  8
0
 62
     0
100
AcDbPolyline
 90
        2
 70
     1
 43
0.5
 10
-0.25
 20
0.0
 42
1.0
 10
0.25
 20
0.0
 42
1.0
  0
ENDBLK
  5
8D
330
8A
100
AcDbEntity
  8
0
100
AcDbBlockEnd
  0
BLOCK
  5
1C3
330
1C2
100
AcDbEntity
  8
0
100
AcDbBlockBegin
  2
DIM1
 70
     0
 10
0.0
 20
0.0
 30
0.0
  3
DIM1
  1

  0
LINE
  5
1C5
330
1C2
100
AcDbEntity
  8
7
  6
CONTINUOUS
 62
     4
100
AcDbLine
 10
521.0751868784228
 20
145.9743155186965
 30
0.0
 11
521.0751868784228
 21
112.0743155186968
 31
0.0
  0
LINE
  5
1C6
330
1C2
100
AcDbEntity
  8
7
  6
CONTINUOUS
 62
     4
100
AcDbLine
 10
633.5751868784218
 20
134.5743155186974
 30
0.0
 11
633.5751868784218
 21
112.0743155186968
 31
0.0
  0
LINE
  5
1C7
330
1C2
100
AcDbEntity
  8
7
  6
CONTINUOUS
 62
     4
100
AcDbLine
 10
521.0751868784228
 20
116.5743155186968
 30
0.0
 11
633.5751868784218
 21
116.5743155186968
 31
0.0
  0
MTEXT
  5
1C8
330
1C2
100
AcDbEntity
  8
7
  6
CONTINUOUS
 62
     4
100
AcDbMText
 10
577.3251868784223
 20
116.5743155186968
 30
0.0
 40
9.0
 41
173.5714285714286
 71
     8
 72
     1
  1
112.5
  7
ＭＳ_ゴシック
1001
ACAD
1000
ACAD_MTEXT_DEFINED_HEIGHT_BEGIN
1070
    46
1040
9.0
1000
ACAD_MTEXT_DEFINED_HEIGHT_END
  0
INSERT
  5
1C9
330
1C2
100
AcDbEntity
  8
7
  6
CONTINUOUS
 62
     4
100
AcDbBlockReference
  2
_ARROWFILLED
 10
521.0751868784228
 20
116.5743155186968
 30
0.0
 41
6.0
 42
6.0
 43
6.0
 50
179.9999999999998
  0
INSERT
  5
1CA
330
1C2
100
AcDbEntity
  8
7
  6
CONTINUOUS
 62
     4
100
AcDbBlockReference
  2
_ARROWFILLED
 10
633.5751868784218
 20
116.5743155186968
 30
0.0
 41
6.0
 42
6.0
 43
6.0
 50
359.9999999999997
  0
ENDBLK
  5
1C4
330
1C2
100
AcDbEntity
  8
0
100
AcDbBlockEnd
  0
BLOCK
  5
1CD
330
1CC
100
AcDbEntity
  8
0
100
AcDbBlockBegin
  2
DIM2
 70
     0
 10
0.0
 20
0.0
 30
0.0
  3
DIM2
  1

  0
LINE
  5
1CF
330
1CC
100
AcDbEntity
  8
7
  6
CONTINUOUS
 62
     4
100
AcDbLine
 10
383.5751868784228
 20
179.5743155186965
 30
0.0
 11
383.5751868784226
 21
87.86205790110034
 31
0.0
  0
LINE
  5
1D0
330
1CC
100
AcDbEntity
  8
7
  6
CONTINUOUS
 62
     4
100
AcDbLine
 10
883.5751868784228
 20
179.5743155186965
 30
0.0
 11
883.5751868784226
 21
87.86205790110034
 31
0.0
  0
LINE
  5
1D1
330
1CC
100
AcDbEntity
  8
7
  6
CONTINUOUS
 62
     4
100
AcDbLine
 10
383.5751868784226
 20
92.36205790110034
 30
0.0
 11
883.5751868784226
 21
92.36205790110034
 31
0.0
  0
MTEXT
  5
1D2
330
1CC
100
AcDbEntity
  8
7
  6
CONTINUOUS
 62
     4
100
AcDbMText
 10
633.5751868784218
 20
92.36205790110034
 30
0.0
 40
9.0
 41
115.7142857142857
 71
     8
 72
     1
  1
500
  7
ＭＳ_ゴシック
1001
ACAD
1000
ACAD_MTEXT_DEFINED_HEIGHT_BEGIN
1070
    46
1040
9.0
1000
ACAD_MTEXT_DEFINED_HEIGHT_END
  0
INSERT
  5
1D3
330
1CC
100
AcDbEntity
  8
7
  6
CONTINUOUS
 62
     4
100
AcDbBlockReference
  2
_ARROWFILLED
 10
383.5751868784226
 20
92.36205790110034
 30
0.0
 41
6.0
 42
6.0
 43
6.0
 50
179.9999999999998
  0
INSERT
  5
1D4
330
1CC
100
AcDbEntity
  8
7
  6
CONTINUOUS
 62
     4
100
AcDbBlockReference
  2
_ARROWFILLED
 10
883.5751868784226
 20
92.36205790110034
 30
0.0
 41
6.0
 42
6.0
 43
6.0
 50
359.9999999999997
  0
ENDBLK
  5
1CE
330
1CC
100
AcDbEntity
  8
0
100
AcDbBlockEnd
  0
BLOCK
  5
1D7
330
1D6
100
AcDbEntity
  8
0
100
AcDbBlockBegin
  2
DIM3
 70
     0
 10
0.0
 20
0.0
 30
0.0
  3
DIM3
  1

  0
LINE
  5
1D9
330
1D6
100
AcDbEntity
  8
7
  6
CONTINUOUS
 62
     4
100
AcDbLine
 10
368.5751868784228
 20
164.5743155186965
 30
0.0
 11
368.5751868784226
 21
63.86205790110034
 31
0.0
  0
LINE
  5
1DA
330
1D6
100
AcDbEntity
  8
7
  6
CONTINUOUS
 62
     4
100
AcDbLine
 10
898.5751868784228
 20
164.5743155186965
 30
0.0
 11
898.5751868784226
 21
63.86205790110034
 31
0.0
  0
LINE
  5
1DB
330
1D6
100
AcDbEntity
  8
7
  6
CONTINUOUS
 62
     4
100
AcDbLine
 10
368.5751868784226
 20
68.36205790110034
 30
0.0
 11
898.5751868784226
 21
68.36205790110034
 31
0.0
  0
MTEXT
  5
1DC
330
1D6
100
AcDbEntity
  8
7
  6
CONTINUOUS
 62
     4
100
AcDbMText
 10
633.5751868784228
 20
68.36205790110034
 30
0.0
 40
9.0
 41
115.7142857142857
 71
     8
 72
     1
  1
530
  7
ＭＳ_ゴシック
1001
ACAD
1000
ACAD_MTEXT_DEFINED_HEIGHT_BEGIN
1070
    46
1040
9.0
1000
ACAD_MTEXT_DEFINED_HEIGHT_END
  0
INSERT
  5
1DD
330
1D6
100
AcDbEntity
  8
7
  6
CONTINUOUS
 62
     4
100
AcDbBlockReference
  2
_ARROWFILLED
 10
368.5751868784226
 20
68.36205790110034
 30
0.0
 41
6.0
 42
6.0
 43
6.0
 50
179.9999999999998
  0
INSERT
  5
1DE
330
1D6
100
AcDbEntity
  8
7
  6
CONTINUOUS
 62
     4
100
AcDbBlockReference
  2
_ARROWFILLED
 10
898.5751868784226
 20
68.36205790110034
 30
0.0
 41
6.0
 42
6.0
 43
6.0
 50
359.9999999999997
  0
ENDBLK
  5
1D8
330
1D6
100
AcDbEntity
  8
0
100
AcDbBlockEnd
  0
BLOCK
  5
1E1
330
1E0
100
AcDbEntity
  8
0
100
AcDbBlockBegin
  2
DIM4
 70
     0
 10
0.0
 20
0.0
 30
0.0
  3
DIM4
  1

  0
LINE
  5
1E3
330
1E0
100
AcDbEntity
  8
7
  6
CONTINUOUS
 62
     4
100
AcDbLine
 10
380.5751868784228
 20
682.5743155186965
 30
0.0
 11
340.0751868784228
 21
682.5743155186966
 31
0.0
  0
LINE
  5
1E4
330
1E0
100
AcDbEntity
  8
7
  6
CONTINUOUS
 62
     4
100
AcDbLine
 10
380.5751868784228
 20
182.5743155186967
 30
0.0
 11
340.0751868784228
 21
182.5743155186968
 31
0.0
  0
LINE
  5
1E5
330
1E0
100
AcDbEntity
  8
7
  6
CONTINUOUS
 62
     4
100
AcDbLine
 10
344.5751868784228
 20
682.5743155186966
 30
0.0
 11
344.5751868784228
 21
182.5743155186968
 31
0.0
  0
MTEXT
  5
1E6
330
1E0
100
AcDbEntity
  8
7
  6
CONTINUOUS
 62
     4
100
AcDbMText
 10
344.5751868784228
 20
432.5743155186964
 30
0.0
 40
9.0
 41
115.7142857142857
 71
     8
 72
     1
  1
500
  7
ＭＳ_ゴシック
 11
1.615544574432587E-15
 21
1.0
 31
0.0
1001
ACAD
1000
ACAD_MTEXT_DEFINED_HEIGHT_BEGIN
1070
    46
1040
9.0
1000
ACAD_MTEXT_DEFINED_HEIGHT_END
  0
INSERT
  5
1E7
330
1E0
100
AcDbEntity
  8
7
  6
CONTINUOUS
 62
     4
100
AcDbBlockReference
  2
_ARROWFILLED
 10
344.5751868784228
 20
682.5743155186966
 30
0.0
 41
6.0
 42
6.0
 43
6.0
 50
89.99999999999991
  0
INSERT
  5
1E8
330
1E0
100
AcDbEntity
  8
7
  6
CONTINUOUS
 62
     4
100
AcDbBlockReference
  2
_ARROWFILLED
 10
344.5751868784228
 20
182.5743155186968
 30
0.0
 41
6.0
 42
6.0
 43
6.0
 50
269.9999999999998
  0
ENDBLK
  5
1E2
330
1E0
100
AcDbEntity
  8
0
100
AcDbBlockEnd
  0
BLOCK
  5
1EB
330
1EA
100
AcDbEntity
  8
0
100
AcDbBlockBegin
  2
DIM5
 70
     0
 10
0.0
 20
0.0
 30
0.0
  3
DIM5
  1

  0
LINE
  5
1ED
330
1EA
100
AcDbEntity
  8
7
  6
CONTINUOUS
 62
     4
100
AcDbLine
 10
365.5751868784228
 20
697.5743155186965
 30
0.0
 11
316.0751868784229
 21
697.5743155186966
 31
0.0
  0
LINE
  5
1EE
330
1EA
100
AcDbEntity
  8
7
  6
CONTINUOUS
 62
     4
100
AcDbLine
 10
365.5751868784228
 20
167.5743155186965
 30
0.0
 11
316.0751868784229
 21
167.5743155186966
 31
0.0
  0
LINE
  5
1EF
330
1EA
100
AcDbEntity
  8
7
  6
CONTINUOUS
 62
     4
100
AcDbLine
 10
320.5751868784229
 20
697.5743155186966
 30
0.0
 11
320.5751868784229
 21
167.5743155186966
 31
0.0
  0
MTEXT
  5
1F0
330
1EA
100
AcDbEntity
  8
7
  6
CONTINUOUS
 62
     4
100
AcDbMText
 10
320.5751868784229
 20
432.5743155186966
 30
0.0
 40
9.0
 41
115.7142857142857
 71
     8
 72
     1
  1
530
  7
ＭＳ_ゴシック
 11
1.615544574432587E-15
 21
1.0
 31
0.0
1001
ACAD
1000
ACAD_MTEXT_DEFINED_HEIGHT_BEGIN
1070
    46
1040
9.0
1000
ACAD_MTEXT_DEFINED_HEIGHT_END
  0
INSERT
  5
1F1
330
1EA
100
AcDbEntity
  8
7
  6
CONTINUOUS
 62
     4
100
AcDbBlockReference
  2
_ARROWFILLED
 10
320.5751868784229
 20
697.5743155186966
 30
0.0
 41
6.0
 42
6.0
 43
6.0
 50
89.99999999999991
  0
INSERT
  5
1F2
330
1EA
100
AcDbEntity
  8
7
  6
CONTINUOUS
 62
     4
100
AcDbBlockReference
  2
_ARROWFILLED
 10
320.5751868784229
 20
167.5743155186966
 30
0.0
 41
6.0
 42
6.0
 43
6.0
 50
269.9999999999998
  0
ENDBLK
  5
1EC
330
1EA
100
AcDbEntity
  8
0
100
AcDbBlockEnd
  0
BLOCK
  5
1F5
330
1F4
100
AcDbEntity
  8
0
100
AcDbBlockBegin
  2
DIM6
 70
     0
 10
0.0
 20
0.0
 30
0.0
  3
DIM6
  1

  0
LINE
  5
1F7
330
1F4
100
AcDbEntity
  8
7
  6
CONTINUOUS
 62
     4
100
AcDbLine
 10
394.9751868784227
 20
705.5743155186965
 30
0.0
 11
292.0751868784232
 21
705.5743155186968
 31
0.0
  0
LINE
  5
1F8
330
1F4
100
AcDbEntity
  8
7
  6
CONTINUOUS
 62
     4
100
AcDbLine
 10
402.4751868784227
 20
159.5743155186966
 30
0.0
 11
292.0751868784232
 21
159.574315518697
 31
0.0
  0
LINE
  5
1F9
330
1F4
100
AcDbEntity
  8
7
  6
CONTINUOUS
 62
     4
100
AcDbLine
 10
296.5751868784232
 20
705.5743155186968
 30
0.0
 11
296.5751868784232
 21
159.5743155186969
 31
0.0
  0
MTEXT
  5
1FA
330
1F4
100
AcDbEntity
  8
7
  6
CONTINUOUS
 62
     4
100
AcDbMText
 10
296.5751868784232
 20
432.5743155186967
 30
0.0
 40
9.0
 41
115.7142857142857
 71
     8
 72
     1
  1
546
  7
ＭＳ_ゴシック
 11
1.615544574432587E-15
 21
1.0
 31
0.0
1001
ACAD
1000
ACAD_MTEXT_DEFINED_HEIGHT_BEGIN
1070
    46
1040
9.0
1000
ACAD_MTEXT_DEFINED_HEIGHT_END
  0
INSERT
  5
1FB
330
1F4
100
AcDbEntity
  8
7
  6
CONTINUOUS
 62
     4
100
AcDbBlockReference
  2
_ARROWFILLED
 10
296.5751868784232
 20
705.5743155186968
 30
0.0
 41
6.0
 42
6.0
 43
6.0
 50
89.99999999999991
  0
INSERT
  5
1FC
330
1F4
100
AcDbEntity
  8
7
  6
CONTINUOUS
 62
     4
100
AcDbBlockReference
  2
_ARROWFILLED
 10
296.5751868784232
 20
159.5743155186969
 30
0.0
 41
6.0
 42
6.0
 43
6.0
 50
269.9999999999998
  0
ENDBLK
  5
1F6
330
1F4
100
AcDbEntity
  8
0
100
AcDbBlockEnd
  0
BLOCK
  5
1FF
330
1FE
100
AcDbEntity
  8
0
100
AcDbBlockBegin
  2
DIM7
 70
     0
 10
0.0
 20
0.0
 30
0.0
  3
DIM7
  1

  0
LINE
  5
201
330
1FE
100
AcDbEntity
  8
7
  6
CONTINUOUS
 62
     4
100
AcDbLine
 10
385.5751868784228
 20
712.5743155186965
 30
0.0
 11
268.0751868784234
 21
712.5743155186968
 31
0.0
  0
LINE
  5
202
330
1FE
100
AcDbEntity
  8
7
  6
CONTINUOUS
 62
     4
100
AcDbLine
 10
385.5751868784228
 20
152.5743155186965
 30
0.0
 11
268.0751868784234
 21
152.5743155186969
 31
0.0
  0
LINE
  5
203
330
1FE
100
AcDbEntity
  8
7
  6
CONTINUOUS
 62
     4
100
AcDbLine
 10
272.5751868784234
 20
712.5743155186968
 30
0.0
 11
272.5751868784234
 21
152.5743155186969
 31
0.0
  0
MTEXT
  5
204
330
1FE
100
AcDbEntity
  8
7
  6
CONTINUOUS
 62
     4
100
AcDbMText
 10
272.5751868784234
 20
432.5743155186968
 30
0.0
 40
9.0
 41
115.7142857142857
 71
     8
 72
     1
  1
560
  7
ＭＳ_ゴシック
 11
1.615544574432587E-15
 21
1.0
 31
0.0
1001
ACAD
1000
ACAD_MTEXT_DEFINED_HEIGHT_BEGIN
1070
    46
1040
9.0
1000
ACAD_MTEXT_DEFINED_HEIGHT_END
  0
INSERT
  5
205
330
1FE
100
AcDbEntity
  8
7
  6
CONTINUOUS
 62
     4
100
AcDbBlockReference
  2
_ARROWFILLED
 10
272.5751868784234
 20
712.5743155186968
 30
0.0
 41
6.0
 42
6.0
 43
6.0
 50
89.99999999999991
  0
INSERT
  5
206
330
1FE
100
AcDbEntity
  8
7
  6
CONTINUOUS
 62
     4
100
AcDbBlockReference
  2
_ARROWFILLED
 10
272.5751868784234
 20
152.5743155186969
 30
0.0
 41
6.0
 42
6.0
 43
6.0
 50
269.9999999999998
  0
ENDBLK
  5
200
330
1FE
100
AcDbEntity
  8
0
100
AcDbBlockEnd
  0
BLOCK
  5
209
330
208
100
AcDbEntity
  8
0
100
AcDbBlockBegin
  2
DIM8
 70
     0
 10
0.0
 20
0.0
 30
0.0
  3
DIM8
  1

  0
LINE
  5
20B
330
208
100
AcDbEntity
  8
7
  6
CONTINUOUS
 62
     4
100
AcDbLine
 10
607.5751868784209
 20
732.5743155186974
 30
0.0
 11
268.0751868784239
 21
732.5743155186985
 31
0.0
  0
LINE
  5
20C
330
208
100
AcDbEntity
  8
7
  6
CONTINUOUS
 62
     4
100
AcDbLine
 10
385.5751868784228
 20
712.5743155186965
 30
0.0
 11
268.0751868784239
 21
712.5743155186968
 31
0.0
  0
LINE
  5
20D
330
208
100
AcDbEntity
  8
7
  6
CONTINUOUS
 62
     4
100
AcDbLine
 10
272.5751868784239
 20
732.5743155186985
 30
0.0
 11
272.5751868784239
 21
712.5743155186968
 31
0.0
  0
MTEXT
  5
20E
330
208
100
AcDbEntity
  8
7
  6
CONTINUOUS
 62
     4
100
AcDbMText
 10
272.5751868784239
 20
722.5743155186972
 30
0.0
 40
9.0
 41
72.85714285714286
 71
     8
 72
     1
  1
20
  7
ＭＳ_ゴシック
 11
1.615544574432587E-15
 21
1.0
 31
0.0
1001
ACAD
1000
ACAD_MTEXT_DEFINED_HEIGHT_BEGIN
1070
    46
1040
9.0
1000
ACAD_MTEXT_DEFINED_HEIGHT_END
  0
INSERT
  5
20F
330
208
100
AcDbEntity
  8
7
  6
CONTINUOUS
 62
     4
100
AcDbBlockReference
  2
_ARROWFILLED
 10
272.5751868784239
 20
732.5743155186985
 30
0.0
 41
6.0
 42
6.0
 43
6.0
 50
89.99999999999991
  0
INSERT
  5
210
330
208
100
AcDbEntity
  8
7
  6
CONTINUOUS
 62
     4
100
AcDbBlockReference
  2
_ARROWFILLED
 10
272.5751868784239
 20
712.5743155186968
 30
0.0
 41
6.0
 42
6.0
 43
6.0
 50
269.9999999999998
  0
ENDBLK
  5
20A
330
208
100
AcDbEntity
  8
0
100
AcDbBlockEnd
  0
BLOCK
  5
213
330
212
100
AcDbEntity
  8
0
100
AcDbBlockBegin
  2
DIM9
 70
     0
 10
0.0
 20
0.0
 30
0.0
  3
DIM9
  1

  0
LINE
  5
215
330
212
100
AcDbEntity
  8
7
  6
CONTINUOUS
 62
     4
100
AcDbLine
 10
1002.872939720987
 20
164.5743155186974
 30
0.0
 11
1002.872939720987
 21
87.86205790110029
 31
0.0
  0
LINE
  5
216
330
212
100
AcDbEntity
  8
7
  6
CONTINUOUS
 62
     4
100
AcDbLine
 10
1047.872939720987
 20
149.5743155186974
 30
0.0
 11
1047.872939720987
 21
87.86205790110029
 31
0.0
  0
LINE
  5
217
330
212
100
AcDbEntity
  8
7
  6
CONTINUOUS
 62
     4
100
AcDbLine
 10
1002.872939720987
 20
92.36205790110029
 30
0.0
 11
1047.872939720987
 21
92.36205790110029
 31
0.0
  0
MTEXT
  5
218
330
212
100
AcDbEntity
  8
7
  6
CONTINUOUS
 62
     4
100
AcDbMText
 10
1025.372939720987
 20
92.36205790110029
 30
0.0
 40
9.0
 41
72.85714285714286
 71
     8
 72
     1
  1
45
  7
ＭＳ_ゴシック
1001
ACAD
1000
ACAD_MTEXT_DEFINED_HEIGHT_BEGIN
1070
    46
1040
9.0
1000
ACAD_MTEXT_DEFINED_HEIGHT_END
  0
INSERT
  5
219
330
212
100
AcDbEntity
  8
7
  6
CONTINUOUS
 62
     4
100
AcDbBlockReference
  2
_ARROWFILLED
 10
1002.872939720987
 20
92.36205790110029
 30
0.0
 41
6.0
 42
6.0
 43
6.0
 50
179.9999999999998
  0
INSERT
  5
21A
330
212
100
AcDbEntity
  8
7
  6
CONTINUOUS
 62
     4
100
AcDbBlockReference
  2
_ARROWFILLED
 10
1047.872939720987
 20
92.36205790110029
 30
0.0
 41
6.0
 42
6.0
 43
6.0
 50
359.9999999999997
  0
ENDBLK
  5
214
330
212
100
AcDbEntity
  8
0
100
AcDbBlockEnd
  0
BLOCK
  5
21D
330
21C
100
AcDbEntity
  8
0
100
AcDbBlockBegin
  2
DIM10
 70
     0
 10
0.0
 20
0.0
 30
0.0
  3
DIM10
  1

  0
LINE
  5
21F
330
21C
100
AcDbEntity
  8
7
  6
CONTINUOUS
 62
     4
100
AcDbLine
 10
1047.872939720987
 20
715.5743155186965
 30
0.0
 11
1047.872939720987
 21
761.0743155186965
 31
0.0
  0
LINE
  5
220
330
21C
100
AcDbEntity
  8
7
  6
CONTINUOUS
 62
     4
100
AcDbLine
 10
1014.372939720985
 20
735.5743155186965
 30
0.0
 11
1014.372939720985
 21
761.0743155186965
 31
0.0
  0
LINE
  5
221
330
21C
100
AcDbEntity
  8
7
  6
CONTINUOUS
 62
     4
100
AcDbLine
 10
1047.872939720987
 20
756.5743155186965
 30
0.0
 11
1014.372939720985
 21
756.5743155186965
 31
0.0
  0
MTEXT
  5
222
330
21C
100
AcDbEntity
  8
7
  6
CONTINUOUS
 62
     4
100
AcDbMText
 10
1031.122939720986
 20
756.5743155186965
 30
0.0
 40
9.0
 41
137.1428571428571
 71
     8
 72
     1
  1
33.5
  7
ＭＳ_ゴシック
1001
ACAD
1000
ACAD_MTEXT_DEFINED_HEIGHT_BEGIN
1070
    46
1040
9.0
1000
ACAD_MTEXT_DEFINED_HEIGHT_END
  0
INSERT
  5
223
330
21C
100
AcDbEntity
  8
7
  6
CONTINUOUS
 62
     4
100
AcDbBlockReference
  2
_ARROWFILLED
 10
1047.872939720987
 20
756.5743155186965
 30
0.0
 41
6.0
 42
6.0
 43
6.0
 50
359.9999999999997
  0
INSERT
  5
224
330
21C
100
AcDbEntity
  8
7
  6
CONTINUOUS
 62
     4
100
AcDbBlockReference
  2
_ARROWFILLED
 10
1014.372939720985
 20
756.5743155186965
 30
0.0
 41
6.0
 42
6.0
 43
6.0
 50
179.9999999999998
  0
ENDBLK
  5
21E
330
21C
100
AcDbEntity
  8
0
100
AcDbBlockEnd
  0
BLOCK
  5
227
330
226
100
AcDbEntity
  8
0
100
AcDbBlockBegin
  2
DIM11
 70
     0
 10
0.0
 20
0.0
 30
0.0
  3
DIM11
  1

  0
LINE
  5
229
330
226
100
AcDbEntity
  8
7
  6
CONTINUOUS
 62
     4
100
AcDbLine
 10
1046.872939720987
 20
149.5743155186974
 30
0.0
 11
1046.872939720987
 21
112.0743155186968
 31
0.0
  0
LINE
  5
22A
330
226
100
AcDbEntity
  8
7
  6
CONTINUOUS
 62
     4
100
AcDbLine
 10
1047.872939720987
 20
149.5743155186974
 30
0.0
 11
1047.872939720987
 21
112.0743155186968
 31
0.0
  0
LINE
  5
22B
330
226
100
AcDbEntity
  8
7
  6
CONTINUOUS
 62
     4
100
AcDbLine
 10
1034.872939720987
 20
116.5743155186968
 30
0.0
 11
1066.622939720987
 21
116.5743155186968
 31
0.0
  0
MTEXT
  5
22C
330
226
100
AcDbEntity
  8
7
  6
CONTINUOUS
 62
     4
100
AcDbMText
 10
1062.122939720987
 20
116.5743155186968
 30
0.0
 40
9.0
 41
10.71428571428572
 71
     7
 72
     1
  1
1
  7
ＭＳ_ゴシック
1001
ACAD
1000
ACAD_MTEXT_DEFINED_HEIGHT_BEGIN
1070
    46
1040
9.0
1000
ACAD_MTEXT_DEFINED_HEIGHT_END
  0
INSERT
  5
22D
330
226
100
AcDbEntity
  8
7
  6
CONTINUOUS
 62
     4
100
AcDbBlockReference
  2
_ARROWFILLED
 10
1046.872939720987
 20
116.5743155186968
 30
0.0
 41
6.0
 42
6.0
 43
6.0
 50
359.9999999999997
  0
INSERT
  5
22E
330
226
100
AcDbEntity
  8
7
  6
CONTINUOUS
 62
     4
100
AcDbBlockReference
  2
_ARROWFILLED
 10
1047.872939720987
 20
116.5743155186968
 30
0.0
 41
6.0
 42
6.0
 43
6.0
 50
179.9999999999995
  0
ENDBLK
  5
228
330
226
100
AcDbEntity
  8
0
100
AcDbBlockEnd
  0
BLOCK
  5
231
330
230
100
AcDbEntity
  8
0
100
AcDbBlockBegin
  2
DIM12
 70
     0
 10
0.0
 20
0.0
 30
0.0
  3
DIM12
  1

  0
LINE
  5
233
330
230
100
AcDbEntity
  8
7
  6
CONTINUOUS
 62
     4
100
AcDbLine
 10
633.5751868784218
 20
134.5743155186974
 30
0.0
 11
633.5751868784218
 21
112.0743155186968
 31
0.0
  0
LINE
  5
234
330
230
100
AcDbEntity
  8
7
  6
CONTINUOUS
 62
     4
100
AcDbLine
 10
746.0751868784209
 20
145.9743155186983
 30
0.0
 11
746.0751868784209
 21
112.0743155186968
 31
0.0
  0
LINE
  5
235
330
230
100
AcDbEntity
  8
7
  6
CONTINUOUS
 62
     4
100
AcDbLine
 10
633.5751868784218
 20
116.5743155186968
 30
0.0
 11
746.0751868784209
 21
116.5743155186968
 31
0.0
  0
MTEXT
  5
236
330
230
100
AcDbEntity
  8
7
  6
CONTINUOUS
 62
     4
100
AcDbMText
 10
689.8251868784214
 20
116.5743155186968
 30
0.0
 40
9.0
 41
173.5714285714286
 71
     8
 72
     1
  1
112.5
  7
ＭＳ_ゴシック
1001
ACAD
1000
ACAD_MTEXT_DEFINED_HEIGHT_BEGIN
1070
    46
1040
9.0
1000
ACAD_MTEXT_DEFINED_HEIGHT_END
  0
INSERT
  5
237
330
230
100
AcDbEntity
  8
7
  6
CONTINUOUS
 62
     4
100
AcDbBlockReference
  2
_ARROWFILLED
 10
633.5751868784218
 20
116.5743155186968
 30
0.0
 41
6.0
 42
6.0
 43
6.0
 50
179.9999999999998
  0
INSERT
  5
238
330
230
100
AcDbEntity
  8
7
  6
CONTINUOUS
 62
     4
100
AcDbBlockReference
  2
_ARROWFILLED
 10
746.0751868784209
 20
116.5743155186968
 30
0.0
 41
6.0
 42
6.0
 43
6.0
 50
359.9999999999997
  0
ENDBLK
  5
232
330
230
100
AcDbEntity
  8
0
100
AcDbBlockEnd
  0
BLOCK
  5
23B
330
23A
100
AcDbEntity
  8
0
100
AcDbBlockBegin
  2
DIM13
 70
     0
 10
0.0
 20
0.0
 30
0.0
  3
DIM13
  1

  0
LINE
  5
23D
330
23A
100
AcDbEntity
  8
7
  6
CONTINUOUS
 62
     4
100
AcDbLine
 10
408.5751868784228
 20
145.9743155186965
 30
0.0
 11
408.5751868784228
 21
112.0743155186968
 31
0.0
  0
LINE
  5
23E
330
23A
100
AcDbEntity
  8
7
  6
CONTINUOUS
 62
     4
100
AcDbLine
 10
521.0751868784228
 20
145.9743155186965
 30
0.0
 11
521.0751868784228
 21
112.0743155186968
 31
0.0
  0
LINE
  5
23F
330
23A
100
AcDbEntity
  8
7
  6
CONTINUOUS
 62
     4
100
AcDbLine
 10
408.5751868784228
 20
116.5743155186968
 30
0.0
 11
521.0751868784228
 21
116.5743155186968
 31
0.0
  0
MTEXT
  5
240
330
23A
100
AcDbEntity
  8
7
  6
CONTINUOUS
 62
     4
100
AcDbMText
 10
464.8251868784228
 20
116.5743155186968
 30
0.0
 40
9.0
 41
173.5714285714286
 71
     8
 72
     1
  1
112.5
  7
ＭＳ_ゴシック
1001
ACAD
1000
ACAD_MTEXT_DEFINED_HEIGHT_BEGIN
1070
    46
1040
9.0
1000
ACAD_MTEXT_DEFINED_HEIGHT_END
  0
INSERT
  5
241
330
23A
100
AcDbEntity
  8
7
  6
CONTINUOUS
 62
     4
100
AcDbBlockReference
  2
_ARROWFILLED
 10
408.5751868784228
 20
116.5743155186968
 30
0.0
 41
6.0
 42
6.0
 43
6.0
 50
179.9999999999998
  0
INSERT
  5
242
330
23A
100
AcDbEntity
  8
7
  6
CONTINUOUS
 62
     4
100
AcDbBlockReference
  2
_ARROWFILLED
 10
521.0751868784228
 20
116.5743155186968
 30
0.0
 41
6.0
 42
6.0
 43
6.0
 50
359.9999999999997
  0
ENDBLK
  5
23C
330
23A
100
AcDbEntity
  8
0
100
AcDbBlockEnd
  0
BLOCK
  5
245
330
244
100
AcDbEntity
  8
0
100
AcDbBlockBegin
  2
DIM14
 70
     0
 10
0.0
 20
0.0
 30
0.0
  3
DIM14
  1

  0
LINE
  5
247
330
244
100
AcDbEntity
  8
7
  6
CONTINUOUS
 62
     4
100
AcDbLine
 10
746.0751868784228
 20
145.9743155186965
 30
0.0
 11
746.0751868784228
 21
112.0743155186968
 31
0.0
  0
LINE
  5
248
330
244
100
AcDbEntity
  8
7
  6
CONTINUOUS
 62
     4
100
AcDbLine
 10
858.5751868784228
 20
145.9743155186965
 30
0.0
 11
858.5751868784228
 21
112.0743155186968
 31
0.0
  0
LINE
  5
249
330
244
100
AcDbEntity
  8
7
  6
CONTINUOUS
 62
     4
100
AcDbLine
 10
746.0751868784228
 20
116.5743155186968
 30
0.0
 11
858.5751868784228
 21
116.5743155186968
 31
0.0
  0
MTEXT
  5
24A
330
244
100
AcDbEntity
  8
7
  6
CONTINUOUS
 62
     4
100
AcDbMText
 10
802.3251868784228
 20
116.5743155186968
 30
0.0
 40
9.0
 41
173.5714285714286
 71
     8
 72
     1
  1
112.5
  7
ＭＳ_ゴシック
1001
ACAD
1000
ACAD_MTEXT_DEFINED_HEIGHT_BEGIN
1070
    46
1040
9.0
1000
ACAD_MTEXT_DEFINED_HEIGHT_END
  0
INSERT
  5
24B
330
244
100
AcDbEntity
  8
7
  6
CONTINUOUS
 62
     4
100
AcDbBlockReference
  2
_ARROWFILLED
 10
746.0751868784228
 20
116.5743155186968
 30
0.0
 41
6.0
 42
6.0
 43
6.0
 50
179.9999999999998
  0
INSERT
  5
24C
330
244
100
AcDbEntity
  8
7
  6
CONTINUOUS
 62
     4
100
AcDbBlockReference
  2
_ARROWFILLED
 10
858.5751868784228
 20
116.5743155186968
 30
0.0
 41
6.0
 42
6.0
 43
6.0
 50
359.9999999999997
  0
ENDBLK
  5
246
330
244
100
AcDbEntity
  8
0
100
AcDbBlockEnd
  0
BLOCK
  5
256
330
255
100
AcDbEntity
  8
0
100
AcDbBlockBegin
  2
DIM15
 70
     0
 10
0.0
 20
0.0
 30
0.0
  3
DIM15
  1

  0
LINE
  5
258
330
255
100
AcDbEntity
  8
7
  6
CONTINUOUS
 62
     4
100
AcDbLine
 10
597.4308117243909
 20
416.6421422607787
 30
0.0
 11
941.1119906068488
 21
568.1342641770336
 31
0.0
  0
MTEXT
  5
259
330
255
100
AcDbEntity
  8
7
  6
CONTINUOUS
 62
     4
100
AcDbMText
 10
924.6411361062454
 20
560.8740333253351
 30
0.0
 40
9.0
 41
111.4285714285714
 71
     7
 72
     1
  1
φ55
  7
ＭＳ_ゴシック
 11
0.915047472255755
 21
0.4033461584276629
 31
0.0
1001
ACAD
1000
ACAD_MTEXT_DEFINED_HEIGHT_BEGIN
1070
    46
1040
9.0
1000
ACAD_MTEXT_DEFINED_HEIGHT_END
  0
INSERT
  5
25A
330
255
100
AcDbEntity
  8
7
  6
CONTINUOUS
 62
     4
100
AcDbBlockReference
  2
_ARROWFILLED
 10
608.4113813914599
 20
421.4822961619106
 30
0.0
 41
6.0
 42
6.0
 43
6.0
 50
23.78753036276954
  0
INSERT
  5
25B
330
255
100
AcDbEntity
  8
7
  6
CONTINUOUS
 62
     4
100
AcDbBlockReference
  2
_ARROWFILLED
 10
658.7389923655256
 20
443.6663348754317
 30
0.0
 41
6.0
 42
6.0
 43
6.0
 50
203.7875303627695
  0
ENDBLK
  5
257
330
255
100
AcDbEntity
  8
0
100
AcDbBlockEnd
  0
BLOCK
  5
25E
330
25D
100
AcDbEntity
  8
0
100
AcDbBlockBegin
  2
DIM16
 70
     0
 10
0.0
 20
0.0
 30
0.0
  3
DIM16
  1

  0
LINE
  5
260
330
25D
100
AcDbEntity
  8
7
  6
CONTINUOUS
 62
     4
100
AcDbLine
 10
589.6445951343593
 20
425.4783230574141
 30
0.0
 11
941.2494122300807
 21
482.2721205547188
 31
0.0
  0
MTEXT
  5
261
330
25D
100
AcDbEntity
  8
7
  6
CONTINUOUS
 62
     4
100
AcDbMText
 10
923.4797346706557
 20
479.4018314692661
 30
0.0
 40
9.0
 41
111.4285714285714
 71
     7
 72
     1
  1
φ65
  7
ＭＳ_ゴシック
 11
0.9872043088569439
 21
0.1594605047473628
 31
0.0
1001
ACAD
1000
ACAD_MTEXT_DEFINED_HEIGHT_BEGIN
1070
    46
1040
9.0
1000
ACAD_MTEXT_DEFINED_HEIGHT_END
  0
INSERT
  5
262
330
25D
100
AcDbEntity
  8
7
  6
CONTINUOUS
 62
     4
100
AcDbBlockReference
  2
_ARROWFILLED
 10
601.4910468406426
 20
427.3918491143825
 30
0.0
 41
6.0
 42
6.0
 43
6.0
 50
9.175583384968899
  0
INSERT
  5
263
330
25D
100
AcDbEntity
  8
7
  6
CONTINUOUS
 62
     4
100
AcDbBlockReference
  2
_ARROWFILLED
 10
665.6593269163434
 20
437.756781922961
 30
0.0
 41
6.0
 42
6.0
 43
6.0
 50
189.1755833849689
  0
ENDBLK
  5
25F
330
25D
100
AcDbEntity
  8
0
100
AcDbBlockEnd
  0
ENDSEC
  0
SECTION
  2
ENTITIES
  0
HATCH
  5
A1
330
1F
100
AcDbEntity
  8
9
  6
CONTINUOUS
 62
     2
100
AcDbHatch
 10
0.0
 20
0.0
 30
0.0
210
0.0
220
0.0
230
1.0
  2

 70
     0
 71
     0
 91
        4
 92
        0
 93
       40
 72
     1
 10
383.5751868784228
 20
432.5743155186965
 11
383.5751868784228
 21
682.5743155186965
 72
     1
 10
383.5751868784228
 20
682.5743155186965
 11
633.5751868784226
 21
682.5743155186965
 72
     1
 10
633.5751868784226
 20
682.5743155186965
 11
633.5751868784223
 21
465.074315518671
 72
     1
 10
633.5751868784923
 20
465.074315518671
 11
632.157556789119
 21
465.0433827200814
 72
     1
 10
632.157556789119
 20
465.0433827200814
 11
630.7426252391934
 21
464.9506432066528
 72
     1
 10
630.7426252391934
 20
464.9506432066528
 11
629.3330856313407
 21
464.7962735133199
 72
     1
 10
629.3330856313407
 20
464.7962735133199
 11
627.9316211043172
 21
464.5805674915678
 72
     1
 10
627.9316211043172
 20
464.5805674915678
 11
626.540899425504
 21
464.3039357500689
 72
     1
 10
626.540899425504
 20
464.3039357500689
 11
625.1635679126605
 21
463.9669048730657
 72
     1
 10
625.1635679126605
 20
463.9669048730657
 11
623.8022483946036
 21
463.5701164179884
 72
     1
 10
623.8022483946036
 20
463.5701164179884
 11
622.4595322204082
 21
463.1143256942131
 72
     1
 10
622.4595322204082
 20
463.1143256942131
 11
621.1379753266269
 21
462.6004003252879
 72
     1
 10
621.1379753266269
 20
462.6004003252879
 11
619.8400933719197
 21
462.0293185973622
 72
     1
 10
619.8400933719197
 20
462.0293185973622
 11
618.5683569483538
 21
461.4021675969632
 72
     1
 10
618.5683569483538
 20
461.4021675969632
 11
617.3251868784923
 21
460.7201411416653
 72
     1
 10
617.3251868784923
 20
460.7201411416653
 11
616.1129496072206
 21
459.9845375075898
 72
     1
 10
616.1129496072206
 20
459.9845375075898
 11
614.9339526970834
 21
459.1967569580633
 72
     1
 10
614.9339526970834
 20
459.1967569580633
 11
613.790440435709
 21
458.3582990781362
 72
     1
 10
613.790440435709
 20
458.3582990781362
 11
612.6845895636799
 21
457.4707599200378
 72
     1
 10
612.6845895636799
 20
457.4707599200378
 11
611.6185051309834
 21
456.5358289650001
 72
     1
 10
611.6185051309834
 20
456.5358289650001
 11
610.5942164899296
 21
455.5552859072339
 72
     1
 10
610.5942164899296
 20
455.5552859072339
 11
609.6136734321633
 21
454.5309972661801
 72
     1
 10
609.6136734321633
 20
454.5309972661801
 11
608.6787424771256
 21
453.4649128334836
 72
     1
 10
608.6787424771256
 20
453.4649128334836
 11
607.7912033190272
 21
452.3590619614545
 72
     1
 10
607.7912033190272
 20
452.3590619614545
 11
606.9527454391001
 21
451.2155497000801
 72
     1
 10
606.9527454391001
 20
451.2155497000801
 11
606.1649648895736
 21
450.0365527899429
 72
     1
 10
606.1649648895736
 20
450.0365527899429
 11
605.4293612554981
 21
448.8243155186711
 72
     1
 10
605.4293612554981
 20
448.8243155186711
 11
604.7473348002002
 21
447.5811454488097
 72
     1
 10
604.7473348002002
 20
447.5811454488097
 11
604.1201837998012
 21
446.3094090252438
 72
     1
 10
604.1201837998012
 20
446.3094090252438
 11
603.5491020718755
 21
445.0115270705365
 72
     1
 10
603.5491020718755
 20
445.0115270705365
 11
603.0351767029504
 21
443.6899701767554
 72
     1
 10
603.0351767029504
 20
443.6899701767554
 11
602.579385979175
 21
442.34725400256
 72
     1
 10
602.579385979175
 20
442.34725400256
 11
602.1825975240977
 21
440.985934484503
 72
     1
 10
602.1825975240977
 20
440.985934484503
 11
601.8455666470945
 21
439.6086029716595
 72
     1
 10
601.8455666470945
 20
439.6086029716595
 11
601.5689349055956
 21
438.2178812928464
 72
     1
 10
601.5689349055956
 20
438.2178812928464
 11
601.3532288838435
 21
436.8164167658228
 72
     1
 10
601.3532288838435
 20
436.8164167658228
 11
601.1988591905106
 21
435.40687715797
 72
     1
 10
601.1988591905106
 20
435.40687715797
 11
601.106119677082
 21
433.9919456080445
 72
     1
 10
601.106119677082
 20
433.9919456080445
 11
601.0751868784923
 21
432.5743155186711
 72
     1
 10
601.0751868784923
 20
432.5743155186965
 11
383.5751868784228
 21
432.5743155186965
 97
        0
 92
        0
 93
       40
 72
     1
 10
666.0751868784923
 20
432.5743155186965
 11
883.5751868784228
 21
432.5743155186965
 72
     1
 10
883.5751868784228
 20
432.5743155186965
 11
883.5751868784228
 21
682.5743155186965
 72
     1
 10
883.5751868784228
 20
682.5743155186965
 11
633.5751868784226
 21
682.5743155186965
 72
     1
 10
633.5751868784226
 20
682.5743155186965
 11
633.5751868784223
 21
465.074315518671
 72
     1
 10
633.5751868784923
 20
465.074315518671
 11
634.9928169678658
 21
465.0433827200814
 72
     1
 10
634.9928169678658
 20
465.0433827200814
 11
636.4077485177912
 21
464.9506432066528
 72
     1
 10
636.4077485177912
 20
464.9506432066528
 11
637.817288125644
 21
464.7962735133199
 72
     1
 10
637.817288125644
 20
464.7962735133199
 11
639.2187526526676
 21
464.5805674915678
 72
     1
 10
639.2187526526676
 20
464.5805674915678
 11
640.6094743314807
 21
464.3039357500688
 72
     1
 10
640.6094743314807
 20
464.3039357500688
 11
641.9868058443243
 21
463.9669048730657
 72
     1
 10
641.9868058443243
 20
463.9669048730657
 11
643.3481253623812
 21
463.5701164179884
 72
     1
 10
643.3481253623812
 20
463.5701164179884
 11
644.6908415365766
 21
463.1143256942131
 72
     1
 10
644.6908415365766
 20
463.1143256942131
 11
646.0123984303577
 21
462.6004003252878
 72
     1
 10
646.0123984303577
 20
462.6004003252878
 11
647.3102803850651
 21
462.0293185973621
 72
     1
 10
647.3102803850651
 20
462.0293185973621
 11
648.582016808631
 21
461.4021675969632
 72
     1
 10
648.582016808631
 20
461.4021675969632
 11
649.8251868784923
 21
460.7201411416653
 72
     1
 10
649.8251868784923
 20
460.7201411416653
 11
651.0374241497641
 21
459.9845375075898
 72
     1
 10
651.0374241497641
 20
459.9845375075898
 11
652.2164210599013
 21
459.1967569580632
 72
     1
 10
652.2164210599013
 20
459.1967569580632
 11
653.3599333212758
 21
458.3582990781362
 72
     1
 10
653.3599333212758
 20
458.3582990781362
 11
654.4657841933049
 21
457.4707599200378
 72
     1
 10
654.4657841933049
 20
457.4707599200378
 11
655.5318686260014
 21
456.5358289650001
 72
     1
 10
655.5318686260014
 20
456.5358289650001
 11
656.5561572670551
 21
455.5552859072338
 72
     1
 10
656.5561572670551
 20
455.5552859072338
 11
657.5367003248214
 21
454.53099726618
 72
     1
 10
657.5367003248214
 20
454.53099726618
 11
658.4716312798591
 21
453.4649128334835
 72
     1
 10
658.4716312798591
 20
453.4649128334835
 11
659.3591704379575
 21
452.3590619614544
 72
     1
 10
659.3591704379575
 20
452.3590619614544
 11
660.1976283178846
 21
451.21554970008
 72
     1
 10
660.1976283178846
 20
451.21554970008
 11
660.9854088674111
 21
450.0365527899428
 72
     1
 10
660.9854088674111
 20
450.0365527899428
 11
661.7210125014866
 21
448.824315518671
 72
     1
 10
661.7210125014866
 20
448.824315518671
 11
662.4030389567846
 21
447.5811454488096
 72
     1
 10
662.4030389567846
 20
447.5811454488096
 11
663.0301899571834
 21
446.3094090252437
 72
     1
 10
663.0301899571834
 20
446.3094090252437
 11
663.6012716851092
 21
445.0115270705364
 72
     1
 10
663.6012716851092
 20
445.0115270705364
 11
664.1151970540344
 21
443.6899701767553
 72
     1
 10
664.1151970540344
 20
443.6899701767553
 11
664.5709877778097
 21
442.3472540025599
 72
     1
 10
664.5709877778097
 20
442.3472540025599
 11
664.9677762328871
 21
440.9859344845029
 72
     1
 10
664.9677762328871
 20
440.9859344845029
 11
665.3048071098901
 21
439.6086029716594
 72
     1
 10
665.3048071098901
 20
439.6086029716594
 11
665.5814388513891
 21
438.2178812928462
 72
     1
 10
665.5814388513891
 20
438.2178812928462
 11
665.7971448731412
 21
436.8164167658227
 72
     1
 10
665.7971448731412
 20
436.8164167658227
 11
665.9515145664741
 21
435.4068771579699
 72
     1
 10
665.9515145664741
 20
435.4068771579699
 11
666.0442540799027
 21
433.9919456080444
 72
     1
 10
666.0442540799027
 20
433.9919456080444
 11
666.0751868784923
 21
432.574315518671
 97
        0
 92
        0
 93
       40
 72
     1
 10
633.5751868784223
 20
400.074315518671
 11
633.5751868784218
 21
182.5743155186965
 72
     1
 10
633.5751868784218
 20
182.5743155186965
 11
883.5751868784228
 21
182.5743155186965
 72
     1
 10
883.5751868784228
 20
182.5743155186965
 11
883.5751868784228
 21
432.5743155186965
 72
     1
 10
883.5751868784228
 20
432.5743155186965
 11
666.0751868784923
 21
432.5743155186965
 72
     1
 10
666.0751868784923
 20
432.5743155186709
 11
666.0442540799027
 21
431.1566854292975
 72
     1
 10
666.0442540799027
 20
431.1566854292975
 11
665.9515145664741
 21
429.741753879372
 72
     1
 10
665.9515145664741
 20
429.741753879372
 11
665.7971448731412
 21
428.3322142715192
 72
     1
 10
665.7971448731412
 20
428.3322142715192
 11
665.5814388513891
 21
426.9307497444956
 72
     1
 10
665.5814388513891
 20
426.9307497444956
 11
665.3048071098901
 21
425.5400280656825
 72
     1
 10
665.3048071098901
 20
425.5400280656825
 11
664.967776232887
 21
424.162696552839
 72
     1
 10
664.967776232887
 20
424.162696552839
 11
664.5709877778096
 21
422.801377034782
 72
     1
 10
664.5709877778096
 20
422.801377034782
 11
664.1151970540343
 21
421.4586608605867
 72
     1
 10
664.1151970540343
 20
421.4586608605867
 11
663.601271685109
 21
420.1371039668055
 72
     1
 10
663.601271685109
 20
420.1371039668055
 11
663.0301899571833
 21
418.8392220120982
 72
     1
 10
663.0301899571833
 20
418.8392220120982
 11
662.4030389567845
 21
417.5674855885323
 72
     1
 10
662.4030389567845
 20
417.5674855885323
 11
661.7210125014865
 21
416.3243155186709
 72
     1
 10
661.7210125014865
 20
416.3243155186709
 11
660.985408867411
 21
415.1120782473992
 72
     1
 10
660.985408867411
 20
415.1120782473992
 11
660.1976283178844
 21
413.9330813372619
 72
     1
 10
660.1976283178844
 20
413.9330813372619
 11
659.3591704379573
 21
412.7895690758875
 72
     1
 10
659.3591704379573
 20
412.7895690758875
 11
658.471631279859
 21
411.6837182038584
 72
     1
 10
658.471631279859
 20
411.6837182038584
 11
657.5367003248213
 21
410.617633771162
 72
     1
 10
657.5367003248213
 20
410.617633771162
 11
656.556157267055
 21
409.5933451301082
 72
     1
 10
656.556157267055
 20
409.5933451301082
 11
655.5318686260011
 21
408.6128020723419
 72
     1
 10
655.5318686260011
 20
408.6128020723419
 11
654.4657841933047
 21
407.6778711173042
 72
     1
 10
654.4657841933047
 20
407.6778711173042
 11
653.3599333212757
 21
406.7903319592058
 72
     1
 10
653.3599333212757
 20
406.7903319592058
 11
652.2164210599012
 21
405.9518740792788
 72
     1
 10
652.2164210599012
 20
405.9518740792788
 11
651.037424149764
 21
405.1640935297522
 72
     1
 10
651.037424149764
 20
405.1640935297522
 11
649.8251868784922
 21
404.4284898956768
 72
     1
 10
649.8251868784922
 20
404.4284898956768
 11
648.5820168086308
 21
403.7464634403788
 72
     1
 10
648.5820168086308
 20
403.7464634403788
 11
647.3102803850649
 21
403.1193124399799
 72
     1
 10
647.3102803850649
 20
403.1193124399799
 11
646.0123984303576
 21
402.5482307120542
 72
     1
 10
646.0123984303576
 20
402.5482307120542
 11
644.6908415365764
 21
402.034305343129
 72
     1
 10
644.6908415365764
 20
402.034305343129
 11
643.3481253623811
 21
401.5785146193537
 72
     1
 10
643.3481253623811
 20
401.5785146193537
 11
641.9868058443241
 21
401.1817261642763
 72
     1
 10
641.9868058443241
 20
401.1817261642763
 11
640.6094743314806
 21
400.8446952872732
 72
     1
 10
640.6094743314806
 20
400.8446952872732
 11
639.2187526526674
 21
400.5680635457743
 72
     1
 10
639.2187526526674
 20
400.5680635457743
 11
637.8172881256438
 21
400.3523575240222
 72
     1
 10
637.8172881256438
 20
400.3523575240222
 11
636.4077485177911
 21
400.1979878306893
 72
     1
 10
636.4077485177911
 20
400.1979878306893
 11
634.9928169678656
 21
400.1052483172607
 72
     1
 10
634.9928169678656
 20
400.1052483172607
 11
633.5751868784922
 21
400.0743155186711
 97
        0
 92
        0
 93
       40
 72
     1
 10
633.575186878422
 20
182.5743155186964
 11
383.5751868784228
 21
182.5743155186965
 72
     1
 10
383.5751868784228
 20
182.5743155186965
 11
383.5751868784228
 21
432.5743155186965
 72
     1
 10
383.5751868784228
 20
432.5743155186965
 11
601.0751868784923
 21
432.5743155186965
 72
     1
 10
601.0751868784923
 20
432.5743155186711
 11
601.106119677082
 21
431.1566854292977
 72
     1
 10
601.106119677082
 20
431.1566854292977
 11
601.1988591905106
 21
429.7417538793723
 72
     1
 10
601.1988591905106
 20
429.7417538793723
 11
601.3532288838435
 21
428.3322142715194
 72
     1
 10
601.3532288838435
 20
428.3322142715194
 11
601.5689349055956
 21
426.9307497444959
 72
     1
 10
601.5689349055956
 20
426.9307497444959
 11
601.8455666470945
 21
425.5400280656828
 72
     1
 10
601.8455666470945
 20
425.5400280656828
 11
602.1825975240976
 21
424.1626965528392
 72
     1
 10
602.1825975240976
 20
424.1626965528392
 11
602.579385979175
 21
422.8013770347823
 72
     1
 10
602.579385979175
 20
422.8013770347823
 11
603.0351767029503
 21
421.4586608605869
 72
     1
 10
603.0351767029503
 20
421.4586608605869
 11
603.5491020718755
 21
420.1371039668057
 72
     1
 10
603.5491020718755
 20
420.1371039668057
 11
604.1201837998011
 21
418.8392220120984
 72
     1
 10
604.1201837998011
 20
418.8392220120984
 11
604.7473348002001
 21
417.5674855885325
 72
     1
 10
604.7473348002001
 20
417.5674855885325
 11
605.4293612554981
 21
416.3243155186711
 72
     1
 10
605.4293612554981
 20
416.3243155186711
 11
606.1649648895735
 21
415.1120782473994
 72
     1
 10
606.1649648895735
 20
415.1120782473994
 11
606.9527454391
 21
413.9330813372621
 72
     1
 10
606.9527454391
 20
413.9330813372621
 11
607.7912033190271
 21
412.7895690758877
 72
     1
 10
607.7912033190271
 20
412.7895690758877
 11
608.6787424771254
 21
411.6837182038586
 72
     1
 10
608.6787424771254
 20
411.6837182038586
 11
609.6136734321632
 21
410.6176337711622
 72
     1
 10
609.6136734321632
 20
410.6176337711622
 11
610.5942164899294
 21
409.5933451301083
 72
     1
 10
610.5942164899294
 20
409.5933451301083
 11
611.6185051309833
 21
408.6128020723421
 72
     1
 10
611.6185051309833
 20
408.6128020723421
 11
612.6845895636798
 21
407.6778711173043
 72
     1
 10
612.6845895636798
 20
407.6778711173043
 11
613.7904404357088
 21
406.790331959206
 72
     1
 10
613.7904404357088
 20
406.790331959206
 11
614.9339526970832
 21
405.9518740792789
 72
     1
 10
614.9339526970832
 20
405.9518740792789
 11
616.1129496072205
 21
405.1640935297523
 72
     1
 10
616.1129496072205
 20
405.1640935297523
 11
617.3251868784922
 21
404.4284898956768
 72
     1
 10
617.3251868784922
 20
404.4284898956768
 11
618.5683569483537
 21
403.7464634403789
 72
     1
 10
618.5683569483537
 20
403.7464634403789
 11
619.8400933719195
 21
403.11931243998
 72
     1
 10
619.8400933719195
 20
403.11931243998
 11
621.1379753266268
 21
402.5482307120542
 72
     1
 10
621.1379753266268
 20
402.5482307120542
 11
622.4595322204079
 21
402.0343053431291
 72
     1
 10
622.4595322204079
 20
402.0343053431291
 11
623.8022483946033
 21
401.5785146193537
 72
     1
 10
623.8022483946033
 20
401.5785146193537
 11
625.1635679126603
 21
401.1817261642764
 72
     1
 10
625.1635679126603
 20
401.1817261642764
 11
626.5408994255039
 21
400.8446952872732
 72
     1
 10
626.5408994255039
 20
400.8446952872732
 11
627.931621104317
 21
400.5680635457743
 72
     1
 10
627.931621104317
 20
400.5680635457743
 11
629.3330856313405
 21
400.3523575240222
 72
     1
 10
629.3330856313405
 20
400.3523575240222
 11
630.7426252391933
 21
400.1979878306893
 72
     1
 10
630.7426252391933
 20
400.1979878306893
 11
632.1575567891188
 21
400.1052483172606
 72
     1
 10
632.1575567891188
 20
400.1052483172606
 11
633.5751868784922
 21
400.074315518671
 72
     1
 10
633.5751868784223
 20
400.074315518671
 11
633.575186878422
 21
182.5743155186965
 97
        0
 75
     0
 76
     2
 52
0.0
 41
0.3333333333333333
 77
     0
 78
     2
 53
45.0
 43
-4268.416386634146
 44
3526.187268417554
 45
-10.10278813620243
 46
10.10278813620289
 79
     0
 53
135.0
 43
-4268.416386634146
 44
3526.187268417554
 45
-10.10278813620243
 46
-10.10278813620243
 79
     0
 98
        0
  0
POLYLINE
  5
A2
330
1F
100
AcDbEntity
  8
8
  6
CONTINUOUS
 62
     7
100
AcDb2dPolyline
 66
     1
 10
0.0
 20
0.0
 30
0.0
  0
VERTEX
  5
A3
330
A2
100
AcDbEntity
  8
8
  6
CONTINUOUS
 62
     7
100
AcDbVertex
100
AcDb2dVertex
 10
883.5751868784228
 20
182.5743155186965
 30
0.0
  0
VERTEX
  5
A4
330
A2
100
AcDbEntity
  8
8
  6
CONTINUOUS
 62
     7
100
AcDbVertex
100
AcDb2dVertex
 10
883.5751868784228
 20
682.5743155186965
 30
0.0
  0
VERTEX
  5
A5
330
A2
100
AcDbEntity
  8
8
  6
CONTINUOUS
 62
     7
100
AcDbVertex
100
AcDb2dVertex
 10
383.5751868784228
 20
682.5743155186965
 30
0.0
  0
VERTEX
  5
A6
330
A2
100
AcDbEntity
  8
8
  6
CONTINUOUS
 62
     7
100
AcDbVertex
100
AcDb2dVertex
 10
383.5751868784228
 20
182.5743155186965
 30
0.0
  0
VERTEX
  5
A7
330
A2
100
AcDbEntity
  8
8
  6
CONTINUOUS
 62
     7
100
AcDbVertex
100
AcDb2dVertex
 10
883.5751868784228
 20
182.5743155186965
 30
0.0
  0
SEQEND
  5
A8
330
A2
100
AcDbEntity
  8
8
  6
CONTINUOUS
 62
     7
  0
LINE
  5
A9
330
1F
100
AcDbEntity
  8
8
  6
CONTINUOUS
 62
     7
100
AcDbLine
 10
898.5751868784228
 20
697.5743155186965
 30
0.0
 11
898.5751868784228
 21
167.5743155186965
 31
0.0
  0
LINE
  5
AA
330
1F
100
AcDbEntity
  8
8
  6
CONTINUOUS
 62
     7
100
AcDbLine
 10
898.5751868784228
 20
167.5743155186965
 30
0.0
 11
368.5751868784228
 21
167.5743155186965
 31
0.0
  0
LINE
  5
AB
330
1F
100
AcDbEntity
  8
8
  6
CONTINUOUS
 62
     7
100
AcDbLine
 10
898.5751868784228
 20
697.5743155186965
 30
0.0
 11
368.5751868784228
 21
697.5743155186965
 31
0.0
  0
LINE
  5
AC
330
1F
100
AcDbEntity
  8
8
  6
CONTINUOUS
 62
     7
100
AcDbLine
 10
368.5751868784228
 20
697.5743155186965
 30
0.0
 11
368.5751868784228
 21
167.5743155186965
 31
0.0
  0
LINE
  5
AD
330
1F
100
AcDbEntity
  8
8
  6
CONTINUOUS
 62
     7
100
AcDbLine
 10
1041.322939720986
 20
167.2576488520308
 30
0.0
 11
1034.422939720987
 21
167.2576488520308
 31
0.0
  0
ARC
  5
AE
330
1F
100
AcDbEntity
  8
8
  6
CONTINUOUS
 62
     7
100
AcDbCircle
 10
1037.872939720987
 20
170.2246663958913
 30
0.0
 40
4.550350877193068
100
AcDbArc
 50
220.6956985254104
 51
319.3043014745889
  0
LINE
  5
AF
330
1F
100
AcDbEntity
  8
8
  6
CONTINUOUS
 62
     7
100
AcDbLine
 10
1041.322939720986
 20
167.5743155186983
 30
0.0
 11
1041.322939720986
 21
167.2576488520308
 31
0.0
  0
LINE
  5
B0
330
1F
100
AcDbEntity
  8
8
  6
CONTINUOUS
 62
     7
100
AcDbLine
 10
1034.422939720987
 20
167.5743155186983
 30
0.0
 11
1034.422939720987
 21
167.2576488520308
 31
0.0
  0
LINE
  5
B1
330
1F
100
AcDbEntity
  8
8
  6
CONTINUOUS
 62
     7
100
AcDbLine
 10
1002.872939720987
 20
697.5743155186965
 30
0.0
 11
1002.872939720987
 21
167.5743155186974
 31
0.0
  0
LINE
  5
B2
330
1F
100
AcDbEntity
  8
8
  6
CONTINUOUS
 62
     7
100
AcDbLine
 10
1047.872939720987
 20
712.5743155186965
 30
0.0
 11
1047.872939720987
 21
152.5743155186974
 31
0.0
  0
LINE
  5
B3
330
1F
100
AcDbEntity
  8
8
  6
CONTINUOUS
 62
     7
100
AcDbLine
 10
1046.872939720987
 20
712.5743155186965
 30
0.0
 11
1046.872939720987
 21
152.5743155186974
 31
0.0
  0
LINE
  5
B4
330
1F
100
AcDbEntity
  8
8
  6
CONTINUOUS
 62
     7
100
AcDbLine
 10
1046.872939720987
 20
696.5743155186965
 30
0.0
 11
1047.872939720987
 21
696.5743155186965
 31
0.0
  0
LINE
  5
B5
330
1F
100
AcDbEntity
  8
8
  6
CONTINUOUS
 62
     7
100
AcDbLine
 10
1002.872939720987
 20
697.5743155186965
 30
0.0
 11
1046.872939720987
 21
697.5743155186965
 31
0.0
  0
LINE
  5
B6
330
1F
100
AcDbEntity
  8
8
  6
CONTINUOUS
 62
     7
100
AcDbLine
 10
1046.872939720987
 20
712.5743155186965
 30
0.0
 11
1047.872939720987
 21
712.5743155186965
 31
0.0
  0
LINE
  5
B7
330
1F
100
AcDbEntity
  8
8
  6
CONTINUOUS
 62
     7
100
AcDbLine
 10
1046.872939720987
 20
168.5743155186974
 30
0.0
 11
1047.872939720987
 21
168.5743155186974
 31
0.0
  0
LINE
  5
B8
330
1F
100
AcDbEntity
  8
8
  6
CONTINUOUS
 62
     7
100
AcDbLine
 10
1002.872939720987
 20
167.5743155186974
 30
0.0
 11
1046.872939720987
 21
167.5743155186983
 31
0.0
  0
LINE
  5
B9
330
1F
100
AcDbEntity
  8
8
  6
CONTINUOUS
 62
     7
100
AcDbLine
 10
1046.872939720987
 20
152.5743155186974
 30
0.0
 11
1047.872939720987
 21
152.5743155186974
 31
0.0
  0
LINE
  5
BA
330
1F
100
AcDbEntity
  8
8
  6
CONTINUOUS
 62
     7
100
AcDbLine
 10
883.5751868784228
 20
157.5743155186965
 30
0.0
 11
883.5751868784228
 21
167.5743155186965
 31
0.0
  0
ARC
  5
BB
330
1F
100
AcDbEntity
  8
8
  6
CONTINUOUS
 62
     7
100
AcDbCircle
 10
878.5751868784228
 20
157.5743155186965
 30
0.0
 40
5.0
100
AcDbArc
 50
269.9999999999998
 51
0.0
  0
LINE
  5
BC
330
1F
100
AcDbEntity
  8
8
  6
CONTINUOUS
 62
     7
100
AcDbLine
 10
388.5751868784228
 20
152.5743155186965
 30
0.0
 11
878.5751868784228
 21
152.5743155186983
 31
0.0
  0
LINE
  5
BD
330
1F
100
AcDbEntity
  8
8
  6
CONTINUOUS
 62
     7
100
AcDbLine
 10
383.5751868784228
 20
157.5743155186965
 30
0.0
 11
383.5751868784228
 21
167.5743155186965
 31
0.0
  0
ARC
  5
BE
330
1F
100
AcDbEntity
  8
8
  6
CONTINUOUS
 62
     7
100
AcDbCircle
 10
388.5751868784209
 20
157.5743155186965
 30
0.0
 40
5.0
100
AcDbArc
 50
179.9999999999998
 51
269.9999999999998
  0
LINE
  5
BF
330
1F
100
AcDbEntity
  8
8
  6
CONTINUOUS
 62
     7
100
AcDbLine
 10
878.5751868784228
 20
712.5743155186965
 30
0.0
 11
701.0751868784228
 21
712.5743155186965
 31
0.0
  0
ARC
  5
C0
330
1F
100
AcDbEntity
  8
8
  6
CONTINUOUS
 62
     7
100
AcDbCircle
 10
701.0751868784228
 20
707.5743155186965
 30
0.0
 40
5.0
100
AcDbArc
 50
89.99999999999991
 51
179.9999999999998
  0
LINE
  5
C1
330
1F
100
AcDbEntity
  8
8
  6
CONTINUOUS
 62
     7
100
AcDbLine
 10
883.5751868784228
 20
707.5743155186965
 30
0.0
 11
883.5751868784228
 21
697.5743155186965
 31
0.0
  0
LINE
  5
C2
330
1F
100
AcDbEntity
  8
8
  6
CONTINUOUS
 62
     7
100
AcDbLine
 10
696.0751868784228
 20
707.5743155186965
 30
0.0
 11
696.0751868784228
 21
697.5743155186965
 31
0.0
  0
ARC
  5
C3
330
1F
100
AcDbEntity
  8
8
  6
CONTINUOUS
 62
     7
100
AcDbCircle
 10
878.5751868784246
 20
707.5743155186965
 30
0.0
 40
5.0
100
AcDbArc
 50
0.0
 51
89.99999999999991
  0
LINE
  5
C4
330
1F
100
AcDbEntity
  8
8
  6
CONTINUOUS
 62
     7
100
AcDbLine
 10
388.5751868784228
 20
712.5743155186965
 30
0.0
 11
566.0751868784228
 21
712.5743155186965
 31
0.0
  0
ARC
  5
C5
330
1F
100
AcDbEntity
  8
8
  6
CONTINUOUS
 62
     7
100
AcDbCircle
 10
566.0751868784228
 20
707.5743155186965
 30
0.0
 40
5.0
100
AcDbArc
 50
0.0
 51
89.99999999999991
  0
LINE
  5
C6
330
1F
100
AcDbEntity
  8
8
  6
CONTINUOUS
 62
     7
100
AcDbLine
 10
383.5751868784228
 20
707.5743155186965
 30
0.0
 11
383.5751868784228
 21
697.5743155186965
 31
0.0
  0
LINE
  5
C7
330
1F
100
AcDbEntity
  8
8
  6
CONTINUOUS
 62
     7
100
AcDbLine
 10
571.0751868784228
 20
707.5743155186965
 30
0.0
 11
571.0751868784228
 21
697.5743155186965
 31
0.0
  0
ARC
  5
C8
330
1F
100
AcDbEntity
  8
8
  6
CONTINUOUS
 62
     7
100
AcDbCircle
 10
388.5751868784209
 20
707.5743155186965
 30
0.0
 40
5.0
100
AcDbArc
 50
89.99999999999991
 51
179.9999999999998
  0
LINE
  5
C9
330
1F
100
AcDbEntity
  8
8
  6
CONTINUOUS
 62
     7
100
AcDbLine
 10
1046.372939720985
 20
732.5743155186965
 30
0.0
 11
1014.372939720985
 21
732.5743155186965
 31
0.0
  0
LINE
  5
CA
330
1F
100
AcDbEntity
  8
8
  6
CONTINUOUS
 62
     7
100
AcDbLine
 10
1014.372939720985
 20
697.5743155186965
 30
0.0
 11
1014.372939720985
 21
732.5743155186965
 31
0.0
  0
LINE
  5
CB
330
1F
100
AcDbEntity
  8
8
  6
CONTINUOUS
 62
     7
100
AcDbLine
 10
1015.872939720985
 20
732.5743155186965
 30
0.0
 11
1015.872939720985
 21
697.5743155186965
 31
0.0
  0
LINE
  5
CC
330
1F
100
AcDbEntity
  8
8
  6
CONTINUOUS
 62
     7
100
AcDbLine
 10
1046.372939720985
 20
732.5743155186965
 30
0.0
 11
1046.372939720985
 21
697.5743155186965
 31
0.0
  0
LINE
  5
CD
330
1F
100
AcDbEntity
  8
8
  6
CONTINUOUS
 62
     7
100
AcDbLine
 10
1044.872939720985
 20
732.5743155186965
 30
0.0
 11
1044.872939720985
 21
697.5743155186965
 31
0.0
  0
LINE
  5
CE
330
1F
100
AcDbEntity
  8
8
  6
CONTINUOUS
 62
     7
100
AcDbLine
 10
656.5751868784209
 20
732.5743155186974
 30
0.0
 11
610.5751868784209
 21
732.5743155186983
 31
0.0
  0
LINE
  5
CF
330
1F
100
AcDbEntity
  8
8
  6
CONTINUOUS
 62
     7
100
AcDbLine
 10
612.0751868784209
 20
732.5743155186974
 30
0.0
 11
612.0751868784209
 21
697.5743155186965
 31
0.0
  0
LINE
  5
D0
330
1F
100
AcDbEntity
  8
8
  6
CONTINUOUS
 62
     7
100
AcDbLine
 10
610.5751868784209
 20
732.5743155186983
 30
0.0
 11
610.5751868784209
 21
697.5743155186974
 31
0.0
  0
LINE
  5
D1
330
1F
100
AcDbEntity
  8
8
  6
CONTINUOUS
 62
     7
100
AcDbLine
 10
655.0751868784209
 20
732.5743155186974
 30
0.0
 11
655.0751868784209
 21
697.5743155186965
 31
0.0
  0
LINE
  5
D2
330
1F
100
AcDbEntity
  8
8
  6
CONTINUOUS
 62
     7
100
AcDbLine
 10
656.5751868784209
 20
732.5743155186974
 30
0.0
 11
656.5751868784209
 21
697.5743155186974
 31
0.0
  0
LINE
  5
D3
330
1F
100
AcDbEntity
  8
8
  6
CONTINUOUS
 62
     7
100
AcDbLine
 10
660.841193517892
 20
725.4243155186969
 30
0.0
 11
668.0751868784228
 21
725.4243155186969
 31
0.0
  0
LINE
  5
D4
330
1F
100
AcDbEntity
  8
10
  6
CONTINUOUS
 62
     2
100
AcDbLine
 10
663.3751868784238
 20
724.8858539802341
 30
0.0
 11
662.4425441358853
 21
725.424315518695
 31
0.0
  0
LINE
  5
D5
330
1F
100
AcDbEntity
  8
8
  6
CONTINUOUS
 62
     7
100
AcDbLine
 10
668.8751868784238
 20
724.6243155186958
 30
0.0
 11
668.0751868784228
 21
725.4243155186969
 31
0.0
  0
LINE
  5
D6
330
1F
100
AcDbEntity
  8
10
  6
CONTINUOUS
 62
     2
100
AcDbLine
 10
663.3751868784238
 20
724.8858539802341
 30
0.0
 11
668.6136484168856
 21
724.8858539802341
 31
0.0
  0
LINE
  5
D7
330
1F
100
AcDbEntity
  8
8
  6
CONTINUOUS
 62
     7
100
AcDbLine
 10
658.8751868784238
 20
729.0743155186965
 30
0.0
 11
656.5751868784228
 21
729.0743155186965
 31
0.0
  0
LINE
  5
D8
330
1F
100
AcDbEntity
  8
8
  6
CONTINUOUS
 62
     7
100
AcDbLine
 10
658.8751868784238
 20
700.0743155186965
 30
0.0
 11
656.5751868784228
 21
700.0743155186965
 31
0.0
  0
LINE
  5
D9
330
1F
100
AcDbEntity
  8
10
  6
CONTINUOUS
 62
     2
100
AcDbLine
 10
663.3751868784238
 20
704.2627770571571
 30
0.0
 11
662.4425441358853
 21
703.7243155186961
 31
0.0
  0
LINE
  5
DA
330
1F
100
AcDbEntity
  8
8
  6
CONTINUOUS
 62
     7
100
AcDbLine
 10
658.8751868784238
 20
729.0743155186965
 30
0.0
 11
658.8751868784238
 21
700.0743155186965
 31
0.0
  0
LINE
  5
DB
330
1F
100
AcDbEntity
  8
8
  6
CONTINUOUS
 62
     7
100
AcDbLine
 10
663.3751868784238
 20
703.7243155186961
 30
0.0
 11
663.3751868784238
 21
725.4243155186969
 31
0.0
  0
LINE
  5
DC
330
1F
100
AcDbEntity
  8
8
  6
CONTINUOUS
 62
     7
100
AcDbLine
 10
668.8751868784238
 20
704.5243155186954
 30
0.0
 11
668.0751868784228
 21
703.7243155186961
 31
0.0
  0
LINE
  5
DD
330
1F
100
AcDbEntity
  8
8
  6
CONTINUOUS
 62
     7
100
AcDbLine
 10
668.0751868784228
 20
703.7243155186961
 30
0.0
 11
668.0751868784228
 21
725.4243155186969
 31
0.0
  0
LINE
  5
DE
330
1F
100
AcDbEntity
  8
8
  6
CONTINUOUS
 62
     7
100
AcDbLine
 10
660.8484720472115
 20
703.7243155186961
 30
0.0
 11
668.0751868784228
 21
703.7243155186961
 31
0.0
  0
LINE
  5
DF
330
1F
100
AcDbEntity
  8
10
  6
CONTINUOUS
 62
     2
100
AcDbLine
 10
663.3751868784238
 20
704.2627770571571
 30
0.0
 11
668.6136484168856
 21
704.2627770571571
 31
0.0
  0
LINE
  5
E0
330
1F
100
AcDbEntity
  8
8
  6
CONTINUOUS
 62
     7
100
AcDbLine
 10
668.8751868784238
 20
704.5243155186954
 30
0.0
 11
668.8751868784238
 21
724.6243155186958
 31
0.0
  0
ARC
  5
E1
330
1F
100
AcDbEntity
  8
8
  6
CONTINUOUS
 62
     7
100
AcDbCircle
 10
1018.872939720985
 20
726.0743155186965
 30
0.0
 40
3.0
100
AcDbArc
 50
89.99999999999991
 51
180.0000015352185
  0
LINE
  5
E2
330
1F
100
AcDbEntity
  8
8
  6
CONTINUOUS
 62
     7
100
AcDbLine
 10
1030.145193363805
 20
722.8711903277299
 30
0.0
 11
1030.232863147644
 21
723.8732605423857
 31
0.0
  0
ARC
  5
E3
330
1F
100
AcDbEntity
  8
8
  6
CONTINUOUS
 62
     7
100
AcDbCircle
 10
1030.372939720985
 20
714.5743155186965
 30
0.0
 40
9.299999999999955
100
AcDbArc
 50
170.0933760556551
 51
189.9066270148121
  0
LINE
  5
E4
330
1F
100
AcDbEntity
  8
8
  6
CONTINUOUS
 62
     7
100
AcDbLine
 10
1022.228616544689
 20
716.174315518695
 30
0.0
 11
1021.211607940072
 21
716.174315518695
 31
0.0
  0
LINE
  5
E5
330
1F
100
AcDbEntity
  8
8
  6
CONTINUOUS
 62
     7
100
AcDbLine
 10
1022.228616544689
 20
712.9743155186961
 30
0.0
 11
1021.211607940072
 21
712.9743155186961
 31
0.0
  0
ARC
  5
E6
330
1F
100
AcDbEntity
  8
8
  6
CONTINUOUS
 62
     7
100
AcDbCircle
 10
1018.872939720985
 20
703.0743155186965
 30
0.0
 40
3.0
100
AcDbArc
 50
180.0000015352185
 51
270.0000030704373
  0
LINE
  5
E7
330
1F
100
AcDbEntity
  8
8
  6
CONTINUOUS
 62
     7
100
AcDbLine
 10
1015.872939720985
 20
726.0743155186965
 30
0.0
 11
1015.872939720985
 21
703.0743155186965
 31
0.0
  0
LINE
  5
E8
330
1F
100
AcDbEntity
  8
8
  6
CONTINUOUS
 62
     7
100
AcDbLine
 10
1032.037963290178
 20
722.7055944165104
 30
0.0
 11
1032.125633074017
 21
723.7076646311643
 31
0.0
  0
ARC
  5
E9
330
1F
100
AcDbEntity
  8
8
  6
CONTINUOUS
 62
     7
100
AcDbCircle
 10
1041.872939720985
 20
726.0743155186965
 30
0.0
 40
3.0
100
AcDbArc
 50
359.9999984647287
 51
89.99999999999991
  0
ARC
  5
EA
330
1F
100
AcDbEntity
  8
8
  6
CONTINUOUS
 62
     7
100
AcDbCircle
 10
1030.372939720985
 20
714.5743155186965
 30
0.0
 40
9.299999999999955
100
AcDbArc
 50
29.13697746152297
 51
40.8630206620944
  0
LINE
  5
EB
330
1F
100
AcDbEntity
  8
8
  6
CONTINUOUS
 62
     7
100
AcDbLine
 10
1036.582322027153
 20
720.0819076764228
 30
0.0
 11
1037.4063053975
 21
720.6588670437004
 31
0.0
  0
LINE
  5
EC
330
1F
100
AcDbEntity
  8
8
  6
CONTINUOUS
 62
     7
100
AcDbLine
 10
1037.67211725622
 20
718.5255187922749
 30
0.0
 11
1038.496100626568
 21
719.1024781595506
 31
0.0
  0
ARC
  5
ED
330
1F
100
AcDbEntity
  8
8
  6
CONTINUOUS
 62
     7
100
AcDbCircle
 10
1030.372939720985
 20
714.5743155186965
 30
0.0
 40
9.299999999999955
100
AcDbArc
 50
279.1369755850747
 51
290.8630187856817
  0
LINE
  5
EE
330
1F
100
AcDbEntity
  8
8
  6
CONTINUOUS
 62
     7
100
AcDbLine
 10
1031.589390533633
 20
706.3639411410923
 30
0.0
 11
1031.849736083131
 21
705.3923183228371
 31
0.0
  0
LINE
  5
EF
330
1F
100
AcDbEntity
  8
8
  6
CONTINUOUS
 62
     7
100
AcDbLine
 10
1033.424649603582
 20
706.8556973267869
 30
0.0
 11
1033.684995153081
 21
705.8840745085317
 31
0.0
  0
ARC
  5
F0
330
1F
100
AcDbEntity
  8
8
  6
CONTINUOUS
 62
     7
100
AcDbCircle
 10
1030.372939720985
 20
714.5743155186965
 30
0.0
 40
9.299999999999955
100
AcDbArc
 50
314.1369761821824
 51
325.8630193826838
  0
LINE
  5
F1
330
1F
100
AcDbEntity
  8
8
  6
CONTINUOUS
 62
     7
100
AcDbLine
 10
1036.078675167558
 20
708.5464980850184
 30
0.0
 11
1036.849237710222
 21
707.8999193396676
 31
0.0
  0
ARC
  5
F2
330
1F
100
AcDbEntity
  8
8
  6
CONTINUOUS
 62
     7
100
AcDbCircle
 10
1041.872939720985
 20
703.0743155186965
 30
0.0
 40
3.0
100
AcDbArc
 50
270.0000030704373
 51
359.9999984647287
  0
LINE
  5
F3
330
1F
100
AcDbEntity
  8
8
  6
CONTINUOUS
 62
     7
100
AcDbLine
 10
1037.299971625961
 20
710.0019825269437
 30
0.0
 11
1038.070534168625
 21
709.3554037815948
 31
0.0
  0
LINE
  5
F4
330
1F
100
AcDbEntity
  8
8
  6
CONTINUOUS
 62
     7
100
AcDbLine
 10
1044.872939720985
 20
703.0743155186965
 30
0.0
 11
1044.872939720985
 21
726.0743155186965
 31
0.0
  0
LINE
  5
F5
330
1F
100
AcDbEntity
  8
8
  6
CONTINUOUS
 62
     7
100
AcDbLine
 10
1041.872939720985
 20
729.0743155186965
 30
0.0
 11
1018.872939720985
 21
729.0743155186965
 31
0.0
  0
LINE
  5
F6
330
1F
100
AcDbEntity
  8
8
  6
CONTINUOUS
 62
     7
100
AcDbLine
 10
1018.872939720985
 20
700.0743155186965
 30
0.0
 11
1041.872939720985
 21
700.0743155186965
 31
0.0
  0
CIRCLE
  5
F7
330
1F
100
AcDbEntity
  8
8
  6
CONTINUOUS
 62
     7
100
AcDbCircle
 10
1030.372939720985
 20
714.5743155186965
 30
0.0
 40
10.84999999999991
  0
CIRCLE
  5
F8
330
1F
100
AcDbEntity
  8
8
  6
CONTINUOUS
 62
     7
100
AcDbCircle
 10
1030.372939720985
 20
714.5743155186965
 30
0.0
 40
8.299999999999955
  0
ARC
  5
F9
330
1F
100
AcDbEntity
  8
8
  6
CONTINUOUS
 62
     7
100
AcDbCircle
 10
1030.372939720985
 20
714.5743155186965
 30
0.0
 40
9.299999999999955
100
AcDbArc
 50
79.1369783144059
 51
90.86302151497594
  0
CIRCLE
  5
FA
330
1F
100
AcDbEntity
  8
8
  6
CONTINUOUS
 62
     7
100
AcDbCircle
 10
1030.372939720985
 20
714.5743155186965
 30
0.0
 40
7.150000000000091
  0
CIRCLE
  5
FB
330
1F
100
AcDbEntity
  8
8
  6
CONTINUOUS
 62
     7
100
AcDbCircle
 10
1030.372939720985
 20
714.5743155186965
 30
0.0
 40
10.04999999999995
  0
ARC
  5
FC
330
1F
100
AcDbEntity
  8
10
  6
CONTINUOUS
 62
     2
100
AcDbCircle
 10
1030.372939720985
 20
714.5743155186965
 30
0.0
 40
10.31153846153848
100
AcDbArc
 50
269.9999999999998
 51
179.9999999999998
  0
ARC
  5
FD
330
1F
100
AcDbEntity
  8
8
  6
CONTINUOUS
 62
     7
100
AcDbCircle
 10
1037.072939720986
 20
581.7743155186972
 30
0.0
 40
0.5
100
AcDbArc
 50
0.0
 51
89.99999999999991
  0
ARC
  5
FE
330
1F
100
AcDbEntity
  8
8
  6
CONTINUOUS
 62
     7
100
AcDbCircle
 10
1038.672939720987
 20
581.7743155186972
 30
0.0
 40
0.5
100
AcDbArc
 50
89.99999999999991
 51
179.9999999999998
  0
CIRCLE
  5
FF
330
1F
100
AcDbEntity
  8
8
  6
CONTINUOUS
 62
     7
100
AcDbCircle
 10
1037.872939720987
 20
582.5743155186965
 30
0.0
 40
3.450000000000045
  0
LINE
  5
100
330
1F
100
AcDbEntity
  8
8
  6
CONTINUOUS
 62
     7
100
AcDbLine
 10
1037.572939720986
 20
581.7743155186972
 30
0.0
 11
1037.572939720986
 21
581.1243155186976
 31
0.0
  0
LINE
  5
101
330
1F
100
AcDbEntity
  8
8
  6
CONTINUOUS
 62
     7
100
AcDbLine
 10
1038.172939720987
 20
581.7743155186972
 30
0.0
 11
1038.172939720987
 21
581.1243155186976
 31
0.0
  0
LINE
  5
102
330
1F
100
AcDbEntity
  8
8
  6
CONTINUOUS
 62
     7
100
AcDbLine
 10
1037.572939720986
 20
581.1243155186976
 30
0.0
 11
1038.172939720987
 21
581.1243155186976
 31
0.0
  0
LINE
  5
103
330
1F
100
AcDbEntity
  8
8
  6
CONTINUOUS
 62
     7
100
AcDbLine
 10
1037.072939720986
 20
582.8743155186976
 30
0.0
 11
1036.422939720987
 21
582.8743155186976
 31
0.0
  0
LINE
  5
104
330
1F
100
AcDbEntity
  8
8
  6
CONTINUOUS
 62
     7
100
AcDbLine
 10
1037.072939720986
 20
582.2743155186972
 30
0.0
 11
1036.422939720987
 21
582.2743155186972
 31
0.0
  0
ARC
  5
105
330
1F
100
AcDbEntity
  8
8
  6
CONTINUOUS
 62
     7
100
AcDbCircle
 10
1038.672939720987
 20
583.3743155186976
 30
0.0
 40
0.5
100
AcDbArc
 50
179.9999999999998
 51
269.9999999999998
  0
ARC
  5
106
330
1F
100
AcDbEntity
  8
8
  6
CONTINUOUS
 62
     7
100
AcDbCircle
 10
1037.072939720986
 20
583.3743155186976
 30
0.0
 40
0.5
100
AcDbArc
 50
269.9999999999998
 51
0.0
  0
LINE
  5
107
330
1F
100
AcDbEntity
  8
8
  6
CONTINUOUS
 62
     7
100
AcDbLine
 10
1038.172939720987
 20
583.3743155186976
 30
0.0
 11
1038.172939720987
 21
584.0243155186972
 31
0.0
  0
LINE
  5
108
330
1F
100
AcDbEntity
  8
8
  6
CONTINUOUS
 62
     7
100
AcDbLine
 10
1037.572939720986
 20
583.3743155186976
 30
0.0
 11
1037.572939720986
 21
584.0243155186972
 31
0.0
  0
LINE
  5
109
330
1F
100
AcDbEntity
  8
8
  6
CONTINUOUS
 62
     7
100
AcDbLine
 10
1038.672939720987
 20
582.8743155186976
 30
0.0
 11
1039.322939720986
 21
582.8743155186976
 31
0.0
  0
LINE
  5
10A
330
1F
100
AcDbEntity
  8
8
  6
CONTINUOUS
 62
     7
100
AcDbLine
 10
1038.672939720987
 20
582.2743155186972
 30
0.0
 11
1039.322939720986
 21
582.2743155186972
 31
0.0
  0
LINE
  5
10B
330
1F
100
AcDbEntity
  8
8
  6
CONTINUOUS
 62
     7
100
AcDbLine
 10
1039.322939720986
 20
582.2743155186972
 30
0.0
 11
1039.322939720986
 21
582.8743155186976
 31
0.0
  0
LINE
  5
10C
330
1F
100
AcDbEntity
  8
8
  6
CONTINUOUS
 62
     7
100
AcDbLine
 10
1038.172939720987
 20
584.0243155186972
 30
0.0
 11
1037.572939720986
 21
584.0243155186972
 31
0.0
  0
LINE
  5
10D
330
1F
100
AcDbEntity
  8
8
  6
CONTINUOUS
 62
     7
100
AcDbLine
 10
1036.422939720987
 20
582.8743155186976
 30
0.0
 11
1036.422939720987
 21
582.2743155186972
 31
0.0
  0
ARC
  5
10E
330
1F
100
AcDbEntity
  8
8
  6
CONTINUOUS
 62
     7
100
AcDbCircle
 10
1037.072939720986
 20
281.7743155186972
 30
0.0
 40
0.5
100
AcDbArc
 50
0.0
 51
89.99999999999991
  0
ARC
  5
10F
330
1F
100
AcDbEntity
  8
8
  6
CONTINUOUS
 62
     7
100
AcDbCircle
 10
1038.672939720987
 20
281.7743155186972
 30
0.0
 40
0.5
100
AcDbArc
 50
89.99999999999991
 51
179.9999999999998
  0
CIRCLE
  5
110
330
1F
100
AcDbEntity
  8
8
  6
CONTINUOUS
 62
     7
100
AcDbCircle
 10
1037.872939720987
 20
282.5743155186965
 30
0.0
 40
3.450000000000045
  0
LINE
  5
111
330
1F
100
AcDbEntity
  8
8
  6
CONTINUOUS
 62
     7
100
AcDbLine
 10
1037.572939720986
 20
281.7743155186972
 30
0.0
 11
1037.572939720986
 21
281.1243155186976
 31
0.0
  0
LINE
  5
112
330
1F
100
AcDbEntity
  8
8
  6
CONTINUOUS
 62
     7
100
AcDbLine
 10
1038.172939720987
 20
281.7743155186972
 30
0.0
 11
1038.172939720987
 21
281.1243155186976
 31
0.0
  0
LINE
  5
113
330
1F
100
AcDbEntity
  8
8
  6
CONTINUOUS
 62
     7
100
AcDbLine
 10
1037.572939720986
 20
281.1243155186976
 30
0.0
 11
1038.172939720987
 21
281.1243155186976
 31
0.0
  0
LINE
  5
114
330
1F
100
AcDbEntity
  8
8
  6
CONTINUOUS
 62
     7
100
AcDbLine
 10
1037.072939720986
 20
282.8743155186976
 30
0.0
 11
1036.422939720987
 21
282.8743155186976
 31
0.0
  0
LINE
  5
115
330
1F
100
AcDbEntity
  8
8
  6
CONTINUOUS
 62
     7
100
AcDbLine
 10
1037.072939720986
 20
282.2743155186972
 30
0.0
 11
1036.422939720987
 21
282.2743155186972
 31
0.0
  0
ARC
  5
116
330
1F
100
AcDbEntity
  8
8
  6
CONTINUOUS
 62
     7
100
AcDbCircle
 10
1038.672939720987
 20
283.3743155186976
 30
0.0
 40
0.5
100
AcDbArc
 50
179.9999999999998
 51
269.9999999999998
  0
ARC
  5
117
330
1F
100
AcDbEntity
  8
8
  6
CONTINUOUS
 62
     7
100
AcDbCircle
 10
1037.072939720986
 20
283.3743155186976
 30
0.0
 40
0.5
100
AcDbArc
 50
269.9999999999998
 51
0.0
  0
LINE
  5
118
330
1F
100
AcDbEntity
  8
8
  6
CONTINUOUS
 62
     7
100
AcDbLine
 10
1038.172939720987
 20
283.3743155186976
 30
0.0
 11
1038.172939720987
 21
284.0243155186972
 31
0.0
  0
LINE
  5
119
330
1F
100
AcDbEntity
  8
8
  6
CONTINUOUS
 62
     7
100
AcDbLine
 10
1037.572939720986
 20
283.3743155186976
 30
0.0
 11
1037.572939720986
 21
284.0243155186972
 31
0.0
  0
LINE
  5
11A
330
1F
100
AcDbEntity
  8
8
  6
CONTINUOUS
 62
     7
100
AcDbLine
 10
1038.672939720987
 20
282.8743155186976
 30
0.0
 11
1039.322939720986
 21
282.8743155186976
 31
0.0
  0
LINE
  5
11B
330
1F
100
AcDbEntity
  8
8
  6
CONTINUOUS
 62
     7
100
AcDbLine
 10
1038.672939720987
 20
282.2743155186972
 30
0.0
 11
1039.322939720986
 21
282.2743155186972
 31
0.0
  0
LINE
  5
11C
330
1F
100
AcDbEntity
  8
8
  6
CONTINUOUS
 62
     7
100
AcDbLine
 10
1039.322939720986
 20
282.2743155186972
 30
0.0
 11
1039.322939720986
 21
282.8743155186976
 31
0.0
  0
LINE
  5
11D
330
1F
100
AcDbEntity
  8
8
  6
CONTINUOUS
 62
     7
100
AcDbLine
 10
1038.172939720987
 20
284.0243155186972
 30
0.0
 11
1037.572939720986
 21
284.0243155186972
 31
0.0
  0
LINE
  5
11E
330
1F
100
AcDbEntity
  8
8
  6
CONTINUOUS
 62
     7
100
AcDbLine
 10
1036.422939720987
 20
282.8743155186976
 30
0.0
 11
1036.422939720987
 21
282.2743155186972
 31
0.0
  0
CIRCLE
  5
11F
330
1F
100
AcDbEntity
  8
8
  6
CONTINUOUS
 62
     7
100
AcDbCircle
 10
1018.872939720985
 20
726.0743155186965
 30
0.0
 40
2.75
  0
LINE
  5
120
330
1F
100
AcDbEntity
  8
8
  6
CONTINUOUS
 62
     7
100
AcDbLine
 10
1017.281949463316
 20
727.665305776367
 30
0.0
 11
1020.463929978657
 21
724.483325261027
 31
0.0
  0
LINE
  5
121
330
1F
100
AcDbEntity
  8
8
  6
CONTINUOUS
 62
     7
100
AcDbLine
 10
1017.281949463316
 20
724.483325261027
 30
0.0
 11
1020.463929978657
 21
727.665305776367
 31
0.0
  0
CIRCLE
  5
122
330
1F
100
AcDbEntity
  8
8
  6
CONTINUOUS
 62
     7
100
AcDbCircle
 10
1018.872939720985
 20
703.0743155186965
 30
0.0
 40
2.75
  0
LINE
  5
123
330
1F
100
AcDbEntity
  8
8
  6
CONTINUOUS
 62
     7
100
AcDbLine
 10
1017.281949463316
 20
704.665305776367
 30
0.0
 11
1020.463929978657
 21
701.483325261027
 31
0.0
  0
LINE
  5
124
330
1F
100
AcDbEntity
  8
8
  6
CONTINUOUS
 62
     7
100
AcDbLine
 10
1017.281949463316
 20
701.483325261027
 30
0.0
 11
1020.463929978657
 21
704.665305776367
 31
0.0
  0
CIRCLE
  5
125
330
1F
100
AcDbEntity
  8
8
  6
CONTINUOUS
 62
     7
100
AcDbCircle
 10
1041.872939720985
 20
703.0743155186965
 30
0.0
 40
2.75
  0
LINE
  5
126
330
1F
100
AcDbEntity
  8
8
  6
CONTINUOUS
 62
     7
100
AcDbLine
 10
1040.281949463316
 20
704.665305776367
 30
0.0
 11
1043.463929978657
 21
701.483325261027
 31
0.0
  0
LINE
  5
127
330
1F
100
AcDbEntity
  8
8
  6
CONTINUOUS
 62
     7
100
AcDbLine
 10
1040.281949463316
 20
701.483325261027
 30
0.0
 11
1043.463929978657
 21
704.665305776367
 31
0.0
  0
CIRCLE
  5
128
330
1F
100
AcDbEntity
  8
8
  6
CONTINUOUS
 62
     7
100
AcDbCircle
 10
1041.872939720985
 20
726.0743155186965
 30
0.0
 40
2.75
  0
LINE
  5
129
330
1F
100
AcDbEntity
  8
8
  6
CONTINUOUS
 62
     7
100
AcDbLine
 10
1040.281949463316
 20
727.665305776367
 30
0.0
 11
1043.463929978657
 21
724.483325261027
 31
0.0
  0
LINE
  5
12A
330
1F
100
AcDbEntity
  8
8
  6
CONTINUOUS
 62
     7
100
AcDbLine
 10
1040.281949463316
 20
724.483325261027
 30
0.0
 11
1043.463929978657
 21
727.665305776367
 31
0.0
  0
LINE
  5
12B
330
1F
100
AcDbEntity
  8
8
  6
CONTINUOUS
 62
     7
100
AcDbLine
 10
658.8751868784238
 20
728.863337651047
 30
0.0
 11
658.8751868784238
 21
723.363337651047
 31
0.0
  0
ARC
  5
12C
330
1F
100
AcDbEntity
  8
8
  6
CONTINUOUS
 62
     7
100
AcDbCircle
 10
653.8751868784238
 20
726.113337651047
 30
0.0
 40
7.0
100
AcDbArc
 50
343.4486440000106
 51
16.55135599998899
  0
LINE
  5
12D
330
1F
100
AcDbEntity
  8
8
  6
CONTINUOUS
 62
     7
100
AcDbLine
 10
658.8751868784238
 20
728.863337651047
 30
0.0
 11
659.6789118784218
 21
728.8212156510463
 31
0.0
  0
ARC
  5
12E
330
1F
100
AcDbEntity
  8
8
  6
CONTINUOUS
 62
     7
100
AcDbCircle
 10
659.626575878423
 20
727.8225856510462
 30
0.0
 40
1.0
100
AcDbArc
 50
16.55135599999157
 51
86.99999999999423
  0
LINE
  5
12F
330
1F
100
AcDbEntity
  8
8
  6
CONTINUOUS
 62
     7
100
AcDbLine
 10
658.8751868784238
 20
723.363337651047
 30
0.0
 11
659.6789118784218
 21
723.4054596510459
 31
0.0
  0
ARC
  5
130
330
1F
100
AcDbEntity
  8
8
  6
CONTINUOUS
 62
     7
100
AcDbCircle
 10
659.626575878423
 20
724.404089651046
 30
0.0
 40
1.0
100
AcDbArc
 50
273.0000000000054
 51
343.4486440000081
  0
LINE
  5
131
330
1F
100
AcDbEntity
  8
8
  6
CONTINUOUS
 62
     7
100
AcDbLine
 10
658.8751868784238
 20
705.863337651047
 30
0.0
 11
658.8751868784238
 21
700.363337651047
 31
0.0
  0
ARC
  5
132
330
1F
100
AcDbEntity
  8
8
  6
CONTINUOUS
 62
     7
100
AcDbCircle
 10
653.8751868784238
 20
703.113337651047
 30
0.0
 40
7.0
100
AcDbArc
 50
343.4486440000106
 51
16.55135599998899
  0
LINE
  5
133
330
1F
100
AcDbEntity
  8
8
  6
CONTINUOUS
 62
     7
100
AcDbLine
 10
658.8751868784238
 20
705.863337651047
 30
0.0
 11
659.6789118784218
 21
705.8212156510463
 31
0.0
  0
ARC
  5
134
330
1F
100
AcDbEntity
  8
8
  6
CONTINUOUS
 62
     7
100
AcDbCircle
 10
659.626575878423
 20
704.8225856510462
 30
0.0
 40
1.0
100
AcDbArc
 50
16.55135599999157
 51
86.99999999999423
  0
LINE
  5
135
330
1F
100
AcDbEntity
  8
8
  6
CONTINUOUS
 62
     7
100
AcDbLine
 10
658.8751868784238
 20
700.363337651047
 30
0.0
 11
659.6789118784218
 21
700.4054596510459
 31
0.0
  0
ARC
  5
136
330
1F
100
AcDbEntity
  8
8
  6
CONTINUOUS
 62
     7
100
AcDbCircle
 10
659.626575878423
 20
701.404089651046
 30
0.0
 40
1.0
100
AcDbArc
 50
273.0000000000054
 51
343.4486440000081
  0
LINE
  5
137
330
1F
100
AcDbEntity
  8
8
  6
CONTINUOUS
 62
     7
100
AcDbLine
 10
562.0251868784235
 20
167.257648852029
 30
0.0
 11
555.1251868784238
 21
167.257648852029
 31
0.0
  0
ARC
  5
138
330
1F
100
AcDbEntity
  8
8
  6
CONTINUOUS
 62
     7
100
AcDbCircle
 10
558.5751868784246
 20
170.2246663958895
 30
0.0
 40
4.550350877192955
100
AcDbArc
 50
220.6956985254095
 51
319.3043014745897
  0
LINE
  5
139
330
1F
100
AcDbEntity
  8
8
  6
CONTINUOUS
 62
     7
100
AcDbLine
 10
562.0251868784235
 20
167.5743155186965
 30
0.0
 11
562.0251868784235
 21
167.257648852029
 31
0.0
  0
LINE
  5
13A
330
1F
100
AcDbEntity
  8
8
  6
CONTINUOUS
 62
     7
100
AcDbLine
 10
555.1251868784238
 20
167.5743155186965
 30
0.0
 11
555.1251868784238
 21
167.257648852029
 31
0.0
  0
LINE
  5
13B
330
1F
100
AcDbEntity
  8
8
  6
CONTINUOUS
 62
     7
100
AcDbLine
 10
382.0251868784235
 20
167.257648852029
 30
0.0
 11
375.1251868784238
 21
167.257648852029
 31
0.0
  0
ARC
  5
13C
330
1F
100
AcDbEntity
  8
8
  6
CONTINUOUS
 62
     7
100
AcDbCircle
 10
378.5751868784246
 20
170.2246663958895
 30
0.0
 40
4.550350877192955
100
AcDbArc
 50
220.6956985254095
 51
319.3043014745897
  0
LINE
  5
13D
330
1F
100
AcDbEntity
  8
8
  6
CONTINUOUS
 62
     7
100
AcDbLine
 10
382.0251868784235
 20
167.5743155186965
 30
0.0
 11
382.0251868784235
 21
167.257648852029
 31
0.0
  0
LINE
  5
13E
330
1F
100
AcDbEntity
  8
8
  6
CONTINUOUS
 62
     7
100
AcDbLine
 10
375.1251868784238
 20
167.5743155186965
 30
0.0
 11
375.1251868784238
 21
167.257648852029
 31
0.0
  0
LINE
  5
13F
330
1F
100
AcDbEntity
  8
8
  6
CONTINUOUS
 62
     7
100
AcDbLine
 10
403.5251868784235
 20
167.257648852029
 30
0.0
 11
396.6251868784238
 21
167.257648852029
 31
0.0
  0
ARC
  5
140
330
1F
100
AcDbEntity
  8
8
  6
CONTINUOUS
 62
     7
100
AcDbCircle
 10
400.0751868784246
 20
170.2246663958895
 30
0.0
 40
4.550350877192955
100
AcDbArc
 50
220.6956985254095
 51
319.3043014745897
  0
LINE
  5
141
330
1F
100
AcDbEntity
  8
8
  6
CONTINUOUS
 62
     7
100
AcDbLine
 10
403.5251868784235
 20
167.5743155186965
 30
0.0
 11
403.5251868784235
 21
167.257648852029
 31
0.0
  0
LINE
  5
142
330
1F
100
AcDbEntity
  8
8
  6
CONTINUOUS
 62
     7
100
AcDbLine
 10
396.6251868784238
 20
167.5743155186965
 30
0.0
 11
396.6251868784238
 21
167.257648852029
 31
0.0
  0
LINE
  5
143
330
1F
100
AcDbEntity
  8
8
  6
CONTINUOUS
 62
     7
100
AcDbLine
 10
382.0251868784235
 20
697.890982185364
 30
0.0
 11
375.1251868784238
 21
697.890982185364
 31
0.0
  0
ARC
  5
144
330
1F
100
AcDbEntity
  8
8
  6
CONTINUOUS
 62
     7
100
AcDbCircle
 10
378.5751868784246
 20
694.9239646415035
 30
0.0
 40
4.550350877192955
100
AcDbArc
 50
40.69569852540932
 51
139.3043014745907
  0
LINE
  5
145
330
1F
100
AcDbEntity
  8
8
  6
CONTINUOUS
 62
     7
100
AcDbLine
 10
382.0251868784235
 20
697.5743155186965
 30
0.0
 11
382.0251868784235
 21
697.890982185364
 31
0.0
  0
LINE
  5
146
330
1F
100
AcDbEntity
  8
8
  6
CONTINUOUS
 62
     7
100
AcDbLine
 10
375.1251868784238
 20
697.5743155186965
 30
0.0
 11
375.1251868784238
 21
697.890982185364
 31
0.0
  0
LINE
  5
147
330
1F
100
AcDbEntity
  8
8
  6
CONTINUOUS
 62
     7
100
AcDbLine
 10
403.5251868784235
 20
697.890982185364
 30
0.0
 11
396.6251868784238
 21
697.890982185364
 31
0.0
  0
ARC
  5
148
330
1F
100
AcDbEntity
  8
8
  6
CONTINUOUS
 62
     7
100
AcDbCircle
 10
400.0751868784246
 20
694.9239646415035
 30
0.0
 40
4.550350877192955
100
AcDbArc
 50
40.69569852540932
 51
139.3043014745907
  0
LINE
  5
149
330
1F
100
AcDbEntity
  8
8
  6
CONTINUOUS
 62
     7
100
AcDbLine
 10
403.5251868784235
 20
697.5743155186965
 30
0.0
 11
403.5251868784235
 21
697.890982185364
 31
0.0
  0
LINE
  5
14A
330
1F
100
AcDbEntity
  8
8
  6
CONTINUOUS
 62
     7
100
AcDbLine
 10
396.6251868784238
 20
697.5743155186965
 30
0.0
 11
396.6251868784238
 21
697.890982185364
 31
0.0
  0
LINE
  5
14B
330
1F
100
AcDbEntity
  8
8
  6
CONTINUOUS
 62
     7
100
AcDbLine
 10
599.0251868784217
 20
697.890982185364
 30
0.0
 11
592.125186878422
 21
697.890982185364
 31
0.0
  0
ARC
  5
14C
330
1F
100
AcDbEntity
  8
8
  6
CONTINUOUS
 62
     7
100
AcDbCircle
 10
595.5751868784228
 20
694.9239646415035
 30
0.0
 40
4.550350877192955
100
AcDbArc
 50
40.69569852540932
 51
139.3043014745907
  0
LINE
  5
14D
330
1F
100
AcDbEntity
  8
8
  6
CONTINUOUS
 62
     7
100
AcDbLine
 10
599.0251868784217
 20
697.5743155186965
 30
0.0
 11
599.0251868784217
 21
697.890982185364
 31
0.0
  0
LINE
  5
14E
330
1F
100
AcDbEntity
  8
8
  6
CONTINUOUS
 62
     7
100
AcDbLine
 10
592.125186878422
 20
697.5743155186965
 30
0.0
 11
592.125186878422
 21
697.890982185364
 31
0.0
  0
LINE
  5
14F
330
1F
100
AcDbEntity
  8
8
  6
CONTINUOUS
 62
     7
100
AcDbLine
 10
885.1251868784202
 20
167.257648852029
 30
0.0
 11
892.0251868784217
 21
167.257648852029
 31
0.0
  0
ARC
  5
150
330
1F
100
AcDbEntity
  8
8
  6
CONTINUOUS
 62
     7
100
AcDbCircle
 10
888.5751868784209
 20
170.2246663958895
 30
0.0
 40
4.550350877192955
100
AcDbArc
 50
220.6956985254095
 51
319.3043014745897
  0
LINE
  5
151
330
1F
100
AcDbEntity
  8
8
  6
CONTINUOUS
 62
     7
100
AcDbLine
 10
885.1251868784202
 20
167.5743155186965
 30
0.0
 11
885.1251868784202
 21
167.257648852029
 31
0.0
  0
LINE
  5
152
330
1F
100
AcDbEntity
  8
8
  6
CONTINUOUS
 62
     7
100
AcDbLine
 10
892.0251868784217
 20
167.5743155186965
 30
0.0
 11
892.0251868784217
 21
167.257648852029
 31
0.0
  0
LINE
  5
153
330
1F
100
AcDbEntity
  8
8
  6
CONTINUOUS
 62
     7
100
AcDbLine
 10
863.6251868784202
 20
167.257648852029
 30
0.0
 11
870.5251868784217
 21
167.257648852029
 31
0.0
  0
ARC
  5
154
330
1F
100
AcDbEntity
  8
8
  6
CONTINUOUS
 62
     7
100
AcDbCircle
 10
867.0751868784209
 20
170.2246663958895
 30
0.0
 40
4.550350877192955
100
AcDbArc
 50
220.6956985254095
 51
319.3043014745897
  0
LINE
  5
155
330
1F
100
AcDbEntity
  8
8
  6
CONTINUOUS
 62
     7
100
AcDbLine
 10
863.6251868784202
 20
167.5743155186965
 30
0.0
 11
863.6251868784202
 21
167.257648852029
 31
0.0
  0
LINE
  5
156
330
1F
100
AcDbEntity
  8
8
  6
CONTINUOUS
 62
     7
100
AcDbLine
 10
870.5251868784217
 20
167.5743155186965
 30
0.0
 11
870.5251868784217
 21
167.257648852029
 31
0.0
  0
LINE
  5
157
330
1F
100
AcDbEntity
  8
8
  6
CONTINUOUS
 62
     7
100
AcDbLine
 10
885.125186878422
 20
697.890982185364
 30
0.0
 11
892.0251868784217
 21
697.890982185364
 31
0.0
  0
ARC
  5
158
330
1F
100
AcDbEntity
  8
8
  6
CONTINUOUS
 62
     7
100
AcDbCircle
 10
888.5751868784209
 20
694.9239646415035
 30
0.0
 40
4.550350877192955
100
AcDbArc
 50
40.69569852540932
 51
139.3043014745907
  0
LINE
  5
159
330
1F
100
AcDbEntity
  8
8
  6
CONTINUOUS
 62
     7
100
AcDbLine
 10
885.125186878422
 20
697.5743155186965
 30
0.0
 11
885.125186878422
 21
697.890982185364
 31
0.0
  0
LINE
  5
15A
330
1F
100
AcDbEntity
  8
8
  6
CONTINUOUS
 62
     7
100
AcDbLine
 10
892.0251868784217
 20
697.5743155186965
 30
0.0
 11
892.0251868784217
 21
697.890982185364
 31
0.0
  0
LINE
  5
15B
330
1F
100
AcDbEntity
  8
8
  6
CONTINUOUS
 62
     7
100
AcDbLine
 10
863.625186878422
 20
697.890982185364
 30
0.0
 11
870.5251868784217
 21
697.890982185364
 31
0.0
  0
ARC
  5
15C
330
1F
100
AcDbEntity
  8
8
  6
CONTINUOUS
 62
     7
100
AcDbCircle
 10
867.0751868784209
 20
694.9239646415035
 30
0.0
 40
4.550350877192955
100
AcDbArc
 50
40.69569852540932
 51
139.3043014745907
  0
LINE
  5
15D
330
1F
100
AcDbEntity
  8
8
  6
CONTINUOUS
 62
     7
100
AcDbLine
 10
863.625186878422
 20
697.5743155186965
 30
0.0
 11
863.625186878422
 21
697.890982185364
 31
0.0
  0
LINE
  5
15E
330
1F
100
AcDbEntity
  8
8
  6
CONTINUOUS
 62
     7
100
AcDbLine
 10
870.5251868784217
 20
697.5743155186965
 30
0.0
 11
870.5251868784217
 21
697.890982185364
 31
0.0
  0
LINE
  5
15F
330
1F
100
AcDbEntity
  8
8
  6
CONTINUOUS
 62
     7
100
AcDbLine
 10
668.1251868784238
 20
697.890982185364
 30
0.0
 11
675.0251868784235
 21
697.890982185364
 31
0.0
  0
ARC
  5
160
330
1F
100
AcDbEntity
  8
8
  6
CONTINUOUS
 62
     7
100
AcDbCircle
 10
671.5751868784228
 20
694.9239646415035
 30
0.0
 40
4.550350877192955
100
AcDbArc
 50
40.69569852540932
 51
139.3043014745907
  0
LINE
  5
161
330
1F
100
AcDbEntity
  8
8
  6
CONTINUOUS
 62
     7
100
AcDbLine
 10
668.1251868784238
 20
697.5743155186965
 30
0.0
 11
668.1251868784238
 21
697.890982185364
 31
0.0
  0
LINE
  5
162
330
1F
100
AcDbEntity
  8
8
  6
CONTINUOUS
 62
     7
100
AcDbLine
 10
675.0251868784235
 20
697.5743155186965
 30
0.0
 11
675.0251868784235
 21
697.890982185364
 31
0.0
  0
LINE
  5
163
330
1F
100
AcDbEntity
  8
8
  6
CONTINUOUS
 62
     7
100
AcDbLine
 10
898.5751868784228
 20
286.0243155186972
 30
0.0
 11
898.5751868784228
 21
279.1243155186967
 31
0.0
  0
LINE
  5
164
330
1F
100
AcDbEntity
  8
8
  6
CONTINUOUS
 62
     7
100
AcDbLine
 10
898.8918535450903
 20
286.0243155186972
 30
0.0
 11
898.8918535450903
 21
279.1243155186967
 31
0.0
  0
ARC
  5
165
330
1F
100
AcDbEntity
  8
8
  6
CONTINUOUS
 62
     7
100
AcDbCircle
 10
895.9248360012298
 20
282.5743155186965
 30
0.0
 40
4.550350877192955
100
AcDbArc
 50
310.6956985253329
 51
49.30430147466785
  0
LINE
  5
166
330
1F
100
AcDbEntity
  8
8
  6
CONTINUOUS
 62
     7
100
AcDbLine
 10
898.5751868784228
 20
286.0243155186972
 30
0.0
 11
898.8918535450903
 21
286.0243155186972
 31
0.0
  0
LINE
  5
167
330
1F
100
AcDbEntity
  8
8
  6
CONTINUOUS
 62
     7
100
AcDbLine
 10
898.5751868784228
 20
279.1243155186967
 30
0.0
 11
898.8918535450903
 21
279.1243155186967
 31
0.0
  0
LINE
  5
168
330
1F
100
AcDbEntity
  8
8
  6
CONTINUOUS
 62
     7
100
AcDbLine
 10
898.8918535450903
 20
586.0243155186972
 30
0.0
 11
898.8918535450903
 21
579.1243155186967
 31
0.0
  0
ARC
  5
169
330
1F
100
AcDbEntity
  8
8
  6
CONTINUOUS
 62
     7
100
AcDbCircle
 10
895.9248360012298
 20
582.5743155186965
 30
0.0
 40
4.550350877192955
100
AcDbArc
 50
310.6956985253329
 51
49.30430147466785
  0
LINE
  5
16A
330
1F
100
AcDbEntity
  8
8
  6
CONTINUOUS
 62
     7
100
AcDbLine
 10
898.5751868784228
 20
586.0243155186972
 30
0.0
 11
898.8918535450903
 21
586.0243155186972
 31
0.0
  0
LINE
  5
16B
330
1F
100
AcDbEntity
  8
8
  6
CONTINUOUS
 62
     7
100
AcDbLine
 10
898.5751868784228
 20
579.1243155186967
 30
0.0
 11
898.8918535450903
 21
579.1243155186967
 31
0.0
  0
LINE
  5
16C
330
1F
100
AcDbEntity
  8
3
  6
DASHDOT
 62
     1
100
AcDbLine
 10
353.5751868784228
 20
432.5743155186965
 30
0.0
 11
913.5751868784228
 21
432.5743155186965
 31
0.0
  0
LINE
  5
16D
330
1F
100
AcDbEntity
  8
3
  6
DASHDOT
 62
     1
100
AcDbLine
 10
633.5751868784218
 20
137.5743155186974
 30
0.0
 11
633.5751868784228
 21
727.5743155186965
 31
0.0
  0
LINE
  5
16E
330
1F
100
AcDbEntity
  8
8
  6
CONTINUOUS
 62
     7
100
AcDbLine
 10
1041.322939720986
 20
697.890982185364
 30
0.0
 11
1034.422939720987
 21
697.890982185364
 31
0.0
  0
ARC
  5
16F
330
1F
100
AcDbEntity
  8
8
  6
CONTINUOUS
 62
     7
100
AcDbCircle
 10
1037.872939720987
 20
694.9239646415035
 30
0.0
 40
4.550350877193068
100
AcDbArc
 50
40.69569852541025
 51
139.3043014745897
  0
LINE
  5
170
330
1F
100
AcDbEntity
  8
8
  6
CONTINUOUS
 62
     7
100
AcDbLine
 10
1041.322939720986
 20
697.5743155186965
 30
0.0
 11
1041.322939720986
 21
697.890982185364
 31
0.0
  0
LINE
  5
171
330
1F
100
AcDbEntity
  8
8
  6
CONTINUOUS
 62
     7
100
AcDbLine
 10
1034.422939720987
 20
697.5743155186965
 30
0.0
 11
1034.422939720987
 21
697.890982185364
 31
0.0
  0
LINE
  5
172
330
1F
100
AcDbEntity
  8
8
  6
CONTINUOUS
 62
     7
100
AcDbLine
 10
368.5751868784228
 20
286.0243155186972
 30
0.0
 11
368.5751868784228
 21
279.1243155186967
 31
0.0
  0
LINE
  5
173
330
1F
100
AcDbEntity
  8
8
  6
CONTINUOUS
 62
     7
100
AcDbLine
 10
368.2585202117552
 20
286.0243155186972
 30
0.0
 11
368.2585202117552
 21
279.1243155186967
 31
0.0
  0
ARC
  5
174
330
1F
100
AcDbEntity
  8
8
  6
CONTINUOUS
 62
     7
100
AcDbCircle
 10
371.2255377556157
 20
282.5743155186965
 30
0.0
 40
4.550350877192955
100
AcDbArc
 50
130.6956985253327
 51
229.304301474667
  0
LINE
  5
175
330
1F
100
AcDbEntity
  8
8
  6
CONTINUOUS
 62
     7
100
AcDbLine
 10
368.5751868784228
 20
286.0243155186972
 30
0.0
 11
368.2585202117552
 21
286.0243155186972
 31
0.0
  0
LINE
  5
176
330
1F
100
AcDbEntity
  8
8
  6
CONTINUOUS
 62
     7
100
AcDbLine
 10
368.5751868784228
 20
279.1243155186967
 30
0.0
 11
368.2585202117552
 21
279.1243155186967
 31
0.0
  0
LINE
  5
177
330
1F
100
AcDbEntity
  8
8
  6
CONTINUOUS
 62
     7
100
AcDbLine
 10
368.2585202117552
 20
586.0243155186972
 30
0.0
 11
368.2585202117552
 21
579.1243155186967
 31
0.0
  0
ARC
  5
178
330
1F
100
AcDbEntity
  8
8
  6
CONTINUOUS
 62
     7
100
AcDbCircle
 10
371.2255377556157
 20
582.5743155186965
 30
0.0
 40
4.550350877192955
100
AcDbArc
 50
130.6956985253327
 51
229.304301474667
  0
LINE
  5
179
330
1F
100
AcDbEntity
  8
8
  6
CONTINUOUS
 62
     7
100
AcDbLine
 10
368.5751868784228
 20
586.0243155186972
 30
0.0
 11
368.2585202117552
 21
586.0243155186972
 31
0.0
  0
LINE
  5
17A
330
1F
100
AcDbEntity
  8
8
  6
CONTINUOUS
 62
     7
100
AcDbLine
 10
368.5751868784228
 20
579.1243155186967
 30
0.0
 11
368.2585202117552
 21
579.1243155186967
 31
0.0
  0
CIRCLE
  5
17B
330
1F
100
AcDbEntity
  8
8
  6
CONTINUOUS
 62
     7
100
AcDbCircle
 10
408.5751868784228
 20
705.5743155186965
 30
0.0
 40
3.100000000000023
  0
CIRCLE
  5
17C
330
1F
100
AcDbEntity
  8
8
  6
CONTINUOUS
 62
     7
100
AcDbCircle
 10
521.0751868784228
 20
705.5743155186965
 30
0.0
 40
3.100000000000023
  0
CIRCLE
  5
17D
330
1F
100
AcDbEntity
  8
8
  6
CONTINUOUS
 62
     7
100
AcDbCircle
 10
746.0751868784228
 20
705.5743155186965
 30
0.0
 40
3.100000000000023
  0
CIRCLE
  5
17E
330
1F
100
AcDbEntity
  8
8
  6
CONTINUOUS
 62
     7
100
AcDbCircle
 10
858.5751868784228
 20
705.5743155186965
 30
0.0
 40
3.100000000000023
  0
CIRCLE
  5
17F
330
1F
100
AcDbEntity
  8
8
  6
CONTINUOUS
 62
     7
100
AcDbCircle
 10
858.5751868784228
 20
159.5743155186965
 30
0.0
 40
3.100000000000023
  0
CIRCLE
  5
180
330
1F
100
AcDbEntity
  8
8
  6
CONTINUOUS
 62
     7
100
AcDbCircle
 10
746.0751868784228
 20
159.5743155186965
 30
0.0
 40
3.100000000000023
  0
CIRCLE
  5
181
330
1F
100
AcDbEntity
  8
8
  6
CONTINUOUS
 62
     7
100
AcDbCircle
 10
521.0751868784228
 20
159.5743155186965
 30
0.0
 40
3.100000000000023
  0
CIRCLE
  5
182
330
1F
100
AcDbEntity
  8
8
  6
CONTINUOUS
 62
     7
100
AcDbCircle
 10
408.5751868784228
 20
159.5743155186965
 30
0.0
 40
3.100000000000023
  0
LINE
  5
183
330
1F
100
AcDbEntity
  8
8
  6
CONTINUOUS
 62
     7
100
AcDbLine
 10
712.0251868784198
 20
167.257648852029
 30
0.0
 11
705.1251868784202
 21
167.257648852029
 31
0.0
  0
ARC
  5
184
330
1F
100
AcDbEntity
  8
8
  6
CONTINUOUS
 62
     7
100
AcDbCircle
 10
708.5751868784209
 20
170.2246663958895
 30
0.0
 40
4.550350877192955
100
AcDbArc
 50
220.6956985254095
 51
319.3043014745897
  0
LINE
  5
185
330
1F
100
AcDbEntity
  8
8
  6
CONTINUOUS
 62
     7
100
AcDbLine
 10
712.0251868784198
 20
167.5743155186965
 30
0.0
 11
712.0251868784198
 21
167.257648852029
 31
0.0
  0
LINE
  5
186
330
1F
100
AcDbEntity
  8
8
  6
CONTINUOUS
 62
     7
100
AcDbLine
 10
705.1251868784202
 20
167.5743155186965
 30
0.0
 11
705.1251868784202
 21
167.257648852029
 31
0.0
  0
CIRCLE
  5
187
330
1F
100
AcDbEntity
  8
8
  6
CONTINUOUS
 62
     7
100
AcDbCircle
 10
633.5751868784218
 20
159.5743155186974
 30
0.0
 40
3.100000000000023
  0
ARC
  5
188
330
1F
100
AcDbEntity
  8
8
  6
CONTINUOUS
 62
     7
100
AcDbCircle
 10
1037.072939720986
 20
431.7743155186972
 30
0.0
 40
0.5
100
AcDbArc
 50
0.0
 51
89.99999999999991
  0
ARC
  5
189
330
1F
100
AcDbEntity
  8
8
  6
CONTINUOUS
 62
     7
100
AcDbCircle
 10
1038.672939720987
 20
431.7743155186972
 30
0.0
 40
0.5
100
AcDbArc
 50
89.99999999999991
 51
179.9999999999998
  0
CIRCLE
  5
18A
330
1F
100
AcDbEntity
  8
8
  6
CONTINUOUS
 62
     7
100
AcDbCircle
 10
1037.872939720987
 20
432.5743155186965
 30
0.0
 40
3.450000000000045
  0
LINE
  5
18B
330
1F
100
AcDbEntity
  8
8
  6
CONTINUOUS
 62
     7
100
AcDbLine
 10
1037.572939720986
 20
431.7743155186972
 30
0.0
 11
1037.572939720986
 21
431.1243155186976
 31
0.0
  0
LINE
  5
18C
330
1F
100
AcDbEntity
  8
8
  6
CONTINUOUS
 62
     7
100
AcDbLine
 10
1038.172939720987
 20
431.7743155186972
 30
0.0
 11
1038.172939720987
 21
431.1243155186976
 31
0.0
  0
LINE
  5
18D
330
1F
100
AcDbEntity
  8
8
  6
CONTINUOUS
 62
     7
100
AcDbLine
 10
1037.572939720986
 20
431.1243155186976
 30
0.0
 11
1038.172939720987
 21
431.1243155186976
 31
0.0
  0
LINE
  5
18E
330
1F
100
AcDbEntity
  8
8
  6
CONTINUOUS
 62
     7
100
AcDbLine
 10
1037.072939720986
 20
432.8743155186976
 30
0.0
 11
1036.422939720987
 21
432.8743155186976
 31
0.0
  0
LINE
  5
18F
330
1F
100
AcDbEntity
  8
8
  6
CONTINUOUS
 62
     7
100
AcDbLine
 10
1037.072939720986
 20
432.2743155186972
 30
0.0
 11
1036.422939720987
 21
432.2743155186972
 31
0.0
  0
ARC
  5
190
330
1F
100
AcDbEntity
  8
8
  6
CONTINUOUS
 62
     7
100
AcDbCircle
 10
1038.672939720987
 20
433.3743155186976
 30
0.0
 40
0.5
100
AcDbArc
 50
179.9999999999998
 51
269.9999999999998
  0
ARC
  5
191
330
1F
100
AcDbEntity
  8
8
  6
CONTINUOUS
 62
     7
100
AcDbCircle
 10
1037.072939720986
 20
433.3743155186976
 30
0.0
 40
0.5
100
AcDbArc
 50
269.9999999999998
 51
0.0
  0
LINE
  5
192
330
1F
100
AcDbEntity
  8
8
  6
CONTINUOUS
 62
     7
100
AcDbLine
 10
1038.172939720987
 20
433.3743155186976
 30
0.0
 11
1038.172939720987
 21
434.0243155186972
 31
0.0
  0
LINE
  5
193
330
1F
100
AcDbEntity
  8
8
  6
CONTINUOUS
 62
     7
100
AcDbLine
 10
1037.572939720986
 20
433.3743155186976
 30
0.0
 11
1037.572939720986
 21
434.0243155186972
 31
0.0
  0
LINE
  5
194
330
1F
100
AcDbEntity
  8
8
  6
CONTINUOUS
 62
     7
100
AcDbLine
 10
1038.672939720987
 20
432.8743155186976
 30
0.0
 11
1039.322939720986
 21
432.8743155186976
 31
0.0
  0
LINE
  5
195
330
1F
100
AcDbEntity
  8
8
  6
CONTINUOUS
 62
     7
100
AcDbLine
 10
1038.672939720987
 20
432.2743155186972
 30
0.0
 11
1039.322939720986
 21
432.2743155186972
 31
0.0
  0
LINE
  5
196
330
1F
100
AcDbEntity
  8
8
  6
CONTINUOUS
 62
     7
100
AcDbLine
 10
1039.322939720986
 20
432.2743155186972
 30
0.0
 11
1039.322939720986
 21
432.8743155186976
 31
0.0
  0
LINE
  5
197
330
1F
100
AcDbEntity
  8
8
  6
CONTINUOUS
 62
     7
100
AcDbLine
 10
1038.172939720987
 20
434.0243155186972
 30
0.0
 11
1037.572939720986
 21
434.0243155186972
 31
0.0
  0
LINE
  5
198
330
1F
100
AcDbEntity
  8
8
  6
CONTINUOUS
 62
     7
100
AcDbLine
 10
1036.422939720987
 20
432.8743155186976
 30
0.0
 11
1036.422939720987
 21
432.2743155186972
 31
0.0
  0
LINE
  5
199
330
1F
100
AcDbEntity
  8
8
  6
CONTINUOUS
 62
     7
100
AcDbLine
 10
898.5751868784228
 20
436.0243155186972
 30
0.0
 11
898.5751868784228
 21
429.1243155186967
 31
0.0
  0
LINE
  5
19A
330
1F
100
AcDbEntity
  8
8
  6
CONTINUOUS
 62
     7
100
AcDbLine
 10
898.8918535450903
 20
436.0243155186972
 30
0.0
 11
898.8918535450903
 21
429.1243155186967
 31
0.0
  0
ARC
  5
19B
330
1F
100
AcDbEntity
  8
8
  6
CONTINUOUS
 62
     7
100
AcDbCircle
 10
895.9248360012298
 20
432.5743155186965
 30
0.0
 40
4.550350877192955
100
AcDbArc
 50
310.6956985253329
 51
49.30430147466785
  0
LINE
  5
19C
330
1F
100
AcDbEntity
  8
8
  6
CONTINUOUS
 62
     7
100
AcDbLine
 10
898.5751868784228
 20
436.0243155186972
 30
0.0
 11
898.8918535450903
 21
436.0243155186972
 31
0.0
  0
LINE
  5
19D
330
1F
100
AcDbEntity
  8
8
  6
CONTINUOUS
 62
     7
100
AcDbLine
 10
898.5751868784228
 20
429.1243155186967
 30
0.0
 11
898.8918535450903
 21
429.1243155186967
 31
0.0
  0
LINE
  5
19E
330
1F
100
AcDbEntity
  8
8
  6
CONTINUOUS
 62
     7
100
AcDbLine
 10
368.5751868784228
 20
436.0243155186972
 30
0.0
 11
368.5751868784228
 21
429.1243155186967
 31
0.0
  0
LINE
  5
19F
330
1F
100
AcDbEntity
  8
8
  6
CONTINUOUS
 62
     7
100
AcDbLine
 10
368.2585202117552
 20
436.0243155186972
 30
0.0
 11
368.2585202117552
 21
429.1243155186967
 31
0.0
  0
ARC
  5
1A0
330
1F
100
AcDbEntity
  8
8
  6
CONTINUOUS
 62
     7
100
AcDbCircle
 10
371.2255377556157
 20
432.5743155186965
 30
0.0
 40
4.550350877192955
100
AcDbArc
 50
130.6956985253327
 51
229.304301474667
  0
LINE
  5
1A1
330
1F
100
AcDbEntity
  8
8
  6
CONTINUOUS
 62
     7
100
AcDbLine
 10
368.5751868784228
 20
436.0243155186972
 30
0.0
 11
368.2585202117552
 21
436.0243155186972
 31
0.0
  0
LINE
  5
1A2
330
1F
100
AcDbEntity
  8
8
  6
CONTINUOUS
 62
     7
100
AcDbLine
 10
368.5751868784228
 20
429.1243155186967
 30
0.0
 11
368.2585202117552
 21
429.1243155186967
 31
0.0
  0
LINE
  5
1A3
330
1F
100
AcDbEntity
  8
3
  6
DASHDOT
 62
     1
100
AcDbLine
 10
397.9751868784227
 20
705.5743155186965
 30
0.0
 11
419.1751868784228
 21
705.5743155186965
 31
0.0
  0
LINE
  5
1A4
330
1F
100
AcDbEntity
  8
3
  6
DASHDOT
 62
     1
100
AcDbLine
 10
408.5751868784228
 20
716.1743155186965
 30
0.0
 11
408.5751868784228
 21
694.9743155186965
 31
0.0
  0
LINE
  5
1A5
330
1F
100
AcDbEntity
  8
3
  6
DASHDOT
 62
     1
100
AcDbLine
 10
510.4751868784228
 20
705.5743155186965
 30
0.0
 11
531.6751868784227
 21
705.5743155186965
 31
0.0
  0
LINE
  5
1A6
330
1F
100
AcDbEntity
  8
3
  6
DASHDOT
 62
     1
100
AcDbLine
 10
521.0751868784228
 20
716.1743155186965
 30
0.0
 11
521.0751868784228
 21
694.9743155186965
 31
0.0
  0
LINE
  5
1A7
330
1F
100
AcDbEntity
  8
3
  6
DASHDOT
 62
     1
100
AcDbLine
 10
847.9751868784228
 20
705.5743155186965
 30
0.0
 11
869.1751868784227
 21
705.5743155186965
 31
0.0
  0
LINE
  5
1A8
330
1F
100
AcDbEntity
  8
3
  6
DASHDOT
 62
     1
100
AcDbLine
 10
858.5751868784228
 20
716.1743155186965
 30
0.0
 11
858.5751868784228
 21
694.9743155186965
 31
0.0
  0
LINE
  5
1A9
330
1F
100
AcDbEntity
  8
3
  6
DASHDOT
 62
     1
100
AcDbLine
 10
735.4751868784228
 20
705.5743155186965
 30
0.0
 11
756.6751868784227
 21
705.5743155186965
 31
0.0
  0
LINE
  5
1AA
330
1F
100
AcDbEntity
  8
3
  6
DASHDOT
 62
     1
100
AcDbLine
 10
746.0751868784228
 20
716.1743155186965
 30
0.0
 11
746.0751868784228
 21
694.9743155186965
 31
0.0
  0
LINE
  5
1AB
330
1F
100
AcDbEntity
  8
3
  6
DASHDOT
 62
     1
100
AcDbLine
 10
847.9751868784228
 20
159.5743155186965
 30
0.0
 11
869.1751868784227
 21
159.5743155186965
 31
0.0
  0
LINE
  5
1AC
330
1F
100
AcDbEntity
  8
3
  6
DASHDOT
 62
     1
100
AcDbLine
 10
858.5751868784228
 20
170.1743155186965
 30
0.0
 11
858.5751868784228
 21
148.9743155186965
 31
0.0
  0
LINE
  5
1AD
330
1F
100
AcDbEntity
  8
3
  6
DASHDOT
 62
     1
100
AcDbLine
 10
735.4751868784228
 20
159.5743155186965
 30
0.0
 11
756.6751868784227
 21
159.5743155186965
 31
0.0
  0
LINE
  5
1AE
330
1F
100
AcDbEntity
  8
3
  6
DASHDOT
 62
     1
100
AcDbLine
 10
746.0751868784228
 20
170.1743155186965
 30
0.0
 11
746.0751868784228
 21
148.9743155186965
 31
0.0
  0
LINE
  5
1AF
330
1F
100
AcDbEntity
  8
3
  6
DASHDOT
 62
     1
100
AcDbLine
 10
622.9751868784219
 20
159.5743155186974
 30
0.0
 11
644.1751868784218
 21
159.5743155186974
 31
0.0
  0
LINE
  5
1B0
330
1F
100
AcDbEntity
  8
3
  6
DASHDOT
 62
     1
100
AcDbLine
 10
510.4751868784228
 20
159.5743155186965
 30
0.0
 11
531.6751868784227
 21
159.5743155186965
 31
0.0
  0
LINE
  5
1B1
330
1F
100
AcDbEntity
  8
3
  6
DASHDOT
 62
     1
100
AcDbLine
 10
521.0751868784228
 20
170.1743155186965
 30
0.0
 11
521.0751868784228
 21
148.9743155186965
 31
0.0
  0
LINE
  5
1B2
330
1F
100
AcDbEntity
  8
3
  6
DASHDOT
 62
     1
100
AcDbLine
 10
397.9751868784227
 20
159.5743155186965
 30
0.0
 11
419.1751868784228
 21
159.5743155186965
 31
0.0
  0
LINE
  5
1B3
330
1F
100
AcDbEntity
  8
3
  6
DASHDOT
 62
     1
100
AcDbLine
 10
408.5751868784228
 20
170.1743155186965
 30
0.0
 11
408.5751868784228
 21
148.9743155186965
 31
0.0
  0
LINE
  5
1B4
330
1F
100
AcDbEntity
  8
3
  6
DASHDOT
 62
     1
100
AcDbLine
 10
987.8729397209872
 20
432.5743155186969
 30
0.0
 11
1062.872939720987
 21
432.5743155186969
 31
0.0
  0
LINE
  5
1B5
330
1F
100
AcDbEntity
  8
3
  6
DASHDOT
 62
     1
100
AcDbLine
 10
1039.372939720987
 20
705.5743155186965
 30
0.0
 11
1055.372939720987
 21
705.5743155186965
 31
0.0
  0
LINE
  5
1B6
330
1F
100
AcDbEntity
  8
3
  6
DASHDOT
 62
     1
100
AcDbLine
 10
1039.372939720987
 20
159.5743155186965
 30
0.0
 11
1055.372939720987
 21
159.5743155186965
 31
0.0
  0
CIRCLE
  5
1B7
330
1F
100
AcDbEntity
  8
8
  6
CONTINUOUS
 62
     7
100
AcDbCircle
 10
633.5751868784923
 20
432.574315518671
 30
0.0
 40
27.5
  0
CIRCLE
  5
1B8
330
1F
100
AcDbEntity
  8
11
  6
HIDDEN
 62
     3
100
AcDbCircle
 10
633.5751868784923
 20
432.574315518671
 30
0.0
 40
32.5
  0
LINE
  5
1B9
330
1F
100
AcDbEntity
  8
11
  6
HIDDEN
 62
     3
100
AcDbLine
 10
1003.872939720987
 20
694.5743155186965
 30
0.0
 11
1003.872939720987
 21
170.5743155186974
 31
0.0
  0
LINE
  5
1BA
330
1F
100
AcDbEntity
  8
11
  6
HIDDEN
 62
     3
100
AcDbLine
 10
1008.872939720987
 20
694.5743155186965
 30
0.0
 11
1008.872939720987
 21
170.5743155186975
 31
0.0
  0
LINE
  5
1BB
330
1F
100
AcDbEntity
  8
11
  6
HIDDEN
 62
     3
100
AcDbLine
 10
1003.872939720987
 20
694.5743155186965
 30
0.0
 11
1008.872939720987
 21
694.5743155186965
 31
0.0
  0
LINE
  5
1BC
330
1F
100
AcDbEntity
  8
11
  6
HIDDEN
 62
     3
100
AcDbLine
 10
1003.872939720987
 20
170.5743155186974
 30
0.0
 11
1008.872939720987
 21
170.5743155186974
 31
0.0
  0
LINE
  5
1BD
330
1F
100
AcDbEntity
  8
11
  6
HIDDEN
 62
     3
100
AcDbLine
 10
1047.872939720987
 20
460.0743155186715
 30
0.0
 11
1002.872939720987
 21
460.0743155186715
 31
0.0
  0
LINE
  5
1BE
330
1F
100
AcDbEntity
  8
11
  6
HIDDEN
 62
     3
100
AcDbLine
 10
1046.872939720986
 20
465.0743155186715
 30
0.0
 11
1008.872939720987
 21
465.0743155186715
 31
0.0
  0
LINE
  5
1BF
330
1F
100
AcDbEntity
  8
11
  6
HIDDEN
 62
     3
100
AcDbLine
 10
1047.872939720987
 20
405.0743155187206
 30
0.0
 11
1002.872939720987
 21
405.0743155187206
 31
0.0
  0
LINE
  5
1C0
330
1F
100
AcDbEntity
  8
11
  6
HIDDEN
 62
     3
100
AcDbLine
 10
1046.872939720986
 20
400.0743155187206
 30
0.0
 11
1008.872939720987
 21
400.0743155187206
 31
0.0
  0
DIMENSION
  5
1CB
330
1F
100
AcDbEntity
  8
7
  6
CONTINUOUS
 62
     4
100
AcDbDimension
  2
DIM1
 10
633.5751868784218
 20
116.5743155186968
 30
0.0
 11
577.3251868784223
 21
116.5743155186968
 31
0.0
 70
   160
  1
<>
  3
STANDARD
100
AcDbAlignedDimension
 13
521.0751868784228
 23
148.9743155186965
 33
0.0
 14
633.5751868784218
 24
137.5743155186974
 34
0.0
100
AcDbRotatedDimension
1001
ACAD
1000
DSTYLE
1002
{
1070
   287
1070
     4
1070
     7
1000

1070
     6
1000

1070
   279
1070
     1
1070
   340
1005
1C1
1070
   140
1040
9.0
1070
    40
1040
1.0
1070
   147
1040
0.0
1070
    76
1070
     0
1070
    75
1070
     0
1070
   173
1070
     1
1070
   289
1070
     2
1070
   288
1070
     1
1070
    77
1070
     1
1070
   172
1070
     1
1070
   174
1070
     0
1070
    74
1070
     0
1070
    73
1070
     0
1070
   284
1070
     8
1070
    78
1070
     8
1070
    42
1040
3.0
1070
    44
1040
4.5
1070
    43
1040
30.0
1070
   271
1070
     2
1070
    41
1040
6.0
1002
}
  0
DIMENSION
  5
1D5
330
1F
100
AcDbEntity
  8
7
  6
CONTINUOUS
 62
     4
100
AcDbDimension
  2
DIM2
 10
883.5751868784226
 20
92.36205790110034
 30
0.0
 11
633.5751868784218
 21
92.36205790110034
 31
0.0
 70
   160
  1
<>
  3
STANDARD
100
AcDbAlignedDimension
 13
383.5751868784228
 23
182.5743155186965
 33
0.0
 14
883.5751868784228
 24
182.5743155186965
 34
0.0
100
AcDbRotatedDimension
1001
ACAD
1000
DSTYLE
1002
{
1070
   287
1070
     4
1070
     7
1000

1070
     6
1000

1070
   279
1070
     1
1070
   340
1005
1C1
1070
   140
1040
9.0
1070
    40
1040
1.0
1070
   147
1040
0.0
1070
    76
1070
     0
1070
    75
1070
     0
1070
   173
1070
     1
1070
   289
1070
     2
1070
   288
1070
     1
1070
    77
1070
     1
1070
   172
1070
     1
1070
   174
1070
     0
1070
    74
1070
     0
1070
    73
1070
     0
1070
   284
1070
     8
1070
    78
1070
     8
1070
    42
1040
3.0
1070
    44
1040
4.5
1070
    43
1040
30.0
1070
   271
1070
     2
1070
    41
1040
6.0
1002
}
  0
DIMENSION
  5
1DF
330
1F
100
AcDbEntity
  8
7
  6
CONTINUOUS
 62
     4
100
AcDbDimension
  2
DIM3
 10
898.5751868784226
 20
68.36205790110034
 30
0.0
 11
633.5751868784228
 21
68.36205790110034
 31
0.0
 70
   160
  1
<>
  3
STANDARD
100
AcDbAlignedDimension
 13
368.5751868784228
 23
167.5743155186965
 33
0.0
 14
898.5751868784228
 24
167.5743155186965
 34
0.0
100
AcDbRotatedDimension
1001
ACAD
1000
DSTYLE
1002
{
1070
   287
1070
     4
1070
     7
1000

1070
     6
1000

1070
   279
1070
     1
1070
   340
1005
1C1
1070
   140
1040
9.0
1070
    40
1040
1.0
1070
   147
1040
0.0
1070
    76
1070
     0
1070
    75
1070
     0
1070
   173
1070
     1
1070
   289
1070
     2
1070
   288
1070
     1
1070
    77
1070
     1
1070
   172
1070
     1
1070
   174
1070
     0
1070
    74
1070
     0
1070
    73
1070
     0
1070
   284
1070
     8
1070
    78
1070
     8
1070
    42
1040
3.0
1070
    44
1040
4.5
1070
    43
1040
30.0
1070
   271
1070
     2
1070
    41
1040
6.0
1002
}
  0
DIMENSION
  5
1E9
330
1F
100
AcDbEntity
  8
7
  6
CONTINUOUS
 62
     4
100
AcDbDimension
  2
DIM4
 10
344.5751868784228
 20
182.5743155186968
 30
0.0
 11
344.5751868784228
 21
432.5743155186964
 31
0.0
 70
   160
  1
<>
 53
89.99999999999991
  3
STANDARD
100
AcDbAlignedDimension
 13
383.5751868784228
 23
682.5743155186965
 33
0.0
 14
383.5751868784228
 24
182.5743155186967
 34
0.0
 50
-89.99999999999991
100
AcDbRotatedDimension
1001
ACAD
1000
DSTYLE
1002
{
1070
   287
1070
     4
1070
     7
1000

1070
     6
1000

1070
   279
1070
     1
1070
   340
1005
1C1
1070
   140
1040
9.0
1070
    40
1040
1.0
1070
   147
1040
0.0
1070
    76
1070
     0
1070
    75
1070
     0
1070
   173
1070
     1
1070
   289
1070
     2
1070
   288
1070
     1
1070
    77
1070
     1
1070
   172
1070
     1
1070
   174
1070
     0
1070
    74
1070
     0
1070
    73
1070
     0
1070
   284
1070
     8
1070
    78
1070
     8
1070
    42
1040
3.0
1070
    44
1040
4.5
1070
    43
1040
30.0
1070
   271
1070
     2
1070
    41
1040
6.0
1002
}
  0
DIMENSION
  5
1F3
330
1F
100
AcDbEntity
  8
7
  6
CONTINUOUS
 62
     4
100
AcDbDimension
  2
DIM5
 10
320.5751868784229
 20
167.5743155186966
 30
0.0
 11
320.5751868784229
 21
432.5743155186966
 31
0.0
 70
   160
  1
<>
 53
89.99999999999991
  3
STANDARD
100
AcDbAlignedDimension
 13
368.5751868784228
 23
697.5743155186965
 33
0.0
 14
368.5751868784228
 24
167.5743155186965
 34
0.0
 50
-89.99999999999991
100
AcDbRotatedDimension
1001
ACAD
1000
DSTYLE
1002
{
1070
   287
1070
     4
1070
     7
1000

1070
     6
1000

1070
   279
1070
     1
1070
   340
1005
1C1
1070
   140
1040
9.0
1070
    40
1040
1.0
1070
   147
1040
0.0
1070
    76
1070
     0
1070
    75
1070
     0
1070
   173
1070
     1
1070
   289
1070
     2
1070
   288
1070
     1
1070
    77
1070
     1
1070
   172
1070
     1
1070
   174
1070
     0
1070
    74
1070
     0
1070
    73
1070
     0
1070
   284
1070
     8
1070
    78
1070
     8
1070
    42
1040
3.0
1070
    44
1040
4.5
1070
    43
1040
30.0
1070
   271
1070
     2
1070
    41
1040
6.0
1002
}
  0
DIMENSION
  5
1FD
330
1F
100
AcDbEntity
  8
7
  6
CONTINUOUS
 62
     4
100
AcDbDimension
  2
DIM6
 10
296.5751868784232
 20
159.5743155186969
 30
0.0
 11
296.5751868784232
 21
432.5743155186967
 31
0.0
 70
   160
  1
<>
 53
89.99999999999991
  3
STANDARD
100
AcDbAlignedDimension
 13
397.9751868784227
 23
705.5743155186965
 33
0.0
 14
405.4751868784227
 24
159.5743155186966
 34
0.0
 50
-89.99999999999991
100
AcDbRotatedDimension
1001
ACAD
1000
DSTYLE
1002
{
1070
   287
1070
     4
1070
     7
1000

1070
     6
1000

1070
   279
1070
     1
1070
   340
1005
1C1
1070
   140
1040
9.0
1070
    40
1040
1.0
1070
   147
1040
0.0
1070
    76
1070
     0
1070
    75
1070
     0
1070
   173
1070
     1
1070
   289
1070
     2
1070
   288
1070
     1
1070
    77
1070
     1
1070
   172
1070
     1
1070
   174
1070
     0
1070
    74
1070
     0
1070
    73
1070
     0
1070
   284
1070
     8
1070
    78
1070
     8
1070
    42
1040
3.0
1070
    44
1040
4.5
1070
    43
1040
30.0
1070
   271
1070
     2
1070
    41
1040
6.0
1002
}
  0
DIMENSION
  5
207
330
1F
100
AcDbEntity
  8
7
  6
CONTINUOUS
 62
     4
100
AcDbDimension
  2
DIM7
 10
272.5751868784234
 20
152.5743155186969
 30
0.0
 11
272.5751868784234
 21
432.5743155186968
 31
0.0
 70
   160
  1
<>
 53
89.99999999999991
  3
STANDARD
100
AcDbAlignedDimension
 13
388.5751868784228
 23
712.5743155186965
 33
0.0
 14
388.5751868784228
 24
152.5743155186965
 34
0.0
 50
-89.99999999999991
100
AcDbRotatedDimension
1001
ACAD
1000
DSTYLE
1002
{
1070
   287
1070
     4
1070
     7
1000

1070
     6
1000

1070
   279
1070
     1
1070
   340
1005
1C1
1070
   140
1040
9.0
1070
    40
1040
1.0
1070
   147
1040
0.0
1070
    76
1070
     0
1070
    75
1070
     0
1070
   173
1070
     1
1070
   289
1070
     2
1070
   288
1070
     1
1070
    77
1070
     1
1070
   172
1070
     1
1070
   174
1070
     0
1070
    74
1070
     0
1070
    73
1070
     0
1070
   284
1070
     8
1070
    78
1070
     8
1070
    42
1040
3.0
1070
    44
1040
4.5
1070
    43
1040
30.0
1070
   271
1070
     2
1070
    41
1040
6.0
1002
}
  0
DIMENSION
  5
211
330
1F
100
AcDbEntity
  8
7
  6
CONTINUOUS
 62
     4
100
AcDbDimension
  2
DIM8
 10
272.5751868784239
 20
712.5743155186968
 30
0.0
 11
272.5751868784239
 21
722.5743155186972
 31
0.0
 70
   160
  1
<>
 53
89.99999999999991
  3
STANDARD
100
AcDbAlignedDimension
 13
610.5751868784209
 23
732.5743155186974
 33
0.0
 14
388.5751868784228
 24
712.5743155186965
 34
0.0
 50
-89.99999999999991
100
AcDbRotatedDimension
1001
ACAD
1000
DSTYLE
1002
{
1070
   287
1070
     4
1070
     7
1000

1070
     6
1000

1070
   279
1070
     1
1070
   340
1005
1C1
1070
   140
1040
9.0
1070
    40
1040
1.0
1070
   147
1040
0.0
1070
    76
1070
     0
1070
    75
1070
     0
1070
   173
1070
     1
1070
   289
1070
     2
1070
   288
1070
     1
1070
    77
1070
     1
1070
   172
1070
     1
1070
   174
1070
     0
1070
    74
1070
     0
1070
    73
1070
     0
1070
   284
1070
     8
1070
    78
1070
     8
1070
    42
1040
3.0
1070
    44
1040
4.5
1070
    43
1040
30.0
1070
   271
1070
     2
1070
    41
1040
6.0
1002
}
  0
DIMENSION
  5
21B
330
1F
100
AcDbEntity
  8
7
  6
CONTINUOUS
 62
     4
100
AcDbDimension
  2
DIM9
 10
1047.872939720987
 20
92.36205790110029
 30
0.0
 11
1025.372939720987
 21
92.36205790110029
 31
0.0
 70
   160
  1
<>
  3
STANDARD
100
AcDbAlignedDimension
 13
1002.872939720987
 23
167.5743155186974
 33
0.0
 14
1047.872939720987
 24
152.5743155186974
 34
0.0
100
AcDbRotatedDimension
1001
ACAD
1000
DSTYLE
1002
{
1070
   287
1070
     4
1070
     7
1000

1070
     6
1000

1070
   279
1070
     1
1070
   340
1005
1C1
1070
   140
1040
9.0
1070
    40
1040
1.0
1070
   147
1040
0.0
1070
    76
1070
     0
1070
    75
1070
     0
1070
   173
1070
     1
1070
   289
1070
     2
1070
   288
1070
     1
1070
    77
1070
     1
1070
   172
1070
     1
1070
   174
1070
     0
1070
    74
1070
     0
1070
    73
1070
     0
1070
   284
1070
     8
1070
    78
1070
     8
1070
    42
1040
3.0
1070
    44
1040
4.5
1070
    43
1040
30.0
1070
   271
1070
     2
1070
    41
1040
6.0
1002
}
  0
DIMENSION
  5
225
330
1F
100
AcDbEntity
  8
7
  6
CONTINUOUS
 62
     4
100
AcDbDimension
  2
DIM10
 10
1014.372939720985
 20
756.5743155186965
 30
0.0
 11
1031.122939720986
 21
756.5743155186965
 31
0.0
 70
   160
  1
<>
  3
STANDARD
100
AcDbAlignedDimension
 13
1047.872939720987
 23
712.5743155186965
 33
0.0
 14
1014.372939720985
 24
732.5743155186965
 34
0.0
 50
179.9999999999998
100
AcDbRotatedDimension
1001
ACAD
1000
DSTYLE
1002
{
1070
   287
1070
     4
1070
     7
1000

1070
     6
1000

1070
   279
1070
     1
1070
   340
1005
1C1
1070
   140
1040
9.0
1070
    40
1040
1.0
1070
   147
1040
0.0
1070
    76
1070
     0
1070
    75
1070
     0
1070
   173
1070
     1
1070
   289
1070
     2
1070
   288
1070
     1
1070
    77
1070
     1
1070
   172
1070
     1
1070
   174
1070
     0
1070
    74
1070
     0
1070
    73
1070
     0
1070
   284
1070
     8
1070
    78
1070
     8
1070
    42
1040
3.0
1070
    44
1040
4.5
1070
    43
1040
30.0
1070
   271
1070
     2
1070
    41
1040
6.0
1002
}
  0
DIMENSION
  5
22F
330
1F
100
AcDbEntity
  8
7
  6
CONTINUOUS
 62
     4
100
AcDbDimension
  2
DIM11
 10
1047.872939720987
 20
116.5743155186968
 30
0.0
 11
1064.372939720987
 21
116.5743155186968
 31
0.0
 70
   160
  1
<>
  3
STANDARD
100
AcDbAlignedDimension
 13
1046.872939720987
 23
152.5743155186974
 33
0.0
 14
1047.872939720987
 24
152.5743155186974
 34
0.0
100
AcDbRotatedDimension
1001
ACAD
1000
DSTYLE
1002
{
1070
   287
1070
     4
1070
     7
1000

1070
     6
1000

1070
   279
1070
     1
1070
   340
1005
1C1
1070
   140
1040
9.0
1070
    40
1040
1.0
1070
   147
1040
0.0
1070
    76
1070
     0
1070
    75
1070
     0
1070
   173
1070
     1
1070
   289
1070
     2
1070
   288
1070
     1
1070
    77
1070
     1
1070
   172
1070
     1
1070
   174
1070
     0
1070
    74
1070
     0
1070
    73
1070
     0
1070
   284
1070
     8
1070
    78
1070
     8
1070
    42
1040
3.0
1070
    44
1040
4.5
1070
    43
1040
30.0
1070
   271
1070
     2
1070
    41
1040
6.0
1002
}
  0
DIMENSION
  5
239
330
1F
100
AcDbEntity
  8
7
  6
CONTINUOUS
 62
     4
100
AcDbDimension
  2
DIM12
 10
746.0751868784209
 20
116.5743155186968
 30
0.0
 11
689.8251868784214
 21
116.5743155186968
 31
0.0
 70
   160
  1
<>
  3
STANDARD
100
AcDbAlignedDimension
 13
633.5751868784218
 23
137.5743155186974
 33
0.0
 14
746.0751868784209
 24
148.9743155186983
 34
0.0
100
AcDbRotatedDimension
1001
ACAD
1000
DSTYLE
1002
{
1070
   287
1070
     4
1070
     7
1000

1070
     6
1000

1070
   279
1070
     1
1070
   340
1005
1C1
1070
   140
1040
9.0
1070
    40
1040
1.0
1070
   147
1040
0.0
1070
    76
1070
     0
1070
    75
1070
     0
1070
   173
1070
     1
1070
   289
1070
     2
1070
   288
1070
     1
1070
    77
1070
     1
1070
   172
1070
     1
1070
   174
1070
     0
1070
    74
1070
     0
1070
    73
1070
     0
1070
   284
1070
     8
1070
    78
1070
     8
1070
    42
1040
3.0
1070
    44
1040
4.5
1070
    43
1040
30.0
1070
   271
1070
     2
1070
    41
1040
6.0
1002
}
  0
DIMENSION
  5
243
330
1F
100
AcDbEntity
  8
7
  6
CONTINUOUS
 62
     4
100
AcDbDimension
  2
DIM13
 10
521.0751868784228
 20
116.5743155186968
 30
0.0
 11
464.8251868784228
 21
116.5743155186968
 31
0.0
 70
   160
  1
<>
  3
STANDARD
100
AcDbAlignedDimension
 13
408.5751868784228
 23
148.9743155186965
 33
0.0
 14
521.0751868784228
 24
148.9743155186965
 34
0.0
100
AcDbRotatedDimension
1001
ACAD
1000
DSTYLE
1002
{
1070
   287
1070
     4
1070
     7
1000

1070
     6
1000

1070
   279
1070
     1
1070
   340
1005
1C1
1070
   140
1040
9.0
1070
    40
1040
1.0
1070
   147
1040
0.0
1070
    76
1070
     0
1070
    75
1070
     0
1070
   173
1070
     1
1070
   289
1070
     2
1070
   288
1070
     1
1070
    77
1070
     1
1070
   172
1070
     1
1070
   174
1070
     0
1070
    74
1070
     0
1070
    73
1070
     0
1070
   284
1070
     8
1070
    78
1070
     8
1070
    42
1040
3.0
1070
    44
1040
4.5
1070
    43
1040
30.0
1070
   271
1070
     2
1070
    41
1040
6.0
1002
}
  0
DIMENSION
  5
24D
330
1F
100
AcDbEntity
  8
7
  6
CONTINUOUS
 62
     4
100
AcDbDimension
  2
DIM14
 10
858.5751868784228
 20
116.5743155186968
 30
0.0
 11
802.3251868784228
 21
116.5743155186968
 31
0.0
 70
   160
  1
<>
  3
STANDARD
100
AcDbAlignedDimension
 13
746.0751868784228
 23
148.9743155186965
 33
0.0
 14
858.5751868784228
 24
148.9743155186965
 34
0.0
100
AcDbRotatedDimension
1001
ACAD
1000
DSTYLE
1002
{
1070
   287
1070
     4
1070
     7
1000

1070
     6
1000

1070
   279
1070
     1
1070
   340
1005
1C1
1070
   140
1040
9.0
1070
    40
1040
1.0
1070
   147
1040
0.0
1070
    76
1070
     0
1070
    75
1070
     0
1070
   173
1070
     1
1070
   289
1070
     2
1070
   288
1070
     1
1070
    77
1070
     1
1070
   172
1070
     1
1070
   174
1070
     0
1070
    74
1070
     0
1070
    73
1070
     0
1070
   284
1070
     8
1070
    78
1070
     8
1070
    42
1040
3.0
1070
    44
1040
4.5
1070
    43
1040
30.0
1070
   271
1070
     2
1070
    41
1040
6.0
1002
}
  0
INSERT
  5
24E
330
1F
100
AcDbEntity
  8
7
  6
CONTINUOUS
 62
     4
100
AcDbBlockReference
  2
_OPEN
 10
860.1251868784227
 20
708.2589942704283
 30
0.0
 41
18.0
 42
18.0
 43
18.0
 50
239.9999999999999
  0
POLYLINE
  5
24F
330
1F
100
AcDbEntity
  8
7
  6
CONTINUOUS
 62
     4
100
AcDb2dPolyline
 66
     1
 10
0.0
 20
0.0
 30
0.0
  0
VERTEX
  5
250
330
24F
100
AcDbEntity
  8
7
  6
CONTINUOUS
 62
     4
100
AcDbVertex
100
AcDb2dVertex
 10
860.1251868784227
 20
708.2589942704283
 30
0.0
  0
VERTEX
  5
251
330
24F
100
AcDbEntity
  8
7
  6
CONTINUOUS
 62
     4
100
AcDbVertex
100
AcDb2dVertex
 10
880.3751868784226
 20
743.333023123698
 30
0.0
  0
VERTEX
  5
252
330
24F
100
AcDbEntity
  8
7
  6
CONTINUOUS
 62
     4
100
AcDbVertex
100
AcDb2dVertex
 10
918.9551868784226
 20
743.333023123698
 30
0.0
  0
SEQEND
  5
253
330
24F
100
AcDbEntity
  8
7
  6
CONTINUOUS
 62
     4
  0
MTEXT
  5
254
330
1F
100
AcDbEntity
  8
7
  6
CONTINUOUS
 62
     4
100
AcDbMText
 10
887.4551868784226
 20
743.333023123698
 30
0.0
 40
9.0
 41
46.00959749999999
 71
     7
 72
     1
  1
{\fＭＳ ゴシック;\T0.750000;9-φ6.2}
1001
ACAD
1000
ACAD_MTEXT_DEFINED_HEIGHT_BEGIN
1070
    46
1040
9.0
1000
ACAD_MTEXT_DEFINED_HEIGHT_END
  0
DIMENSION
  5
25C
330
1F
100
AcDbEntity
  8
7
  6
CONTINUOUS
 62
     4
100
AcDbDimension
  2
DIM15
 10
608.4113813914599
 20
421.4822961619106
 30
0.0
 11
931.0615056436227
 21
568.6218623763349
 31
0.0
 70
   163
  1
<>
  3
STANDARD
100
AcDbDiametricDimension
 15
658.7389923655256
 25
443.6663348754317
 35
0.0
 40
0.0
1001
ACAD
1000
DSTYLE
1002
{
1070
   287
1070
     2
1070
     7
1000

1070
     6
1000

1070
   340
1005
1C1
1070
   140
1040
9.0
1070
    40
1040
1.0
1070
   147
1040
0.0
1070
    76
1070
     0
1070
    75
1070
     0
1070
   173
1070
     1
1070
   289
1070
     2
1070
   288
1070
     1
1070
    77
1070
     1
1070
   172
1070
     1
1070
   174
1070
     0
1070
    74
1070
     0
1070
    73
1070
     0
1070
   284
1070
     8
1070
    78
1070
     8
1070
    42
1040
3.0
1070
    44
1040
4.5
1070
    43
1040
30.0
1070
   271
1070
     2
1070
    41
1040
6.0
1002
}
  0
DIMENSION
  5
264
330
1F
100
AcDbEntity
  8
7
  6
CONTINUOUS
 62
     4
100
AcDbDimension
  2
DIM16
 10
601.4910468406426
 20
427.3918491143825
 30
0.0
 11
931.6470011790051
 21
485.2793954018487
 31
0.0
 70
   163
  1
<>
  3
STANDARD
100
AcDbDiametricDimension
 15
665.6593269163434
 25
437.756781922961
 35
0.0
 40
0.0
1001
ACAD
1000
DSTYLE
1002
{
1070
   287
1070
     2
1070
     7
1000

1070
     6
1000

1070
   340
1005
1C1
1070
   140
1040
9.0
1070
    40
1040
1.0
1070
   147
1040
0.0
1070
    76
1070
     0
1070
    75
1070
     0
1070
   173
1070
     1
1070
   289
1070
     2
1070
   288
1070
     1
1070
    77
1070
     1
1070
   172
1070
     1
1070
   174
1070
     0
1070
    74
1070
     0
1070
    73
1070
     0
1070
   284
1070
     8
1070
    78
1070
     8
1070
    42
1040
3.0
1070
    44
1040
4.5
1070
    43
1040
30.0
1070
   271
1070
     2
1070
    41
1040
6.0
1002
}
  0
VIEWPORT
  5
3F
330
1B
100
AcDbEntity
 67
     1
  8
0
100
AcDbViewport
 10
630.0
 20
445.5
 30
0.0
 40
1260.0
 41
891.0
 68
     1
 69
     1
1001
ACAD
1000
MVIEW
1002
{
1070
    16
1010
0.0
1020
0.0
1030
0.0
1010
0.0
1020
0.0
1030
1.0
1040
0.0
1040
9.0
1040
630.0
1040
445.5
1040
50.0
1040
0.0
1040
0.0
1070
     0
1070
   100
1070
     0
1070
     3
1070
     0
1070
     0
1070
     0
1070
     0
1040
0.0
1040
0.0
1040
0.0
1040
0.5
1040
0.5
1040
0.5
1040
0.5
1070
     0
1002
{
1002
}
1002
}
  0
ENDSEC
  0
SECTION
  2
OBJECTS
  0
DICTIONARY
  5
C
330
0
100
AcDbDictionary
  3
ACAD_GROUP
350
D
  3
ACAD_LAYOUT
350
1A
  3
ACAD_MATERIAL
350
3B
  3
ACAD_MLEADERSTYLE
350
287
  3
ACAD_MLINESTYLE
350
17
  3
ACAD_PLOTSETTINGS
350
19
  3
ACAD_VISUALSTYLE
350
2A
  3
ACDBHEADERROUNDTRIPXREC
350
265
  3
ACDBVARIABLEDICTIONARY
350
285
  0
DICTIONARY
  5
D
102
{ACAD_REACTORS
330
C
102
}
330
C
100
AcDbDictionary
  0
DICTIONARY
  5
1A
102
{ACAD_REACTORS
330
C
102
}
330
C
100
AcDbDictionary
  0
DICTIONARY
  5
3B
102
{ACAD_REACTORS
330
C
102
}
330
C
100
AcDbDictionary
  3
BYBLOCK
350
3D
  3
BYLAYER
350
3C
  3
GLOBAL
350
3E
  0
DICTIONARY
  5
287
102
{ACAD_REACTORS
330
C
102
}
330
C
100
AcDbDictionary
  0
DICTIONARY
  5
17
102
{ACAD_REACTORS
330
C
102
}
330
C
100
AcDbDictionary
  3
STANDARD
350
18
  0
DICTIONARY
  5
19
102
{ACAD_REACTORS
330
C
102
}
330
C
100
AcDbDictionary
  0
DICTIONARY
  5
2A
102
{ACAD_REACTORS
330
C
102
}
330
C
100
AcDbDictionary
  3
2DWIREFRAME
350
2F
  3
3D_HIDDEN
350
31
  3
3DWIREFRAME
350
30
  3
BASIC
350
32
  3
BRIGHTEN
350
36
  3
COLORCHANGE
350
3A
  3
CONCEPTUAL
350
34
  3
DIM
350
35
  3
FACEPATTERN
350
39
  3
FLAT
350
2B
  3
FLATWITHEDGES
350
2C
  3
GOURAUD
350
2D
  3
GOURAUDWITHEDGES
350
2E
  3
LINEPATTERN
350
38
  3
REALISTIC
350
33
  3
THICKEN
350
37
  0
DICTIONARY
  5
265
102
{ACAD_REACTORS
330
C
102
}
330
C
100
AcDbDictionary
  3
CEPSNTYPE
350
26E
  3
DIMSTYLEDATA
350
284
  3
FINGERPRINTGUID
350
26F
  3
HYPERLINKBASE
350
268
  3
INSUNITS
350
26D
  3
LAYOUTDICT
350
26A
  3
LWETCUNION
350
26C
  3
PLOTSETDICT
350
26B
  3
PSVPSCALE
350
271
  3
PUCSBASE
350
274
  3
PUCSORGBACK
350
27A
  3
PUCSORGBOTTOM
350
276
  3
PUCSORGFRONT
350
279
  3
PUCSORGLEFT
350
277
  3
PUCSORGRIGHT
350
278
  3
PUCSORGTOP
350
275
  3
PUCSORTHOREF
350
272
  3
PUCSORTHOVIEW
350
273
  3
STYLESHEET
350
269
  3
TSTACKALIGN
350
266
  3
TSTACKSIZE
350
267
  3
UCSBASE
350
27D
  3
UCSORGBACK
350
283
  3
UCSORGBOTTOM
350
27F
  3
UCSORGFRONT
350
282
  3
UCSORGLEFT
350
280
  3
UCSORGRIGHT
350
281
  3
UCSORGTOP
350
27E
  3
UCSORTHOREF
350
27B
  3
UCSORTHOVIEW
350
27C
  3
VERSIONGUID
350
270
  0
DICTIONARY
  5
285
102
{ACAD_REACTORS
330
C
102
}
330
C
100
AcDbDictionary
  3
DIMASSOC
350
288
  3
HIDETEXT
350
289
  0
MATERIAL
  5
3D
102
{ACAD_REACTORS
330
3B
102
}
102
{ACAD_XDICTIONARY
360
28C
102
}
330
3B
100
AcDbMaterial
  1
ByBlock
  0
MATERIAL
  5
3C
102
{ACAD_REACTORS
330
3B
102
}
102
{ACAD_XDICTIONARY
360
28A
102
}
330
3B
100
AcDbMaterial
  1
ByLayer
  0
MATERIAL
  5
3E
102
{ACAD_REACTORS
330
3B
102
}
102
{ACAD_XDICTIONARY
360
28E
102
}
330
3B
100
AcDbMaterial
  1
Global
  0
MLINESTYLE
  5
18
102
{ACAD_REACTORS
330
17
102
}
330
17
100
AcDbMlineStyle
  2
Standard
 70
     0
  3

 62
   256
 51
90.0
 52
90.0
 71
     2
 49
0.5
 62
   256
  6
BYLAYER
 49
-0.5
 62
   256
  6
BYLAYER
  0
ACAD_PROXY_OBJECT
  5
2F
102
{ACAD_REACTORS
330
2A
102
}
330
2A
100
AcDbProxyObject
 90
      499
 91
      501
 93
      436
310
42CC9915DA5C99599C985B595049028333333333333E3BF0000000000000FB0107901411070040501600405405064090741402480A0340
1001
ACAD
1000
AcDbSavedByObjectVersion
1070
     0
  0
ACAD_PROXY_OBJECT
  5
31
102
{ACAD_REACTORS
330
2A
102
}
330
2A
100
AcDbProxyObject
 90
      499
 91
      501
 93
      500
310
424CD108121A5919195B90640502408333333333333E3BF0000000000000FB01079024090700405020000000000001110200405405064090740C02480A0340
1001
ACAD
1000
AcDbSavedByObjectVersion
1070
     0
  0
ACAD_PROXY_OBJECT
  5
30
102
{ACAD_REACTORS
330
2A
102
}
330
2A
100
AcDbProxyObject
 90
      499
 91
      501
 93
      436
310
42CCD915DA5C99599C985B595059028333333333333E3BF0000000000000FB0107901411070040501600405405064090741402480A0340
1001
ACAD
1000
AcDbSavedByObjectVersion
1070
     0
  0
ACAD_PROXY_OBJECT
  5
32
102
{ACAD_REACTORS
330
2A
102
}
330
2A
100
AcDbProxyObject
 90
      499
 91
      501
 93
      388
310
4150985CDA58D07406404333333333333E3BF0000000000000FB0107A41107004050150841D405064090741402480A0350
1001
ACAD
1000
AcDbSavedByObjectVersion
1070
     0
  0
ACAD_PROXY_OBJECT
  5
36
102
{ACAD_REACTORS
330
2A
102
}
330
2A
100
AcDbProxyObject
 90
      499
 91
      501
 93
      428
310
42109C9A59DA1D195B90C409028333333333333E3BF0000000000000FB010790141107004050150841D405064090741402480A029950
1001
ACAD
1000
AcDbSavedByObjectVersion
1070
     0
  0
ACAD_PROXY_OBJECT
  5
3A
102
{ACAD_REACTORS
330
2A
102
}
330
2A
100
AcDbProxyObject
 90
      499
 91
      501
 93
      452
310
42D0DBDB1BDC90DA185B99D95104090240C333333333333E3BF0000000000000FB0108901411070040501508421405064090741402480A0350
1001
ACAD
1000
AcDbSavedByObjectVersion
1070
     0
  0
ACAD_PROXY_OBJECT
  5
34
102
{ACAD_REACTORS
330
2A
102
}
330
2A
100
AcDbProxyObject
 90
      499
 91
      501
 93
      500
310
4290DBDB98D95C1D1D585B10940D028333333333333E3BF0000000000000FB0107902409070040501000000000000111010841D405064090740C02480A0340
1001
ACAD
1000
AcDbSavedByObjectVersion
1070
     0
  0
ACAD_PROXY_OBJECT
  5
35
102
{ACAD_REACTORS
330
2A
102
}
330
2A
100
AcDbProxyObject
 90
      499
 91
      501
 93
      412
310
40D11A5B50B409028333333333333E3BF0000000000000FB010790141107004050150841D405064090741402480A02677FFFFFD0
1001
ACAD
1000
AcDbSavedByObjectVersion
1070
     0
  0
ACAD_PROXY_OBJECT
  5
39
102
{ACAD_REACTORS
330
2A
102
}
330
2A
100
AcDbProxyObject
 90
      499
 91
      501
 93
      444
310
42D19858D95C185D1D195C9B90F409028333333333333E3BF0000000000000FB010790141107004050150841D405064090741402480A0350
1001
ACAD
1000
AcDbSavedByObjectVersion
1070
     0
  0
ACAD_PROXY_OBJECT
  5
2B
102
{ACAD_REACTORS
330
2A
102
}
330
2A
100
AcDbProxyObject
 90
      499
 91
      501
 93
      388
310
41119B185D240901404333333333333E3BF0000000000000F9010740A41107004050150841D405064090741402480A1B50
1001
ACAD
1000
AcDbSavedByObjectVersion
1070
     0
  0
ACAD_PROXY_OBJECT
  5
2C
102
{ACAD_REACTORS
330
2A
102
}
330
2A
100
AcDbProxyObject
 90
      499
 91
      501
 93
      476
310
43519B185D15DA5D1A115919D95CD0140901404333333333333E3BF0000000000000F9010740901411070040501600405405064090741402480A1B50
1001
ACAD
1000
AcDbSavedByObjectVersion
1070
     0
  0
ACAD_PROXY_OBJECT
  5
2D
102
{ACAD_REACTORS
330
2A
102
}
330
2A
100
AcDbProxyObject
 90
      499
 91
      501
 93
      412
310
41D1DBDD5C985D5910240902404333333333333E3BF0000000000000F9010740A411070040501641D405064090741402480A1B50
1001
ACAD
1000
AcDbSavedByObjectVersion
1070
     0
  0
ACAD_PROXY_OBJECT
  5
2E
102
{ACAD_REACTORS
330
2A
102
}
330
2A
100
AcDbProxyObject
 90
      499
 91
      501
 93
      500
310
4411DBDD5C985D5915DA5D1A115919D95CD0340902404333333333333E3BF0000000000000F9010740901411070040501600405405064090741402480A1B50
1001
ACAD
1000
AcDbSavedByObjectVersion
1070
     0
  0
ACAD_PROXY_OBJECT
  5
38
102
{ACAD_REACTORS
330
2A
102
}
330
2A
100
AcDbProxyObject
 90
      499
 91
      501
 93
      444
310
42D31A5B995C185D1D195C9B90E409028333333333333E3BF0000000000000FB010790141107004050750841D405064090741402483A0350
1001
ACAD
1000
AcDbSavedByObjectVersion
1070
     0
  0
ACAD_PROXY_OBJECT
  5
33
102
{ACAD_REACTORS
330
2A
102
}
330
2A
100
AcDbProxyObject
 90
      499
 91
      501
 93
      420
310
425499585B1A5CDD1A58D08409028333333333333E3BF0000000000000FB01079019070040501508421405064090741402480A1B40
1001
ACAD
1000
AcDbSavedByObjectVersion
1070
     0
  0
ACAD_PROXY_OBJECT
  5
37
102
{ACAD_REACTORS
330
2A
102
}
330
2A
100
AcDbProxyObject
 90
      499
 91
      501
 93
      412
310
41D51A1A58DAD95B90D409028333333333333E3BF0000000000000FB010790141107004050150C41D405064090741402480A0350
1001
ACAD
1000
AcDbSavedByObjectVersion
1070
     0
  0
XRECORD
  5
26E
102
{ACAD_REACTORS
330
265
102
}
330
265
100
AcDbXrecord
 90
        0
  0
XRECORD
  5
284
102
{ACAD_REACTORS
330
265
102
}
330
265
100
AcDbXrecord
1000
DSTYLE
1002
{
1070
   171
 70
     2
1070
   143
 40
25.4
1070
   274
 70
     2
1070
    41
 40
1.55291427
1070
   289
 70
     2
1070
   141
 40
0.09
1070
    43
 40
30.0
1070
   278
 70
    46
1070
    44
 40
2.0
1070
    42
 40
2.0
1070
   147
 40
0.09
1070
    77
 70
     3
1070
   272
 70
     4
1070
   146
 40
0.5
1070
   279
 70
     2
1070
   283
 70
     1
1070
   145
 40
0.7
1070
   340
340
11
1070
   140
 40
2.8
1070
   288
 70
     1
1002
}
  0
XRECORD
  5
26F
102
{ACAD_REACTORS
330
265
102
}
330
265
100
AcDbXrecord
  1
{CA15A876-2D44-40C0-8DDD-94BADC8A7E20}
  0
XRECORD
  5
268
102
{ACAD_REACTORS
330
265
102
}
330
265
100
AcDbXrecord
  1

  0
XRECORD
  5
26D
102
{ACAD_REACTORS
330
265
102
}
330
265
100
AcDbXrecord
 90
        4
  0
XRECORD
  5
26A
102
{ACAD_REACTORS
330
265
102
}
330
265
100
AcDbXrecord
340
1A
  0
XRECORD
  5
26C
102
{ACAD_REACTORS
330
265
102
}
330
265
100
AcDbXrecord
 90
    10781
  0
XRECORD
  5
26B
102
{ACAD_REACTORS
330
265
102
}
330
265
100
AcDbXrecord
340
19
  0
XRECORD
  5
271
102
{ACAD_REACTORS
330
265
102
}
330
265
100
AcDbXrecord
 40
0.0
  0
XRECORD
  5
274
102
{ACAD_REACTORS
330
265
102
}
330
265
100
AcDbXrecord
340
0
  0
XRECORD
  5
27A
102
{ACAD_REACTORS
330
265
102
}
330
265
100
AcDbXrecord
 10
0.0
 20
0.0
 30
0.0
  0
XRECORD
  5
276
102
{ACAD_REACTORS
330
265
102
}
330
265
100
AcDbXrecord
 10
0.0
 20
0.0
 30
0.0
  0
XRECORD
  5
279
102
{ACAD_REACTORS
330
265
102
}
330
265
100
AcDbXrecord
 10
0.0
 20
0.0
 30
0.0
  0
XRECORD
  5
277
102
{ACAD_REACTORS
330
265
102
}
330
265
100
AcDbXrecord
 10
0.0
 20
0.0
 30
0.0
  0
XRECORD
  5
278
102
{ACAD_REACTORS
330
265
102
}
330
265
100
AcDbXrecord
 10
0.0
 20
0.0
 30
0.0
  0
XRECORD
  5
275
102
{ACAD_REACTORS
330
265
102
}
330
265
100
AcDbXrecord
 10
0.0
 20
0.0
 30
0.0
  0
XRECORD
  5
272
102
{ACAD_REACTORS
330
265
102
}
330
265
100
AcDbXrecord
340
0
  0
XRECORD
  5
273
102
{ACAD_REACTORS
330
265
102
}
330
265
100
AcDbXrecord
 70
     0
  0
XRECORD
  5
269
102
{ACAD_REACTORS
330
265
102
}
330
265
100
AcDbXrecord
  1

  0
XRECORD
  5
266
102
{ACAD_REACTORS
330
265
102
}
330
265
100
AcDbXrecord
 90
        1
  0
XRECORD
  5
267
102
{ACAD_REACTORS
330
265
102
}
330
265
100
AcDbXrecord
 90
       70
  0
XRECORD
  5
27D
102
{ACAD_REACTORS
330
265
102
}
330
265
100
AcDbXrecord
340
0
  0
XRECORD
  5
283
102
{ACAD_REACTORS
330
265
102
}
330
265
100
AcDbXrecord
 10
0.0
 20
0.0
 30
0.0
  0
XRECORD
  5
27F
102
{ACAD_REACTORS
330
265
102
}
330
265
100
AcDbXrecord
 10
0.0
 20
0.0
 30
0.0
  0
XRECORD
  5
282
102
{ACAD_REACTORS
330
265
102
}
330
265
100
AcDbXrecord
 10
0.0
 20
0.0
 30
0.0
  0
XRECORD
  5
280
102
{ACAD_REACTORS
330
265
102
}
330
265
100
AcDbXrecord
 10
0.0
 20
0.0
 30
0.0
  0
XRECORD
  5
281
102
{ACAD_REACTORS
330
265
102
}
330
265
100
AcDbXrecord
 10
0.0
 20
0.0
 30
0.0
  0
XRECORD
  5
27E
102
{ACAD_REACTORS
330
265
102
}
330
265
100
AcDbXrecord
 10
0.0
 20
0.0
 30
0.0
  0
XRECORD
  5
27B
102
{ACAD_REACTORS
330
265
102
}
330
265
100
AcDbXrecord
340
0
  0
XRECORD
  5
27C
102
{ACAD_REACTORS
330
265
102
}
330
265
100
AcDbXrecord
 70
     0
  0
XRECORD
  5
270
102
{ACAD_REACTORS
330
265
102
}
330
265
100
AcDbXrecord
  1
{FAEB1C32-E019-11D5-929B-00C0DF256EC4}
  0
DICTIONARYVAR
  5
288
102
{ACAD_REACTORS
330
285
102
}
330
285
100
DictionaryVariables
280
     0
  1
1
  0
DICTIONARYVAR
  5
289
102
{ACAD_REACTORS
330
285
102
}
330
285
100
DictionaryVariables
280
     0
  1
1
  0
DICTIONARY
  5
28C
330
3D
100
AcDbDictionary
280
     1
  3
ACAD_XREC_ROUNDTRIP
360
28D
  0
DICTIONARY
  5
28A
330
3C
100
AcDbDictionary
280
     1
  3
ACAD_XREC_ROUNDTRIP
360
28B
  0
DICTIONARY
  5
28E
330
3E
100
AcDbDictionary
280
     1
  3
ACAD_XREC_ROUNDTRIP
360
28F
  0
XRECORD
  5
28D
102
{ACAD_REACTORS
330
28C
102
}
330
28C
100
AcDbXrecord
102
MATERIAL
148
0.0
149
0.0
149
0.0
 93
        0
 94
      127
282
     0
 72
     1
 77
     1
171
     1
175
     1
179
     1
273
     0
  0
XRECORD
  5
28B
102
{ACAD_REACTORS
330
28A
102
}
330
28A
100
AcDbXrecord
102
MATERIAL
148
0.0
149
0.0
149
0.0
 93
        0
 94
      127
282
     0
 72
     1
 77
     1
171
     1
175
     1
179
     1
273
     0
  0
XRECORD
  5
28F
102
{ACAD_REACTORS
330
28E
102
}
330
28E
100
AcDbXrecord
102
MATERIAL
148
0.0
149
0.0
149
0.0
 93
        0
 94
      127
282
     0
 72
     1
 77
     1
171
     1
175
     1
179
     1
273
     0
  0
ENDSEC
  0
EOF
